osu file format v14

[General]
AudioFilename: audio.mp3
AudioLeadIn: 0
PreviewTime: 66086
Countdown: 0
SampleSet: Soft
StackLeniency: 0.2
Mode: 0
LetterboxInBreaks: 0
WidescreenStoryboard: 0

[Editor]
Bookmarks: 83471,85471,104841,129855
DistanceSpacing: 0.5
BeatDivisor: 4
GridSize: 4
TimelineZoom: 2.499999

[Metadata]
Title:STAR BEAT!~Hoshi no Kodou~
TitleUnicode:STAR BEAT!~ホシノコドウ~
Artist:Poppin'Party
ArtistUnicode:Poppin'Party
Creator:[ L u k a s ]
Version:Firis' ExtrA!
Source:BanG Dream!
Tags:Firis_Mistlud Suzuki_1112 Gaia kawaiwkyik Rizia Lukas Asuka_- joker- kurantemelodii
BeatmapID:1400403
BeatmapSetID:650607

[Difficulty]
HPDrainRate:6
CircleSize:4.2
OverallDifficulty:9
ApproachRate:9
SliderMultiplier:1.8
SliderTickRate:1

[Events]
//Background and Video events
0,0,"sta beet.jpg",0,0
//Break Periods
//Storyboard Layer 0 (Background)
//Storyboard Layer 1 (Fail)
//Storyboard Layer 2 (Pass)
//Storyboard Layer 3 (Foreground)
//Storyboard Sound Samples

[TimingPoints]
702,307.692307692308,4,2,1,60,1,0
702,-133.333333333333,4,2,1,60,0,0
10240,-133.333333333333,4,2,1,60,0,0
10548,-100,4,2,1,60,0,0
18548,-111.111111111111,4,2,1,60,0,0
19163,-125,4,2,1,60,0,0
19778,-142.857142857143,4,2,1,60,0,0
20394,-142.857142857143,4,2,1,60,0,0
22855,-333.333333333333,4,2,5,40,0,0
23471,-333.333333333333,4,2,1,5,0,0
23625,-333.333333333333,4,2,5,40,0,0
24086,-333.333333333333,4,2,6,40,0,0
24702,-333.333333333333,4,2,1,5,0,0
24855,-333.333333333333,4,2,6,40,0,0
25317,-333.333333333333,4,2,11,40,0,0
25933,-333.333333333333,4,2,1,5,0,0
26087,-333.333333333333,4,2,11,40,0,0
26855,-333.333333333333,4,2,8,40,0,0
27009,-333.333333333333,4,2,9,40,0,0
27317,-333.333333333333,4,2,11,40,0,0
27778,-333.333333333333,4,2,5,40,0,0
28009,-333.333333333333,4,2,5,5,0,0
28086,-333.333333333333,4,2,10,40,0,0
28394,-333.333333333333,4,2,10,5,0,0
28548,-333.333333333333,4,2,5,40,0,0
29009,-333.333333333333,4,2,6,40,0,0
29240,-333.333333333333,4,2,6,5,0,0
29317,-333.333333333333,4,2,6,40,0,0
29625,-333.333333333333,4,2,6,5,0,0
29778,-333.333333333333,4,2,6,40,0,0
30240,-333.333333333333,4,2,11,40,0,0
30548,-133.333333333333,4,2,11,40,0,0
31471,-133.333333333333,4,2,8,40,0,0
32317,-133.333333333333,4,1,11,40,0,0
32394,-133.333333333333,4,1,11,40,0,0
32702,-111.111111111111,4,2,1,50,0,0
45009,-133.333333333333,4,2,1,30,0,0
45317,-133.333333333333,4,2,1,50,0,0
47471,-133.333333333333,4,2,1,30,0,0
47778,-133.333333333333,4,2,1,50,0,0
49932,-200,4,2,1,50,0,0
50240,-76.9230769230769,4,2,1,50,0,0
50548,-200,4,2,1,50,0,0
50855,-76.9230769230769,4,2,1,50,0,0
51163,-200,4,2,1,50,0,0
51471,-76.9230769230769,4,2,1,50,0,0
51778,-200,4,2,1,50,0,0
52086,-76.9230769230769,4,2,1,50,0,0
52394,-133.333333333333,4,2,1,50,0,0
53625,-111.111111111111,4,2,1,50,0,0
54855,-133.333333333333,4,2,1,30,0,0
55163,-133.333333333333,4,2,1,50,0,0
57317,-133.333333333333,4,2,1,30,0,0
57625,-133.333333333333,4,2,1,50,0,0
59778,-200,4,2,1,50,0,0
60086,-76.9230769230769,4,2,1,50,0,0
60394,-200,4,2,1,50,0,0
60702,-66.6666666666667,4,2,1,50,0,0
61009,-200,4,2,1,50,0,0
61317,-58.8235294117647,4,2,1,50,0,0
62240,-58.8235294117647,4,2,1,60,0,0
65009,-200,4,2,1,60,0,0
65163,-166.666666666667,4,2,1,65,0,0
65317,-142.857142857143,4,2,1,70,0,0
65471,-125,4,2,1,75,0,0
65625,-111.111111111111,4,2,1,80,0,0
65778,-100,4,2,1,85,0,0
65932,-200,4,2,1,40,0,0
66086,-45.4545454545455,4,2,1,40,0,0
66778,-45.4545454545455,4,2,1,5,0,0
66855,-66.6666666666667,4,2,1,100,0,0
67163,-83.3333333333333,4,2,2,100,0,1
67240,-83.3333333333333,4,2,1,100,0,1
75778,-200,4,2,1,100,0,1
76086,-66.6666666666667,4,2,1,100,0,1
76394,-200,4,2,1,100,0,1
76702,-83.3333333333333,4,2,1,100,0,1
77009,-83.3333333333333,4,2,1,100,0,1
85625,-200,4,2,1,100,0,1
85932,-66.6666666666667,4,2,1,100,0,1
86240,-200,4,2,1,100,0,1
86855,-100,4,2,1,60,0,0
91317,-200,4,2,1,60,0,0
91778,-117.647058823529,4,2,1,60,0,0
96702,-100,4,2,1,60,0,1
99163,-66.6666666666667,4,2,1,75,0,1
100380,307.692307692308,4,2,1,40,1,0
100380,-100,4,2,1,40,0,0
101610,-100,4,2,1,40,0,0
115763,-100,4,2,1,40,0,0
116379,-100,4,2,1,40,0,0
120149,-100,4,2,1,25,0,0
120687,-100,4,2,1,70,0,0
121302,-100,4,2,1,70,0,0
121303,-200,4,2,1,60,0,0
127456,-200,4,2,1,60,0,0
128687,-200,4,2,1,60,0,0
129302,-200,4,2,1,60,0,0
129840,-200,4,2,1,60,0,0
129841,-200,4,2,1,5,0,0

[Colours]
Combo1 : 128,0,128
Combo2 : 240,152,0
Combo3 : 255,0,0
Combo4 : 255,255,0
Combo5 : 255,128,192
Combo6 : 255,0,128

[HitObjects]
134,25,548,5,8,0:0:0:0:
134,25,625,1,8,0:0:0:0:
134,25,702,2,0,B|213:86|165:188|165:188|130:157|65:151|20:173|20:173|74:235|47:326|47:326|86:312|82:273,1,540.000020599366,4|0,0:0|0:0,0:0:0:0:
231,270,2394,6,0,L|377:260,1,135.000005149841,8|8,0:3|0:3,0:0:0:0:
456,329,2855,2,0,P|456:289|448:256,1,67.5000025749207,4|4,0:3|0:3,0:0:0:0:
443,97,3163,6,0,B|453:58|434:23|434:23|492:55|482:163|420:187|420:187|391:137|324:122|278:147|278:147|242:121|236:87|256:42,1,540.000020599366,4|0,0:0|0:0,0:0:0:0:
135,47,4855,6,0,L|139:117,1,67.5000025749207,0|8,0:0|0:3,0:0:0:0:
57,158,5163,2,0,L|60:90,1,67.5000025749207,8|4,0:3|0:3,0:0:0:0:
147,188,5471,1,4,0:3:0:0:
0,327,5625,6,0,B|133:236|248:323|248:323|223:367|223:367|332:263|347:372|416:313|405:285,1,540.000020599366,4|0,0:0|2:0,0:0:0:0:
348,167,7317,5,8,0:3:0:0:
404,285,7471,2,0,P|414:328|403:371,1,67.5000025749208,8|8,0:0|0:3,0:0:0:0:
348,167,7932,1,4,0:3:0:0:
496,17,8086,6,0,B|472:64|498:118|498:118|422:79|296:67|231:102|231:102|307:117|390:56,1,540.000020599366,4|4,0:0|0:3,0:0:0:0:
498,119,9471,6,0,P|475:162|473:260,1,135.000005149842,12|0,0:0|0:0,0:0:0:0:
498,331,9932,2,0,P|449:320|416:326,1,67.5000025749208,8|0,0:0|0:0,0:0:0:0:
369,287,10240,2,0,P|319:293|290:310,1,67.5000025749208,8|4,0:3|0:3,0:0:0:0:
116,362,10548,6,0,P|149:313|162:191,1,180,6|2,0:0|0:0,0:0:0:0:
96,95,11009,1,0,0:0:0:0:
205,47,11163,2,0,P|216:104|205:142,1,90,2|0,0:0|0:0,0:0:0:0:
89,241,11471,2,0,P|132:202|171:193,1,90,2|0,0:0|0:0,0:0:0:0:
328,221,11778,6,0,L|527:196,1,180,2|2,0:0|0:0,0:0:0:0:
405,128,12240,1,0,0:0:0:0:
394,250,12394,2,0,L|411:344,1,90,2|0,0:0|0:0,0:0:0:0:
251,234,12702,1,2,0:0:0:0:
405,128,12855,1,8,0:0:0:0:
405,128,12932,1,8,0:0:0:0:
405,128,13009,6,0,L|226:105,1,180,6|2,0:0|0:0,0:0:0:0:
107,133,13471,1,0,0:0:0:0:
166,259,13625,2,0,L|182:170,1,90,2|0,0:0|0:0,0:0:0:0:
17,94,13932,2,0,L|33:182,1,90,2|0,0:0|0:0,0:0:0:0:
64,319,14240,6,0,L|243:296,1,180,2|8,0:0|0:3,0:0:0:0:
404,264,14702,1,8,0:3:0:0:
295,139,14855,1,8,0:3:0:0:
331,326,15009,1,4,0:3:0:0:
385,169,15163,1,4,0:3:0:0:
223,202,15317,1,4,0:3:0:0:
423,358,15471,6,0,P|488:311|472:198,1,180,6|2,0:0|0:0,0:0:0:0:
457,105,15932,1,0,0:0:0:0:
385,169,16086,2,0,L|282:152,1,90,2|0,0:0|0:0,0:0:0:0:
189,49,16394,2,0,L|86:66,1,90,2|2,0:0|0:0,0:0:0:0:
39,108,16625,5,2,0:0:0:0:
39,108,16702,2,0,P|35:194|103:247,1,180,4|2,0:0|0:0,0:0:0:0:
103,247,17317,1,8,0:3:0:0:
206,312,17471,1,8,0:3:0:0:
188,226,17625,1,4,0:3:0:0:
123,329,17778,1,4,0:3:0:0:
309,377,17932,6,0,L|319:279,1,90,4|0,0:0|0:0,0:0:0:0:
336,126,18240,2,0,L|346:224,1,90,2|0,0:0|0:0,0:0:0:0:
385,369,18548,6,0,L|392:289,1,80.9999975280763,2|0,0:0|0:0,0:0:0:0:
410,134,18855,2,0,L|417:214,1,80.9999975280763,2|0,0:0|0:0,0:0:0:0:
459,379,19163,6,0,L|470:300,1,72,2|0,0:0|0:0,0:0:0:0:
485,142,19471,2,0,L|496:221,1,72,2|0,0:0|0:0,0:0:0:0:
495,45,19778,6,0,L|421:54,1,62.9999980773926,2|0,0:0|0:0,0:0:0:0:
338,126,20086,2,0,L|264:117,1,62.9999980773926,2|0,0:0|0:0,0:0:0:0:
173,102,20394,5,0,0:0:0:0:
89,125,22855,6,0,P|92:98|79:130,1,107.999996704102,8|0,0:0|0:0,0:0:0:0:
89,125,23625,1,8,0:0:0:0:
172,173,24086,6,0,P|194:157|161:168,1,107.999996704102,8|0,0:0|0:0,0:0:0:0:
172,173,24855,1,8,0:0:0:0:
188,267,25317,6,0,P|214:274|184:256,1,107.999996704102,8|0,0:0|0:0,0:0:0:0:
188,267,26086,1,8,0:0:0:0:
126,340,26548,6,0,L|182:347,1,53.9999983520508,8|8,0:0|0:0,0:0:0:0:
250,335,27009,2,0,L|306:328,1,53.9999983520508,8|8,0:0|0:0,0:0:0:0:
406,362,27778,6,0,P|425:354|452:354,1,40.4999987640381,8|0,0:0|0:0,0:0:0:0:
478,357,28086,2,0,P|451:344|417:345,1,53.9999983520508,8|0,0:0|0:0,0:0:0:0:
336,371,28548,1,8,0:0:0:0:
417,250,29009,6,0,P|432:235|457:226,1,40.4999987640381,8|0,0:0|0:0,0:0:0:0:
482,220,29317,2,0,P|452:217|421:230,1,53.9999983520508,0|0,0:0|0:0,0:0:0:0:
354,282,29779,1,8,0:0:0:0:
343,162,30240,5,8,0:0:0:0:
343,162,30548,2,0,L|261:152,1,67.5000025749208,0|0,0:0|0:0,0:0:0:0:
211,108,30855,2,0,P|232:143|214:242,1,135.000005149842,0|8,0:0|0:0,0:0:0:0:
331,66,31471,5,8,0:0:0:0:
331,66,31778,2,0,L|413:56,1,67.5000025749208,0|0,0:0|0:0,0:0:0:0:
463,12,32086,2,0,P|442:47|460:146,1,135.000005149842,0|4,0:0|1:0,0:0:0:0:
465,150,32702,6,0,L|280:170,1,161.999995056153,6|10,0:0|0:0,0:0:0:0:
161,132,33163,1,0,0:0:0:0:
264,17,33317,1,2,0:0:0:0:
234,169,33471,2,0,P|212:194|162:214,1,80.9999975280763,0|10,0:0|0:0,0:0:0:0:
119,59,33778,1,0,0:0:0:0:
256,93,33932,6,0,P|303:127|275:241,1,161.999995056153,2|10,0:0|0:0,0:0:0:0:
181,320,34394,1,0,0:0:0:0:
71,211,34548,2,0,L|83:126,1,80.9999975280763,2|0,0:0|0:0,0:0:0:0:
129,269,34855,2,0,P|89:291|44:289,1,80.9999975280763,10|0,0:0|0:0,0:0:0:0:
251,321,35163,6,0,P|291:299|336:301,1,80.9999975280763,2|0,0:0|0:0,0:0:0:0:
458,212,35471,2,0,P|373:162|286:169,1,161.999995056153,10|2,0:0|0:0,0:0:0:0:
176,207,35932,1,0,0:0:0:0:
203,62,36086,1,10,0:0:0:0:
257,216,36240,1,0,0:0:0:0:
122,269,36394,6,0,P|96:223|146:130,1,161.999995056153,2|10,0:0|0:0,0:0:0:0:
201,287,36855,2,0,P|174:332|66:330,1,161.999995056153,0|0,0:0|0:0,0:0:0:0:
176,207,37317,1,10,0:0:0:0:
292,294,37471,1,0,0:0:0:0:
386,152,37625,6,0,B|297:178|311:113|212:143,1,161.999995056153,2|10,0:0|0:0,0:0:0:0:
354,235,38086,1,0,0:0:0:0:
347,77,38240,1,2,0:0:0:0:
257,216,38394,1,0,0:0:0:0:
373,315,38548,2,0,L|478:306,1,80.9999975280763,10|0,0:0|0:0,0:0:0:0:
466,145,38855,6,0,L|385:151,1,80.9999975280763,2|0,0:0|0:0,0:0:0:0:
257,216,39163,2,0,L|176:209,1,80.9999975280763,10|0,0:0|0:0,0:0:0:0:
25,189,39471,1,2,0:0:0:0:
118,69,39625,1,0,0:0:0:0:
98,220,39778,2,0,P|133:274|168:287,1,80.9999975280763,10|0,0:0|0:0,0:0:0:0:
293,301,40086,6,0,P|228:304|199:328,1,80.9999975280763,2|0,0:0|0:0,0:0:0:0:
70,320,40394,1,10,0:0:0:0:
176,209,40548,1,0,0:0:0:0:
263,378,40702,2,0,L|355:380,1,80.9999975280763,2|0,0:0|0:0,0:0:0:0:
483,278,41009,2,0,L|402:279,1,80.9999975280763,10|0,0:0|0:0,0:0:0:0:
284,185,41317,6,0,P|280:249|292:276,1,80.9999975280763,2|0,0:0|0:0,0:0:0:0:
357,127,41625,2,0,P|303:91|274:88,1,80.9999975280763,10|0,0:0|0:0,0:0:0:0:
135,136,41932,1,2,0:0:0:0:
284,185,42086,1,0,0:0:0:0:
209,49,42240,2,0,L|217:144,1,80.9999975280763,10|0,0:0|0:0,0:0:0:0:
312,334,42548,6,0,P|278:302|136:296,1,161.999995056153,6|10,0:0|0:0,0:0:0:0:
29,360,43009,1,0,0:0:0:0:
32,202,43163,2,0,P|58:250|63:286,1,80.9999975280763,2|0,0:0|0:0,0:0:0:0:
215,129,43471,1,14,0:0:0:0:
215,129,43778,5,6,0:0:0:0:
355,210,43932,1,0,0:0:0:0:
289,60,44086,1,10,0:0:0:0:
256,218,44240,1,0,0:0:0:0:
377,111,44394,1,10,0:0:0:0:
409,269,44548,1,0,0:0:0:0:
409,269,44625,1,0,0:0:0:0:
409,269,44702,1,0,0:0:0:0:
296,144,44855,1,0,0:0:0:0:
500,185,45009,6,0,L|427:193,1,67.5000025749208,0|0,0:0|0:0,0:0:0:0:
307,384,45317,2,0,B|312:345|312:345|301:288|301:288|310:234,1,135.000005149842,14|2,0:0|0:0,0:0:0:0:
377,111,45778,5,0,0:0:0:0:
296,144,45932,1,10,0:0:0:0:
209,132,46086,1,0,0:0:0:0:
139,78,46240,6,0,P|124:118|130:166,1,67.5000025749208,2|0,0:0|0:0,0:0:0:0:
46,173,46548,2,0,P|73:205|117:224,1,67.5000025749208,10|0,0:0|0:0,0:0:0:0:
81,301,46855,6,0,P|123:293|161:264,1,67.5000025749208,2|0,0:0|0:0,0:0:0:0:
209,334,47163,2,0,P|224:293|218:246,1,67.5000025749208,10|0,0:0|0:0,0:0:0:0:
209,132,47471,6,0,L|197:204,1,67.5000025749208,0|0,0:0|0:0,0:0:0:0:
327,299,47778,2,0,B|374:292|374:292|411:274|411:274|469:265,1,135.000005149842,14|2,0:0|0:0,0:0:0:0:
354,383,48240,5,0,0:0:0:0:
327,299,48394,1,10,0:0:0:0:
262,240,48548,1,0,0:0:0:0:
175,221,48702,6,0,P|134:221|88:237,1,67.5000025749208,2|0,0:0|0:0,0:0:0:0:
119,361,49009,2,0,P|136:332|146:300,1,67.5000025749208,10|0,0:0|0:0,0:0:0:0:
24,243,49317,5,2,0:0:0:0:
0,362,49471,2,0,P|16:369|40:368,1,33.7500012874604,0|0,0:0|0:0,0:0:0:0:
119,361,49625,2,0,P|136:359|156:346,1,33.7500012874604,0|0,0:0|0:0,0:0:0:0:
221,300,49778,2,0,P|235:289|246:268,1,33.7500012874604,0|0,0:0|0:0,0:0:0:0:
263,179,49932,6,0,L|266:209,1,22.5,0|0,0:0|0:0,0:0:0:0:
333,276,50086,2,0,L|330:306,1,22.5,0|0,0:0|0:0,0:0:0:0:
256,376,50240,6,0,P|337:338|441:346,1,175.499991966248,14|0,0:0|0:0,0:0:0:0:
510,364,50548,6,0,L|507:334,1,22.5,0|0,0:0|0:0,0:0:0:0:
440,267,50702,2,0,L|443:237,1,22.5,0|0,0:0|0:0,0:0:0:0:
491,133,50855,6,0,P|450:187|436:111,1,175.499991966248,14|0,0:0|0:0,0:0:0:0:
480,43,51163,6,0,L|450:46,1,22.5,0|0,0:0|0:0,0:0:0:0:
337,123,51317,2,0,L|307:126,1,22.5,0|0,0:0|0:0,0:0:0:0:
217,22,51471,6,0,B|210:80|210:80|235:141|235:141|224:219,1,175.499991966248,14|0,0:0|0:0,0:0:0:0:
134,145,51778,6,0,L|164:148,1,22.5,0|0,0:0|0:0,0:0:0:0:
299,223,51932,2,0,L|329:226,1,22.5,0|0,0:0|0:0,0:0:0:0:
487,281,52086,6,0,B|443:237|443:237|411:293,1,116.999994644165,14|8,0:0|0:0,0:0:0:0:
458,366,52317,1,8,0:0:0:0:
458,366,52394,6,0,L|387:362,1,67.5000025749208,14|0,0:0|0:0,0:0:0:0:
225,350,52702,1,10,0:0:0:0:
311,292,52855,2,0,L|307:363,1,67.5000025749208,0|2,0:0|0:0,0:0:0:0:
207,362,53163,1,0,0:0:0:0:
395,251,53317,1,10,0:0:0:0:
15,178,53625,6,0,L|96:173,1,80.9999975280763,2|0,0:0|0:0,0:0:0:0:
282,159,53932,1,10,0:0:0:0:
194,246,54086,2,0,L|189:164,1,80.9999975280763,0|2,0:0|0:0,0:0:0:0:
176,14,54394,1,8,0:0:0:0:
173,26,54471,1,8,0:0:0:0:
172,39,54548,1,8,0:0:0:0:
171,53,54625,1,8,0:0:0:0:
170,66,54702,1,8,0:0:0:0:
168,80,54778,1,8,0:0:0:0:
167,93,54855,6,0,L|244:88,1,67.5000025749208,0|0,0:0|0:0,0:0:0:0:
377,61,55163,2,0,B|351:38|351:38|369:151,1,135.000005149842,4|2,0:0|0:0,0:0:0:0:
432,288,55625,5,0,0:0:0:0:
351,255,55778,1,10,0:0:0:0:
264,267,55932,1,0,0:0:0:0:
194,321,56086,6,0,P|179:281|185:233,1,67.5000025749208,2|0,0:0|0:0,0:0:0:0:
101,226,56394,2,0,P|128:194|172:175,1,67.5000025749208,10|0,0:0|0:0,0:0:0:0:
136,98,56702,6,0,P|178:106|216:135,1,67.5000025749208,2|0,0:0|0:0,0:0:0:0:
264,65,57009,2,0,P|279:106|273:153,1,67.5000025749208,2|0,0:0|0:0,0:0:0:0:
178,256,57317,6,0,L|256:249,1,67.5000025749208,0|0,0:0|0:0,0:0:0:0:
419,262,57625,2,0,B|319:246|319:246|342:272,1,135.000005149842,14|2,0:0|0:0,0:0:0:0:
200,370,58086,5,0,0:0:0:0:
243,292,58240,1,10,0:0:0:0:
241,205,58394,1,0,0:0:0:0:
196,128,58548,6,0,P|216:92|254:60,1,67.5000025749208,2|0,0:0|0:0,0:0:0:0:
345,149,58855,2,0,P|312:148|278:141,1,67.5000025749208,10|0,0:0|0:0,0:0:0:0:
290,8,59163,5,2,0:0:0:0:
407,65,59317,2,0,L|403:111,1,33.7500012874604,0|0,0:0|0:0,0:0:0:0:
345,149,59471,2,0,L|350:196,1,33.7500012874604,0|0,0:0|0:0,0:0:0:0:
403,242,59625,2,0,L|398:289,1,33.7500012874604,0|0,0:0|0:0,0:0:0:0:
306,375,59778,6,0,L|274:371,1,22.5,0|0,0:0|0:0,0:0:0:0:
274,254,59932,2,0,L|296:256,1,22.5,0|0,0:0|0:0,0:0:0:0:
283,372,60086,6,0,L|298:238,1,116.999994644165,14|0,0:0|0:0,0:0:0:0:
206,95,60394,6,0,L|174:99,1,22.5,0|0,0:0|0:0,0:0:0:0:
177,235,60548,2,0,L|199:232,1,22.5,0|0,0:0|0:0,0:0:0:0:
183,98,60702,6,0,L|201:249,1,135.000005149842,14|0,0:0|0:0,0:0:0:0:
111,359,61009,6,0,L|79:355,1,22.5,0|0,0:0|0:0,0:0:0:0:
83,201,61163,2,0,L|105:203,1,22.5,0|0,0:0|0:0,0:0:0:0:
88,356,61317,6,0,L|108:189,1,153.000002918243,14|0,0:0|0:0,0:0:0:0:
27,66,61625,5,0,0:0:0:0:
9,218,61778,1,0,0:0:0:0:
114,117,61932,6,0,L|132:268,1,153.000002918243,14|0,0:0|0:0,0:0:0:0:
280,354,62240,5,14,0:0:0:0:
280,184,62394,1,4,0:3:0:0:
133,269,62548,1,0,0:0:0:0:
321,320,62702,5,14,0:0:0:0:
230,165,62855,1,4,0:3:0:0:
142,319,63009,1,0,0:0:0:0:
339,268,63163,5,12,0:0:0:0:
177,174,63317,1,0,0:0:0:0:
177,361,63471,1,0,0:0:0:0:
329,212,63625,5,12,0:0:0:0:
133,211,63778,1,4,0:3:0:0:
231,381,63932,1,0,0:0:0:0:
257,226,64086,5,12,0:0:0:0:
52,188,64240,1,0,0:0:0:0:
234,305,64394,5,12,0:0:0:0:
49,342,64548,1,0,0:0:0:0:
123,135,64702,5,8,0:0:0:0:
167,276,64855,1,8,0:0:0:0:
183,62,65009,5,8,0:0:0:0:
52,188,65163,1,8,0:0:0:0:
46,21,65317,5,8,0:0:0:0:
231,136,65471,1,8,0:0:0:0:
51,264,65625,5,8,0:0:0:0:
261,140,65778,1,8,0:0:0:0:
4,107,65932,5,8,0:0:0:0:
393,0,66240,6,0,B|368:-1|340:39|378:77|378:77|412:112|369:168|328:135,1,198.000006042481,0|0,0:0|0:0,0:0:0:0:
433,204,66548,2,0,B|446:314|446:314|513:311|505:248|442:257,1,198.000006042481,0|0,0:0|0:0,0:0:0:0:
368,358,66855,5,2,0:0:0:0:
368,358,67163,6,0,L|348:140,1,215.999993408203,4|8,0:0|0:0,0:0:0:0:
207,16,67625,1,0,0:0:0:0:
265,206,67778,1,0,0:0:0:0:
401,61,67932,1,0,0:0:0:0:
211,119,68086,2,0,P|169:166|170:244,1,107.999996704102,8|0,0:0|0:0,0:0:0:0:
272,367,68394,6,0,P|201:346|45:366,1,215.999993408203,0|8,0:0|0:0,0:0:0:0:
76,153,68855,1,0,0:0:0:0:
265,206,69009,1,0,0:0:0:0:
75,255,69163,1,0,0:0:0:0:
127,65,69317,2,0,L|257:53,1,107.999996704102,8|0,0:0|0:0,0:0:0:0:
433,19,69625,6,0,P|380:13|332:36,1,107.999996704102,0|0,0:0|0:0,0:0:0:0:
453,194,69932,2,0,P|485:155|492:98,1,107.999996704102,8|0,0:0|0:0,0:0:0:0:
294,127,70240,1,0,0:0:0:0:
414,285,70394,1,0,0:0:0:0:
398,115,70548,1,8,0:0:0:0:
259,214,70702,1,0,0:0:0:0:
358,353,70855,6,0,P|305:333|241:328,1,107.999996704102,0|0,0:0|0:0,0:0:0:0:
53,355,71163,1,8,0:0:0:0:
145,165,71317,2,0,P|162:260|156:389,1,215.999993408203,0|0,0:0|0:0,0:0:0:0:
51,207,71778,1,8,0:0:0:0:
259,214,71932,1,0,0:0:0:0:
127,59,72086,6,0,P|47:34|90:117,1,215.999993408203,0|8,0:0|0:0,0:0:0:0:
259,214,72548,1,0,0:0:0:0:
274,20,72702,2,0,P|240:81|240:131,1,107.999996704102,0|0,0:0|0:0,0:0:0:0:
276,317,73009,2,0,P|231:289|178:289,1,107.999996704102,8|0,0:0|0:0,0:0:0:0:
2,370,73317,6,0,L|115:348,1,107.999996704102,0|0,0:0|0:0,0:0:0:0:
259,214,73625,2,0,L|372:236,1,107.999996704102,8|0,0:0|0:0,0:0:0:0:
205,382,73932,1,0,0:0:0:0:
152,195,74086,2,0,P|183:139|217:114,1,107.999996704102,0|8,0:0|0:0,0:0:0:0:
399,155,74394,1,0,0:0:0:0:
276,317,74548,6,0,L|169:296,1,107.999996704102,0|0,0:0|0:0,0:0:0:0:
310,138,74855,1,8,0:0:0:0:
456,257,75009,1,0,0:0:0:0:
259,214,75163,2,0,L|133:192,1,107.999996704102,0|0,0:0|0:0,0:0:0:0:
0,123,75471,1,8,0:0:0:0:
183,35,75625,1,0,0:0:0:0:
183,35,75702,1,0,0:0:0:0:
183,35,75778,6,0,P|194:77|192:97,1,45,0|0,0:0|0:0,0:0:0:0:
134,264,76086,6,0,P|149:200|207:168,1,135.000005149842,12|0,0:0|0:0,0:0:0:0:
328,35,76394,6,0,P|319:55|317:78,1,45,0|0,0:0|0:0,0:0:0:0:
377,264,76702,5,8,0:0:0:0:
376,230,76778,1,8,0:0:0:0:
362,200,76855,1,8,0:0:0:0:
336,178,76932,1,8,0:0:0:0:
304,168,77009,6,0,B|366:173|394:127|394:127|463:108|502:166,1,215.999993408203,12|8,0:0|0:0,0:0:0:0:
466,357,77471,1,0,0:0:0:0:
300,248,77625,1,0,0:0:0:0:
499,260,77778,1,0,0:0:0:0:
321,349,77932,2,0,P|243:335|216:307,1,107.999996704102,8|0,0:0|0:0,0:0:0:0:
243,120,78240,5,0,0:0:0:0:
377,264,78394,1,4,0:3:0:0:
189,207,78548,1,8,0:0:0:0:
246,19,78702,1,0,0:0:0:0:
380,162,78855,2,0,P|335:191|282:193,1,107.999996704102,0|0,0:0|0:0,0:0:0:0:
386,27,79163,2,0,P|433:50|462:95,1,107.999996704102,8|0,0:0|0:0,0:0:0:0:
481,287,79471,6,0,L|363:259,1,107.999996704102,0|0,0:0|0:0,0:0:0:0:
194,343,79778,2,0,L|76:371,1,107.999996704102,8|0,0:0|0:0,0:0:0:0:
105,170,80086,1,0,0:0:0:0:
268,284,80240,1,0,0:0:0:0:
70,267,80394,1,8,0:0:0:0:
183,104,80548,1,0,0:0:0:0:
167,302,80702,5,0,0:0:0:0:
3,189,80855,1,0,0:0:0:0:
202,205,81009,1,8,0:0:0:0:
88,369,81163,2,0,P|165:343|309:361,1,215.999993408203,0|0,0:0|0:0,0:0:0:0:
486,301,81625,1,8,0:0:0:0:
343,164,81778,1,0,0:0:0:0:
411,357,81932,6,0,B|401:286|401:286|434:219|434:219|420:127,1,215.999993408203,12|8,0:0|0:0,0:0:0:0:
256,56,82394,1,0,0:0:0:0:
255,251,82548,1,0,0:0:0:0:
350,81,82702,1,0,0:0:0:0:
160,80,82855,2,0,P|144:159|161:194,1,107.999996704102,8|0,0:0|0:0,0:0:0:0:
333,223,83163,6,0,P|272:169|233:166,1,107.999996704102,0|0,0:0|0:0,0:0:0:0:
185,358,83471,2,0,L|305:343,1,107.999996704102,8|0,0:0|0:0,0:0:0:0:
488,320,83778,1,0,0:0:0:0:
386,155,83932,1,0,0:0:0:0:
393,369,84086,2,0,L|403:250,1,107.999996704102,8|0,0:0|0:0,0:0:0:0:
429,65,84394,5,0,0:0:0:0:
331,222,84548,1,0,0:0:0:0:
488,320,84702,1,8,0:0:0:0:
386,155,84855,1,0,0:0:0:0:
221,257,85009,2,0,L|230:364,1,107.999996704102,0|0,0:0|0:0,0:0:0:0:
230,364,85240,1,8,0:3:0:0:
230,364,85317,1,0,0:0:0:0:
402,261,85471,1,0,0:0:0:0:
324,72,85625,6,0,L|327:125,1,45,0|0,0:0|0:0,0:0:0:0:
473,216,85932,6,0,P|409:180|316:237,1,135.000005149842,12|0,0:0|0:0,0:0:0:0:
188,72,86240,6,0,L|185:125,1,45,0|0,0:0|0:0,0:0:0:0:
39,216,86547,5,0,0:0:0:0:
63,193,86625,1,0,0:0:0:0:
95,181,86702,1,0,0:0:0:0:
128,181,86777,1,0,0:0:0:0:
159,193,86855,5,12,0:0:0:0:
159,193,87163,1,8,0:0:0:0:
208,364,87317,1,0,0:0:0:0:
35,320,87471,2,0,L|150:312,1,90,0|0,0:0|0:0,0:0:0:0:
322,302,87778,1,8,0:0:0:0:
322,302,88086,5,0,0:0:0:0:
371,131,88240,1,0,0:0:0:0:
495,258,88394,1,8,0:0:0:0:
324,210,88548,2,0,P|279:144|342:44,1,180,0|0,0:0|0:0,0:0:0:0:
413,204,89009,2,0,L|323:209,1,90,8|0,0:0|0:0,0:0:0:0:
162,254,89317,5,0,0:0:0:0:
322,302,89471,1,0,0:0:0:0:
284,140,89625,2,0,P|249:180|246:231,1,90,8|0,0:0|0:0,0:0:0:0:
163,368,89932,5,0,0:0:0:0:
2,326,90086,1,0,0:0:0:0:
117,207,90240,2,0,P|126:259|102:304,1,90,8|0,0:0|0:0,0:0:0:0:
40,144,90548,5,0,0:0:0:0:
168,41,90702,1,0,0:0:0:0:
243,215,90855,1,8,0:0:0:0:
120,110,91009,1,0,0:0:0:0:
294,35,91163,1,8,0:0:0:0:
433,224,91317,6,0,P|398:235|339:209,1,90,12|0,0:0|0:0,0:0:0:0:
461,230,91778,6,0,P|403:250|311:212,1,153.000002918243,12|8,0:0|0:0,0:0:0:0:
237,156,92240,2,0,L|243:245,1,76.5000014591217,0|0,0:0|0:0,0:0:0:0:
247,308,92548,1,0,0:0:0:0:
313,150,92702,1,8,0:0:0:0:
313,150,93009,6,0,L|307:61,1,76.5000014591217,0|4,0:0|0:3,0:0:0:0:
160,161,93317,1,8,0:0:0:0:
318,226,93471,1,0,0:0:0:0:
318,226,93548,1,0,0:0:0:0:
318,226,93625,1,0,0:0:0:0:
231,79,93778,1,0,0:0:0:0:
83,166,93932,1,8,0:0:0:0:
83,166,94240,6,0,L|94:323,1,153.000002918243,12|8,0:0|0:0,0:0:0:0:
169,312,94702,1,0,0:0:0:0:
169,312,94778,1,0,0:0:0:0:
169,312,94855,2,0,L|163:235,1,76.5000014591217,0|0,0:0|0:0,0:0:0:0:
154,84,95163,1,8,0:0:0:0:
154,84,95471,6,0,L|159:160,1,76.5000014591217,0|4,0:0|0:3,0:0:0:0:
247,308,95778,1,8,0:0:0:0:
313,150,95932,1,0,0:0:0:0:
313,150,96009,1,0,0:0:0:0:
313,150,96086,1,0,0:0:0:0:
163,235,96240,1,0,0:0:0:0:
331,381,96394,2,0,L|336:305,1,76.5000014591217,8|0,0:0|0:0,0:0:0:0:
416,162,96702,6,0,L|422:222,5,45,4|0|0|0|0|0,0:0|0:0|0:0|0:0|0:0|0:0,0:0:0:0:
423,287,97163,2,0,L|417:347,5,45,0|0|0|0|0|0,0:0|0:0|0:0|0:0|0:0|0:0,0:0:0:0:
347,229,97625,2,0,L|343:185,3,45,0|0|0|0,0:0|0:0|0:0|0:0,0:0:0:0:
256,192,97932,6,0,L|262:132,5,45,0|0|0|0|0|0,0:0|0:0|0:0|0:0|0:0|0:0,0:0:0:0:
263,67,98393,2,0,L|257:7,5,45,0|0|0|0|0|0,0:0|0:0|0:0|0:0|0:0|0:0,0:0:0:0:
339,106,98855,2,0,L|345:46,3,45,0|0|0|0,0:0|0:0|0:0|0:0,0:0:0:0:
423,90,99163,5,12,0:0:0:0:
185,144,99471,5,8,0:0:0:0:
326,239,99625,1,8,0:0:0:0:
114,217,99778,5,8,0:0:0:0:
397,166,99932,1,8,0:0:0:0:
230,50,100086,5,8,0:0:0:0:
281,333,100240,1,8,0:0:0:0:
256,192,100380,5,12,0:0:0:0:
256,192,100995,6,0,L|330:131,1,90,0|0,0:0|0:0,0:0:0:0:
171,159,101226,2,0,L|256:192,1,90,0|0,0:0|0:0,0:0:0:0:
269,280,101456,1,0,0:0:0:0:
181,71,101610,6,0,B|134:80|134:80|75:126|75:126|13:136,1,180,6|2,0:0|0:0,0:0:0:0:
18,135,102226,1,2,0:0:0:0:
171,159,102380,1,0,0:0:0:0:
73,279,102533,1,2,0:0:0:0:
256,192,102687,6,0,P|263:128|252:10,1,180,0|0,0:0|0:0,0:0:0:0:
404,56,103149,2,0,P|390:124|391:161,1,90,2|0,0:0|0:0,0:0:0:0:
512,278,103456,1,2,0:0:0:0:
467,130,103610,1,0,0:0:0:0:
350,241,103764,1,2,0:0:0:0:
463,346,103918,1,0,0:0:0:0:
463,346,103995,1,0,0:0:0:0:
463,346,104072,6,0,B|450:306|404:302|404:302|353:335|314:319|288:293,1,180,6|2,0:0|0:0,0:0:0:0:
308,309,104687,1,2,0:0:0:0:
164,230,104841,2,0,P|178:298|177:335,1,90,0|2,0:0|0:0,0:0:0:0:
99,172,105149,6,0,P|164:144|251:231,1,180,0|0,0:0|0:0,0:0:0:0:
242,374,105610,1,2,0:0:0:0:
95,300,105764,1,0,0:0:0:0:
260,291,105918,1,0,0:0:0:0:
122,382,106072,1,0,0:0:0:0:
31,244,106226,1,2,0:0:0:0:
179,319,106380,1,0,0:0:0:0:
179,319,106456,1,0,0:0:0:0:
179,319,106533,6,0,L|387:304,1,180,6|2,0:0|0:0,0:0:0:0:
358,306,107149,1,2,0:0:0:0:
511,218,107303,1,0,0:0:0:0:
358,129,107456,1,2,0:0:0:0:
447,283,107610,6,0,P|401:227|293:242,1,180,0|0,0:0|0:0,0:0:0:0:
197,366,108072,2,0,P|205:307|196:274,1,90,2|0,0:0|0:0,0:0:0:0:
190,261,108303,1,4,0:3:0:0:
180,245,108380,1,2,0:0:0:0:
59,59,108533,2,0,P|51:118|60:151,1,90,4|0,0:0|0:0,0:0:0:0:
237,184,108841,1,0,0:0:0:0:
301,78,108995,6,0,L|210:98,1,90,2|0,0:0|0:0,0:0:0:0:
301,235,109303,2,0,L|392:255,1,90,2|0,0:0|0:0,0:0:0:0:
489,128,109610,1,2,0:0:0:0:
335,155,109764,1,0,0:0:0:0:
437,324,109918,2,0,P|467:280|469:230,1,90,2|2,0:0|0:0,0:0:0:0:
410,102,110226,5,2,0:0:0:0:
301,235,110380,1,0,0:0:0:0:
301,235,110456,1,0,0:0:0:0:
301,235,110533,1,2,0:0:0:0:
301,235,110841,1,2,0:0:0:0:
369,341,110995,1,0,0:0:0:0:
388,254,111149,1,2,0:0:0:0:
282,322,111303,1,0,0:0:0:0:
138,174,111456,5,6,0:0:0:0:
138,174,111764,2,0,L|316:145,1,180,2|2,0:0|0:0,0:0:0:0:
473,117,112226,1,0,0:0:0:0:
473,117,112533,6,0,B|419:77|419:77|445:201,1,180,0|0,0:0|0:0,0:0:0:0:
468,342,112995,2,0,L|290:313,1,180,2|2,0:0|0:0,0:0:0:0:
83,280,113456,2,0,B|71:323|71:323|91:375,2,90,4|4|0,0:0|0:3|0:0,0:0:0:0:
189,142,113918,1,2,0:0:0:0:
189,142,114226,6,0,L|160:320,1,180,2|2,0:0|0:0,0:0:0:0:
54,208,114687,1,0,0:0:0:0:
54,208,114995,2,0,B|30:97|30:97|84:137,1,180,0|0,0:0|0:0,0:0:0:0:
244,270,115456,2,0,L|345:256,1,90,2|0,0:0|0:0,0:0:0:0:
499,240,115764,2,0,L|517:317,2,60,2|0|0,0:0|1:0|1:0,0:0:0:0:
421,197,116072,2,0,L|439:120,2,60,2|0|0,0:0|0:0|0:0,0:0:0:0:
453,371,116380,5,2,0:0:0:0:
453,371,116687,2,0,L|274:340,1,180,2|2,0:0|0:0,0:0:0:0:
118,309,117149,1,0,0:0:0:0:
118,309,117456,6,0,B|85:354|85:354|217:323,1,180,0|0,0:0|0:0,0:0:0:0:
368,282,117918,2,0,B|387:237|387:237|371:187,1,90,2|0,0:0|0:0,0:0:0:0:
220,120,118226,2,0,B|201:165|201:165|217:215,1,90,2|0,0:0|0:0,0:0:0:0:
310,49,118533,1,2,0:0:0:0:
368,282,118841,5,2,0:0:0:0:
368,282,119149,2,0,L|189:313,1,180,0|2,0:0|0:0,0:0:0:0:
31,338,119610,1,0,0:0:0:0:
87,176,119764,2,0,P|101:226|97:272,1,90,2|0,0:0|0:0,0:0:0:0:
21,94,120072,6,0,L|68:87,3,45,12|0|0|0,0:0|0:0|0:0|0:0,0:0:0:0:
125,32,120380,2,8,L|172:39,3,45
244,64,120687,6,0,L|291:57,1,45,8|0,0:0|0:0,0:0:0:0:
363,85,120841,2,0,L|410:92,1,45,8|0,0:0|0:0,0:0:0:0:
259,147,120995,2,0,L|306:140,1,45,8|0,0:0|0:0,0:0:0:0:
378,168,121149,2,0,L|425:175,1,45,8|8,0:0|0:0,0:0:0:0:
259,236,121303,6,0,B|208:271|208:271|195:345|195:345|140:296|140:296|63:303|63:303|95:243|95:243|57:174|57:174|133:184|133:184|184:124|184:124|200:198|200:198|250:218,1,720,12|0,0:0|0:0,0:0:0:0:
256,192,123841,12,0,129841,0:0:0:0:
