osu file format v14

[General]
AudioFilename: audio.mp3
AudioLeadIn: 0
PreviewTime: 66086
Countdown: 0
SampleSet: Soft
StackLeniency: 0.7
Mode: 0
LetterboxInBreaks: 0
WidescreenStoryboard: 0

[Editor]
Bookmarks: 22855,32702,54855,129855
DistanceSpacing: 1
BeatDivisor: 4
GridSize: 4
TimelineZoom: 2.2

[Metadata]
Title:STAR BEAT!~Hoshi no Kodou~
TitleUnicode:STAR BEAT!~ホシノコドウ~
Artist:Poppin'Party
ArtistUnicode:Poppin'Party
Creator:[ L u k a s ]
Version:EverlastinG Dream!
Source:BanG Dream!
Tags:Firis_Mistlud Suzuki_1112 Gaia kawaiwkyik Rizia Lukas Asuka_- joker- kurantemelodii
BeatmapID:1378623
BeatmapSetID:650607

[Difficulty]
HPDrainRate:6
CircleSize:4.5
OverallDifficulty:9
ApproachRate:9
SliderMultiplier:1.9
SliderTickRate:1

[Events]
//Background and Video events
0,0,"sta beet.jpg",0,0
//Break Periods
//Storyboard Layer 0 (Background)
//Storyboard Layer 1 (Fail)
//Storyboard Layer 2 (Pass)
//Storyboard Layer 3 (Foreground)
//Storyboard Sound Samples

[TimingPoints]
702,307.692307692308,4,2,1,60,1,0
702,-133.333333333333,4,2,1,60,0,0
20394,-200,4,2,1,60,0,0
22855,-133.333333333333,4,2,5,40,0,0
23471,-133.333333333333,4,2,1,5,0,0
23625,-133.333333333333,4,2,5,40,0,0
24086,-133.333333333333,4,2,6,40,0,0
24702,-133.333333333333,4,2,1,5,0,0
24855,-133.333333333333,4,2,6,40,0,0
25317,-133.333333333333,4,2,11,40,0,0
25933,-133.333333333333,4,2,1,5,0,0
26087,-133.333333333333,4,2,11,40,0,0
26855,-133.333333333333,4,2,8,40,0,0
27009,-133.333333333333,4,2,9,40,0,0
27317,-133.333333333333,4,2,11,40,0,0
27778,-133.333333333333,4,2,5,40,0,0
28009,-133.333333333333,4,2,5,5,0,0
28086,-133.333333333333,4,2,10,40,0,0
28394,-133.333333333333,4,2,10,5,0,0
28548,-133.333333333333,4,2,5,40,0,0
29009,-133.333333333333,4,2,6,40,0,0
29240,-133.333333333333,4,2,6,5,0,0
29317,-133.333333333333,4,2,6,40,0,0
29625,-133.333333333333,4,2,6,5,0,0
29778,-133.333333333333,4,2,6,40,0,0
30240,-133.333333333333,4,2,11,40,0,0
31471,-133.333333333333,4,2,8,40,0,0
32317,-133.333333333333,4,1,11,40,0,0
32702,-117.647058823529,4,2,1,50,0,0
45009,-200,4,2,1,30,0,0
45317,-100,4,2,1,50,0,0
47471,-200,4,2,1,30,0,0
47778,-100,4,2,1,50,0,0
54855,-200,4,2,1,30,0,0
55163,-100,4,2,1,50,0,0
57317,-200,4,2,1,30,0,0
57625,-100,4,2,1,50,0,0
62240,-100,4,2,1,60,0,0
65009,-200,4,2,1,60,0,0
65163,-166.666666666667,4,2,1,65,0,0
65317,-142.857142857143,4,2,1,70,0,0
65471,-125,4,2,1,75,0,0
65625,-111.111111111111,4,2,1,80,0,0
65778,-100,4,2,1,85,0,0
65932,-200,4,2,1,40,0,0
66778,-200,4,2,1,5,0,0
66855,-66.6666666666667,4,2,1,100,0,0
67163,-83.3333333333333,4,2,1,100,0,1
76086,-66.6666666666667,4,2,1,100,0,1
76394,-83.3333333333333,4,2,1,100,0,1
85932,-66.6666666666667,4,2,1,100,0,1
86240,-83.3333333333333,4,2,1,100,0,1
86855,-100,4,2,1,60,0,0
96702,-90.9090909090909,4,2,1,60,0,0
97317,-83.3333333333333,4,2,1,60,0,0
97932,-76.9230769230769,4,2,1,60,0,0
98548,-71.4285714285714,4,2,1,60,0,0
99163,-66.6666666666667,4,2,1,75,0,0
100380,307.692307692308,4,2,1,40,1,0
100380,-200,4,2,1,40,0,0
101610,-100,4,2,1,40,0,0
120149,-100,4,2,1,25,0,0
120687,-100,4,2,1,70,0,0
121303,-133.333333333333,4,2,1,60,0,0
129841,-133.333333333333,4,2,1,5,0,0

[Colours]
Combo1 : 128,0,128
Combo2 : 240,152,0
Combo3 : 255,0,0
Combo4 : 255,255,0
Combo5 : 255,128,192
Combo6 : 255,0,128

[HitObjects]
139,160,548,53,8,0:0:0:0:
139,160,625,1,8,0:0:0:0:
139,160,702,6,0,B|104:132|112:96|112:69|117:48|154:22|181:22|245:37|280:72|261:117|250:149|229:170|207:179|207:179|229:170|250:149|290:178|290:178|253:209|215:260|256:334|316:321|350:292|350:292|345:268|321:245,1,712.500027179719,4|0,0:0|0:0,0:0:0:0:
183,284,2394,2,0,P|190:308|287:381,1,142.500005435944,8|8,0:3|0:3,0:0:0:0:
336,265,2855,2,0,P|344:228|331:177,1,71.2500027179719,4|4,0:3|0:3,0:0:0:0:
390,43,3163,6,0,B|346:0|280:40|216:93|157:35|157:35|216:93|194:152|150:174|108:180|71:152|58:128|45:95|64:77|64:77|127:95|126:149|126:149|114:192|83:239,1,712.500027179719,4|0,0:0|0:0,0:0:0:0:
93,221,5009,1,8,0:3:0:0:
122,345,5163,1,8,0:3:0:0:
171,226,5317,1,4,0:3:0:0:
63,296,5471,1,4,0:3:0:0:
135,153,5625,54,0,B|155:138|183:135|203:138|221:146|242:165|264:182|274:207|260:250|244:278|237:280|221:293|221:293|283:258|293:258|323:255|365:293|392:306|391:338|359:367|359:367|304:365|301:341|306:311|306:311|312:255|371:192,1,712.500027179719,4|0,0:0|0:0,0:0:0:0:
404,74,7317,1,8,0:3:0:0:
444,287,7471,1,8,0:0:0:0:
350,199,7625,2,0,L|339:118,1,71.2500027179719,8|4,0:3|0:3,0:0:0:0:
340,128,7932,1,4,0:3:0:0:
266,320,8086,6,0,B|227:281|177:303|141:329|83:346|83:346|39:332|17:300|13:258|22:224|45:198|77:182|77:182|106:206|131:238|89:278,1,498.750019025803,4|8,0:0|0:3,0:0:0:0:
104,258,9317,5,4,0:3:0:0:
31,64,9471,2,0,P|77:37|165:95,1,142.500005435944,12|0,0:0|0:0,0:0:0:0:
207,223,9932,2,0,P|194:187|225:125,1,106.875004076958,8|0,0:0|0:0,0:0:0:0:
233,117,10240,2,0,B|262:126|262:126|311:118,1,71.2500027179719,8|4,0:3|0:3,0:0:0:0:
412,52,10548,54,0,P|417:141|417:141,1,71.2500027179719,6|0,0:0|0:0,0:0:0:0:
486,230,10855,2,0,B|484:247|489:158,1,71.2500027179719,2|0,0:0|0:0,0:0:0:0:
405,66,11163,2,0,P|316:71|316:71,1,71.2500027179719,2|0,0:0|0:0,0:0:0:0:
227,140,11471,2,0,B|209:138|298:143,1,71.2500027179719,2|0,0:0|0:0,0:0:0:0:
400,212,11778,6,0,P|395:123|395:123,1,71.2500027179719,2|0,0:0|0:0,0:0:0:0:
340,25,12086,2,0,B|341:7|336:96,1,71.2500027179719,2|0,0:0|0:0,0:0:0:0:
315,218,12394,2,0,B|285:208|262:225|235:244|194:212,1,106.875004076958,2|0,0:0|0:0,0:0:0:0:
200,210,12702,2,0,L|192:176,1,35.625001358986,2|0,0:0|0:0,0:0:0:0:
55,123,12855,1,8,0:0:0:0:
55,123,12932,1,8,0:0:0:0:
55,123,13009,6,0,P|104:101|135:101,1,71.2500027179719,6|0,0:0|0:0,0:0:0:0:
211,7,13317,2,0,P|254:38|270:65,1,71.2500027179719,2|0,0:0|0:0,0:0:0:0:
392,42,13625,2,0,P|386:95|371:122,1,71.2500027179719,2|0,0:0|0:0,0:0:0:0:
462,207,13932,2,0,P|413:229|382:229,1,71.2500027179719,2|0,0:0|0:0,0:0:0:0:
326,339,14240,6,0,P|282:307|266:280,1,71.2500027179719,2|0,0:0|0:0,0:0:0:0:
232,150,14548,1,8,0:3:0:0:
184,287,14702,1,8,0:3:0:0:
304,208,14855,1,8,0:3:0:0:
158,203,15009,1,4,0:3:0:0:
272,293,15163,1,4,0:3:0:0:
232,224,15317,1,4,0:3:0:0:
150,383,15471,54,0,L|231:367,1,71.2500027179719,6|0,0:0|0:0,0:0:0:0:
342,335,15778,2,0,L|411:348,1,71.2500027179719,2|0,0:0|0:0,0:0:0:0:
407,220,16086,2,0,P|389:178|391:143,1,71.2500027179719,2|0,0:0|0:0,0:0:0:0:
484,66,16394,2,0,P|502:24|500:-11,1,71.2500027179719,2|2,0:0|0:0,0:0:0:0:
386,14,16625,1,2,0:0:0:0:
374,21,16702,6,0,L|273:16,1,71.2500027179719,4|0,0:0|0:0,0:0:0:0:
230,123,17009,2,0,L|301:119,1,71.2500027179719,2|0,0:0|0:0,0:0:0:0:
195,52,17317,1,8,0:3:0:0:
165,177,17471,1,8,0:3:0:0:
245,277,17625,1,4,0:3:0:0:
250,195,17778,1,4,0:3:0:0:
174,298,17932,6,0,L|184:368,1,71.2500027179719,4|0,0:0|0:0,0:0:0:0:
310,342,18240,2,0,L|321:272,1,71.2500027179719,2|0,0:0|0:0,0:0:0:0:
410,180,18548,2,0,L|399:109,1,71.2500027179719,2|0,0:0|0:0,0:0:0:0:
295,34,18855,2,0,L|284:104,1,71.2500027179719,2|0,0:0|0:0,0:0:0:0:
211,211,19163,54,0,L|199:131,1,71.2500027179719,2|0,0:0|0:0,0:0:0:0:
92,69,19471,2,0,L|81:139,1,71.2500027179719,2|0,0:0|0:0,0:0:0:0:
197,193,19778,2,0,L|185:113,1,71.2500027179719,2|0,0:0|0:0,0:0:0:0:
84,43,20086,2,0,L|73:113,1,71.2500027179719,2|0,0:0|0:0,0:0:0:0:
64,199,20394,5,0,0:0:0:0:
94,310,22855,6,0,B|119:239|74:204|19:158|84:84,1,213.750008153916,8|0,0:0|0:0,0:0:0:0:
66,107,23625,2,0,P|115:122|77:73,1,142.500005435944,8|0,0:0|0:0,0:0:0:0:
189,148,24086,54,0,P|200:88|161:17,1,142.500005435944,8|0,0:0|0:0,0:0:0:0:
111,271,24702,1,0,0:0:0:0:
111,271,24855,2,0,L|263:256,1,142.500005435944,8|0,0:0|0:0,0:0:0:0:
357,332,25317,6,0,B|316:269|356:224|397:191|340:109,1,213.750008153916,8|0,0:0|0:0,0:0:0:0:
356,126,26086,2,0,L|502:120,1,142.500005435944,8|0,0:0|0:0,0:0:0:0:
384,48,26548,2,0,P|309:17|370:122,1,285.000010871888,8|0,0:0|0:0,0:0:0:0:
464,75,27317,2,0,P|468:40|447:1,2,71.2500027179719,8|0|0,0:0|0:0|0:0,0:0:0:0:
418,194,27778,6,0,B|384:268|435:349|435:349|460:324|450:289,1,213.750008153916,8|0,0:0|0:0,0:0:0:0:
343,70,28548,2,0,P|285:44|207:72,1,142.500005435944,8|0,0:0|0:0,0:0:0:0:
140,173,29009,54,0,P|151:113|112:42,1,142.500005435944,8|0,0:0|0:0,0:0:0:0:
78,300,29625,1,0,0:0:0:0:
78,300,29778,2,0,B|125:282|125:282|230:285,1,142.500005435944,8|0,0:0|0:0,0:0:0:0:
334,338,30240,5,8,0:0:0:0:
334,338,30548,2,0,L|316:264,1,71.2500027179719,0|0,0:0|0:0,0:0:0:0:
224,179,30855,2,0,L|242:105,1,71.2500027179719,0|0,0:0|0:0,0:0:0:0:
320,7,31163,1,8,0:0:0:0:
282,260,31471,6,0,P|207:229|155:269,1,142.500005435944,8|0,0:0|0:0,0:0:0:0:
265,333,31932,1,0,0:0:0:0:
381,278,32086,2,0,P|385:243|370:204,1,71.2500027179719,0|0,0:0|0:0,0:0:0:0:
273,37,32394,1,4,1:0:0:0:
267,327,32702,54,0,P|207:306|157:318,1,80.750001540184,6|0,0:0|0:0,0:0:0:0:
54,356,33009,2,0,P|94:353|130:335,1,80.750001540184,10|0,0:0|0:0,0:0:0:0:
125,189,33316,1,2,0:0:0:0:
197,316,33471,1,0,0:0:0:0:
49,225,33625,2,0,L|38:142,1,80.750001540184,10|0,0:0|0:0,0:0:0:0:
171,83,33932,6,0,L|263:68,1,80.750001540184,2|0,0:0|0:0,0:0:0:0:
377,144,34240,2,0,L|297:131,1,80.750001540184,10|0,0:0|0:0,0:0:0:0:
215,10,34548,1,2,0:0:0:0:
351,63,34702,1,0,0:0:0:0:
202,178,34855,2,0,P|192:138|199:99,1,80.750001540184,10|0,0:0|0:0,0:0:0:0:
230,249,35163,6,0,B|193:254|193:254|150:244,1,80.750001540184,2|0,0:0|0:0,0:0:0:0:
272,137,35471,2,0,B|308:132|308:132|351:142,1,80.750001540184,10|0,0:0|0:0,0:0:0:0:
467,229,35778,1,2,0:0:0:0:
336,292,35932,1,0,0:0:0:0:
447,152,36086,2,0,P|463:188|467:228,1,80.750001540184,10|0,0:0|0:0,0:0:0:0:
338,180,36394,54,0,L|323:89,1,80.750001540184,2|0,0:0|0:0,0:0:0:0:
203,18,36702,2,0,L|189:97,1,80.750001540184,10|0,0:0|0:0,0:0:0:0:
233,236,37009,1,2,0:0:0:0:
262,93,37163,1,0,0:0:0:0:
160,196,37317,1,10,0:0:0:0:
304,177,37471,1,0,0:0:0:0:
181,98,37625,6,0,P|141:97|88:124,1,80.750001540184,2|0,0:0|0:0,0:0:0:0:
133,269,37932,2,0,P|153:234|156:175,1,80.750001540184,10|0,0:0|0:0,0:0:0:0:
51,294,38240,1,2,0:0:0:0:
190,335,38394,1,0,0:0:0:0:
77,196,38548,2,0,P|37:195|-16:222,1,80.750001540184,10|0,0:0|0:0,0:0:0:0:
134,264,38855,6,0,L|221:251,1,80.750001540184,2|0,0:0|0:0,0:0:0:0:
345,187,39163,2,0,L|265:175,1,80.750001540184,10|0,0:0|0:0,0:0:0:0:
119,163,39471,1,2,0:0:0:0:
220,267,39625,1,0,0:0:0:0:
209,76,39778,2,0,P|152:63|118:79,1,80.750001540184,10|0,0:0|0:0,0:0:0:0:
48,189,40086,54,0,L|63:278,1,80.750001540184,2|0,0:0|0:0,0:0:0:0:
171,364,40394,1,10,0:0:0:0:
198,221,40548,1,0,0:0:0:0:
104,332,40702,2,0,P|158:361|181:364,1,80.750001540184,2|0,0:0|0:0,0:0:0:0:
270,189,41009,2,0,P|230:198|197:220,1,80.750001540184,10|0,0:0|0:0,0:0:0:0:
319,302,41317,6,0,L|421:287,1,80.750001540184,2|0,0:0|0:0,0:0:0:0:
478,111,41625,1,10,0:0:0:0:
493,254,41778,1,0,0:0:0:0:
384,156,41932,2,0,P|368:107|380:67,1,80.750001540184,2|0,0:0|0:0,0:0:0:0:
493,254,42240,2,0,P|458:292|417:301,1,80.750001540184,10|0,0:0|0:0,0:0:0:0:
255,168,42548,6,0,L|273:266,1,80.750001540184,6|0,0:0|0:0,0:0:0:0:
181,363,42855,1,10,0:0:0:0:
190,217,43009,1,0,0:0:0:0:
270,338,43163,2,0,P|321:329|364:346,1,80.750001540184,2|0,0:0|0:0,0:0:0:0:
512,379,43471,2,0,L|505:244,1,121.125002310276,14|0,0:0|0:0,0:0:0:0:
504,185,43778,53,6,0:0:0:0:
407,290,43932,1,0,0:0:0:0:
334,163,44086,2,0,P|311:106|324:60,1,80.750001540184,10|0,0:0|0:0,0:0:0:0:
458,70,44394,2,0,P|404:111|360:103,1,80.750001540184,10|0,0:0|0:0,0:0:0:0:
367,42,44625,1,0,0:0:0:0:
367,42,44702,1,0,0:0:0:0:
407,180,44855,1,0,0:0:0:0:
297,251,45009,6,0,L|236:256,1,47.5,0|0,0:0|0:0,0:0:0:0:
94,82,45317,6,0,P|132:54|261:128,1,190,14|2,0:0|0:0,0:0:0:0:
365,229,45778,1,0,0:0:0:0:
377,58,45932,1,10,0:0:0:0:
281,199,46086,1,0,0:0:0:0:
441,140,46240,6,0,L|456:258,1,95,2|0,0:0|0:0,0:0:0:0:
291,363,46548,2,0,L|302:268,1,95,10|0,0:0|0:0,0:0:0:0:
346,103,46855,2,0,P|395:73|446:75,1,95,2|0,0:0|0:0,0:0:0:0:
299,182,47163,2,0,P|252:177|213:150,1,95,10|0,0:0|0:0,0:0:0:0:
110,80,47471,6,0,L|113:137,1,47.5,0|0,0:0|0:0,0:0:0:0:
303,63,47778,6,0,P|206:48|109:75,1,190,14|2,0:0|0:0,0:0:0:0:
94,183,48240,1,0,0:0:0:0:
315,155,48394,2,0,P|319:93|295:54,1,95,10|0,0:0|0:0,0:0:0:0:
228,242,48702,6,0,L|338:237,1,95,2|0,0:0|0:0,0:0:0:0:
478,326,49009,2,0,L|383:321,1,95,10|0,0:0|0:0,0:0:0:0:
210,328,49317,1,2,0:0:0:0:
229,122,49471,1,0,0:0:0:0:
215,95,49548,1,0,0:0:0:0:
215,70,49625,1,0,0:0:0:0:
228,46,49702,1,0,0:0:0:0:
242,27,49778,2,0,P|269:9|310:6,1,47.5
398,151,49932,5,0,0:0:0:0:
302,108,50086,1,0,0:0:0:0:
485,81,50240,2,0,L|495:176,1,95,14|0,0:0|0:0,0:0:0:0:
418,287,50548,1,0,0:0:0:0:
352,196,50702,1,0,0:0:0:0:
485,368,50856,2,0,L|391:379,1,95,14|0,0:0|0:0,0:0:0:0:
481,247,51163,5,0,0:0:0:0:
485,359,51317,1,0,0:0:0:0:
352,196,51471,2,0,L|446:185,1,95,14|0,0:0|0:0,0:0:0:0:
232,263,51778,1,0,0:0:0:0:
247,140,51932,1,0,0:0:0:0:
224,353,52086,2,0,L|123:364,1,95,14|8,0:0|0:0,0:0:0:0:
47,296,52317,1,8,0:0:0:0:
47,296,52394,54,0,P|27:243|37:196,1,95,14|0,0:0|0:0,0:0:0:0:
98,24,52702,1,10,0:0:0:0:
224,132,52855,2,0,P|244:185|234:232,1,95,0|2,0:0|0:0,0:0:0:0:
172,361,53163,1,0,0:0:0:0:
84,213,53317,2,0,L|182:185,1,95,10|0,0:0|0:0,0:0:0:0:
336,249,53625,5,2,0:0:0:0:
270,90,53778,1,0,0:0:0:0:
411,284,53932,2,0,P|347:337|255:292,1,190,10|2,0:0|0:0,0:0:0:0:
132,185,54394,1,8,0:0:0:0:
102,150,54470,1,8,0:0:0:0:
105,113,54547,1,8,0:0:0:0:
122,77,54624,1,8,0:0:0:0:
158,64,54701,1,8,0:0:0:0:
200,81,54778,1,8,0:0:0:0:
220,106,54855,6,0,L|213:168,1,47.5
216,338,55163,6,0,B|169:356|169:356|20:349,1,190,4|2,0:0|0:0,0:0:0:0:
190,256,55625,2,0,P|238:248|286:284,1,95,0|10,0:0|0:0,0:0:0:0:
407,373,55932,1,0,0:0:0:0:
407,373,56086,54,0,L|390:269,1,95,2|0,0:0|0:0,0:0:0:0:
468,124,56394,2,0,L|452:217,1,95,10|0,0:0|0:0,0:0:0:0:
300,136,56702,1,2,0:0:0:0:
437,35,56855,1,0,0:0:0:0:
380,196,57009,1,2,0:0:0:0:
348,226,57085,1,0,0:0:0:0:
307,231,57162,1,0,0:0:0:0:
263,217,57239,1,0,0:0:0:0:
233,200,57317,6,0,P|222:163|222:148,1,47.5
281,366,57625,6,0,B|130:375|130:375|167:332,1,190,14|2,0:0|0:0,0:0:0:0:
221,154,58086,1,0,0:0:0:0:
277,357,58240,1,10,0:0:0:0:
137,258,58394,1,0,0:0:0:0:
305,287,58548,6,0,L|411:280,1,95,2|0,0:0|0:0,0:0:0:0:
476,127,58855,2,0,L|370:120,1,95,10|0,0:0|0:0,0:0:0:0:
240,220,59163,2,0,P|257:169|252:113,1,95,2|0,0:0|0:0,0:0:0:0:
250,115,59394,1,0,0:0:0:0:
238,99,59471,1,0,0:0:0:0:
227,87,59547,1,0,0:0:0:0:
212,83,59624,1,0,0:0:0:0:
194,80,59701,1,0,0:0:0:0:
179,80,59778,53,0,0:0:0:0:
165,165,59932,1,0,0:0:0:0:
320,313,60086,2,0,L|462:302,1,142.5,14|0,0:0|0:0,0:0:0:0:
484,300,60394,1,0,0:0:0:0:
363,211,60548,1,0,0:0:0:0:
255,367,60702,2,0,B|233:315|233:315|244:228,1,142.5,14|0,0:0|0:0,0:0:0:0:
264,154,61009,5,0,0:0:0:0:
162,216,61163,1,0,0:0:0:0:
363,211,61317,2,0,P|399:258|340:270,1,142.5,14|0,0:0|0:0,0:0:0:0:
319,254,61625,1,0,0:0:0:0:
410,368,61778,1,0,0:0:0:0:
309,128,61932,2,0,P|360:111|403:116,1,95,14|0,0:0|0:0,0:0:0:0:
187,245,62240,6,0,B|198:202|168:173|146:151|178:91,1,142.5,14|0,0:0|0:0,0:0:0:0:
226,43,62548,1,0,0:0:0:0:
316,307,62702,2,0,L|161:317,1,142.5,14|0,0:0|0:0,0:0:0:0:
88,309,63009,1,0,0:0:0:0:
323,217,63163,1,12,0:0:0:0:
274,381,63317,1,0,0:0:0:0:
196,228,63471,53,0,0:0:0:0:
415,322,63625,2,0,P|385:277|456:313,1,190,12|0,0:0|0:0,0:0:0:0:
270,353,64086,2,0,P|251:291|260:248,1,95,12|0,0:0|0:0,0:0:0:0:
102,182,64394,2,0,P|146:134|187:120,1,95,12|0,0:0|0:0,0:0:0:0:
337,164,64702,5,8,0:0:0:0:
170,207,64855,1,8,0:0:0:0:
382,249,65009,5,8,0:0:0:0:
172,122,65162,1,8,0:0:0:0:
340,318,65317,53,8,0:0:0:0:
242,55,65470,1,8,0:0:0:0:
196,384,65625,5,8,0:0:0:0:
450,195,65778,1,8,0:0:0:0:
237,38,65932,6,0,P|194:14|217:96,1,190,8|0,0:0|0:0,0:0:0:0:
233,110,66702,2,0,L|272:104,1,23.75
447,53,66855,70,0,L|294:46,1,142.500005435944,2|0,0:0|0:0,0:0:0:0:
73,65,67163,22,0,B|38:136|80:181|110:224|78:288,1,227.999993041992,4|8,0:0|0:0,0:0:0:0:
79,285,67625,1,0,0:0:0:0:
154,146,67778,2,0,P|221:109|276:110,1,113.999996520996,0|0,0:0|0:0,0:0:0:0:
350,291,68086,2,0,P|294:283|246:251,1,113.999996520996,8|0,0:0|0:0,0:0:0:0:
352,73,68394,6,0,B|384:129|384:129|364:298,1,227.999993041992,0|8,0:0|0:0,0:0:0:0:
174,368,68855,1,0,0:0:0:0:
174,368,69009,2,0,L|154:243,1,113.999996520996,0|0,0:0|0:0,0:0:0:0:
256,74,69317,2,0,L|237:186,1,113.999996520996,8|0,0:0|0:0,0:0:0:0:
337,367,69625,6,0,P|397:375|452:350,1,113.999996520996,0|0,0:0|0:0,0:0:0:0:
501,157,69932,2,0,P|448:136|392:145,1,113.999996520996,8|0,0:0|0:0,0:0:0:0:
250,295,70240,1,0,0:0:0:0:
250,295,70394,2,0,L|239:171,1,113.999996520996,0|8,0:0|0:0,0:0:0:0:
135,3,70702,1,0,0:0:0:0:
240,177,70855,54,0,P|294:168|353:197,1,113.999996520996,0|0,0:0|0:0,0:0:0:0:
189,325,71163,2,0,P|137:348|82:339,1,113.999996520996,8|0,0:0|0:0,0:0:0:0:
156,146,71471,1,0,0:0:0:0:
290,301,71625,1,0,0:0:0:0:
50,184,71778,2,0,L|37:62,1,113.999996520996,8|0,0:0|0:0,0:0:0:0:
187,213,72086,6,0,P|256:228|171:289,1,227.999993041992,0|8,0:0|0:0,0:0:0:0:
107,104,72548,1,0,0:0:0:0:
307,146,72702,2,0,P|347:200|357:258,1,113.999996520996,0|0,0:0|0:0,0:0:0:0:
62,307,73009,2,0,P|76:252|111:208,1,113.999996520996,8|0,0:0|0:0,0:0:0:0:
255,59,73317,6,0,L|395:50,1,113.999996520996,0|0,0:0|0:0,0:0:0:0:
473,269,73625,2,0,L|359:261,1,113.999996520996,8|0,0:0|0:0,0:0:0:0:
207,122,73932,1,0,0:0:0:0:
216,327,74086,1,0,0:0:0:0:
398,160,74240,2,0,L|382:22,1,113.999996520996,8|0,0:0|0:0,0:0:0:0:
254,207,74548,53,0,0:0:0:0:
130,371,74702,1,0,0:0:0:0:
202,128,74855,2,0,P|268:112|323:139,1,113.999996520996,8|0,0:0|0:0,0:0:0:0:
395,315,75163,2,0,P|341:331|287:314,1,113.999996520996,0|0,0:0|0:0,0:0:0:0:
139,170,75471,2,0,L|140:230,1,56.9999982604981,8|0,0:0|0:0,0:0:0:0:
181,323,75625,1,0,0:0:0:0:
181,323,75702,1,0,0:0:0:0:
181,323,75778,5,0,0:0:0:0:
26,187,75932,1,0,0:0:0:0:
337,307,76086,6,0,B|481:318|481:318,1,142.500005435944,12|0,0:0|0:0,0:0:0:0:
278,367,76394,5,0,0:0:0:0:
193,179,76548,1,0,0:0:0:0:
416,100,76702,1,8,0:0:0:0:
387,144,76778,1,8,0:0:0:0:
340,172,76855,1,8,0:0:0:0:
292,166,76932,1,8,0:0:0:0:
252,137,77009,6,0,B|239:-5|239:-5|305:84,1,227.999993041992,12|8,0:0|0:0,0:0:0:0:
278,275,77471,1,0,0:0:0:0:
138,142,77625,2,0,L|251:137,1,113.999996520996
188,337,77932,2,0,L|74:332,1,113.999996520996,8|0,0:0|0:0,0:0:0:0:
44,127,78240,6,0,B|63:84|41:8|41:8|86:46|139:51,1,227.999993041992,0|8,0:0|0:0,0:0:0:0:
328,125,78701,1,0,0:0:0:0:
178,265,78855,2,0,L|158:140,1,113.999996520996,0|0,0:0|0:0,0:0:0:0:
347,12,79163,2,0,L|328:124,1,113.999996520996,8|0,0:0|0:0,0:0:0:0:
310,330,79471,6,0,P|370:338|425:313,1,113.999996520996,0|0,0:0|0:0,0:0:0:0:
506,132,79778,2,0,P|453:111|397:120,1,113.999996520996,8|0,0:0|0:0,0:0:0:0:
252,266,80086,1,0,0:0:0:0:
252,266,80240,2,0,L|241:142,1,113.999996520996,0|8,0:0|0:0,0:0:0:0:
79,27,80548,1,0,0:0:0:0:
51,219,80701,6,0,P|105:210|164:239,1,113.999996520996,0|0,0:0|0:0,0:0:0:0:
320,361,81009,2,0,P|268:384|213:375,1,113.999996520996,8|0,0:0|0:0,0:0:0:0:
242,170,81317,1,0,0:0:0:0:
98,316,81471,1,0,0:0:0:0:
54,71,81625,2,0,L|176:54,1,113.999996520996,8|0,0:0|0:0,0:0:0:0:
369,88,81932,6,0,B|425:154|379:199|332:245|386:315,1,227.999993041992,12|8,0:0|0:0,0:0:0:0:
177,355,82394,1,0,0:0:0:0:
195,150,82548,2,0,L|318:138,1,113.999996520996,0|0,0:0|0:0,0:0:0:0:
494,305,82855,2,0,L|380:293,1,113.999996520996,8|0,0:0|0:0,0:0:0:0:
174,279,83163,54,0,P|147:222|170:152,1,113.999996520996,0|0,0:0|0:0,0:0:0:0:
338,27,83471,2,0,P|345:82|319:132,1,113.999996520996,8|0,0:0|0:0,0:0:0:0:
272,332,83778,1,0,0:0:0:0:
154,163,83932,1,0,0:0:0:0:
371,273,84086,2,0,L|509:257,1,113.999996520996,8|0,0:0|0:0,0:0:0:0:
402,69,84394,5,0,0:0:0:0:
266,223,84548,1,0,0:0:0:0:
471,367,84702,2,0,P|493:295|480:253,1,113.999996520996,8|0,0:0|0:0,0:0:0:0:
324,129,85009,1,0,0:0:0:0:
410,315,85163,1,0,0:0:0:0:
458,68,85317,2,0,L|398:69,1,56.9999982604981,0|0,0:0|0:0,0:0:0:0:
297,60,85471,1,0,0:0:0:0:
297,60,85548,1,0,0:0:0:0:
297,60,85624,5,0,0:0:0:0:
253,260,85778,1,0,0:0:0:0:
223,4,85932,54,0,B|79:15|79:15|130:52,1,142.500005435944,12|0,0:0|0:0,0:0:0:0:
94,221,86240,5,0,0:0:0:0:
280,135,86394,1,0,0:0:0:0:
236,335,86548,1,0,0:0:0:0:
290,348,86624,1,0,0:0:0:0:
341,326,86701,1,0,0:0:0:0:
367,276,86778,1,0,0:0:0:0:
356,221,86855,22,0,B|307:202|242:208|242:208|248:246|298:282,1,190,12|8,0:0|0:0,0:0:0:0:
434,346,87317,1,0,0:0:0:0:
434,174,87471,2,0,P|397:137|327:135,1,95,0|0,0:0|0:0,0:0:0:0:
241,318,87778,2,0,L|115:322,1,95,8|0,0:0|0:0,0:0:0:0:
26,196,88086,6,0,P|9:131|9:89,1,95,0|0,0:0|0:0,0:0:0:0:
153,11,88394,1,8,0:0:0:0:
246,154,88548,2,0,P|242:201|228:246,1,95,0|0,0:0|0:0,0:0:0:0:
88,346,88855,1,0,0:0:0:0:
301,285,89009,2,0,L|406:275,1,95,8|0,0:0|0:0,0:0:0:0:
457,115,89317,6,0,P|461:53|436:6,1,95,0|0,0:0|0:0,0:0:0:0:
203,16,89625,2,0,P|188:60|195:107,1,95,8|0,0:0|0:0,0:0:0:0:
331,210,89932,2,0,P|335:148|310:101,1,95,0|0,0:0|0:0,0:0:0:0:
77,111,90240,2,0,P|62:155|69:202,1,95,8|0,0:0|0:0,0:0:0:0:
203,310,90548,54,0,B|254:318|254:318|302:311,1,95,0|0,0:0|0:0,0:0:0:0:
408,120,90855,1,8,0:0:0:0:
414,291,91009,2,0,P|400:349|414:382,1,95,0|8,0:0|0:0,0:0:0:0:
491,151,91317,2,0,P|481:75|350:51,1,190,12|0,0:0|0:0,0:0:0:0:
245,279,91778,6,0,B|221:229|221:229|239:77,1,190,12|8,0:0|0:0,0:0:0:0:
321,245,92240,1,0,0:0:0:0:
153,210,92394,2,0,L|165:110,1,95,0|0,0:0|0:0,0:0:0:0:
321,245,92702,2,0,L|332:339,1,95,8|0,0:0|0:0,0:0:0:0:
286,174,93009,6,0,B|428:166|428:166|388:219,1,190,0|8,0:0|0:0,0:0:0:0:
240,271,93471,1,0,0:0:0:0:
240,271,93548,1,0,0:0:0:0:
240,271,93625,2,0,P|213:202|217:169,1,95,0|0,0:0|0:0,0:0:0:0:
357,15,93932,2,0,P|353:62|331:103,1,95,8|0,0:0|0:0,0:0:0:0:
85,53,94240,54,0,L|284:41,1,190,12|8,0:0|0:0,0:0:0:0:
156,166,94702,1,0,0:0:0:0:
156,166,94778,1,0,0:0:0:0:
156,166,94855,2,0,L|57:160,1,95,0|0,0:0|0:0,0:0:0:0:
230,129,95163,2,0,L|329:123,1,95,8|0,0:0|0:0,0:0:0:0:
418,267,95471,6,0,P|391:215|464:118,1,190,0|8,0:0|0:0,0:0:0:0:
496,286,95932,1,0,0:0:0:0:
496,286,96009,1,0,0:0:0:0:
496,286,96086,2,0,P|455:333|400:343,1,95,0|0,0:0|0:0,0:0:0:0:
296,108,96394,1,8,0:0:0:0:
296,279,96548,1,0,0:0:0:0:
360,55,96702,5,4,0:0:0:0:
331,32,96778,1,0,0:0:0:0:
295,24,96855,1,0,0:0:0:0:
260,31,96932,1,0,0:0:0:0:
231,53,97009,1,0,0:0:0:0:
213,84,97086,1,0,0:0:0:0:
210,121,97163,1,0,0:0:0:0:
222,155,97240,1,0,0:0:0:0:
248,181,97317,5,0,0:0:0:0:
262,138,97393,1,0,0:0:0:0:
254,94,97470,1,0,0:0:0:0:
224,60,97547,1,0,0:0:0:0:
182,45,97624,1,0,0:0:0:0:
137,53,97701,1,0,0:0:0:0:
103,83,97778,1,0,0:0:0:0:
88,125,97855,1,0,0:0:0:0:
97,169,97932,53,0,0:0:0:0:
119,199,98008,1,0,0:0:0:0:
138,239,98085,1,0,0:0:0:0:
136,286,98162,1,0,0:0:0:0:
91,311,98239,1,0,0:0:0:0:
44,302,98316,1,0,0:0:0:0:
12,266,98393,1,0,0:0:0:0:
11,217,98470,1,0,0:0:0:0:
22,171,98548,5,0,0:0:0:0:
55,127,98624,1,0,0:0:0:0:
107,103,98701,1,0,0:0:0:0:
160,102,98778,1,0,0:0:0:0:
206,127,98855,1,0,0:0:0:0:
234,171,98932,1,0,0:0:0:0:
236,224,99009,2,0,L|134:238,1,66.4999979705811,0|0,0:0|0:0,0:0:0:0:
40,58,99163,5,12,0:0:0:0:
316,32,99317,1,8,0:0:0:0:
154,250,99471,53,8,0:0:0:0:
144,0,99625,1,8,0:0:0:0:
322,166,99778,5,8,0:0:0:0:
91,330,99932,1,8,0:0:0:0:
143,107,100086,5,8,0:0:0:0:
407,199,100240,1,8,0:0:0:0:
91,330,100380,54,0,P|39:276|113:280,1,190,12|0,0:0|0:0,0:0:0:0:
186,299,101610,6,0,B|169:251|169:251|190:184,1,95,6|0,0:0|0:0,0:0:0:0:
341,271,101918,2,0,B|354:313|354:313|337:361,1,95,2|0,0:0|0:0,0:0:0:0:
259,207,102225,1,2,0:0:0:0:
421,259,102379,1,0,0:0:0:0:
264,328,102533,1,2,0:0:0:0:
354,182,102687,6,0,P|408:155|512:224,1,190,0|0,0:0|0:0,0:0:0:0:
419,362,103149,2,0,P|405:305|424:253,1,95,2|0,0:0|0:0,0:0:0:0:
454,103,103456,2,0,P|468:46|449:-6,1,95,2|0,0:0|0:0,0:0:0:0:
319,109,103763,1,2,0:0:0:0:
319,109,103918,2,0,L|325:55,1,47.5
253,189,104072,54,0,P|297:211|357:208,1,95,6|0,0:0|0:0,0:0:0:0:
249,66,104380,2,0,P|201:67|159:88,1,95,2|0,0:0|0:0,0:0:0:0:
203,255,104687,1,2,0:0:0:0:
318,130,104841,1,0,0:0:0:0:
152,87,104995,1,2,0:0:0:0:
340,310,105149,6,0,B|358:259|358:259|313:114,1,190,0|0,0:0|0:0,0:0:0:0:
188,15,105610,2,0,P|126:13|85:33,1,95,2|0,0:0|0:0,0:0:0:0:
220,143,105918,2,0,P|282:145|323:125,1,95,0|0,0:0|0:0,0:0:0:0:
445,24,106225,1,2,0:0:0:0:
420,194,106380,2,0,P|440:249|466:266,1,47.5,0|0,0:0|0:0,0:0:0:0:
401,122,106533,6,0,P|348:172|357:227,1,95,6|0,0:0|0:0,0:0:0:0:
262,339,106841,2,0,P|245:268|193:248,1,95,2|0,0:0|0:0,0:0:0:0:
156,101,107148,2,0,P|225:121|268:86,2,95,2|0|2,0:0|0:0|0:0,0:0:0:0:
7,13,107610,54,0,L|30:241,1,190,0|0,0:0|0:0,0:0:0:0:
158,310,108072,2,0,L|256:300,1,95,2|0,0:0|0:0,0:0:0:0:
424,294,108379,1,2,0:0:0:0:
396,75,108533,2,0,P|338:45|367:117,1,190,4|0,0:0|0:0,0:0:0:0:
209,50,108995,6,0,B|172:47|172:47|75:72,1,95,2|0,0:0|0:0,0:0:0:0:
184,219,109302,2,0,B|240:233|240:233|277:230,1,95,2|0,0:0|0:0,0:0:0:0:
117,165,109610,2,0,P|97:213|131:290,1,95,2|0,0:0|0:0,0:0:0:0:
280,89,109918,2,0,P|285:42|266:0,1,95,2|2,0:0|0:0,0:0:0:0:
329,159,110225,5,2,0:0:0:0:
193,54,110379,1,0,0:0:0:0:
192,53,110456,1,0,0:0:0:0:
192,53,110533,2,0,P|179:120|240:95,1,142.5,2|0,0:0|0:0,0:0:0:0:
308,39,110841,2,0,P|313:116|349:154,1,95,2|0,0:0|0:0,0:0:0:0:
405,284,111149,2,0,P|423:240|418:193,1,95,2|0,0:0|0:0,0:0:0:0:
218,362,111456,54,0,L|318:355,1,95,6|0,0:0|0:0,0:0:0:0:
512,199,111764,2,0,L|417:192,1,95,2|0,0:0|0:0,0:0:0:0:
246,170,112071,1,2,0:0:0:0:
363,294,112225,1,0,0:0:0:0:
343,123,112379,1,2,0:0:0:0:
263,274,112533,6,0,P|317:236|239:175,1,190,0|0,0:0|0:0,0:0:0:0:
107,271,112995,2,0,P|93:320|103:370,1,95,2|0,0:0|0:0,0:0:0:0:
271,375,113302,1,2,0:0:0:0:
181,128,113456,2,0,B|41:135|41:135|77:182,1,190,4|0,0:0|0:0,0:0:0:0:
245,171,113918,2,0,P|257:122|235:71,1,95,2|0,0:0|0:0,0:0:0:0:
142,229,114226,2,0,P|128:274|137:320,1,95,2|0,0:0|0:0,0:0:0:0:
306,353,114533,1,2,0:0:0:0:
306,353,114687,2,0,P|311:304|414:347,1,190,0|0,0:0|0:0,0:0:0:0:
257,258,115149,6,0,P|301:215|360:208,1,95,2|0,0:0|0:0,0:0:0:0:
500,244,115456,2,0,L|486:60,1,142.5,2|0,0:0|0:0,0:0:0:0:
467,9,115764,2,0,P|419:-2|357:22,1,95,2|0,0:0|0:0,0:0:0:0:
226,59,116071,53,2,0:0:0:0:
253,76,116174,5,0,0:0:0:0:
291,82,116276,5,0,0:0:0:0:
329,76,116379,54,0,P|341:129|336:176,1,95,2|0,0:0|0:0,0:0:0:0:
276,12,116687,2,0,P|319:-6|365:1,1,95,2|0,0:0|0:0,0:0:0:0:
337,169,116994,1,2,0:0:0:0:
276,12,117148,1,0,0:0:0:0:
417,95,117302,1,2,0:0:0:0:
239,126,117456,1,0,0:0:0:0:
417,95,117610,6,0,L|522:89,1,95,2|0,0:0|0:0,0:0:0:0:
372,227,117918,2,0,P|334:177|335:117,1,95,2|0,0:0|0:0,0:0:0:0:
287,63,118225,1,2,0:0:0:0:
162,180,118379,1,0,0:0:0:0:
330,147,118533,1,2,0:0:0:0:
176,71,118687,1,0,0:0:0:0:
261,275,118841,6,0,B|310:282|310:282|363:271,1,95,2|0,0:0|0:0,0:0:0:0:
503,186,119149,2,0,B|458:176|458:176|409:183,1,95,0|0,0:0|0:0,0:0:0:0:
369,350,119456,1,2,0:0:0:0:
315,187,119610,1,0,0:0:0:0:
464,381,119764,2,0,P|465:333|450:289,1,95,2|0,0:0|0:0,0:0:0:0:
317,273,120071,53,12,0:0:0:0:
276,296,120149,1,8,0:0:0:0:
229,296,120226,1,8,0:0:0:0:
187,274,120303,1,8,0:0:0:0:
162,234,120380,1,8,0:0:0:0:
152,280,120456,1,8,0:0:0:0:
118,312,120533,1,8,0:0:0:0:
72,320,120610,1,8,0:0:0:0:
29,299,120687,6,0,L|12:239,1,47.5,8|0,0:0|0:0,0:0:0:0:
112,112,120841,2,0,L|99:157,1,47.5,8|0,0:0|0:0,0:0:0:0:
21,12,120995,2,0,L|81:-5,1,47.5,8|0,0:0|0:0,0:0:0:0:
208,95,121148,1,8,0:0:0:0:
208,95,121225,1,8,0:0:0:0:
208,95,121302,5,12,0:0:0:0:
256,192,121380,12,0,129841,0:0:0:0:
