osu file format v14

[General]
AudioFilename: audio.mp3
AudioLeadIn: 0
PreviewTime: 66086
Countdown: 0
SampleSet: Soft
StackLeniency: 0.7
Mode: 0
LetterboxInBreaks: 0
WidescreenStoryboard: 0

[Editor]
Bookmarks: 129855
DistanceSpacing: 1
BeatDivisor: 4
GridSize: 4
TimelineZoom: 1.7

[Metadata]
Title:STAR BEAT!~Hoshi no Kodou~
TitleUnicode:STAR BEAT!~ホシノコドウ~
Artist:Poppin'Party
ArtistUnicode:Poppin'Party
Creator:[ L u k a s ]
Version:Asuka_-'s EasY!
Source:BanG Dream!
Tags:Firis_Mistlud Suzuki_1112 Gaia kawaiwkyik Rizia Lukas Asuka_- joker- kurantemelodii
BeatmapID:1391984
BeatmapSetID:650607

[Difficulty]
HPDrainRate:2
CircleSize:2.3
OverallDifficulty:2
ApproachRate:2
SliderMultiplier:0.7
SliderTickRate:1

[Events]
//Background and Video events
0,0,"sta beet.jpg",0,0
//Break Periods
//Storyboard Layer 0 (Background)
//Storyboard Layer 1 (Fail)
//Storyboard Layer 2 (Pass)
//Storyboard Layer 3 (Foreground)
//Storyboard Sound Samples

[TimingPoints]
702,307.692307692308,4,2,1,60,1,0
10548,-100,4,2,1,60,0,0
20394,-100,4,2,1,60,0,0
22855,-100,4,2,5,40,0,0
23471,-100,4,2,1,5,0,0
23625,-100,4,2,5,40,0,0
24086,-100,4,2,6,40,0,0
24702,-100,4,2,1,5,0,0
24855,-100,4,2,6,40,0,0
25317,-100,4,2,11,40,0,0
25933,-100,4,2,1,5,0,0
26087,-100,4,2,11,40,0,0
26855,-100,4,2,8,40,0,0
27009,-100,4,2,9,40,0,0
27317,-100,4,2,11,40,0,0
27778,-100,4,2,5,40,0,0
28009,-100,4,2,5,5,0,0
28086,-100,4,2,10,40,0,0
28394,-100,4,2,10,5,0,0
28548,-100,4,2,5,40,0,0
29009,-100,4,2,6,40,0,0
29240,-100,4,2,6,5,0,0
29317,-100,4,2,6,40,0,0
29625,-100,4,2,6,5,0,0
29778,-100,4,2,6,40,0,0
30240,-100,4,2,11,40,0,0
31471,-100,4,2,8,40,0,0
32317,-100,4,1,11,40,0,0
32702,-100,4,2,1,50,0,0
45009,-100,4,2,1,30,0,0
45317,-100,4,2,1,50,0,0
47471,-100,4,2,1,30,0,0
47778,-100,4,2,1,50,0,0
54855,-100,4,2,1,30,0,0
55163,-100,4,2,1,50,0,0
57317,-100,4,2,1,30,0,0
57625,-100,4,2,1,50,0,0
62240,-100,4,2,1,60,0,0
65163,-100,4,2,1,65,0,0
65317,-100,4,2,1,70,0,0
65471,-100,4,2,1,75,0,0
65625,-100,4,2,1,80,0,0
65778,-100,4,2,1,85,0,0
65932,-100,4,2,1,40,0,0
66778,-100,4,2,1,5,0,0
66855,-100,4,2,1,100,0,0
67163,-100,4,2,1,100,0,1
86855,-100,4,2,1,60,0,0
99163,-100,4,2,1,75,0,0
100380,307.692307692308,4,2,1,40,1,0
120687,-100,4,2,1,70,0,0
121303,-100,4,2,1,60,0,0
129841,-100,4,2,1,5,0,0

[Colours]
Combo1 : 128,0,128
Combo2 : 240,152,0
Combo3 : 255,0,0
Combo4 : 255,255,0
Combo5 : 255,128,192
Combo6 : 255,0,128

[HitObjects]
24,347,702,6,0,P|9:273|40:212,1,140,4|0,0:0|0:0,0:0:0:0:
160,154,1933,1,0,0:0:0:0:
292,200,2548,1,0,0:0:0:0:
427,165,3164,2,0,P|415:232|402:310,2,140,4|0|0,0:0|0:0|0:0,0:0:0:0:
444,25,5010,1,8,0:3:0:0:
341,120,5625,6,0,P|270:143|198:100,1,140,4|0,0:0|0:0,0:0:0:0:
122,10,6856,1,0,0:0:0:0:
31,116,7472,1,8,0:0:0:0:
90,242,8087,2,0,L|235:224,2,140,4|0|4,0:0|0:0|0:3,0:0:0:0:
15,360,9932,1,8,0:0:0:0:
154,374,10548,6,0,L|314:357,1,140,6|2,0:0|0:0,0:0:0:0:
397,265,11779,1,2,0:0:0:0:
287,177,12394,1,2,0:0:0:0:
368,63,13010,2,0,P|438:55|507:101,2,140,6|2|2,0:0|0:0|0:0,0:0:0:0:
287,177,14856,1,8,0:3:0:0:
158,122,15471,6,0,L|177:272,1,140,6|2,0:0|0:0,0:0:0:0:
259,373,16702,1,4,0:0:0:0:
345,262,17318,1,8,0:3:0:0:
464,335,17933,2,0,P|475:266|489:177,2,140,4|2|2,0:0|0:0|0:0,0:0:0:0:
332,382,19778,1,2,0:0:0:0:
209,314,20394,5,0,0:0:0:0:
333,249,21009,1,0,0:0:0:0:
210,181,21625,1,0,0:0:0:0:
329,108,22240,1,0,0:0:0:0:
210,32,22855,6,0,P|141:15|71:56,1,140,8|0,0:0|0:0,0:0:0:0:
17,168,24086,1,8,0:0:0:0:
62,300,24702,2,0,P|94:310|143:310,1,69.9999999999999,0|0,0:0|0:0,0:0:0:0:
193,281,25317,2,0,L|213:133,1,140,8|0,0:0|0:0,0:0:0:0:
284,22,26548,1,8,0:0:0:0:
379,124,27163,1,0,0:0:0:0:
497,48,27778,6,0,L|510:200,1,140,8|0,0:0|0:0,0:0:0:0:
453,316,29009,1,8,0:0:0:0:
340,232,29625,1,0,0:0:0:0:
251,340,30240,2,0,P|177:356|117:311,1,140,8|0,0:0|0:0,0:0:0:0:
71,194,31471,1,8,0:0:0:0:
152,80,32086,1,0,0:0:0:0:
230,195,32702,6,0,P|295:221|374:191,1,140,6|2,0:0|0:0,0:0:0:0:
427,79,33932,1,2,0:0:0:0:
301,17,34548,2,0,P|258:18|216:25,1,69.9999999999999,2|10,0:0|0:0,0:0:0:0:
161,24,35163,2,0,L|137:196,1,140,2|2,0:0|0:0,0:0:0:0:
159,301,36394,1,2,0:0:0:0:
278,373,37009,2,0,P|312:376|358:366,1,69.9999999999999,2|10,0:0|0:0,0:0:0:0:
413,345,37625,6,0,L|428:206,1,140,2|2,0:0|0:0,0:0:0:0:
391,70,38855,1,2,0:0:0:0:
289,166,39471,1,2,0:0:0:0:
203,55,40086,2,0,P|157:47|118:47,1,69.9999999999999,2|10,0:0|0:0,0:0:0:0:
64,57,40702,2,0,L|74:202,1,140,2|2,0:0|0:0,0:0:0:0:
168,299,41932,2,0,L|185:146,1,140,2|6,0:0|0:0,0:0:0:0:
251,37,43163,1,2,0:0:0:0:
383,81,43778,1,6,0:0:0:0:
436,210,44394,1,10,0:0:0:0:
380,338,45009,6,0,P|345:356|309:358,1,69.9999999999999,0|14,0:0|0:0,0:0:0:0:
108,317,46240,2,0,L|90:178,1,140,2|2,0:0|0:0,0:0:0:0:
137,45,47471,2,0,P|174:32|225:38,1,69.9999999999999,0|14,0:0|0:0,0:0:0:0:
411,67,48702,2,0,L|393:221,1,140,2|2,0:0|0:0,0:0:0:0:
326,328,49932,5,0,0:0:0:0:
278,196,50548,1,0,0:0:0:0:
191,305,51163,1,0,0:0:0:0:
130,178,51778,1,0,0:0:0:0:
40,285,52394,2,0,L|16:147,2,140,14|2|2,0:0|0:0|0:0,0:0:0:0:
148,373,54240,1,2,0:0:0:0:
284,341,54855,6,0,P|299:314|308:265,1,69.9999999999999,0|4,0:0|0:0,0:0:0:0:
242,76,56086,2,0,L|101:86,1,140,2|2,0:0|0:0,0:0:0:0:
15,195,57317,2,0,P|7:231|6:269,1,69.9999999999999,0|14,0:0|0:0,0:0:0:0:
193,359,58548,2,0,L|339:353,1,140,2|2,0:0|0:0,0:0:0:0:
461,299,59778,5,0,0:0:0:0:
511,168,60394,1,0,0:0:0:0:
438,48,61009,1,0,0:0:0:0:
299,24,61625,1,0,0:0:0:0:
256,192,62240,12,14,65932,0:0:0:0:
97,83,67163,6,0,P|59:143|65:223,1,140,4|0,0:0|0:0,0:0:0:0:
120,336,68394,1,0,0:0:0:0:
254,375,69009,2,0,P|291:376|338:364,1,69.9999999999999,0|8,0:0|0:0,0:0:0:0:
391,351,69625,2,0,L|407:211,1,140,0|0,0:0|0:0,0:0:0:0:
374,75,70855,1,0,0:0:0:0:
269,167,71471,2,0,P|224:164|190:147,1,69.9999999999999,0|8,0:0|0:0,0:0:0:0:
165,94,72086,6,0,P|105:72|24:120,1,140,0|0,0:0|0:0,0:0:0:0:
3,236,73317,1,0,0:0:0:0:
85,348,73932,1,0,0:0:0:0:
163,232,74548,2,0,P|222:218|296:264,1,140,0|0,0:0|0:0,0:0:0:0:
341,300,75471,1,8,0:0:0:0:
378,358,75778,2,0,P|384:292|398:212,1,140,0|0,0:0|0:0,0:0:0:0:
429,158,76702,1,8,0:0:0:0:
453,92,77009,6,0,P|391:62|300:100,1,140,12|0,0:0|0:0,0:0:0:0:
215,166,78240,1,0,0:0:0:0:
153,40,78855,2,0,P|118:33|74:37,1,69.9999999999999,0|8,0:0|0:0,0:0:0:0:
16,56,79471,2,0,L|33:219,1,140,0|0,0:0|0:0,0:0:0:0:
125,298,80702,1,0,0:0:0:0:
239,217,81317,2,0,P|249:253|255:291,1,69.9999999999999,0|8,0:0|0:0,0:0:0:0:
288,346,81932,6,0,P|357:361|431:341,1,140,12|0,0:0|0:0,0:0:0:0:
503,230,83163,1,0,0:0:0:0:
398,137,83778,1,0,0:0:0:0:
449,6,84394,2,0,L|294:24,1,140,0|0,0:0|0:0,0:0:0:0:
240,30,85317,1,0,0:0:0:0:
172,47,85624,2,0,P|143:107|172:175,1,140,0|0,0:0|0:0,0:0:0:0:
218,221,86548,1,0,0:0:0:0:
282,248,86855,6,0,L|421:240,1,140,12|0,0:0|0:0,0:0:0:0:
483,114,88086,1,0,0:0:0:0:
375,24,88702,1,0,0:0:0:0:
274,121,89317,2,0,P|208:162|128:142,1,140,0|0,0:0|0:0,0:0:0:0:
86,122,90240,1,8,0:0:0:0:
21,149,90548,2,0,L|-7:303,1,140,0|8,0:0|0:0,0:0:0:0:
106,372,91778,6,0,P|172:360|254:335,2,140,12|0|0,0:0|0:0|0:0,0:0:0:0:
5,274,93625,1,0,0:0:0:0:
128,208,94240,6,0,P|195:197|273:177,2,140,12|0|0,0:0|0:0|0:0,0:0:0:0:
0,151,96086,1,0,0:0:0:0:
110,69,96702,6,0,P|115:142|130:218,2,140,4|0|0,0:0|0:0|0:0,0:0:0:0:
0,151,98548,2,0,P|4:187|14:234,1,70,0|0,0:0|0:0,0:0:0:0:
47,279,99163,2,0,P|108:316|183:297,1,140,12|8,0:0|0:0,0:0:0:0:
262,200,100380,1,12,0:0:0:0:
477,375,101610,6,0,P|488:307|495:226,1,140,6|2,0:0|0:0,0:0:0:0:
421,116,102841,1,0,0:0:0:0:
328,220,103456,1,2,0:0:0:0:
254,100,104072,2,0,P|196:72|108:104,2,140,6|2|0,0:0|0:0|0:0,0:0:0:0:
328,220,105918,1,0,0:0:0:0:
261,343,106533,6,0,L|105:367,1,140,6|2,0:0|0:0,0:0:0:0:
13,276,107764,1,0,0:0:0:0:
119,185,108380,1,2,0:0:0:0:
53,61,108995,2,0,L|198:43,2,140,2|2|2,0:0|0:0|0:0,0:0:0:0:
0,191,110841,1,2,0:0:0:0:
48,322,111456,6,0,P|105:355|200:320,1,140,6|2,0:0|0:0,0:0:0:0:
280,249,112687,1,0,0:0:0:0:
185,146,113302,1,2,0:0:0:0:
301,68,113918,2,0,L|451:78,2,140,2|2|2,0:0|0:0|0:0,0:0:0:0:
185,146,115764,1,2,0:0:0:0:
302,222,116379,6,0,P|323:293|264:357,1,140,2|2,0:0|0:0,0:0:0:0:
153,377,117610,1,2,0:0:0:0:
38,296,118226,1,2,0:0:0:0:
112,177,118841,2,0,P|122:115|137:24,2,140,2|2|0,0:0|0:0|0:0,0:0:0:0:
172,303,120687,1,8,0:0:0:0:
256,192,121303,12,12,129841,0:0:0:0:
