osu file format v14

[General]
AudioFilename: audio.mp3
AudioLeadIn: 0
PreviewTime: 60528
Countdown: 0
SampleSet: None
StackLeniency: 0.7
Mode: 3
LetterboxInBreaks: 0
SpecialStyle: 0
WidescreenStoryboard: 1

[Editor]
DistanceSpacing: 0.8
BeatDivisor: 4
GridSize: 8
TimelineZoom: 2.5

[Metadata]
Title:Returns
TitleUnicode:Returns
Artist:Poppin'Party
ArtistUnicode:Poppin'Party
Creator:Damaree
Version:Endless Story ~ Special ~
Source:Bang Dream!
Tags:BanG Dream! 2nd Season Episode 12 Bandori Girls Band Party! Touyama Kasumi Hanazono Tae Ushigome Rimi Yamabuki Saaya Ichigaya Arisa Nakamura Kou Agematsu Noriyasu Fujita Junpei
BeatmapID:2198828
BeatmapSetID:1050918

[Difficulty]
HPDrainRate:8
CircleSize:4
OverallDifficulty:8
ApproachRate:5
SliderMultiplier:1.4
SliderTickRate:1

[Events]
//Background and Video events
0,0,"retBG.png",0,0
//Break Periods
//Storyboard Layer 0 (Background)
//Storyboard Layer 1 (Fail)
//Storyboard Layer 2 (Pass)
//Storyboard Layer 3 (Foreground)
//Storyboard Layer 4 (Overlay)
//Storyboard Sound Samples

[TimingPoints]
858,324.324324324324,4,2,0,0,1,0
53728,363.636363636364,4,2,0,0,1,0
54455,413.793103448276,4,2,0,0,1,0
55282,480,4,2,0,0,1,0
55762,923.076923076923,4,2,0,0,1,0
56685,1000,4,2,0,0,1,0
57685,1250,4,2,0,0,1,0
58935,1428.57142857143,4,2,0,0,1,0
60366,324.324324324324,4,2,0,0,1,0
60366,-100,4,2,0,0,0,1
70663,-100,4,2,0,0,0,0
70744,-100,4,2,0,0,0,1
81041,-100,4,2,0,0,0,0
81122,-100,4,2,0,0,0,1
91420,-100,4,2,0,0,0,0
91501,-100,4,2,0,0,0,1
101879,-100,4,2,0,0,0,0
158960,-100,4,2,0,0,0,1
169257,-100,4,2,0,0,0,0
169338,-100,4,2,0,0,0,1
179636,-100,4,2,0,0,0,0
179717,-100,4,2,0,0,0,1
190014,-100,4,2,0,0,0,0
190095,-100,4,2,0,0,0,1
200474,-100,4,2,0,0,0,0
243976,324.324324324324,4,2,0,0,1,0
244324,363.636363636364,4,2,0,0,1,0
245056,413.793103448276,4,2,0,0,1,0
245878,480,4,2,0,0,1,0
246358,923.076923076923,4,2,0,0,1,0
247281,1000,4,2,0,0,1,0
248281,1250,4,2,0,0,1,0
249531,1428.57142857143,4,2,0,0,1,0
250959,324.324324324324,4,2,0,0,1,0
250959,-100,4,2,0,0,0,1
261256,-100,4,2,0,0,0,0
261337,-100,4,2,0,0,0,1
271634,-100,4,2,0,0,0,0
271715,-100,4,2,0,0,0,1
282013,-100,4,2,0,0,0,0
282094,-100,4,2,0,0,0,1
292472,-100,4,2,0,0,0,0

[HitObjects]
448,192,858,128,0,1182:0:0:0:0:
64,192,858,1,0,0:0:0:0:
192,192,1182,128,0,1344:0:0:0:0:
64,192,1344,128,0,2155:0:0:0:0:
320,192,1830,128,0,2155:0:0:0:0:
192,192,2155,128,0,2479:0:0:0:0:
448,192,2155,1,0,0:0:0:0:
448,192,2479,128,0,2641:0:0:0:0:
320,192,2641,128,0,3290:0:0:0:0:
64,192,3452,128,0,3776:0:0:0:0:
192,192,3452,1,0,0:0:0:0:
320,192,3776,128,0,3939:0:0:0:0:
192,192,3939,128,0,4020:0:0:0:0:
64,192,4020,128,0,4101:0:0:0:0:
192,192,4101,128,0,4182:0:0:0:0:
320,192,4182,128,0,4263:0:0:0:0:
448,192,4263,128,0,4749:0:0:0:0:
64,192,4749,128,0,5398:0:0:0:0:
320,192,4749,1,0,0:0:0:0:
192,192,5074,128,0,5398:0:0:0:0:
448,192,5398,128,0,6047:0:0:0:0:
320,192,5398,1,0,0:0:0:0:
320,192,5722,128,0,6047:0:0:0:0:
64,192,6047,128,0,6371:0:0:0:0:
192,192,6047,1,0,0:0:0:0:
320,192,6371,128,0,6533:0:0:0:0:
192,192,6533,128,0,7344:0:0:0:0:
448,192,7020,128,0,7344:0:0:0:0:
64,192,7344,128,0,7668:0:0:0:0:
320,192,7344,1,0,0:0:0:0:
320,192,7668,128,0,7830:0:0:0:0:
448,192,7830,128,0,8479:0:0:0:0:
64,192,8641,128,0,8966:0:0:0:0:
192,192,8641,1,0,0:0:0:0:
320,192,8966,128,0,9128:0:0:0:0:
448,192,9128,128,0,9209:0:0:0:0:
320,192,9209,128,0,9290:0:0:0:0:
192,192,9290,128,0,9371:0:0:0:0:
64,192,9371,128,0,9452:0:0:0:0:
320,192,9452,128,0,9533:0:0:0:0:
192,192,9533,128,0,9614:0:0:0:0:
64,192,9614,128,0,9939:0:0:0:0:
448,192,9939,128,0,10587:0:0:0:0:
320,192,9939,1,0,0:0:0:0:
192,192,10263,128,0,10587:0:0:0:0:
64,192,10587,128,0,11236:0:0:0:0:
320,192,10587,1,0,0:0:0:0:
320,192,10912,128,0,11236:0:0:0:0:
448,192,11236,128,0,11560:0:0:0:0:
192,192,11236,1,0,0:0:0:0:
64,192,11560,128,0,11722:0:0:0:0:
320,192,11722,128,0,12533:0:0:0:0:
448,192,12209,128,0,12533:0:0:0:0:
64,192,12533,128,0,12857:0:0:0:0:
192,192,12533,1,0,0:0:0:0:
320,192,12857,128,0,13020:0:0:0:0:
192,192,13020,128,0,13668:0:0:0:0:
64,192,13830,128,0,14155:0:0:0:0:
320,192,13830,1,0,0:0:0:0:
448,192,14155,128,0,14317:0:0:0:0:
192,192,14317,128,0,14398:0:0:0:0:
320,192,14398,128,0,14479:0:0:0:0:
448,192,14479,128,0,14560:0:0:0:0:
64,192,14560,128,0,14641:0:0:0:0:
192,192,14641,128,0,15128:0:0:0:0:
64,192,15128,128,0,15776:0:0:0:0:
448,192,15128,1,0,0:0:0:0:
320,192,15452,128,0,15776:0:0:0:0:
448,192,15776,128,0,16425:0:0:0:0:
192,192,15776,1,0,0:0:0:0:
192,192,16101,128,0,16425:0:0:0:0:
64,192,16425,128,0,16749:0:0:0:0:
320,192,16425,1,0,0:0:0:0:
320,192,16749,128,0,16912:0:0:0:0:
192,192,16912,128,0,17722:0:0:0:0:
448,192,17398,128,0,17722:0:0:0:0:
64,192,17722,128,0,18047:0:0:0:0:
320,192,17722,1,0,0:0:0:0:
320,192,18047,128,0,18209:0:0:0:0:
448,192,18209,128,0,18857:0:0:0:0:
192,192,19020,128,0,19344:0:0:0:0:
64,192,19020,1,0,0:0:0:0:
64,192,19344,128,0,19506:0:0:0:0:
448,192,19506,128,0,19587:0:0:0:0:
320,192,19587,128,0,19668:0:0:0:0:
64,192,19668,128,0,19749:0:0:0:0:
192,192,19749,128,0,19830:0:0:0:0:
320,192,19830,128,0,19912:0:0:0:0:
448,192,19912,128,0,19993:0:0:0:0:
64,192,19993,128,0,20317:0:0:0:0:
448,192,20317,128,0,20966:0:0:0:0:
192,192,20317,1,0,0:0:0:0:
320,192,20641,128,0,20966:0:0:0:0:
64,192,20966,128,0,21614:0:0:0:0:
192,192,20966,1,0,0:0:0:0:
448,192,21128,1,0,0:0:0:0:
192,192,21290,128,0,21614:0:0:0:0:
320,192,21290,1,0,0:0:0:0:
448,192,21452,1,0,0:0:0:0:
448,192,21614,128,0,21939:0:0:0:0:
320,192,21614,1,0,0:0:0:0:
64,192,21776,1,0,0:0:0:0:
192,192,21939,128,0,22101:0:0:0:0:
320,192,21939,1,0,0:0:0:0:
320,192,22101,128,0,22912:0:0:0:0:
64,192,22101,1,0,0:0:0:0:
448,192,22263,1,0,0:0:0:0:
192,192,22425,1,0,0:0:0:0:
64,192,22587,128,0,22912:0:0:0:0:
448,192,22749,1,0,0:0:0:0:
448,192,22912,128,0,23236:0:0:0:0:
192,192,22912,1,0,0:0:0:0:
64,192,23074,1,0,0:0:0:0:
192,192,23236,128,0,23398:0:0:0:0:
320,192,23236,1,0,0:0:0:0:
320,192,23398,128,0,24047:0:0:0:0:
448,192,23398,1,0,0:0:0:0:
192,192,23560,1,0,0:0:0:0:
64,192,23722,1,0,0:0:0:0:
192,192,23885,1,0,0:0:0:0:
448,192,24047,1,0,0:0:0:0:
64,192,24209,128,0,24533:0:0:0:0:
192,192,24209,1,0,0:0:0:0:
320,192,24371,1,0,0:0:0:0:
448,192,24533,128,0,24695:0:0:0:0:
192,192,24533,1,0,0:0:0:0:
192,192,24695,128,0,24776:0:0:0:0:
64,192,24695,1,0,0:0:0:0:
320,192,24776,128,0,24857:0:0:0:0:
448,192,24857,128,0,24939:0:0:0:0:
192,192,24857,1,0,0:0:0:0:
64,192,24939,128,0,25020:0:0:0:0:
192,192,25020,128,0,25506:0:0:0:0:
320,192,25020,1,0,0:0:0:0:
448,192,25182,1,0,0:0:0:0:
320,192,25344,1,0,0:0:0:0:
448,192,25506,128,0,26155:0:0:0:0:
64,192,25506,1,0,0:0:0:0:
192,192,25668,1,0,0:0:0:0:
64,192,25830,128,0,26155:0:0:0:0:
320,192,25830,1,0,0:0:0:0:
192,192,25993,1,0,0:0:0:0:
192,192,26155,128,0,26803:0:0:0:0:
320,192,26155,1,0,0:0:0:0:
64,192,26317,1,0,0:0:0:0:
320,192,26479,128,0,26803:0:0:0:0:
448,192,26479,1,0,0:0:0:0:
64,192,26641,1,0,0:0:0:0:
64,192,26803,128,0,27128:0:0:0:0:
448,192,26803,1,0,0:0:0:0:
192,192,26966,1,0,0:0:0:0:
320,192,27128,128,0,27290:0:0:0:0:
448,192,27128,1,0,0:0:0:0:
192,192,27290,128,0,28101:0:0:0:0:
64,192,27290,1,0,0:0:0:0:
448,192,27452,1,0,0:0:0:0:
64,192,27614,1,0,0:0:0:0:
448,192,27776,128,0,28101:0:0:0:0:
320,192,27776,1,0,0:0:0:0:
64,192,27939,1,0,0:0:0:0:
64,192,28101,128,0,28425:0:0:0:0:
320,192,28101,1,0,0:0:0:0:
448,192,28263,1,0,0:0:0:0:
320,192,28425,128,0,28587:0:0:0:0:
192,192,28425,1,0,0:0:0:0:
448,192,28587,128,0,29236:0:0:0:0:
64,192,28587,1,0,0:0:0:0:
192,192,28749,1,0,0:0:0:0:
320,192,28912,1,0,0:0:0:0:
64,192,29074,1,0,0:0:0:0:
192,192,29236,1,0,0:0:0:0:
64,192,29398,128,0,29722:0:0:0:0:
320,192,29398,1,0,0:0:0:0:
448,192,29560,1,0,0:0:0:0:
320,192,29722,128,0,29885:0:0:0:0:
192,192,29722,1,0,0:0:0:0:
448,192,29885,128,0,29966:0:0:0:0:
64,192,29885,1,0,0:0:0:0:
320,192,29966,128,0,30047:0:0:0:0:
192,192,30047,128,0,30128:0:0:0:0:
448,192,30047,1,0,0:0:0:0:
64,192,30128,128,0,30209:0:0:0:0:
448,192,30209,128,0,30290:0:0:0:0:
192,192,30209,1,0,0:0:0:0:
320,192,30290,128,0,30371:0:0:0:0:
192,192,30371,128,0,30695:0:0:0:0:
64,192,30371,1,0,0:0:0:0:
320,192,30533,1,0,0:0:0:0:
448,192,30695,128,0,31020:0:0:0:0:
64,192,30695,1,0,0:0:0:0:
192,192,30857,1,0,0:0:0:0:
192,192,31020,128,0,31182:0:0:0:0:
320,192,31020,1,0,0:0:0:0:
320,192,31182,1,0,0:0:0:0:
64,192,31182,128,0,31506:0:0:0:0:
192,192,31344,1,0,0:0:0:0:
448,192,31506,128,0,31668:0:0:0:0:
320,192,31506,1,0,0:0:0:0:
192,192,31668,128,0,31993:0:0:0:0:
64,192,31668,1,0,0:0:0:0:
320,192,31830,1,0,0:0:0:0:
448,192,31993,128,0,32317:0:0:0:0:
320,192,31993,1,0,0:0:0:0:
64,192,31993,1,0,0:0:0:0:
192,192,32317,128,0,32479:0:0:0:0:
320,192,32317,1,0,0:0:0:0:
64,192,32479,128,0,33290:0:0:0:0:
448,192,32641,1,0,0:0:0:0:
320,192,32966,1,0,0:0:0:0:
192,192,33290,128,0,33614:0:0:0:0:
448,192,33290,1,0,0:0:0:0:
448,192,33614,128,0,33776:0:0:0:0:
64,192,33614,1,0,0:0:0:0:
320,192,33776,128,0,34587:0:0:0:0:
192,192,33939,1,0,0:0:0:0:
192,192,34263,128,0,34587:0:0:0:0:
64,192,34263,1,0,0:0:0:0:
64,192,34587,128,0,34912:0:0:0:0:
448,192,34587,1,0,0:0:0:0:
192,192,34912,128,0,35074:0:0:0:0:
320,192,34912,1,0,0:0:0:0:
448,192,35074,128,0,35885:0:0:0:0:
64,192,35236,1,0,0:0:0:0:
192,192,35560,1,0,0:0:0:0:
64,192,35885,128,0,36533:0:0:0:0:
320,192,35885,1,0,0:0:0:0:
192,192,36209,128,0,36533:0:0:0:0:
448,192,36209,1,0,0:0:0:0:
448,192,36533,128,0,37182:0:0:0:0:
320,192,36533,1,0,0:0:0:0:
320,192,36857,128,0,37182:0:0:0:0:
64,192,36857,1,0,0:0:0:0:
64,192,37182,128,0,37506:0:0:0:0:
192,192,37182,1,0,0:0:0:0:
320,192,37506,128,0,37668:0:0:0:0:
448,192,37506,1,0,0:0:0:0:
192,192,37668,128,0,38479:0:0:0:0:
64,192,37830,1,0,0:0:0:0:
448,192,38155,128,0,38479:0:0:0:0:
320,192,38155,1,0,0:0:0:0:
64,192,38479,128,0,38803:0:0:0:0:
320,192,38479,1,0,0:0:0:0:
320,192,38803,128,0,38966:0:0:0:0:
192,192,38803,1,0,0:0:0:0:
448,192,38966,128,0,39776:0:0:0:0:
64,192,39128,1,0,0:0:0:0:
320,192,39452,128,0,39776:0:0:0:0:
192,192,39452,1,0,0:0:0:0:
64,192,39776,128,0,40101:0:0:0:0:
192,192,39776,1,0,0:0:0:0:
448,192,40101,128,0,40263:0:0:0:0:
320,192,40101,1,0,0:0:0:0:
320,192,40263,128,0,41074:0:0:0:0:
64,192,40425,1,0,0:0:0:0:
192,192,40587,1,0,0:0:0:0:
64,192,40749,128,0,41074:0:0:0:0:
448,192,40749,1,0,0:0:0:0:
448,192,41074,128,0,41722:0:0:0:0:
192,192,41074,1,0,0:0:0:0:
192,192,41398,128,0,41722:0:0:0:0:
64,192,41398,1,0,0:0:0:0:
64,192,41722,128,0,42371:0:0:0:0:
320,192,41722,1,0,0:0:0:0:
320,192,42047,128,0,42371:0:0:0:0:
448,192,42047,1,0,0:0:0:0:
448,192,42371,128,0,42695:0:0:0:0:
192,192,42371,1,0,0:0:0:0:
192,192,42695,128,0,42857:0:0:0:0:
320,192,42695,1,0,0:0:0:0:
64,192,42857,128,0,43668:0:0:0:0:
448,192,43020,1,0,0:0:0:0:
320,192,43344,1,0,0:0:0:0:
320,192,43668,128,0,43993:0:0:0:0:
192,192,43668,1,0,0:0:0:0:
192,192,43993,128,0,44155:0:0:0:0:
64,192,43993,1,0,0:0:0:0:
448,192,44155,128,0,44966:0:0:0:0:
320,192,44317,1,0,0:0:0:0:
64,192,44641,128,0,44966:0:0:0:0:
192,192,44641,1,0,0:0:0:0:
192,192,44966,128,0,45290:0:0:0:0:
320,192,44966,1,0,0:0:0:0:
320,192,45290,128,0,45452:0:0:0:0:
448,192,45290,1,0,0:0:0:0:
64,192,45452,128,0,46263:0:0:0:0:
192,192,45614,1,0,0:0:0:0:
448,192,45939,1,0,0:0:0:0:
448,192,46263,128,0,47560:0:0:0:0:
320,192,46263,1,0,0:0:0:0:
192,192,46587,1,0,0:0:0:0:
64,192,46912,1,0,0:0:0:0:
320,192,46912,1,0,0:0:0:0:
64,192,47236,1,0,0:0:0:0:
64,192,47560,1,0,0:0:0:0:
192,192,47560,1,0,0:0:0:0:
320,192,47560,1,0,0:0:0:0:
448,192,47641,1,0,0:0:0:0:
192,192,47722,1,0,0:0:0:0:
320,192,47722,1,0,0:0:0:0:
64,192,47803,1,0,0:0:0:0:
448,192,47885,1,0,0:0:0:0:
320,192,47885,1,0,0:0:0:0:
192,192,47885,1,0,0:0:0:0:
64,192,47966,1,0,0:0:0:0:
320,192,48047,1,0,0:0:0:0:
448,192,48047,1,0,0:0:0:0:
192,192,48128,1,0,0:0:0:0:
64,192,48209,1,0,0:0:0:0:
320,192,48209,1,0,0:0:0:0:
448,192,48209,1,0,0:0:0:0:
192,192,48290,1,0,0:0:0:0:
64,192,48371,1,0,0:0:0:0:
448,192,48371,1,0,0:0:0:0:
320,192,48452,1,0,0:0:0:0:
448,192,48533,1,0,0:0:0:0:
64,192,48533,1,0,0:0:0:0:
192,192,48533,1,0,0:0:0:0:
320,192,48614,1,0,0:0:0:0:
192,192,48695,1,0,0:0:0:0:
64,192,48695,1,0,0:0:0:0:
448,192,48776,1,0,0:0:0:0:
192,192,48857,1,0,0:0:0:0:
64,192,48857,1,0,0:0:0:0:
320,192,48857,1,0,0:0:0:0:
448,192,48939,1,0,0:0:0:0:
320,192,49020,1,0,0:0:0:0:
192,192,49020,1,0,0:0:0:0:
64,192,49101,1,0,0:0:0:0:
320,192,49182,1,0,0:0:0:0:
448,192,49182,1,0,0:0:0:0:
192,192,49182,1,0,0:0:0:0:
64,192,49263,1,0,0:0:0:0:
320,192,49344,1,0,0:0:0:0:
448,192,49344,1,0,0:0:0:0:
192,192,49425,1,0,0:0:0:0:
64,192,49506,1,0,0:0:0:0:
448,192,49506,1,0,0:0:0:0:
320,192,49506,1,0,0:0:0:0:
192,192,49587,1,0,0:0:0:0:
320,192,49668,1,0,0:0:0:0:
448,192,49668,1,0,0:0:0:0:
192,192,49749,1,0,0:0:0:0:
64,192,49830,1,0,0:0:0:0:
448,192,49830,1,0,0:0:0:0:
320,192,49912,1,0,0:0:0:0:
192,192,49993,1,0,0:0:0:0:
64,192,49993,1,0,0:0:0:0:
448,192,50074,1,0,0:0:0:0:
320,192,50155,1,0,0:0:0:0:
192,192,50155,1,0,0:0:0:0:
64,192,50155,1,0,0:0:0:0:
320,192,50479,1,0,0:0:0:0:
448,192,50479,1,0,0:0:0:0:
192,192,50479,1,0,0:0:0:0:
64,192,50560,1,0,0:0:0:0:
192,192,50641,1,0,0:0:0:0:
448,192,50641,1,0,0:0:0:0:
320,192,50722,1,0,0:0:0:0:
192,192,50803,1,0,0:0:0:0:
64,192,50803,1,0,0:0:0:0:
448,192,50803,1,0,0:0:0:0:
320,192,50885,1,0,0:0:0:0:
192,192,50966,1,0,0:0:0:0:
64,192,50966,1,0,0:0:0:0:
448,192,51047,1,0,0:0:0:0:
320,192,51128,1,0,0:0:0:0:
64,192,51128,1,0,0:0:0:0:
192,192,51128,1,0,0:0:0:0:
448,192,51209,1,0,0:0:0:0:
320,192,51290,1,0,0:0:0:0:
192,192,51290,1,0,0:0:0:0:
64,192,51371,1,0,0:0:0:0:
320,192,51452,1,0,0:0:0:0:
448,192,51452,1,0,0:0:0:0:
192,192,51452,1,0,0:0:0:0:
64,192,51533,1,0,0:0:0:0:
192,192,51614,1,0,0:0:0:0:
448,192,51614,1,0,0:0:0:0:
320,192,51695,1,0,0:0:0:0:
192,192,51776,1,0,0:0:0:0:
64,192,51776,1,0,0:0:0:0:
448,192,51776,1,0,0:0:0:0:
320,192,51857,1,0,0:0:0:0:
64,192,51939,1,0,0:0:0:0:
448,192,51939,1,0,0:0:0:0:
192,192,52020,1,0,0:0:0:0:
64,192,52101,1,0,0:0:0:0:
448,192,52101,1,0,0:0:0:0:
320,192,52101,1,0,0:0:0:0:
192,192,52182,1,0,0:0:0:0:
448,192,52263,1,0,0:0:0:0:
320,192,52263,1,0,0:0:0:0:
64,192,52344,1,0,0:0:0:0:
192,192,52425,1,0,0:0:0:0:
320,192,52425,1,0,0:0:0:0:
448,192,52425,1,0,0:0:0:0:
64,192,52506,1,0,0:0:0:0:
320,192,52587,1,0,0:0:0:0:
448,192,52587,1,0,0:0:0:0:
192,192,52668,1,0,0:0:0:0:
64,192,52749,1,0,0:0:0:0:
320,192,52749,1,0,0:0:0:0:
448,192,52749,1,0,0:0:0:0:
320,192,53074,1,0,0:0:0:0:
192,192,53074,1,0,0:0:0:0:
320,192,53398,1,0,0:0:0:0:
448,192,53398,1,0,0:0:0:0:
64,192,53398,1,0,0:0:0:0:
192,192,53398,1,0,0:0:0:0:
192,192,53722,1,0,0:0:0:0:
64,192,53722,1,0,0:0:0:0:
320,192,53909,1,0,0:0:0:0:
448,192,53909,1,0,0:0:0:0:
192,192,53909,1,0,0:0:0:0:
320,192,54091,1,0,0:0:0:0:
64,192,54091,1,0,0:0:0:0:
192,192,54273,1,0,0:0:0:0:
448,192,54273,1,0,0:0:0:0:
64,192,54273,1,0,0:0:0:0:
320,192,54455,1,0,0:0:0:0:
448,192,54455,1,0,0:0:0:0:
320,192,54661,1,0,0:0:0:0:
192,192,54661,1,0,0:0:0:0:
448,192,54868,1,0,0:0:0:0:
64,192,54868,1,0,0:0:0:0:
192,192,54868,1,0,0:0:0:0:
320,192,55075,1,0,0:0:0:0:
64,192,55075,1,0,0:0:0:0:
192,192,55282,1,0,0:0:0:0:
448,192,55282,1,0,0:0:0:0:
320,192,55522,1,0,0:0:0:0:
64,192,55522,1,0,0:0:0:0:
320,192,55762,1,0,0:0:0:0:
192,192,55762,1,0,0:0:0:0:
448,192,55762,128,0,56685:0:0:0:0:
64,192,55762,1,0,0:0:0:0:
64,192,56685,1,0,0:0:0:0:
320,192,56685,128,0,57685:0:0:0:0:
64,192,57685,1,0,0:0:0:0:
192,192,57685,128,0,58935:0:0:0:0:
448,192,58935,1,0,0:0:0:0:
64,192,58935,128,0,60366:0:0:0:0:
320,192,59649,1,0,0:0:0:0:
448,192,59649,128,0,60363:0:0:0:0:
320,192,60363,1,0,0:0:0:0:
192,192,60363,1,0,0:0:0:0:
64,192,60690,1,0,0:0:0:0:
192,192,60690,1,0,0:0:0:0:
320,192,60771,1,0,0:0:0:0:
448,192,60852,1,0,0:0:0:0:
192,192,60933,1,0,0:0:0:0:
448,192,61014,1,0,0:0:0:0:
320,192,61014,1,0,0:0:0:0:
64,192,61095,1,0,0:0:0:0:
192,192,61176,1,0,0:0:0:0:
320,192,61176,1,0,0:0:0:0:
448,192,61257,1,0,0:0:0:0:
192,192,61338,1,0,0:0:0:0:
64,192,61338,1,0,0:0:0:0:
448,192,61420,1,0,0:0:0:0:
320,192,61501,1,0,0:0:0:0:
192,192,61501,1,0,0:0:0:0:
64,192,61501,1,0,0:0:0:0:
448,192,61582,1,0,0:0:0:0:
64,192,61663,1,0,0:0:0:0:
320,192,61663,1,0,0:0:0:0:
192,192,61744,1,0,0:0:0:0:
448,192,61825,1,0,0:0:0:0:
64,192,61825,1,0,0:0:0:0:
320,192,61906,1,0,0:0:0:0:
64,192,61987,1,0,0:0:0:0:
192,192,61987,1,0,0:0:0:0:
320,192,62068,1,0,0:0:0:0:
448,192,62149,1,0,0:0:0:0:
64,192,62230,1,0,0:0:0:0:
320,192,62311,1,0,0:0:0:0:
192,192,62311,1,0,0:0:0:0:
448,192,62393,1,0,0:0:0:0:
64,192,62474,1,0,0:0:0:0:
192,192,62474,1,0,0:0:0:0:
320,192,62555,1,0,0:0:0:0:
64,192,62636,1,0,0:0:0:0:
448,192,62636,1,0,0:0:0:0:
192,192,62717,1,0,0:0:0:0:
64,192,62798,1,0,0:0:0:0:
320,192,62879,1,0,0:0:0:0:
448,192,62960,1,0,0:0:0:0:
192,192,62960,1,0,0:0:0:0:
64,192,63041,1,0,0:0:0:0:
320,192,63122,1,0,0:0:0:0:
448,192,63203,1,0,0:0:0:0:
192,192,63284,1,0,0:0:0:0:
64,192,63284,1,0,0:0:0:0:
320,192,63366,1,0,0:0:0:0:
192,192,63447,1,0,0:0:0:0:
320,192,63528,1,0,0:0:0:0:
448,192,63609,1,0,0:0:0:0:
64,192,63609,1,0,0:0:0:0:
192,192,63690,1,0,0:0:0:0:
320,192,63771,1,0,0:0:0:0:
448,192,63771,1,0,0:0:0:0:
64,192,63852,1,0,0:0:0:0:
192,192,63933,1,0,0:0:0:0:
320,192,63933,1,0,0:0:0:0:
448,192,64014,1,0,0:0:0:0:
192,192,64095,1,0,0:0:0:0:
64,192,64095,1,0,0:0:0:0:
320,192,64095,1,0,0:0:0:0:
448,192,64176,1,0,0:0:0:0:
64,192,64257,1,0,0:0:0:0:
320,192,64257,1,0,0:0:0:0:
192,192,64338,1,0,0:0:0:0:
448,192,64420,1,0,0:0:0:0:
320,192,64420,1,0,0:0:0:0:
192,192,64501,1,0,0:0:0:0:
64,192,64582,128,0,64906:0:0:0:0:
448,192,64582,1,0,0:0:0:0:
320,192,64582,1,0,0:0:0:0:
192,192,64663,1,0,0:0:0:0:
448,192,64744,1,0,0:0:0:0:
320,192,64825,1,0,0:0:0:0:
192,192,64906,128,0,65230:0:0:0:0:
448,192,64906,1,0,0:0:0:0:
320,192,64987,1,0,0:0:0:0:
64,192,65068,1,0,0:0:0:0:
448,192,65149,1,0,0:0:0:0:
320,192,65230,128,0,65555:0:0:0:0:
64,192,65230,1,0,0:0:0:0:
192,192,65311,1,0,0:0:0:0:
448,192,65393,1,0,0:0:0:0:
64,192,65474,1,0,0:0:0:0:
448,192,65555,128,0,65879:0:0:0:0:
192,192,65555,1,0,0:0:0:0:
64,192,65636,1,0,0:0:0:0:
320,192,65717,1,0,0:0:0:0:
192,192,65798,1,0,0:0:0:0:
320,192,65879,1,0,0:0:0:0:
64,192,65879,1,0,0:0:0:0:
192,192,65960,1,0,0:0:0:0:
448,192,66041,1,0,0:0:0:0:
320,192,66122,1,0,0:0:0:0:
192,192,66203,1,0,0:0:0:0:
64,192,66203,1,0,0:0:0:0:
448,192,66284,1,0,0:0:0:0:
192,192,66366,1,0,0:0:0:0:
320,192,66366,1,0,0:0:0:0:
64,192,66447,1,0,0:0:0:0:
320,192,66528,1,0,0:0:0:0:
448,192,66528,1,0,0:0:0:0:
192,192,66609,1,0,0:0:0:0:
320,192,66690,1,0,0:0:0:0:
64,192,66690,1,0,0:0:0:0:
448,192,66690,1,0,0:0:0:0:
192,192,66771,1,0,0:0:0:0:
320,192,66852,1,0,0:0:0:0:
448,192,66852,1,0,0:0:0:0:
64,192,66933,1,0,0:0:0:0:
320,192,67014,1,0,0:0:0:0:
192,192,67014,1,0,0:0:0:0:
448,192,67095,1,0,0:0:0:0:
64,192,67176,1,0,0:0:0:0:
192,192,67176,1,0,0:0:0:0:
320,192,67257,1,0,0:0:0:0:
448,192,67338,1,0,0:0:0:0:
192,192,67420,1,0,0:0:0:0:
320,192,67501,1,0,0:0:0:0:
448,192,67501,1,0,0:0:0:0:
64,192,67582,1,0,0:0:0:0:
192,192,67663,1,0,0:0:0:0:
320,192,67663,1,0,0:0:0:0:
448,192,67744,1,0,0:0:0:0:
64,192,67825,1,0,0:0:0:0:
192,192,67825,1,0,0:0:0:0:
320,192,67906,1,0,0:0:0:0:
192,192,67987,1,0,0:0:0:0:
448,192,68068,1,0,0:0:0:0:
320,192,68149,1,0,0:0:0:0:
192,192,68149,1,0,0:0:0:0:
64,192,68230,1,0,0:0:0:0:
320,192,68311,1,0,0:0:0:0:
448,192,68311,1,0,0:0:0:0:
192,192,68393,1,0,0:0:0:0:
448,192,68474,1,0,0:0:0:0:
320,192,68474,1,0,0:0:0:0:
64,192,68555,1,0,0:0:0:0:
192,192,68636,1,0,0:0:0:0:
320,192,68717,1,0,0:0:0:0:
64,192,68798,1,0,0:0:0:0:
448,192,68798,1,0,0:0:0:0:
192,192,68879,1,0,0:0:0:0:
320,192,68960,1,0,0:0:0:0:
448,192,68960,1,0,0:0:0:0:
192,192,69041,1,0,0:0:0:0:
64,192,69122,1,0,0:0:0:0:
320,192,69122,1,0,0:0:0:0:
448,192,69203,1,0,0:0:0:0:
192,192,69284,1,0,0:0:0:0:
320,192,69365,1,0,0:0:0:0:
64,192,69447,1,0,0:0:0:0:
448,192,69447,1,0,0:0:0:0:
192,192,69528,1,0,0:0:0:0:
320,192,69609,1,0,0:0:0:0:
448,192,69609,1,0,0:0:0:0:
64,192,69690,1,0,0:0:0:0:
192,192,69771,1,0,0:0:0:0:
320,192,69771,1,0,0:0:0:0:
448,192,69852,1,0,0:0:0:0:
320,192,69933,1,0,0:0:0:0:
192,192,70014,1,0,0:0:0:0:
64,192,70095,1,0,0:0:0:0:
448,192,70095,1,0,0:0:0:0:
320,192,70176,1,0,0:0:0:0:
192,192,70257,1,0,0:0:0:0:
64,192,70257,1,0,0:0:0:0:
448,192,70338,1,0,0:0:0:0:
320,192,70338,1,0,0:0:0:0:
64,192,70420,1,0,0:0:0:0:
192,192,70420,1,0,0:0:0:0:
320,192,70501,1,0,0:0:0:0:
448,192,70501,1,0,0:0:0:0:
192,192,70582,1,0,0:0:0:0:
64,192,70582,1,0,0:0:0:0:
320,192,70663,1,0,0:0:0:0:
448,192,70744,1,0,0:0:0:0:
192,192,70744,1,0,0:0:0:0:
64,192,70744,1,0,0:0:0:0:
320,192,70825,1,0,0:0:0:0:
192,192,70906,1,0,0:0:0:0:
320,192,70987,1,0,0:0:0:0:
64,192,71068,1,0,0:0:0:0:
448,192,71068,1,0,0:0:0:0:
192,192,71068,1,0,0:0:0:0:
320,192,71149,1,0,0:0:0:0:
192,192,71230,1,0,0:0:0:0:
64,192,71311,1,0,0:0:0:0:
320,192,71393,1,0,0:0:0:0:
448,192,71393,1,0,0:0:0:0:
192,192,71474,1,0,0:0:0:0:
64,192,71555,1,0,0:0:0:0:
448,192,71555,1,0,0:0:0:0:
320,192,71636,1,0,0:0:0:0:
192,192,71717,1,0,0:0:0:0:
64,192,71717,1,0,0:0:0:0:
448,192,71798,1,0,0:0:0:0:
320,192,71879,1,0,0:0:0:0:
192,192,71879,1,0,0:0:0:0:
64,192,71879,1,0,0:0:0:0:
448,192,71960,1,0,0:0:0:0:
64,192,72041,1,0,0:0:0:0:
192,192,72041,1,0,0:0:0:0:
320,192,72122,1,0,0:0:0:0:
448,192,72203,1,0,0:0:0:0:
64,192,72203,1,0,0:0:0:0:
192,192,72284,1,0,0:0:0:0:
320,192,72365,1,0,0:0:0:0:
448,192,72365,1,0,0:0:0:0:
64,192,72447,1,0,0:0:0:0:
192,192,72528,1,0,0:0:0:0:
320,192,72609,1,0,0:0:0:0:
64,192,72690,1,0,0:0:0:0:
192,192,72690,1,0,0:0:0:0:
448,192,72771,1,0,0:0:0:0:
192,192,72852,1,0,0:0:0:0:
320,192,72852,1,0,0:0:0:0:
64,192,72933,1,0,0:0:0:0:
448,192,73014,1,0,0:0:0:0:
320,192,73014,1,0,0:0:0:0:
192,192,73095,1,0,0:0:0:0:
64,192,73176,1,0,0:0:0:0:
448,192,73257,1,0,0:0:0:0:
192,192,73338,1,0,0:0:0:0:
320,192,73338,1,0,0:0:0:0:
64,192,73420,1,0,0:0:0:0:
448,192,73501,1,0,0:0:0:0:
192,192,73582,1,0,0:0:0:0:
320,192,73663,1,0,0:0:0:0:
448,192,73663,1,0,0:0:0:0:
64,192,73744,1,0,0:0:0:0:
192,192,73825,1,0,0:0:0:0:
448,192,73906,1,0,0:0:0:0:
320,192,73987,1,0,0:0:0:0:
192,192,73987,1,0,0:0:0:0:
64,192,74068,1,0,0:0:0:0:
320,192,74149,1,0,0:0:0:0:
448,192,74149,1,0,0:0:0:0:
192,192,74230,1,0,0:0:0:0:
64,192,74311,1,0,0:0:0:0:
448,192,74311,1,0,0:0:0:0:
320,192,74393,1,0,0:0:0:0:
192,192,74474,1,0,0:0:0:0:
64,192,74474,1,0,0:0:0:0:
448,192,74474,1,0,0:0:0:0:
320,192,74555,1,0,0:0:0:0:
192,192,74636,1,0,0:0:0:0:
64,192,74636,1,0,0:0:0:0:
448,192,74717,1,0,0:0:0:0:
320,192,74798,1,0,0:0:0:0:
192,192,74798,1,0,0:0:0:0:
64,192,74879,1,0,0:0:0:0:
320,192,74960,1,0,0:0:0:0:
448,192,74960,128,0,75284:0:0:0:0:
192,192,74960,1,0,0:0:0:0:
64,192,75041,1,0,0:0:0:0:
320,192,75122,1,0,0:0:0:0:
64,192,75203,1,0,0:0:0:0:
320,192,75284,128,0,75609:0:0:0:0:
192,192,75284,1,0,0:0:0:0:
448,192,75365,1,0,0:0:0:0:
192,192,75447,1,0,0:0:0:0:
64,192,75528,1,0,0:0:0:0:
192,192,75609,128,0,75933:0:0:0:0:
448,192,75609,1,0,0:0:0:0:
64,192,75690,1,0,0:0:0:0:
320,192,75771,1,0,0:0:0:0:
448,192,75852,1,0,0:0:0:0:
64,192,75933,128,0,76257:0:0:0:0:
320,192,75933,1,0,0:0:0:0:
448,192,76014,1,0,0:0:0:0:
192,192,76095,1,0,0:0:0:0:
320,192,76176,1,0,0:0:0:0:
448,192,76257,1,0,0:0:0:0:
192,192,76257,1,0,0:0:0:0:
320,192,76338,1,0,0:0:0:0:
64,192,76420,1,0,0:0:0:0:
192,192,76501,1,0,0:0:0:0:
320,192,76582,1,0,0:0:0:0:
448,192,76582,1,0,0:0:0:0:
64,192,76663,1,0,0:0:0:0:
320,192,76744,1,0,0:0:0:0:
192,192,76744,1,0,0:0:0:0:
448,192,76825,1,0,0:0:0:0:
192,192,76906,1,0,0:0:0:0:
64,192,76906,1,0,0:0:0:0:
320,192,76987,1,0,0:0:0:0:
192,192,77068,1,0,0:0:0:0:
448,192,77068,1,0,0:0:0:0:
64,192,77068,1,0,0:0:0:0:
320,192,77149,1,0,0:0:0:0:
448,192,77230,1,0,0:0:0:0:
64,192,77230,1,0,0:0:0:0:
192,192,77311,1,0,0:0:0:0:
448,192,77393,1,0,0:0:0:0:
320,192,77393,1,0,0:0:0:0:
192,192,77474,1,0,0:0:0:0:
448,192,77555,1,0,0:0:0:0:
64,192,77555,1,0,0:0:0:0:
320,192,77636,1,0,0:0:0:0:
64,192,77717,1,0,0:0:0:0:
448,192,77798,1,0,0:0:0:0:
192,192,77879,1,0,0:0:0:0:
64,192,77879,1,0,0:0:0:0:
320,192,77960,1,0,0:0:0:0:
192,192,78041,1,0,0:0:0:0:
448,192,78041,1,0,0:0:0:0:
64,192,78122,1,0,0:0:0:0:
448,192,78203,1,0,0:0:0:0:
320,192,78203,1,0,0:0:0:0:
192,192,78284,1,0,0:0:0:0:
320,192,78365,1,0,0:0:0:0:
64,192,78447,1,0,0:0:0:0:
320,192,78528,1,0,0:0:0:0:
192,192,78528,1,0,0:0:0:0:
448,192,78609,1,0,0:0:0:0:
64,192,78690,1,0,0:0:0:0:
192,192,78690,1,0,0:0:0:0:
320,192,78771,1,0,0:0:0:0:
192,192,78852,1,0,0:0:0:0:
64,192,78852,1,0,0:0:0:0:
448,192,78933,1,0,0:0:0:0:
320,192,79014,1,0,0:0:0:0:
192,192,79095,1,0,0:0:0:0:
448,192,79176,1,0,0:0:0:0:
64,192,79176,1,0,0:0:0:0:
320,192,79257,1,0,0:0:0:0:
448,192,79338,1,0,0:0:0:0:
192,192,79420,1,0,0:0:0:0:
320,192,79501,1,0,0:0:0:0:
64,192,79501,1,0,0:0:0:0:
448,192,79582,1,0,0:0:0:0:
192,192,79663,1,0,0:0:0:0:
320,192,79744,1,0,0:0:0:0:
192,192,79825,1,0,0:0:0:0:
64,192,79825,1,0,0:0:0:0:
320,192,79906,1,0,0:0:0:0:
448,192,79906,1,0,0:0:0:0:
192,192,79987,1,0,0:0:0:0:
64,192,79987,1,0,0:0:0:0:
320,192,80068,1,0,0:0:0:0:
448,192,80068,1,0,0:0:0:0:
192,192,80149,1,0,0:0:0:0:
64,192,80149,1,0,0:0:0:0:
320,192,80230,1,0,0:0:0:0:
448,192,80311,1,0,0:0:0:0:
64,192,80311,1,0,0:0:0:0:
320,192,80393,1,0,0:0:0:0:
192,192,80393,1,0,0:0:0:0:
448,192,80474,1,0,0:0:0:0:
64,192,80474,1,0,0:0:0:0:
320,192,80555,1,0,0:0:0:0:
192,192,80555,1,0,0:0:0:0:
448,192,80636,1,0,0:0:0:0:
64,192,80636,1,0,0:0:0:0:
192,192,80717,1,0,0:0:0:0:
448,192,80798,1,0,0:0:0:0:
320,192,80798,1,0,0:0:0:0:
64,192,80879,1,0,0:0:0:0:
192,192,80879,1,0,0:0:0:0:
320,192,80960,1,0,0:0:0:0:
448,192,80960,1,0,0:0:0:0:
192,192,81041,1,0,0:0:0:0:
320,192,81122,1,0,0:0:0:0:
448,192,81122,1,0,0:0:0:0:
64,192,81122,1,0,0:0:0:0:
192,192,81203,1,0,0:0:0:0:
448,192,81284,1,0,0:0:0:0:
320,192,81365,1,0,0:0:0:0:
192,192,81447,1,0,0:0:0:0:
64,192,81447,1,0,0:0:0:0:
448,192,81447,1,0,0:0:0:0:
320,192,81528,1,0,0:0:0:0:
64,192,81609,1,0,0:0:0:0:
448,192,81690,1,0,0:0:0:0:
192,192,81771,1,0,0:0:0:0:
64,192,81771,1,0,0:0:0:0:
320,192,81852,1,0,0:0:0:0:
64,192,81933,1,0,0:0:0:0:
192,192,81933,1,0,0:0:0:0:
448,192,82014,1,0,0:0:0:0:
320,192,82095,1,0,0:0:0:0:
192,192,82095,1,0,0:0:0:0:
64,192,82176,1,0,0:0:0:0:
320,192,82257,1,0,0:0:0:0:
192,192,82338,1,0,0:0:0:0:
64,192,82420,1,0,0:0:0:0:
448,192,82420,1,0,0:0:0:0:
320,192,82501,1,0,0:0:0:0:
64,192,82582,1,0,0:0:0:0:
448,192,82582,1,0,0:0:0:0:
192,192,82663,1,0,0:0:0:0:
320,192,82744,1,0,0:0:0:0:
448,192,82744,1,0,0:0:0:0:
64,192,82825,1,0,0:0:0:0:
448,192,82906,1,0,0:0:0:0:
192,192,82987,1,0,0:0:0:0:
320,192,83068,1,0,0:0:0:0:
448,192,83068,1,0,0:0:0:0:
64,192,83149,1,0,0:0:0:0:
448,192,83230,1,0,0:0:0:0:
320,192,83230,1,0,0:0:0:0:
192,192,83311,1,0,0:0:0:0:
448,192,83393,1,0,0:0:0:0:
64,192,83393,1,0,0:0:0:0:
320,192,83474,1,0,0:0:0:0:
192,192,83555,1,0,0:0:0:0:
64,192,83636,1,0,0:0:0:0:
448,192,83717,1,0,0:0:0:0:
320,192,83717,1,0,0:0:0:0:
192,192,83798,1,0,0:0:0:0:
320,192,83879,1,0,0:0:0:0:
448,192,83960,1,0,0:0:0:0:
192,192,84041,1,0,0:0:0:0:
64,192,84041,1,0,0:0:0:0:
448,192,84122,1,0,0:0:0:0:
320,192,84203,1,0,0:0:0:0:
192,192,84284,1,0,0:0:0:0:
448,192,84365,1,0,0:0:0:0:
320,192,84365,1,0,0:0:0:0:
64,192,84447,1,0,0:0:0:0:
320,192,84528,1,0,0:0:0:0:
448,192,84528,1,0,0:0:0:0:
192,192,84609,1,0,0:0:0:0:
64,192,84690,1,0,0:0:0:0:
448,192,84690,1,0,0:0:0:0:
320,192,84771,1,0,0:0:0:0:
64,192,84852,1,0,0:0:0:0:
448,192,84933,1,0,0:0:0:0:
64,192,85014,1,0,0:0:0:0:
192,192,85014,1,0,0:0:0:0:
320,192,85095,1,0,0:0:0:0:
64,192,85176,1,0,0:0:0:0:
192,192,85176,1,0,0:0:0:0:
448,192,85257,1,0,0:0:0:0:
64,192,85338,1,0,0:0:0:0:
320,192,85338,128,0,85663:0:0:0:0:
192,192,85420,1,0,0:0:0:0:
448,192,85501,1,0,0:0:0:0:
192,192,85582,1,0,0:0:0:0:
64,192,85663,128,0,85987:0:0:0:0:
448,192,85663,1,0,0:0:0:0:
192,192,85744,1,0,0:0:0:0:
448,192,85825,1,0,0:0:0:0:
320,192,85906,1,0,0:0:0:0:
448,192,85987,128,0,86311:0:0:0:0:
192,192,85987,1,0,0:0:0:0:
320,192,86068,1,0,0:0:0:0:
192,192,86149,1,0,0:0:0:0:
64,192,86230,1,0,0:0:0:0:
192,192,86311,128,0,86636:0:0:0:0:
320,192,86311,1,0,0:0:0:0:
64,192,86393,1,0,0:0:0:0:
448,192,86474,1,0,0:0:0:0:
320,192,86555,1,0,0:0:0:0:
64,192,86636,1,0,0:0:0:0:
448,192,86636,1,0,0:0:0:0:
320,192,86717,1,0,0:0:0:0:
192,192,86798,1,0,0:0:0:0:
448,192,86798,1,0,0:0:0:0:
64,192,86879,1,0,0:0:0:0:
320,192,86960,1,0,0:0:0:0:
448,192,86960,1,0,0:0:0:0:
192,192,87041,1,0,0:0:0:0:
320,192,87122,1,0,0:0:0:0:
64,192,87122,1,0,0:0:0:0:
448,192,87203,1,0,0:0:0:0:
64,192,87284,1,0,0:0:0:0:
192,192,87284,1,0,0:0:0:0:
320,192,87284,1,0,0:0:0:0:
448,192,87365,1,0,0:0:0:0:
192,192,87447,1,0,0:0:0:0:
64,192,87528,1,0,0:0:0:0:
320,192,87609,1,0,0:0:0:0:
448,192,87609,1,0,0:0:0:0:
192,192,87690,1,0,0:0:0:0:
64,192,87771,1,0,0:0:0:0:
448,192,87771,1,0,0:0:0:0:
320,192,87852,1,0,0:0:0:0:
192,192,87933,1,0,0:0:0:0:
64,192,87933,1,0,0:0:0:0:
320,192,88014,1,0,0:0:0:0:
448,192,88095,1,0,0:0:0:0:
192,192,88176,1,0,0:0:0:0:
320,192,88257,1,0,0:0:0:0:
448,192,88257,1,0,0:0:0:0:
64,192,88338,1,0,0:0:0:0:
320,192,88420,1,0,0:0:0:0:
192,192,88420,1,0,0:0:0:0:
448,192,88501,1,0,0:0:0:0:
64,192,88582,1,0,0:0:0:0:
192,192,88582,1,0,0:0:0:0:
320,192,88663,1,0,0:0:0:0:
192,192,88744,1,0,0:0:0:0:
64,192,88825,1,0,0:0:0:0:
320,192,88906,1,0,0:0:0:0:
448,192,88906,1,0,0:0:0:0:
192,192,88987,1,0,0:0:0:0:
320,192,89068,1,0,0:0:0:0:
448,192,89068,1,0,0:0:0:0:
64,192,89149,1,0,0:0:0:0:
192,192,89230,1,0,0:0:0:0:
320,192,89230,1,0,0:0:0:0:
448,192,89311,1,0,0:0:0:0:
64,192,89393,1,0,0:0:0:0:
192,192,89474,1,0,0:0:0:0:
448,192,89555,1,0,0:0:0:0:
320,192,89555,1,0,0:0:0:0:
64,192,89636,1,0,0:0:0:0:
320,192,89717,1,0,0:0:0:0:
192,192,89717,1,0,0:0:0:0:
448,192,89798,1,0,0:0:0:0:
192,192,89879,1,0,0:0:0:0:
64,192,89879,1,0,0:0:0:0:
448,192,89960,1,0,0:0:0:0:
192,192,90041,1,0,0:0:0:0:
64,192,90122,1,0,0:0:0:0:
320,192,90203,1,0,0:0:0:0:
448,192,90203,1,0,0:0:0:0:
192,192,90284,1,0,0:0:0:0:
320,192,90365,1,0,0:0:0:0:
448,192,90365,1,0,0:0:0:0:
64,192,90447,1,0,0:0:0:0:
192,192,90528,1,0,0:0:0:0:
320,192,90528,1,0,0:0:0:0:
448,192,90609,1,0,0:0:0:0:
64,192,90690,1,0,0:0:0:0:
320,192,90771,1,0,0:0:0:0:
64,192,90852,1,0,0:0:0:0:
192,192,90893,1,0,0:0:0:0:
320,192,90933,1,0,0:0:0:0:
448,192,90974,1,0,0:0:0:0:
64,192,91014,1,0,0:0:0:0:
192,192,91055,1,0,0:0:0:0:
320,192,91095,1,0,0:0:0:0:
448,192,91136,1,0,0:0:0:0:
192,192,91176,1,0,0:0:0:0:
64,192,91176,1,0,0:0:0:0:
320,192,91176,1,0,0:0:0:0:
448,192,91257,1,0,0:0:0:0:
320,192,91338,1,0,0:0:0:0:
64,192,91338,1,0,0:0:0:0:
192,192,91420,1,0,0:0:0:0:
448,192,91501,1,0,0:0:0:0:
64,192,91501,1,0,0:0:0:0:
320,192,91501,1,0,0:0:0:0:
192,192,91582,1,0,0:0:0:0:
320,192,91663,1,0,0:0:0:0:
448,192,91663,1,0,0:0:0:0:
64,192,91744,1,0,0:0:0:0:
320,192,91825,1,0,0:0:0:0:
448,192,91825,1,0,0:0:0:0:
192,192,91906,1,0,0:0:0:0:
64,192,91987,1,0,0:0:0:0:
320,192,92068,1,0,0:0:0:0:
192,192,92149,1,0,0:0:0:0:
64,192,92149,1,0,0:0:0:0:
448,192,92230,1,0,0:0:0:0:
320,192,92311,1,0,0:0:0:0:
192,192,92311,1,0,0:0:0:0:
64,192,92393,1,0,0:0:0:0:
320,192,92474,1,0,0:0:0:0:
448,192,92474,1,0,0:0:0:0:
192,192,92555,1,0,0:0:0:0:
320,192,92636,1,0,0:0:0:0:
448,192,92717,1,0,0:0:0:0:
64,192,92798,1,0,0:0:0:0:
192,192,92798,1,0,0:0:0:0:
448,192,92879,1,0,0:0:0:0:
320,192,92960,1,0,0:0:0:0:
192,192,92960,1,0,0:0:0:0:
64,192,93041,1,0,0:0:0:0:
448,192,93122,1,0,0:0:0:0:
320,192,93122,1,0,0:0:0:0:
192,192,93203,1,0,0:0:0:0:
64,192,93284,1,0,0:0:0:0:
448,192,93365,1,0,0:0:0:0:
192,192,93447,1,0,0:0:0:0:
320,192,93447,1,0,0:0:0:0:
64,192,93528,1,0,0:0:0:0:
448,192,93609,1,0,0:0:0:0:
320,192,93609,1,0,0:0:0:0:
192,192,93690,1,0,0:0:0:0:
448,192,93771,1,0,0:0:0:0:
64,192,93771,1,0,0:0:0:0:
320,192,93852,1,0,0:0:0:0:
192,192,93933,1,0,0:0:0:0:
64,192,94014,1,0,0:0:0:0:
320,192,94095,1,0,0:0:0:0:
448,192,94095,1,0,0:0:0:0:
192,192,94176,1,0,0:0:0:0:
448,192,94257,1,0,0:0:0:0:
320,192,94257,1,0,0:0:0:0:
64,192,94338,1,0,0:0:0:0:
320,192,94420,1,0,0:0:0:0:
192,192,94420,1,0,0:0:0:0:
448,192,94501,1,0,0:0:0:0:
64,192,94582,1,0,0:0:0:0:
192,192,94663,1,0,0:0:0:0:
320,192,94744,1,0,0:0:0:0:
448,192,94744,1,0,0:0:0:0:
64,192,94825,1,0,0:0:0:0:
192,192,94906,1,0,0:0:0:0:
320,192,94906,1,0,0:0:0:0:
448,192,94987,1,0,0:0:0:0:
192,192,95068,1,0,0:0:0:0:
64,192,95068,1,0,0:0:0:0:
320,192,95149,1,0,0:0:0:0:
448,192,95230,1,0,0:0:0:0:
192,192,95311,1,0,0:0:0:0:
64,192,95393,1,0,0:0:0:0:
320,192,95393,1,0,0:0:0:0:
192,192,95474,1,0,0:0:0:0:
448,192,95555,1,0,0:0:0:0:
320,192,95555,1,0,0:0:0:0:
64,192,95636,1,0,0:0:0:0:
320,192,95717,1,0,0:0:0:0:
192,192,95717,1,0,0:0:0:0:
448,192,95798,1,0,0:0:0:0:
192,192,95879,1,0,0:0:0:0:
64,192,95960,1,0,0:0:0:0:
320,192,96041,1,0,0:0:0:0:
448,192,96041,1,0,0:0:0:0:
192,192,96122,1,0,0:0:0:0:
320,192,96203,1,0,0:0:0:0:
64,192,96203,1,0,0:0:0:0:
448,192,96284,1,0,0:0:0:0:
192,192,96365,1,0,0:0:0:0:
64,192,96365,1,0,0:0:0:0:
320,192,96447,1,0,0:0:0:0:
448,192,96528,1,0,0:0:0:0:
192,192,96528,1,0,0:0:0:0:
320,192,96609,1,0,0:0:0:0:
192,192,96690,1,0,0:0:0:0:
448,192,96690,1,0,0:0:0:0:
64,192,96690,128,0,97987:0:0:0:0:
320,192,97338,128,0,98636:0:0:0:0:
192,192,97338,1,0,0:0:0:0:
448,192,97338,1,0,0:0:0:0:
192,192,97987,128,0,99284:0:0:0:0:
448,192,97987,1,0,0:0:0:0:
448,192,98636,128,0,99933:0:0:0:0:
64,192,98636,1,0,0:0:0:0:
64,192,99284,128,0,100582:0:0:0:0:
320,192,99284,1,0,0:0:0:0:
320,192,99933,128,0,100582:0:0:0:0:
192,192,99933,1,0,0:0:0:0:
192,192,100582,128,0,101230:0:0:0:0:
448,192,100582,1,0,0:0:0:0:
448,192,101230,128,0,101879:0:0:0:0:
320,192,101879,1,0,0:0:0:0:
64,192,101879,128,0,103176:0:0:0:0:
320,192,102203,1,0,0:0:0:0:
192,192,102203,1,0,0:0:0:0:
448,192,102365,128,0,102528:0:0:0:0:
320,192,102528,1,0,0:0:0:0:
192,192,102528,1,0,0:0:0:0:
320,192,102852,128,0,103014:0:0:0:0:
448,192,102852,1,0,0:0:0:0:
192,192,103176,128,0,104474:0:0:0:0:
448,192,103176,1,0,0:0:0:0:
320,192,103501,1,0,0:0:0:0:
64,192,103501,1,0,0:0:0:0:
448,192,103663,128,0,103825:0:0:0:0:
320,192,103825,1,0,0:0:0:0:
64,192,103825,1,0,0:0:0:0:
64,192,104149,128,0,104311:0:0:0:0:
448,192,104149,1,0,0:0:0:0:
320,192,104474,128,0,105771:0:0:0:0:
448,192,104474,1,0,0:0:0:0:
192,192,104798,1,0,0:0:0:0:
64,192,104798,1,0,0:0:0:0:
448,192,104960,128,0,105122:0:0:0:0:
192,192,105122,1,0,0:0:0:0:
64,192,105122,1,0,0:0:0:0:
64,192,105447,128,0,105609:0:0:0:0:
192,192,105447,1,0,0:0:0:0:
448,192,105771,128,0,106420:0:0:0:0:
192,192,105771,1,0,0:0:0:0:
64,192,105933,128,0,106095:0:0:0:0:
320,192,106095,1,0,0:0:0:0:
192,192,106095,1,0,0:0:0:0:
64,192,106420,128,0,107068:0:0:0:0:
192,192,106420,1,0,0:0:0:0:
320,192,106582,128,0,106744:0:0:0:0:
448,192,106744,1,0,0:0:0:0:
192,192,106744,1,0,0:0:0:0:
448,192,107068,128,0,108365:0:0:0:0:
320,192,107068,1,0,0:0:0:0:
192,192,107393,1,0,0:0:0:0:
64,192,107393,1,0,0:0:0:0:
64,192,107555,128,0,107717:0:0:0:0:
320,192,107717,1,0,0:0:0:0:
192,192,107717,1,0,0:0:0:0:
192,192,108041,128,0,108203:0:0:0:0:
320,192,108041,1,0,0:0:0:0:
320,192,108365,128,0,109663:0:0:0:0:
64,192,108365,1,0,0:0:0:0:
192,192,108690,1,0,0:0:0:0:
448,192,108690,1,0,0:0:0:0:
448,192,108852,128,0,109014:0:0:0:0:
64,192,109014,1,0,0:0:0:0:
192,192,109014,1,0,0:0:0:0:
64,192,109338,128,0,109501:0:0:0:0:
448,192,109338,1,0,0:0:0:0:
192,192,109663,128,0,110960:0:0:0:0:
448,192,109663,1,0,0:0:0:0:
64,192,109987,1,0,0:0:0:0:
320,192,109987,1,0,0:0:0:0:
320,192,110149,128,0,110311:0:0:0:0:
64,192,110311,1,0,0:0:0:0:
448,192,110311,1,0,0:0:0:0:
448,192,110636,128,0,110798:0:0:0:0:
320,192,110636,1,0,0:0:0:0:
64,192,110960,128,0,111609:0:0:0:0:
448,192,110960,1,0,0:0:0:0:
320,192,111122,128,0,111284:0:0:0:0:
192,192,111284,1,0,0:0:0:0:
448,192,111284,1,0,0:0:0:0:
192,192,111447,128,0,111609:0:0:0:0:
448,192,111609,128,0,112257:0:0:0:0:
320,192,111609,1,0,0:0:0:0:
64,192,111771,128,0,111933:0:0:0:0:
320,192,111933,128,0,112257:0:0:0:0:
192,192,111933,1,0,0:0:0:0:
192,192,112257,1,0,0:0:0:0:
64,192,112257,1,0,0:0:0:0:
192,192,112420,1,0,0:0:0:0:
64,192,112420,1,0,0:0:0:0:
64,192,112582,1,0,0:0:0:0:
320,192,112582,1,0,0:0:0:0:
448,192,112582,1,0,0:0:0:0:
320,192,113068,1,0,0:0:0:0:
192,192,113068,1,0,0:0:0:0:
192,192,113230,1,0,0:0:0:0:
64,192,113230,1,0,0:0:0:0:
448,192,113393,1,0,0:0:0:0:
320,192,113555,1,0,0:0:0:0:
192,192,113555,1,0,0:0:0:0:
192,192,113717,1,0,0:0:0:0:
320,192,113717,1,0,0:0:0:0:
448,192,113879,1,0,0:0:0:0:
192,192,113879,1,0,0:0:0:0:
64,192,113879,1,0,0:0:0:0:
192,192,114365,1,0,0:0:0:0:
448,192,114365,1,0,0:0:0:0:
64,192,114528,1,0,0:0:0:0:
320,192,114528,1,0,0:0:0:0:
192,192,114690,1,0,0:0:0:0:
320,192,114852,1,0,0:0:0:0:
448,192,114852,1,0,0:0:0:0:
448,192,115014,1,0,0:0:0:0:
320,192,115014,1,0,0:0:0:0:
192,192,115176,1,0,0:0:0:0:
64,192,115176,1,0,0:0:0:0:
448,192,115176,1,0,0:0:0:0:
448,192,115663,1,0,0:0:0:0:
64,192,115663,1,0,0:0:0:0:
320,192,115825,1,0,0:0:0:0:
192,192,115825,1,0,0:0:0:0:
448,192,115987,1,0,0:0:0:0:
192,192,116149,1,0,0:0:0:0:
64,192,116149,1,0,0:0:0:0:
64,192,116311,1,0,0:0:0:0:
192,192,116311,1,0,0:0:0:0:
320,192,116474,1,0,0:0:0:0:
448,192,116474,1,0,0:0:0:0:
64,192,116474,1,0,0:0:0:0:
448,192,116798,1,0,0:0:0:0:
192,192,116798,1,0,0:0:0:0:
448,192,116960,1,0,0:0:0:0:
192,192,116960,1,0,0:0:0:0:
320,192,117122,1,0,0:0:0:0:
64,192,117122,1,0,0:0:0:0:
448,192,117122,1,0,0:0:0:0:
192,192,117284,1,0,0:0:0:0:
448,192,117447,1,0,0:0:0:0:
320,192,117447,1,0,0:0:0:0:
320,192,117609,1,0,0:0:0:0:
448,192,117609,1,0,0:0:0:0:
192,192,117771,1,0,0:0:0:0:
64,192,117771,1,0,0:0:0:0:
448,192,117771,1,0,0:0:0:0:
448,192,118257,1,0,0:0:0:0:
320,192,118257,1,0,0:0:0:0:
192,192,118420,1,0,0:0:0:0:
64,192,118420,1,0,0:0:0:0:
320,192,118582,1,0,0:0:0:0:
448,192,118744,1,0,0:0:0:0:
64,192,118744,1,0,0:0:0:0:
64,192,118906,1,0,0:0:0:0:
448,192,118906,1,0,0:0:0:0:
320,192,119068,1,0,0:0:0:0:
448,192,119068,1,0,0:0:0:0:
192,192,119068,1,0,0:0:0:0:
192,192,119555,1,0,0:0:0:0:
64,192,119555,1,0,0:0:0:0:
320,192,119717,1,0,0:0:0:0:
64,192,119717,1,0,0:0:0:0:
448,192,119879,1,0,0:0:0:0:
192,192,120041,1,0,0:0:0:0:
64,192,120041,1,0,0:0:0:0:
192,192,120203,1,0,0:0:0:0:
64,192,120203,1,0,0:0:0:0:
320,192,120365,1,0,0:0:0:0:
448,192,120365,1,0,0:0:0:0:
192,192,120365,1,0,0:0:0:0:
320,192,120852,1,0,0:0:0:0:
64,192,120852,1,0,0:0:0:0:
192,192,121014,1,0,0:0:0:0:
64,192,121014,1,0,0:0:0:0:
448,192,121176,1,0,0:0:0:0:
64,192,121338,1,0,0:0:0:0:
192,192,121338,1,0,0:0:0:0:
448,192,121338,1,0,0:0:0:0:
448,192,121501,1,0,0:0:0:0:
64,192,121501,1,0,0:0:0:0:
320,192,121501,1,0,0:0:0:0:
320,192,121663,1,0,0:0:0:0:
448,192,121663,1,0,0:0:0:0:
192,192,121663,1,0,0:0:0:0:
320,192,121825,1,0,0:0:0:0:
64,192,121825,1,0,0:0:0:0:
192,192,121825,1,0,0:0:0:0:
64,192,121987,1,0,0:0:0:0:
448,192,121987,1,0,0:0:0:0:
192,192,121987,1,0,0:0:0:0:
320,192,122149,1,0,0:0:0:0:
192,192,122230,1,0,0:0:0:0:
320,192,122311,1,0,0:0:0:0:
192,192,122393,1,0,0:0:0:0:
320,192,122474,1,0,0:0:0:0:
192,192,122555,1,0,0:0:0:0:
320,192,122636,1,0,0:0:0:0:
64,192,122636,1,0,0:0:0:0:
448,192,122636,1,0,0:0:0:0:
320,192,122798,1,0,0:0:0:0:
448,192,122798,1,0,0:0:0:0:
64,192,122960,1,0,0:0:0:0:
192,192,122960,1,0,0:0:0:0:
448,192,122960,1,0,0:0:0:0:
320,192,123122,1,0,0:0:0:0:
448,192,123447,1,0,0:0:0:0:
320,192,123447,1,0,0:0:0:0:
192,192,123609,1,0,0:0:0:0:
64,192,123609,1,0,0:0:0:0:
448,192,123771,1,0,0:0:0:0:
320,192,123933,1,0,0:0:0:0:
192,192,123933,1,0,0:0:0:0:
192,192,124095,1,0,0:0:0:0:
320,192,124095,1,0,0:0:0:0:
448,192,124257,1,0,0:0:0:0:
320,192,124257,1,0,0:0:0:0:
64,192,124257,1,0,0:0:0:0:
192,192,124420,1,0,0:0:0:0:
192,192,124744,1,0,0:0:0:0:
448,192,124744,1,0,0:0:0:0:
64,192,124906,1,0,0:0:0:0:
320,192,124906,1,0,0:0:0:0:
192,192,125068,1,0,0:0:0:0:
320,192,125230,1,0,0:0:0:0:
448,192,125230,1,0,0:0:0:0:
448,192,125393,1,0,0:0:0:0:
320,192,125393,1,0,0:0:0:0:
192,192,125555,1,0,0:0:0:0:
64,192,125555,1,0,0:0:0:0:
320,192,125555,1,0,0:0:0:0:
448,192,125717,1,0,0:0:0:0:
320,192,126041,1,0,0:0:0:0:
64,192,126041,1,0,0:0:0:0:
192,192,126203,1,0,0:0:0:0:
64,192,126203,1,0,0:0:0:0:
448,192,126365,1,0,0:0:0:0:
192,192,126528,1,0,0:0:0:0:
64,192,126528,1,0,0:0:0:0:
64,192,126690,1,0,0:0:0:0:
192,192,126690,1,0,0:0:0:0:
320,192,126852,1,0,0:0:0:0:
448,192,126852,1,0,0:0:0:0:
192,192,126852,1,0,0:0:0:0:
320,192,127176,1,0,0:0:0:0:
192,192,127176,1,0,0:0:0:0:
192,192,127338,1,0,0:0:0:0:
320,192,127338,1,0,0:0:0:0:
320,192,127501,1,0,0:0:0:0:
448,192,127501,1,0,0:0:0:0:
64,192,127501,1,0,0:0:0:0:
192,192,127663,1,0,0:0:0:0:
448,192,127825,1,0,0:0:0:0:
320,192,127825,1,0,0:0:0:0:
320,192,127987,1,0,0:0:0:0:
448,192,127987,1,0,0:0:0:0:
192,192,128149,1,0,0:0:0:0:
64,192,128149,1,0,0:0:0:0:
448,192,128149,1,0,0:0:0:0:
320,192,128311,1,0,0:0:0:0:
448,192,128636,1,0,0:0:0:0:
320,192,128636,1,0,0:0:0:0:
192,192,128798,1,0,0:0:0:0:
64,192,128798,1,0,0:0:0:0:
320,192,128960,1,0,0:0:0:0:
448,192,129122,1,0,0:0:0:0:
64,192,129122,1,0,0:0:0:0:
64,192,129284,1,0,0:0:0:0:
448,192,129284,1,0,0:0:0:0:
320,192,129447,1,0,0:0:0:0:
448,192,129447,1,0,0:0:0:0:
192,192,129447,1,0,0:0:0:0:
64,192,129609,1,0,0:0:0:0:
192,192,129933,1,0,0:0:0:0:
64,192,129933,1,0,0:0:0:0:
320,192,130095,1,0,0:0:0:0:
64,192,130095,1,0,0:0:0:0:
448,192,130257,1,0,0:0:0:0:
192,192,130420,1,0,0:0:0:0:
64,192,130420,1,0,0:0:0:0:
192,192,130582,1,0,0:0:0:0:
64,192,130582,1,0,0:0:0:0:
320,192,130744,1,0,0:0:0:0:
448,192,130744,1,0,0:0:0:0:
64,192,130744,1,0,0:0:0:0:
192,192,130906,1,0,0:0:0:0:
448,192,131230,1,0,0:0:0:0:
192,192,131230,1,0,0:0:0:0:
320,192,131393,1,0,0:0:0:0:
64,192,131393,1,0,0:0:0:0:
448,192,131555,1,0,0:0:0:0:
64,192,131717,1,0,0:0:0:0:
192,192,131717,1,0,0:0:0:0:
448,192,131717,1,0,0:0:0:0:
448,192,131879,1,0,0:0:0:0:
64,192,131879,1,0,0:0:0:0:
320,192,131879,1,0,0:0:0:0:
320,192,132041,1,0,0:0:0:0:
192,192,132041,1,0,0:0:0:0:
448,192,132203,1,0,0:0:0:0:
64,192,132203,1,0,0:0:0:0:
192,192,132203,1,0,0:0:0:0:
64,192,132365,1,0,0:0:0:0:
448,192,132365,1,0,0:0:0:0:
320,192,132365,1,0,0:0:0:0:
192,192,132528,1,0,0:0:0:0:
64,192,132528,1,0,0:0:0:0:
320,192,132609,1,0,0:0:0:0:
448,192,132690,1,0,0:0:0:0:
64,192,132690,1,0,0:0:0:0:
192,192,132771,1,0,0:0:0:0:
320,192,132852,1,0,0:0:0:0:
448,192,132852,1,0,0:0:0:0:
64,192,132933,1,0,0:0:0:0:
192,192,133014,1,0,0:0:0:0:
320,192,133014,1,0,0:0:0:0:
448,192,133014,1,0,0:0:0:0:
192,192,133176,1,0,0:0:0:0:
64,192,133176,1,0,0:0:0:0:
64,192,133338,1,0,0:0:0:0:
320,192,133338,1,0,0:0:0:0:
448,192,133338,1,0,0:0:0:0:
192,192,133501,1,0,0:0:0:0:
64,192,133663,1,0,0:0:0:0:
448,192,133663,1,0,0:0:0:0:
320,192,133825,1,0,0:0:0:0:
192,192,133825,1,0,0:0:0:0:
64,192,133987,1,0,0:0:0:0:
448,192,133987,1,0,0:0:0:0:
320,192,133987,1,0,0:0:0:0:
192,192,134149,1,0,0:0:0:0:
320,192,134311,1,0,0:0:0:0:
448,192,134311,1,0,0:0:0:0:
192,192,134474,1,0,0:0:0:0:
64,192,134474,1,0,0:0:0:0:
448,192,134636,1,0,0:0:0:0:
64,192,134636,1,0,0:0:0:0:
320,192,134636,1,0,0:0:0:0:
192,192,134798,1,0,0:0:0:0:
320,192,134960,1,0,0:0:0:0:
448,192,134960,1,0,0:0:0:0:
192,192,135122,1,0,0:0:0:0:
448,192,135122,1,0,0:0:0:0:
64,192,135284,1,0,0:0:0:0:
320,192,135284,1,0,0:0:0:0:
192,192,135284,1,0,0:0:0:0:
448,192,135447,1,0,0:0:0:0:
320,192,135609,1,0,0:0:0:0:
192,192,135609,1,0,0:0:0:0:
448,192,135771,1,0,0:0:0:0:
64,192,135771,1,0,0:0:0:0:
192,192,135933,1,0,0:0:0:0:
448,192,135933,1,0,0:0:0:0:
320,192,135933,1,0,0:0:0:0:
64,192,136095,1,0,0:0:0:0:
320,192,136257,1,0,0:0:0:0:
192,192,136257,1,0,0:0:0:0:
448,192,136420,1,0,0:0:0:0:
192,192,136420,1,0,0:0:0:0:
320,192,136582,1,0,0:0:0:0:
64,192,136582,1,0,0:0:0:0:
448,192,136582,1,0,0:0:0:0:
192,192,136744,1,0,0:0:0:0:
64,192,136906,1,0,0:0:0:0:
320,192,136906,1,0,0:0:0:0:
192,192,137068,1,0,0:0:0:0:
448,192,137068,1,0,0:0:0:0:
320,192,137230,1,0,0:0:0:0:
448,192,137230,1,0,0:0:0:0:
64,192,137230,1,0,0:0:0:0:
192,192,137393,1,0,0:0:0:0:
64,192,137393,1,0,0:0:0:0:
448,192,137555,1,0,0:0:0:0:
320,192,137555,1,0,0:0:0:0:
448,192,137717,1,0,0:0:0:0:
320,192,137717,1,0,0:0:0:0:
192,192,137879,1,0,0:0:0:0:
64,192,137879,1,0,0:0:0:0:
448,192,137879,1,0,0:0:0:0:
320,192,138041,1,0,0:0:0:0:
448,192,138203,1,0,0:0:0:0:
192,192,138203,1,0,0:0:0:0:
320,192,138365,1,0,0:0:0:0:
448,192,138365,1,0,0:0:0:0:
192,192,138528,1,0,0:0:0:0:
64,192,138528,1,0,0:0:0:0:
320,192,138528,1,0,0:0:0:0:
64,192,138690,1,0,0:0:0:0:
320,192,138852,1,0,0:0:0:0:
192,192,138852,1,0,0:0:0:0:
448,192,139014,1,0,0:0:0:0:
320,192,139014,1,0,0:0:0:0:
192,192,139176,1,0,0:0:0:0:
64,192,139176,1,0,0:0:0:0:
448,192,139176,1,0,0:0:0:0:
320,192,139338,1,0,0:0:0:0:
448,192,139501,1,0,0:0:0:0:
64,192,139501,128,0,139663:0:0:0:0:
320,192,139663,128,0,139825:0:0:0:0:
192,192,139663,1,0,0:0:0:0:
448,192,139825,1,0,0:0:0:0:
64,192,139825,1,0,0:0:0:0:
192,192,139987,128,0,140311:0:0:0:0:
320,192,139987,1,0,0:0:0:0:
64,192,140149,1,0,0:0:0:0:
448,192,140149,1,0,0:0:0:0:
448,192,140311,128,0,140474:0:0:0:0:
320,192,140311,1,0,0:0:0:0:
192,192,140474,1,0,0:0:0:0:
64,192,140474,1,0,0:0:0:0:
320,192,140636,128,0,140798:0:0:0:0:
64,192,140798,1,0,0:0:0:0:
192,192,140798,128,0,140960:0:0:0:0:
448,192,140960,1,0,0:0:0:0:
320,192,140960,1,0,0:0:0:0:
64,192,141122,1,0,0:0:0:0:
192,192,141122,1,0,0:0:0:0:
448,192,141122,1,0,0:0:0:0:
320,192,141284,128,0,141609:0:0:0:0:
64,192,141284,1,0,0:0:0:0:
192,192,141447,1,0,0:0:0:0:
448,192,141447,1,0,0:0:0:0:
64,192,141609,128,0,141771:0:0:0:0:
448,192,141609,1,0,0:0:0:0:
192,192,141771,1,0,0:0:0:0:
320,192,141771,1,0,0:0:0:0:
448,192,141933,1,0,0:0:0:0:
192,192,141933,1,0,0:0:0:0:
448,192,142095,128,0,142744:0:0:0:0:
64,192,142095,1,0,0:0:0:0:
320,192,142257,1,0,0:0:0:0:
192,192,142257,1,0,0:0:0:0:
192,192,142420,1,0,0:0:0:0:
64,192,142420,1,0,0:0:0:0:
320,192,142582,1,0,0:0:0:0:
192,192,142582,1,0,0:0:0:0:
64,192,142744,128,0,143393:0:0:0:0:
320,192,142744,1,0,0:0:0:0:
448,192,142906,1,0,0:0:0:0:
192,192,142906,1,0,0:0:0:0:
320,192,143068,1,0,0:0:0:0:
192,192,143068,1,0,0:0:0:0:
448,192,143230,1,0,0:0:0:0:
320,192,143230,1,0,0:0:0:0:
192,192,143311,1,0,0:0:0:0:
320,192,143393,1,0,0:0:0:0:
448,192,143393,1,0,0:0:0:0:
192,192,143555,1,0,0:0:0:0:
320,192,143555,1,0,0:0:0:0:
64,192,143717,1,0,0:0:0:0:
192,192,143717,1,0,0:0:0:0:
448,192,143717,1,0,0:0:0:0:
320,192,143879,1,0,0:0:0:0:
192,192,144041,1,0,0:0:0:0:
64,192,144041,1,0,0:0:0:0:
448,192,144203,1,0,0:0:0:0:
320,192,144203,1,0,0:0:0:0:
64,192,144365,1,0,0:0:0:0:
320,192,144365,1,0,0:0:0:0:
192,192,144365,1,0,0:0:0:0:
448,192,144528,1,0,0:0:0:0:
320,192,144690,1,0,0:0:0:0:
192,192,144690,1,0,0:0:0:0:
192,192,144852,1,0,0:0:0:0:
448,192,144852,1,0,0:0:0:0:
448,192,145014,1,0,0:0:0:0:
320,192,145014,1,0,0:0:0:0:
64,192,145014,1,0,0:0:0:0:
192,192,145176,1,0,0:0:0:0:
320,192,145338,1,0,0:0:0:0:
448,192,145338,1,0,0:0:0:0:
64,192,145501,1,0,0:0:0:0:
448,192,145501,1,0,0:0:0:0:
320,192,145663,1,0,0:0:0:0:
192,192,145663,1,0,0:0:0:0:
64,192,145663,1,0,0:0:0:0:
448,192,145825,1,0,0:0:0:0:
320,192,145987,1,0,0:0:0:0:
192,192,145987,1,0,0:0:0:0:
448,192,146149,1,0,0:0:0:0:
192,192,146149,1,0,0:0:0:0:
64,192,146311,1,0,0:0:0:0:
320,192,146311,1,0,0:0:0:0:
448,192,146311,1,0,0:0:0:0:
192,192,146474,1,0,0:0:0:0:
320,192,146636,1,0,0:0:0:0:
448,192,146636,1,0,0:0:0:0:
64,192,146798,1,0,0:0:0:0:
192,192,146798,1,0,0:0:0:0:
192,192,146960,1,0,0:0:0:0:
320,192,146960,1,0,0:0:0:0:
448,192,146960,1,0,0:0:0:0:
64,192,147122,1,0,0:0:0:0:
192,192,147284,1,0,0:0:0:0:
64,192,147284,1,0,0:0:0:0:
448,192,147447,1,0,0:0:0:0:
320,192,147447,1,0,0:0:0:0:
64,192,147609,1,0,0:0:0:0:
448,192,147609,1,0,0:0:0:0:
192,192,147609,1,0,0:0:0:0:
64,192,147771,1,0,0:0:0:0:
320,192,147771,1,0,0:0:0:0:
320,192,147933,1,0,0:0:0:0:
192,192,147933,1,0,0:0:0:0:
192,192,148095,1,0,0:0:0:0:
320,192,148095,1,0,0:0:0:0:
448,192,148257,1,0,0:0:0:0:
64,192,148257,1,0,0:0:0:0:
192,192,148257,1,0,0:0:0:0:
320,192,148420,1,0,0:0:0:0:
448,192,148582,1,0,0:0:0:0:
64,192,148582,1,0,0:0:0:0:
192,192,148582,1,0,0:0:0:0:
192,192,148744,1,0,0:0:0:0:
320,192,148744,1,0,0:0:0:0:
448,192,148906,1,0,0:0:0:0:
64,192,148906,1,0,0:0:0:0:
320,192,148906,1,0,0:0:0:0:
320,192,149068,128,0,149149:0:0:0:0:
192,192,149230,1,0,0:0:0:0:
64,192,149230,1,0,0:0:0:0:
448,192,149393,1,0,0:0:0:0:
192,192,149393,1,0,0:0:0:0:
448,192,149555,1,0,0:0:0:0:
64,192,149555,128,0,149636:0:0:0:0:
320,192,149555,1,0,0:0:0:0:
192,192,149717,1,0,0:0:0:0:
448,192,149879,1,0,0:0:0:0:
320,192,149879,1,0,0:0:0:0:
192,192,150041,128,0,150122:0:0:0:0:
64,192,150041,1,0,0:0:0:0:
320,192,150203,1,0,0:0:0:0:
448,192,150203,1,0,0:0:0:0:
64,192,150203,1,0,0:0:0:0:
192,192,150365,1,0,0:0:0:0:
320,192,150528,128,0,150609:0:0:0:0:
448,192,150528,1,0,0:0:0:0:
192,192,150690,1,0,0:0:0:0:
64,192,150690,1,0,0:0:0:0:
320,192,150771,1,0,0:0:0:0:
448,192,150771,1,0,0:0:0:0:
64,192,150852,1,0,0:0:0:0:
192,192,150852,1,0,0:0:0:0:
320,192,150933,1,0,0:0:0:0:
448,192,151014,1,0,0:0:0:0:
64,192,151014,1,0,0:0:0:0:
192,192,151095,1,0,0:0:0:0:
320,192,151176,1,0,0:0:0:0:
448,192,151176,1,0,0:0:0:0:
64,192,151176,1,0,0:0:0:0:
192,192,151257,1,0,0:0:0:0:
320,192,151338,1,0,0:0:0:0:
448,192,151338,1,0,0:0:0:0:
64,192,151420,1,0,0:0:0:0:
320,192,151501,1,0,0:0:0:0:
448,192,151501,1,0,0:0:0:0:
192,192,151582,1,0,0:0:0:0:
64,192,151663,1,0,0:0:0:0:
448,192,151663,1,0,0:0:0:0:
320,192,151663,1,0,0:0:0:0:
192,192,151744,1,0,0:0:0:0:
448,192,151825,1,0,0:0:0:0:
320,192,151825,1,0,0:0:0:0:
64,192,151906,1,0,0:0:0:0:
192,192,151987,1,0,0:0:0:0:
320,192,151987,1,0,0:0:0:0:
448,192,152068,1,0,0:0:0:0:
320,192,152149,1,0,0:0:0:0:
64,192,152149,1,0,0:0:0:0:
192,192,152149,1,0,0:0:0:0:
448,192,152230,1,0,0:0:0:0:
320,192,152311,1,0,0:0:0:0:
64,192,152311,1,0,0:0:0:0:
192,192,152393,1,0,0:0:0:0:
64,192,152474,1,0,0:0:0:0:
448,192,152474,1,0,0:0:0:0:
320,192,152555,1,0,0:0:0:0:
448,192,152636,1,0,0:0:0:0:
192,192,152636,1,0,0:0:0:0:
64,192,152636,1,0,0:0:0:0:
320,192,152717,1,0,0:0:0:0:
64,192,152798,1,0,0:0:0:0:
192,192,152798,1,0,0:0:0:0:
448,192,152879,1,0,0:0:0:0:
192,192,152960,1,0,0:0:0:0:
320,192,152960,1,0,0:0:0:0:
64,192,153041,1,0,0:0:0:0:
320,192,153122,1,0,0:0:0:0:
448,192,153122,1,0,0:0:0:0:
192,192,153203,1,0,0:0:0:0:
320,192,153284,1,0,0:0:0:0:
448,192,153284,1,0,0:0:0:0:
64,192,153365,1,0,0:0:0:0:
192,192,153447,1,0,0:0:0:0:
320,192,153447,1,0,0:0:0:0:
448,192,153447,1,0,0:0:0:0:
64,192,153528,1,0,0:0:0:0:
192,192,153609,1,0,0:0:0:0:
320,192,153609,1,0,0:0:0:0:
448,192,153690,1,0,0:0:0:0:
192,192,153771,1,0,0:0:0:0:
320,192,153771,1,0,0:0:0:0:
448,192,153771,1,0,0:0:0:0:
64,192,153771,1,0,0:0:0:0:
320,192,153852,1,0,0:0:0:0:
192,192,153933,1,0,0:0:0:0:
64,192,153933,1,0,0:0:0:0:
448,192,154014,1,0,0:0:0:0:
192,192,154095,1,0,0:0:0:0:
320,192,154095,1,0,0:0:0:0:
64,192,154176,1,0,0:0:0:0:
320,192,154257,1,0,0:0:0:0:
448,192,154257,1,0,0:0:0:0:
192,192,154338,1,0,0:0:0:0:
64,192,154420,1,0,0:0:0:0:
448,192,154420,1,0,0:0:0:0:
320,192,154501,1,0,0:0:0:0:
192,192,154582,1,0,0:0:0:0:
64,192,154582,1,0,0:0:0:0:
448,192,154663,1,0,0:0:0:0:
320,192,154744,1,0,0:0:0:0:
448,192,154744,1,0,0:0:0:0:
64,192,154744,1,0,0:0:0:0:
192,192,154744,1,0,0:0:0:0:
64,192,154825,1,0,0:0:0:0:
320,192,154906,1,0,0:0:0:0:
448,192,154906,1,0,0:0:0:0:
192,192,154987,1,0,0:0:0:0:
64,192,155068,1,0,0:0:0:0:
320,192,155068,1,0,0:0:0:0:
448,192,155149,1,0,0:0:0:0:
320,192,155230,1,0,0:0:0:0:
192,192,155230,1,0,0:0:0:0:
64,192,155230,1,0,0:0:0:0:
448,192,155230,1,0,0:0:0:0:
192,192,155311,1,0,0:0:0:0:
320,192,155393,1,0,0:0:0:0:
448,192,155393,1,0,0:0:0:0:
64,192,155474,1,0,0:0:0:0:
320,192,155555,1,0,0:0:0:0:
192,192,155555,1,0,0:0:0:0:
448,192,155636,1,0,0:0:0:0:
64,192,155717,1,0,0:0:0:0:
192,192,155717,1,0,0:0:0:0:
320,192,155798,1,0,0:0:0:0:
448,192,155879,1,0,0:0:0:0:
64,192,155879,1,0,0:0:0:0:
192,192,155960,1,0,0:0:0:0:
320,192,156041,1,0,0:0:0:0:
448,192,156041,1,0,0:0:0:0:
64,192,156122,1,0,0:0:0:0:
192,192,156203,1,0,0:0:0:0:
320,192,156203,1,0,0:0:0:0:
448,192,156284,1,0,0:0:0:0:
320,192,156365,1,0,0:0:0:0:
64,192,156365,1,0,0:0:0:0:
192,192,156365,1,0,0:0:0:0:
448,192,156365,1,0,0:0:0:0:
320,192,156528,1,0,0:0:0:0:
192,192,156528,1,0,0:0:0:0:
64,192,156528,1,0,0:0:0:0:
192,192,156690,1,0,0:0:0:0:
64,192,156690,1,0,0:0:0:0:
448,192,156690,1,0,0:0:0:0:
320,192,156690,1,0,0:0:0:0:
320,192,156852,1,0,0:0:0:0:
448,192,156852,1,0,0:0:0:0:
192,192,156852,1,0,0:0:0:0:
320,192,157014,1,0,0:0:0:0:
64,192,157014,1,0,0:0:0:0:
192,192,157014,1,0,0:0:0:0:
448,192,157014,1,0,0:0:0:0:
448,192,157176,1,0,0:0:0:0:
64,192,157176,1,0,0:0:0:0:
192,192,157176,1,0,0:0:0:0:
320,192,157338,1,0,0:0:0:0:
448,192,157338,1,0,0:0:0:0:
192,192,157338,1,0,0:0:0:0:
64,192,157338,1,0,0:0:0:0:
64,192,157501,1,0,0:0:0:0:
320,192,157501,1,0,0:0:0:0:
448,192,157501,1,0,0:0:0:0:
192,192,157663,1,0,0:0:0:0:
64,192,157663,1,0,0:0:0:0:
448,192,157744,1,0,0:0:0:0:
320,192,157744,1,0,0:0:0:0:
192,192,157825,1,0,0:0:0:0:
64,192,157825,1,0,0:0:0:0:
320,192,157906,1,0,0:0:0:0:
448,192,157906,1,0,0:0:0:0:
192,192,157987,1,0,0:0:0:0:
64,192,157987,1,0,0:0:0:0:
320,192,158068,1,0,0:0:0:0:
192,192,158149,1,0,0:0:0:0:
320,192,158230,1,0,0:0:0:0:
448,192,158230,1,0,0:0:0:0:
64,192,158311,1,0,0:0:0:0:
192,192,158311,1,0,0:0:0:0:
320,192,158393,1,0,0:0:0:0:
448,192,158393,1,0,0:0:0:0:
192,192,158474,1,0,0:0:0:0:
64,192,158474,1,0,0:0:0:0:
320,192,158555,1,0,0:0:0:0:
448,192,158555,1,0,0:0:0:0:
192,192,158636,1,0,0:0:0:0:
64,192,158636,1,0,0:0:0:0:
320,192,158717,1,0,0:0:0:0:
448,192,158717,1,0,0:0:0:0:
192,192,158798,1,0,0:0:0:0:
64,192,158798,1,0,0:0:0:0:
320,192,158879,1,0,0:0:0:0:
448,192,158879,1,0,0:0:0:0:
192,192,158960,1,0,0:0:0:0:
64,192,158960,1,0,0:0:0:0:
448,192,158960,1,0,0:0:0:0:
320,192,159041,1,0,0:0:0:0:
192,192,159122,1,0,0:0:0:0:
64,192,159122,1,0,0:0:0:0:
448,192,159203,1,0,0:0:0:0:
320,192,159284,1,0,0:0:0:0:
192,192,159284,1,0,0:0:0:0:
64,192,159365,1,0,0:0:0:0:
448,192,159447,1,0,0:0:0:0:
320,192,159447,1,0,0:0:0:0:
192,192,159528,1,0,0:0:0:0:
64,192,159609,1,0,0:0:0:0:
320,192,159609,1,0,0:0:0:0:
448,192,159690,1,0,0:0:0:0:
192,192,159771,1,0,0:0:0:0:
64,192,159771,1,0,0:0:0:0:
320,192,159852,1,0,0:0:0:0:
64,192,159933,1,0,0:0:0:0:
192,192,159933,1,0,0:0:0:0:
448,192,160014,1,0,0:0:0:0:
192,192,160095,1,0,0:0:0:0:
64,192,160095,1,0,0:0:0:0:
320,192,160095,1,0,0:0:0:0:
448,192,160176,1,0,0:0:0:0:
320,192,160257,1,0,0:0:0:0:
192,192,160257,1,0,0:0:0:0:
64,192,160338,1,0,0:0:0:0:
448,192,160420,1,0,0:0:0:0:
320,192,160420,1,0,0:0:0:0:
192,192,160501,1,0,0:0:0:0:
64,192,160582,1,0,0:0:0:0:
448,192,160582,1,0,0:0:0:0:
320,192,160663,1,0,0:0:0:0:
64,192,160744,1,0,0:0:0:0:
192,192,160744,1,0,0:0:0:0:
448,192,160825,1,0,0:0:0:0:
192,192,160906,1,0,0:0:0:0:
320,192,160906,1,0,0:0:0:0:
64,192,160987,1,0,0:0:0:0:
448,192,161068,1,0,0:0:0:0:
320,192,161068,1,0,0:0:0:0:
192,192,161149,1,0,0:0:0:0:
448,192,161230,1,0,0:0:0:0:
320,192,161230,1,0,0:0:0:0:
64,192,161311,1,0,0:0:0:0:
320,192,161393,1,0,0:0:0:0:
192,192,161393,1,0,0:0:0:0:
448,192,161474,1,0,0:0:0:0:
192,192,161555,1,0,0:0:0:0:
64,192,161555,1,0,0:0:0:0:
320,192,161636,1,0,0:0:0:0:
448,192,161717,1,0,0:0:0:0:
64,192,161717,1,0,0:0:0:0:
192,192,161798,1,0,0:0:0:0:
320,192,161879,1,0,0:0:0:0:
448,192,161879,1,0,0:0:0:0:
64,192,161960,1,0,0:0:0:0:
448,192,162041,1,0,0:0:0:0:
192,192,162041,1,0,0:0:0:0:
320,192,162122,1,0,0:0:0:0:
64,192,162203,1,0,0:0:0:0:
192,192,162203,1,0,0:0:0:0:
448,192,162284,1,0,0:0:0:0:
192,192,162365,1,0,0:0:0:0:
320,192,162365,1,0,0:0:0:0:
64,192,162447,1,0,0:0:0:0:
448,192,162528,1,0,0:0:0:0:
192,192,162528,1,0,0:0:0:0:
320,192,162609,1,0,0:0:0:0:
448,192,162690,1,0,0:0:0:0:
64,192,162690,1,0,0:0:0:0:
192,192,162690,1,0,0:0:0:0:
320,192,162771,1,0,0:0:0:0:
192,192,162852,1,0,0:0:0:0:
64,192,162852,1,0,0:0:0:0:
448,192,162933,1,0,0:0:0:0:
192,192,163014,1,0,0:0:0:0:
320,192,163014,1,0,0:0:0:0:
64,192,163095,1,0,0:0:0:0:
448,192,163176,128,0,163501:0:0:0:0:
320,192,163176,1,0,0:0:0:0:
192,192,163176,1,0,0:0:0:0:
64,192,163257,1,0,0:0:0:0:
320,192,163338,1,0,0:0:0:0:
64,192,163420,1,0,0:0:0:0:
320,192,163501,128,0,163825:0:0:0:0:
192,192,163501,1,0,0:0:0:0:
64,192,163582,1,0,0:0:0:0:
448,192,163663,1,0,0:0:0:0:
192,192,163663,1,0,0:0:0:0:
64,192,163744,1,0,0:0:0:0:
192,192,163825,128,0,164149:0:0:0:0:
448,192,163825,1,0,0:0:0:0:
64,192,163906,1,0,0:0:0:0:
320,192,163987,1,0,0:0:0:0:
448,192,164068,1,0,0:0:0:0:
64,192,164149,128,0,164474:0:0:0:0:
320,192,164149,1,0,0:0:0:0:
448,192,164230,1,0,0:0:0:0:
320,192,164311,1,0,0:0:0:0:
192,192,164393,1,0,0:0:0:0:
320,192,164474,1,0,0:0:0:0:
448,192,164474,1,0,0:0:0:0:
192,192,164555,1,0,0:0:0:0:
64,192,164636,1,0,0:0:0:0:
320,192,164636,1,0,0:0:0:0:
448,192,164717,1,0,0:0:0:0:
320,192,164798,1,0,0:0:0:0:
192,192,164798,1,0,0:0:0:0:
448,192,164879,1,0,0:0:0:0:
192,192,164960,1,0,0:0:0:0:
64,192,164960,1,0,0:0:0:0:
320,192,165041,1,0,0:0:0:0:
192,192,165122,1,0,0:0:0:0:
64,192,165122,1,0,0:0:0:0:
448,192,165203,1,0,0:0:0:0:
320,192,165284,1,0,0:0:0:0:
192,192,165284,1,0,0:0:0:0:
64,192,165284,1,0,0:0:0:0:
448,192,165365,1,0,0:0:0:0:
64,192,165447,1,0,0:0:0:0:
320,192,165447,1,0,0:0:0:0:
192,192,165528,1,0,0:0:0:0:
448,192,165609,1,0,0:0:0:0:
320,192,165609,1,0,0:0:0:0:
64,192,165690,1,0,0:0:0:0:
320,192,165771,1,0,0:0:0:0:
192,192,165771,1,0,0:0:0:0:
448,192,165852,1,0,0:0:0:0:
64,192,165933,1,0,0:0:0:0:
192,192,165933,1,0,0:0:0:0:
320,192,166014,1,0,0:0:0:0:
64,192,166095,1,0,0:0:0:0:
448,192,166095,1,0,0:0:0:0:
192,192,166176,1,0,0:0:0:0:
320,192,166257,1,0,0:0:0:0:
448,192,166257,1,0,0:0:0:0:
64,192,166338,1,0,0:0:0:0:
448,192,166420,1,0,0:0:0:0:
320,192,166420,1,0,0:0:0:0:
192,192,166501,1,0,0:0:0:0:
64,192,166582,1,0,0:0:0:0:
448,192,166582,1,0,0:0:0:0:
320,192,166663,1,0,0:0:0:0:
64,192,166744,1,0,0:0:0:0:
192,192,166744,1,0,0:0:0:0:
448,192,166825,1,0,0:0:0:0:
192,192,166906,1,0,0:0:0:0:
320,192,166906,1,0,0:0:0:0:
64,192,166987,1,0,0:0:0:0:
320,192,167068,1,0,0:0:0:0:
192,192,167068,1,0,0:0:0:0:
448,192,167149,1,0,0:0:0:0:
320,192,167230,1,0,0:0:0:0:
64,192,167230,1,0,0:0:0:0:
192,192,167311,1,0,0:0:0:0:
448,192,167393,1,0,0:0:0:0:
64,192,167393,1,0,0:0:0:0:
320,192,167474,1,0,0:0:0:0:
192,192,167555,1,0,0:0:0:0:
64,192,167555,1,0,0:0:0:0:
448,192,167636,1,0,0:0:0:0:
320,192,167717,1,0,0:0:0:0:
192,192,167717,1,0,0:0:0:0:
64,192,167717,1,0,0:0:0:0:
448,192,167798,1,0,0:0:0:0:
64,192,167879,1,0,0:0:0:0:
320,192,167879,1,0,0:0:0:0:
192,192,167960,1,0,0:0:0:0:
448,192,168041,1,0,0:0:0:0:
320,192,168041,1,0,0:0:0:0:
64,192,168122,1,0,0:0:0:0:
320,192,168203,1,0,0:0:0:0:
192,192,168203,1,0,0:0:0:0:
448,192,168284,1,0,0:0:0:0:
64,192,168365,1,0,0:0:0:0:
320,192,168365,1,0,0:0:0:0:
192,192,168365,1,0,0:0:0:0:
448,192,168447,1,0,0:0:0:0:
64,192,168528,1,0,0:0:0:0:
192,192,168528,1,0,0:0:0:0:
320,192,168609,1,0,0:0:0:0:
192,192,168690,1,0,0:0:0:0:
448,192,168690,1,0,0:0:0:0:
64,192,168690,1,0,0:0:0:0:
320,192,168771,1,0,0:0:0:0:
64,192,168852,1,0,0:0:0:0:
192,192,168852,1,0,0:0:0:0:
320,192,168933,1,0,0:0:0:0:
448,192,168933,1,0,0:0:0:0:
192,192,169014,1,0,0:0:0:0:
64,192,169014,1,0,0:0:0:0:
320,192,169095,1,0,0:0:0:0:
448,192,169095,1,0,0:0:0:0:
192,192,169176,1,0,0:0:0:0:
64,192,169176,1,0,0:0:0:0:
320,192,169257,1,0,0:0:0:0:
64,192,169338,1,0,0:0:0:0:
448,192,169338,1,0,0:0:0:0:
192,192,169338,1,0,0:0:0:0:
320,192,169420,1,0,0:0:0:0:
64,192,169501,1,0,0:0:0:0:
448,192,169501,1,0,0:0:0:0:
192,192,169582,1,0,0:0:0:0:
448,192,169663,1,0,0:0:0:0:
320,192,169663,1,0,0:0:0:0:
64,192,169744,1,0,0:0:0:0:
320,192,169825,1,0,0:0:0:0:
192,192,169825,1,0,0:0:0:0:
448,192,169906,1,0,0:0:0:0:
192,192,169987,1,0,0:0:0:0:
64,192,169987,1,0,0:0:0:0:
320,192,170068,1,0,0:0:0:0:
448,192,170149,1,0,0:0:0:0:
64,192,170149,1,0,0:0:0:0:
320,192,170230,1,0,0:0:0:0:
64,192,170311,1,0,0:0:0:0:
192,192,170311,1,0,0:0:0:0:
448,192,170393,1,0,0:0:0:0:
192,192,170474,1,0,0:0:0:0:
320,192,170474,1,0,0:0:0:0:
64,192,170474,1,0,0:0:0:0:
448,192,170555,1,0,0:0:0:0:
64,192,170636,1,0,0:0:0:0:
192,192,170636,1,0,0:0:0:0:
320,192,170717,1,0,0:0:0:0:
64,192,170798,1,0,0:0:0:0:
448,192,170798,1,0,0:0:0:0:
192,192,170879,1,0,0:0:0:0:
320,192,170960,1,0,0:0:0:0:
448,192,170960,1,0,0:0:0:0:
64,192,171041,1,0,0:0:0:0:
448,192,171122,1,0,0:0:0:0:
192,192,171122,1,0,0:0:0:0:
320,192,171203,1,0,0:0:0:0:
64,192,171284,1,0,0:0:0:0:
192,192,171284,1,0,0:0:0:0:
448,192,171365,1,0,0:0:0:0:
320,192,171447,1,0,0:0:0:0:
192,192,171447,1,0,0:0:0:0:
64,192,171528,1,0,0:0:0:0:
320,192,171609,1,0,0:0:0:0:
448,192,171609,1,0,0:0:0:0:
192,192,171690,1,0,0:0:0:0:
64,192,171771,1,0,0:0:0:0:
448,192,171771,1,0,0:0:0:0:
320,192,171852,1,0,0:0:0:0:
192,192,171933,1,0,0:0:0:0:
64,192,171933,1,0,0:0:0:0:
448,192,172014,1,0,0:0:0:0:
320,192,172095,1,0,0:0:0:0:
192,192,172095,1,0,0:0:0:0:
64,192,172176,1,0,0:0:0:0:
320,192,172257,1,0,0:0:0:0:
448,192,172257,1,0,0:0:0:0:
192,192,172338,1,0,0:0:0:0:
448,192,172420,1,0,0:0:0:0:
320,192,172420,1,0,0:0:0:0:
64,192,172501,1,0,0:0:0:0:
192,192,172582,1,0,0:0:0:0:
320,192,172582,1,0,0:0:0:0:
448,192,172663,1,0,0:0:0:0:
192,192,172744,1,0,0:0:0:0:
64,192,172744,1,0,0:0:0:0:
320,192,172825,1,0,0:0:0:0:
64,192,172906,1,0,0:0:0:0:
448,192,172906,1,0,0:0:0:0:
192,192,172987,1,0,0:0:0:0:
320,192,173068,1,0,0:0:0:0:
448,192,173068,1,0,0:0:0:0:
64,192,173068,1,0,0:0:0:0:
192,192,173149,1,0,0:0:0:0:
320,192,173230,1,0,0:0:0:0:
448,192,173230,1,0,0:0:0:0:
64,192,173311,1,0,0:0:0:0:
192,192,173393,1,0,0:0:0:0:
320,192,173393,1,0,0:0:0:0:
448,192,173474,1,0,0:0:0:0:
192,192,173555,1,0,0:0:0:0:
64,192,173555,128,0,173879:0:0:0:0:
320,192,173636,1,0,0:0:0:0:
192,192,173717,1,0,0:0:0:0:
448,192,173798,1,0,0:0:0:0:
192,192,173879,128,0,174203:0:0:0:0:
320,192,173879,1,0,0:0:0:0:
448,192,173960,1,0,0:0:0:0:
320,192,174041,1,0,0:0:0:0:
64,192,174122,1,0,0:0:0:0:
320,192,174203,128,0,174528:0:0:0:0:
448,192,174203,1,0,0:0:0:0:
192,192,174284,1,0,0:0:0:0:
448,192,174365,1,0,0:0:0:0:
64,192,174447,1,0,0:0:0:0:
448,192,174528,128,0,174852:0:0:0:0:
192,192,174528,1,0,0:0:0:0:
64,192,174609,1,0,0:0:0:0:
192,192,174690,1,0,0:0:0:0:
320,192,174771,1,0,0:0:0:0:
192,192,174852,1,0,0:0:0:0:
64,192,174852,1,0,0:0:0:0:
320,192,174933,1,0,0:0:0:0:
448,192,175014,1,0,0:0:0:0:
64,192,175014,1,0,0:0:0:0:
192,192,175095,1,0,0:0:0:0:
320,192,175176,1,0,0:0:0:0:
448,192,175176,1,0,0:0:0:0:
64,192,175257,1,0,0:0:0:0:
192,192,175338,1,0,0:0:0:0:
320,192,175338,1,0,0:0:0:0:
448,192,175420,1,0,0:0:0:0:
320,192,175501,1,0,0:0:0:0:
192,192,175501,1,0,0:0:0:0:
64,192,175582,1,0,0:0:0:0:
320,192,175663,1,0,0:0:0:0:
448,192,175663,1,0,0:0:0:0:
192,192,175663,1,0,0:0:0:0:
64,192,175744,1,0,0:0:0:0:
448,192,175825,1,0,0:0:0:0:
320,192,175825,1,0,0:0:0:0:
192,192,175906,1,0,0:0:0:0:
448,192,175987,1,0,0:0:0:0:
64,192,175987,1,0,0:0:0:0:
320,192,176068,1,0,0:0:0:0:
192,192,176149,1,0,0:0:0:0:
64,192,176149,1,0,0:0:0:0:
448,192,176230,1,0,0:0:0:0:
320,192,176311,1,0,0:0:0:0:
64,192,176311,1,0,0:0:0:0:
192,192,176393,1,0,0:0:0:0:
320,192,176474,1,0,0:0:0:0:
448,192,176474,1,0,0:0:0:0:
64,192,176555,1,0,0:0:0:0:
192,192,176636,1,0,0:0:0:0:
448,192,176636,1,0,0:0:0:0:
320,192,176717,1,0,0:0:0:0:
64,192,176798,1,0,0:0:0:0:
192,192,176798,1,0,0:0:0:0:
448,192,176879,1,0,0:0:0:0:
320,192,176960,1,0,0:0:0:0:
192,192,176960,1,0,0:0:0:0:
64,192,177041,1,0,0:0:0:0:
320,192,177122,1,0,0:0:0:0:
448,192,177122,1,0,0:0:0:0:
192,192,177203,1,0,0:0:0:0:
448,192,177284,1,0,0:0:0:0:
320,192,177284,1,0,0:0:0:0:
64,192,177365,1,0,0:0:0:0:
320,192,177447,1,0,0:0:0:0:
192,192,177447,1,0,0:0:0:0:
448,192,177528,1,0,0:0:0:0:
192,192,177609,1,0,0:0:0:0:
64,192,177609,1,0,0:0:0:0:
320,192,177690,1,0,0:0:0:0:
64,192,177771,1,0,0:0:0:0:
448,192,177771,1,0,0:0:0:0:
192,192,177852,1,0,0:0:0:0:
448,192,177933,1,0,0:0:0:0:
320,192,177933,1,0,0:0:0:0:
64,192,178014,1,0,0:0:0:0:
448,192,178095,1,0,0:0:0:0:
320,192,178095,1,0,0:0:0:0:
192,192,178095,1,0,0:0:0:0:
64,192,178176,1,0,0:0:0:0:
448,192,178257,1,0,0:0:0:0:
192,192,178257,1,0,0:0:0:0:
320,192,178338,1,0,0:0:0:0:
192,192,178420,1,0,0:0:0:0:
64,192,178420,1,0,0:0:0:0:
320,192,178501,1,0,0:0:0:0:
448,192,178501,1,0,0:0:0:0:
192,192,178582,1,0,0:0:0:0:
64,192,178582,1,0,0:0:0:0:
320,192,178663,1,0,0:0:0:0:
448,192,178663,1,0,0:0:0:0:
192,192,178744,1,0,0:0:0:0:
64,192,178744,1,0,0:0:0:0:
320,192,178825,1,0,0:0:0:0:
448,192,178906,1,0,0:0:0:0:
64,192,178906,1,0,0:0:0:0:
320,192,178987,1,0,0:0:0:0:
192,192,178987,1,0,0:0:0:0:
448,192,179068,1,0,0:0:0:0:
64,192,179068,1,0,0:0:0:0:
320,192,179149,1,0,0:0:0:0:
192,192,179149,1,0,0:0:0:0:
448,192,179230,1,0,0:0:0:0:
64,192,179230,1,0,0:0:0:0:
192,192,179311,1,0,0:0:0:0:
448,192,179393,1,0,0:0:0:0:
320,192,179393,1,0,0:0:0:0:
64,192,179474,1,0,0:0:0:0:
192,192,179474,1,0,0:0:0:0:
320,192,179555,1,0,0:0:0:0:
448,192,179555,1,0,0:0:0:0:
192,192,179636,1,0,0:0:0:0:
320,192,179717,1,0,0:0:0:0:
448,192,179717,1,0,0:0:0:0:
64,192,179717,1,0,0:0:0:0:
192,192,179798,1,0,0:0:0:0:
64,192,179879,1,0,0:0:0:0:
448,192,179879,1,0,0:0:0:0:
320,192,179960,1,0,0:0:0:0:
64,192,180041,1,0,0:0:0:0:
192,192,180041,1,0,0:0:0:0:
448,192,180122,1,0,0:0:0:0:
192,192,180203,1,0,0:0:0:0:
64,192,180203,1,0,0:0:0:0:
320,192,180284,1,0,0:0:0:0:
448,192,180365,1,0,0:0:0:0:
64,192,180365,1,0,0:0:0:0:
192,192,180447,1,0,0:0:0:0:
448,192,180528,1,0,0:0:0:0:
320,192,180528,1,0,0:0:0:0:
64,192,180609,1,0,0:0:0:0:
192,192,180690,1,0,0:0:0:0:
448,192,180690,1,0,0:0:0:0:
320,192,180771,1,0,0:0:0:0:
192,192,180852,1,0,0:0:0:0:
64,192,180852,1,0,0:0:0:0:
320,192,180933,1,0,0:0:0:0:
64,192,181014,1,0,0:0:0:0:
448,192,181014,1,0,0:0:0:0:
192,192,181095,1,0,0:0:0:0:
448,192,181176,1,0,0:0:0:0:
64,192,181176,1,0,0:0:0:0:
320,192,181257,1,0,0:0:0:0:
192,192,181338,1,0,0:0:0:0:
64,192,181338,1,0,0:0:0:0:
448,192,181420,1,0,0:0:0:0:
64,192,181501,1,0,0:0:0:0:
192,192,181501,1,0,0:0:0:0:
448,192,181582,1,0,0:0:0:0:
320,192,181622,1,0,0:0:0:0:
192,192,181663,1,0,0:0:0:0:
64,192,181663,1,0,0:0:0:0:
448,192,181744,1,0,0:0:0:0:
64,192,181825,1,0,0:0:0:0:
192,192,181825,1,0,0:0:0:0:
320,192,181906,1,0,0:0:0:0:
64,192,181987,1,0,0:0:0:0:
448,192,181987,1,0,0:0:0:0:
192,192,182068,1,0,0:0:0:0:
320,192,182149,1,0,0:0:0:0:
448,192,182149,1,0,0:0:0:0:
64,192,182230,1,0,0:0:0:0:
320,192,182311,1,0,0:0:0:0:
448,192,182311,1,0,0:0:0:0:
192,192,182393,1,0,0:0:0:0:
64,192,182474,1,0,0:0:0:0:
448,192,182474,1,0,0:0:0:0:
320,192,182555,1,0,0:0:0:0:
192,192,182636,1,0,0:0:0:0:
64,192,182636,1,0,0:0:0:0:
448,192,182717,1,0,0:0:0:0:
192,192,182798,1,0,0:0:0:0:
64,192,182798,1,0,0:0:0:0:
320,192,182879,1,0,0:0:0:0:
64,192,182960,1,0,0:0:0:0:
192,192,182960,1,0,0:0:0:0:
448,192,183041,1,0,0:0:0:0:
192,192,183122,1,0,0:0:0:0:
64,192,183122,1,0,0:0:0:0:
320,192,183203,1,0,0:0:0:0:
448,192,183284,1,0,0:0:0:0:
64,192,183284,1,0,0:0:0:0:
192,192,183365,1,0,0:0:0:0:
320,192,183447,1,0,0:0:0:0:
448,192,183447,1,0,0:0:0:0:
64,192,183528,1,0,0:0:0:0:
448,192,183609,1,0,0:0:0:0:
320,192,183609,1,0,0:0:0:0:
192,192,183690,1,0,0:0:0:0:
448,192,183771,1,0,0:0:0:0:
320,192,183771,1,0,0:0:0:0:
64,192,183852,1,0,0:0:0:0:
448,192,183933,1,0,0:0:0:0:
192,192,183933,128,0,184257:0:0:0:0:
320,192,184014,1,0,0:0:0:0:
64,192,184095,1,0,0:0:0:0:
320,192,184176,1,0,0:0:0:0:
448,192,184257,128,0,184582:0:0:0:0:
64,192,184257,1,0,0:0:0:0:
320,192,184338,1,0,0:0:0:0:
64,192,184420,1,0,0:0:0:0:
192,192,184501,1,0,0:0:0:0:
64,192,184582,128,0,184906:0:0:0:0:
320,192,184582,1,0,0:0:0:0:
192,192,184663,1,0,0:0:0:0:
448,192,184744,1,0,0:0:0:0:
192,192,184825,1,0,0:0:0:0:
320,192,184906,128,0,185230:0:0:0:0:
448,192,184906,1,0,0:0:0:0:
192,192,184987,1,0,0:0:0:0:
448,192,185068,1,0,0:0:0:0:
64,192,185149,1,0,0:0:0:0:
448,192,185230,1,0,0:0:0:0:
192,192,185230,1,0,0:0:0:0:
64,192,185311,1,0,0:0:0:0:
320,192,185393,1,0,0:0:0:0:
192,192,185393,1,0,0:0:0:0:
448,192,185474,1,0,0:0:0:0:
192,192,185555,1,0,0:0:0:0:
64,192,185555,1,0,0:0:0:0:
320,192,185636,1,0,0:0:0:0:
192,192,185717,1,0,0:0:0:0:
448,192,185717,1,0,0:0:0:0:
64,192,185798,1,0,0:0:0:0:
448,192,185879,1,0,0:0:0:0:
320,192,185879,1,0,0:0:0:0:
192,192,185879,1,0,0:0:0:0:
64,192,185960,1,0,0:0:0:0:
320,192,186041,1,0,0:0:0:0:
192,192,186041,1,0,0:0:0:0:
448,192,186122,1,0,0:0:0:0:
192,192,186203,1,0,0:0:0:0:
64,192,186203,1,0,0:0:0:0:
320,192,186203,1,0,0:0:0:0:
448,192,186284,1,0,0:0:0:0:
320,192,186365,1,0,0:0:0:0:
192,192,186365,1,0,0:0:0:0:
64,192,186447,1,0,0:0:0:0:
320,192,186528,1,0,0:0:0:0:
448,192,186528,1,0,0:0:0:0:
192,192,186609,1,0,0:0:0:0:
64,192,186690,1,0,0:0:0:0:
448,192,186690,1,0,0:0:0:0:
320,192,186771,1,0,0:0:0:0:
192,192,186852,1,0,0:0:0:0:
64,192,186852,1,0,0:0:0:0:
448,192,186933,1,0,0:0:0:0:
192,192,187014,1,0,0:0:0:0:
320,192,187014,1,0,0:0:0:0:
64,192,187095,1,0,0:0:0:0:
192,192,187176,1,0,0:0:0:0:
448,192,187176,1,0,0:0:0:0:
320,192,187257,1,0,0:0:0:0:
448,192,187338,1,0,0:0:0:0:
64,192,187338,1,0,0:0:0:0:
192,192,187420,1,0,0:0:0:0:
64,192,187501,1,0,0:0:0:0:
320,192,187501,1,0,0:0:0:0:
448,192,187582,1,0,0:0:0:0:
192,192,187663,1,0,0:0:0:0:
64,192,187663,1,0,0:0:0:0:
320,192,187744,1,0,0:0:0:0:
448,192,187825,1,0,0:0:0:0:
64,192,187825,1,0,0:0:0:0:
192,192,187906,1,0,0:0:0:0:
448,192,187987,1,0,0:0:0:0:
320,192,187987,1,0,0:0:0:0:
64,192,188068,1,0,0:0:0:0:
192,192,188149,1,0,0:0:0:0:
320,192,188149,1,0,0:0:0:0:
448,192,188230,1,0,0:0:0:0:
192,192,188311,1,0,0:0:0:0:
64,192,188311,1,0,0:0:0:0:
320,192,188393,1,0,0:0:0:0:
192,192,188474,1,0,0:0:0:0:
64,192,188474,1,0,0:0:0:0:
448,192,188555,1,0,0:0:0:0:
320,192,188636,1,0,0:0:0:0:
192,192,188636,1,0,0:0:0:0:
64,192,188717,1,0,0:0:0:0:
192,192,188798,1,0,0:0:0:0:
320,192,188798,1,0,0:0:0:0:
448,192,188798,1,0,0:0:0:0:
64,192,188879,1,0,0:0:0:0:
448,192,188960,1,0,0:0:0:0:
320,192,188960,1,0,0:0:0:0:
192,192,189041,1,0,0:0:0:0:
64,192,189122,1,0,0:0:0:0:
448,192,189122,1,0,0:0:0:0:
320,192,189203,1,0,0:0:0:0:
192,192,189284,1,0,0:0:0:0:
448,192,189284,1,0,0:0:0:0:
64,192,189365,1,0,0:0:0:0:
448,192,189447,1,0,0:0:0:0:
320,192,189487,1,0,0:0:0:0:
192,192,189528,1,0,0:0:0:0:
64,192,189568,1,0,0:0:0:0:
448,192,189609,1,0,0:0:0:0:
320,192,189649,1,0,0:0:0:0:
192,192,189690,1,0,0:0:0:0:
64,192,189730,1,0,0:0:0:0:
320,192,189771,1,0,0:0:0:0:
448,192,189771,1,0,0:0:0:0:
192,192,189852,1,0,0:0:0:0:
64,192,189852,1,0,0:0:0:0:
448,192,189933,1,0,0:0:0:0:
320,192,189933,1,0,0:0:0:0:
192,192,190014,1,0,0:0:0:0:
64,192,190095,1,0,0:0:0:0:
448,192,190095,1,0,0:0:0:0:
320,192,190095,1,0,0:0:0:0:
192,192,190176,1,0,0:0:0:0:
320,192,190257,1,0,0:0:0:0:
448,192,190257,1,0,0:0:0:0:
64,192,190338,1,0,0:0:0:0:
192,192,190420,1,0,0:0:0:0:
448,192,190420,1,0,0:0:0:0:
320,192,190501,1,0,0:0:0:0:
192,192,190582,1,0,0:0:0:0:
64,192,190582,1,0,0:0:0:0:
320,192,190663,1,0,0:0:0:0:
64,192,190744,1,0,0:0:0:0:
448,192,190744,1,0,0:0:0:0:
192,192,190825,1,0,0:0:0:0:
320,192,190906,1,0,0:0:0:0:
448,192,190906,1,0,0:0:0:0:
64,192,190987,1,0,0:0:0:0:
448,192,191068,1,0,0:0:0:0:
320,192,191068,1,0,0:0:0:0:
192,192,191149,1,0,0:0:0:0:
64,192,191230,1,0,0:0:0:0:
448,192,191230,1,0,0:0:0:0:
320,192,191311,1,0,0:0:0:0:
192,192,191393,1,0,0:0:0:0:
64,192,191393,1,0,0:0:0:0:
448,192,191474,1,0,0:0:0:0:
192,192,191555,1,0,0:0:0:0:
320,192,191555,1,0,0:0:0:0:
64,192,191636,1,0,0:0:0:0:
448,192,191717,1,0,0:0:0:0:
320,192,191717,1,0,0:0:0:0:
192,192,191798,1,0,0:0:0:0:
448,192,191879,1,0,0:0:0:0:
64,192,191879,1,0,0:0:0:0:
320,192,191960,1,0,0:0:0:0:
192,192,192041,1,0,0:0:0:0:
64,192,192041,1,0,0:0:0:0:
448,192,192122,1,0,0:0:0:0:
320,192,192203,1,0,0:0:0:0:
192,192,192203,1,0,0:0:0:0:
448,192,192284,1,0,0:0:0:0:
64,192,192365,1,0,0:0:0:0:
192,192,192365,1,0,0:0:0:0:
320,192,192447,1,0,0:0:0:0:
448,192,192528,1,0,0:0:0:0:
64,192,192528,1,0,0:0:0:0:
192,192,192609,1,0,0:0:0:0:
448,192,192690,1,0,0:0:0:0:
320,192,192690,1,0,0:0:0:0:
64,192,192771,1,0,0:0:0:0:
192,192,192852,1,0,0:0:0:0:
320,192,192852,1,0,0:0:0:0:
448,192,192933,1,0,0:0:0:0:
192,192,193014,1,0,0:0:0:0:
64,192,193014,1,0,0:0:0:0:
320,192,193095,1,0,0:0:0:0:
448,192,193176,1,0,0:0:0:0:
64,192,193176,1,0,0:0:0:0:
192,192,193257,1,0,0:0:0:0:
320,192,193338,1,0,0:0:0:0:
448,192,193338,1,0,0:0:0:0:
64,192,193420,1,0,0:0:0:0:
192,192,193501,1,0,0:0:0:0:
448,192,193501,1,0,0:0:0:0:
320,192,193582,1,0,0:0:0:0:
64,192,193663,1,0,0:0:0:0:
192,192,193663,1,0,0:0:0:0:
448,192,193744,1,0,0:0:0:0:
192,192,193825,1,0,0:0:0:0:
320,192,193825,1,0,0:0:0:0:
64,192,193906,1,0,0:0:0:0:
320,192,193987,1,0,0:0:0:0:
448,192,193987,1,0,0:0:0:0:
192,192,193987,1,0,0:0:0:0:
64,192,194068,1,0,0:0:0:0:
320,192,194149,1,0,0:0:0:0:
448,192,194149,1,0,0:0:0:0:
192,192,194230,1,0,0:0:0:0:
64,192,194311,1,0,0:0:0:0:
448,192,194311,1,0,0:0:0:0:
320,192,194393,1,0,0:0:0:0:
192,192,194474,1,0,0:0:0:0:
64,192,194474,1,0,0:0:0:0:
320,192,194555,1,0,0:0:0:0:
448,192,194555,1,0,0:0:0:0:
64,192,194636,1,0,0:0:0:0:
192,192,194636,1,0,0:0:0:0:
320,192,194717,1,0,0:0:0:0:
448,192,194798,1,0,0:0:0:0:
64,192,194798,1,0,0:0:0:0:
192,192,194879,1,0,0:0:0:0:
448,192,194960,1,0,0:0:0:0:
320,192,194960,1,0,0:0:0:0:
64,192,195041,1,0,0:0:0:0:
192,192,195122,1,0,0:0:0:0:
448,192,195122,1,0,0:0:0:0:
320,192,195203,1,0,0:0:0:0:
192,192,195284,1,0,0:0:0:0:
64,192,195284,1,0,0:0:0:0:
448,192,195284,128,0,196582:0:0:0:0:
192,192,195933,128,0,197230:0:0:0:0:
320,192,195933,1,0,0:0:0:0:
64,192,195933,1,0,0:0:0:0:
320,192,196582,128,0,197879:0:0:0:0:
64,192,196582,1,0,0:0:0:0:
64,192,197230,128,0,198528:0:0:0:0:
448,192,197230,1,0,0:0:0:0:
448,192,197879,128,0,199176:0:0:0:0:
192,192,197879,1,0,0:0:0:0:
192,192,198528,128,0,199176:0:0:0:0:
320,192,198528,1,0,0:0:0:0:
320,192,199176,128,0,199825:0:0:0:0:
64,192,199176,1,0,0:0:0:0:
448,192,199338,1,0,0:0:0:0:
192,192,199501,1,0,0:0:0:0:
448,192,199663,1,0,0:0:0:0:
64,192,199825,128,0,200474:0:0:0:0:
192,192,199825,1,0,0:0:0:0:
448,192,199987,1,0,0:0:0:0:
320,192,199987,1,0,0:0:0:0:
320,192,200149,1,0,0:0:0:0:
192,192,200149,1,0,0:0:0:0:
448,192,200311,1,0,0:0:0:0:
320,192,200311,1,0,0:0:0:0:
192,192,200474,1,0,0:0:0:0:
448,192,200474,1,0,0:0:0:0:
320,192,200474,1,0,0:0:0:0:
192,192,200636,1,0,0:0:0:0:
64,192,200798,128,0,200960:0:0:0:0:
448,192,200798,1,0,0:0:0:0:
320,192,200798,1,0,0:0:0:0:
320,192,200960,128,0,201122:0:0:0:0:
192,192,200960,1,0,0:0:0:0:
64,192,201122,1,0,0:0:0:0:
448,192,201122,1,0,0:0:0:0:
192,192,201284,1,0,0:0:0:0:
448,192,201284,1,0,0:0:0:0:
320,192,201447,128,0,201609:0:0:0:0:
64,192,201447,1,0,0:0:0:0:
192,192,201447,1,0,0:0:0:0:
448,192,201609,1,0,0:0:0:0:
64,192,201609,1,0,0:0:0:0:
192,192,201771,1,0,0:0:0:0:
320,192,201771,1,0,0:0:0:0:
448,192,201933,1,0,0:0:0:0:
64,192,201933,1,0,0:0:0:0:
192,192,202095,128,0,202257:0:0:0:0:
320,192,202095,1,0,0:0:0:0:
64,192,202095,1,0,0:0:0:0:
448,192,202257,128,0,202420:0:0:0:0:
320,192,202257,1,0,0:0:0:0:
192,192,202420,1,0,0:0:0:0:
64,192,202420,1,0,0:0:0:0:
320,192,202582,1,0,0:0:0:0:
192,192,202582,1,0,0:0:0:0:
448,192,202744,128,0,202906:0:0:0:0:
64,192,202744,1,0,0:0:0:0:
320,192,202744,1,0,0:0:0:0:
192,192,202906,1,0,0:0:0:0:
320,192,203068,1,0,0:0:0:0:
448,192,203068,1,0,0:0:0:0:
64,192,203230,1,0,0:0:0:0:
192,192,203230,1,0,0:0:0:0:
320,192,203393,128,0,203555:0:0:0:0:
448,192,203393,1,0,0:0:0:0:
192,192,203393,1,0,0:0:0:0:
64,192,203555,128,0,203717:0:0:0:0:
448,192,203555,1,0,0:0:0:0:
192,192,203717,1,0,0:0:0:0:
320,192,203717,1,0,0:0:0:0:
448,192,203879,1,0,0:0:0:0:
192,192,203879,1,0,0:0:0:0:
64,192,204041,128,0,204203:0:0:0:0:
320,192,204041,1,0,0:0:0:0:
448,192,204041,1,0,0:0:0:0:
192,192,204203,1,0,0:0:0:0:
320,192,204203,1,0,0:0:0:0:
448,192,204365,1,0,0:0:0:0:
64,192,204365,1,0,0:0:0:0:
64,192,204528,1,0,0:0:0:0:
320,192,204528,1,0,0:0:0:0:
448,192,204690,128,0,204852:0:0:0:0:
320,192,204690,1,0,0:0:0:0:
192,192,204690,1,0,0:0:0:0:
192,192,204852,128,0,205014:0:0:0:0:
64,192,204852,1,0,0:0:0:0:
320,192,205014,1,0,0:0:0:0:
448,192,205014,1,0,0:0:0:0:
320,192,205176,1,0,0:0:0:0:
64,192,205176,1,0,0:0:0:0:
192,192,205338,128,0,205501:0:0:0:0:
448,192,205338,1,0,0:0:0:0:
64,192,205338,1,0,0:0:0:0:
320,192,205501,1,0,0:0:0:0:
448,192,205663,1,0,0:0:0:0:
192,192,205663,1,0,0:0:0:0:
64,192,205663,1,0,0:0:0:0:
320,192,205825,1,0,0:0:0:0:
192,192,205825,1,0,0:0:0:0:
64,192,205987,128,0,206149:0:0:0:0:
448,192,205987,1,0,0:0:0:0:
320,192,205987,1,0,0:0:0:0:
448,192,206149,128,0,206311:0:0:0:0:
192,192,206149,1,0,0:0:0:0:
320,192,206311,1,0,0:0:0:0:
64,192,206311,1,0,0:0:0:0:
192,192,206474,1,0,0:0:0:0:
64,192,206474,1,0,0:0:0:0:
448,192,206636,128,0,206798:0:0:0:0:
320,192,206636,1,0,0:0:0:0:
192,192,206636,1,0,0:0:0:0:
64,192,206798,1,0,0:0:0:0:
320,192,206798,1,0,0:0:0:0:
448,192,206960,1,0,0:0:0:0:
192,192,206960,1,0,0:0:0:0:
64,192,207122,1,0,0:0:0:0:
320,192,207122,1,0,0:0:0:0:
448,192,207284,128,0,207447:0:0:0:0:
192,192,207284,1,0,0:0:0:0:
64,192,207284,1,0,0:0:0:0:
64,192,207447,128,0,207609:0:0:0:0:
320,192,207447,1,0,0:0:0:0:
448,192,207609,1,0,0:0:0:0:
192,192,207609,1,0,0:0:0:0:
320,192,207771,1,0,0:0:0:0:
448,192,207771,1,0,0:0:0:0:
64,192,207933,128,0,208095:0:0:0:0:
192,192,207933,1,0,0:0:0:0:
320,192,207933,1,0,0:0:0:0:
448,192,208095,1,0,0:0:0:0:
320,192,208257,1,0,0:0:0:0:
64,192,208257,1,0,0:0:0:0:
192,192,208257,1,0,0:0:0:0:
448,192,208420,1,0,0:0:0:0:
192,192,208420,1,0,0:0:0:0:
320,192,208582,128,0,208744:0:0:0:0:
64,192,208582,1,0,0:0:0:0:
448,192,208582,1,0,0:0:0:0:
192,192,208744,128,0,208906:0:0:0:0:
64,192,208744,1,0,0:0:0:0:
320,192,208906,1,0,0:0:0:0:
448,192,208906,1,0,0:0:0:0:
320,192,209068,1,0,0:0:0:0:
64,192,209068,1,0,0:0:0:0:
192,192,209230,128,0,209393:0:0:0:0:
448,192,209230,1,0,0:0:0:0:
64,192,209230,1,0,0:0:0:0:
320,192,209393,1,0,0:0:0:0:
320,192,209555,128,0,209717:0:0:0:0:
192,192,209555,1,0,0:0:0:0:
64,192,209555,1,0,0:0:0:0:
448,192,209717,1,0,0:0:0:0:
192,192,209798,1,0,0:0:0:0:
64,192,209879,1,0,0:0:0:0:
320,192,209879,1,0,0:0:0:0:
448,192,210041,128,0,210203:0:0:0:0:
192,192,210041,1,0,0:0:0:0:
64,192,210041,1,0,0:0:0:0:
320,192,210203,1,0,0:0:0:0:
192,192,210203,1,0,0:0:0:0:
320,192,210365,1,0,0:0:0:0:
64,192,210365,1,0,0:0:0:0:
448,192,210528,1,0,0:0:0:0:
320,192,210528,1,0,0:0:0:0:
192,192,210609,1,0,0:0:0:0:
64,192,210609,1,0,0:0:0:0:
448,192,210690,1,0,0:0:0:0:
320,192,210690,1,0,0:0:0:0:
192,192,210771,1,0,0:0:0:0:
64,192,210771,1,0,0:0:0:0:
64,192,210852,1,0,0:0:0:0:
448,192,210852,128,0,212149:0:0:0:0:
320,192,210852,1,0,0:0:0:0:
320,192,211176,128,0,211338:0:0:0:0:
192,192,211176,1,0,0:0:0:0:
64,192,211176,1,0,0:0:0:0:
64,192,211338,128,0,211501:0:0:0:0:
192,192,211501,1,0,0:0:0:0:
320,192,211501,1,0,0:0:0:0:
192,192,211663,1,0,0:0:0:0:
320,192,211663,1,0,0:0:0:0:
64,192,211825,128,0,211987:0:0:0:0:
192,192,211825,1,0,0:0:0:0:
320,192,211825,1,0,0:0:0:0:
64,192,212149,128,0,213284:0:0:0:0:
192,192,212149,1,0,0:0:0:0:
320,192,212311,1,0,0:0:0:0:
448,192,212311,1,0,0:0:0:0:
192,192,212474,128,0,212636:0:0:0:0:
448,192,212474,1,0,0:0:0:0:
320,192,212474,1,0,0:0:0:0:
320,192,212636,128,0,212798:0:0:0:0:
448,192,212636,1,0,0:0:0:0:
192,192,212798,1,0,0:0:0:0:
320,192,212960,1,0,0:0:0:0:
448,192,212960,1,0,0:0:0:0:
320,192,213122,128,0,213284:0:0:0:0:
192,192,213122,1,0,0:0:0:0:
448,192,213122,1,0,0:0:0:0:
448,192,213284,128,0,213447:0:0:0:0:
192,192,213284,1,0,0:0:0:0:
192,192,213447,128,0,213933:0:0:0:0:
64,192,213447,1,0,0:0:0:0:
320,192,213447,1,0,0:0:0:0:
320,192,213609,1,0,0:0:0:0:
448,192,213609,1,0,0:0:0:0:
64,192,213771,128,0,213933:0:0:0:0:
320,192,213771,1,0,0:0:0:0:
448,192,213771,1,0,0:0:0:0:
320,192,213933,128,0,214420:0:0:0:0:
448,192,213933,128,0,214095:0:0:0:0:
64,192,214095,1,0,0:0:0:0:
192,192,214257,1,0,0:0:0:0:
448,192,214257,1,0,0:0:0:0:
64,192,214420,128,0,214744:0:0:0:0:
448,192,214420,128,0,214582:0:0:0:0:
192,192,214420,1,0,0:0:0:0:
320,192,214582,1,0,0:0:0:0:
192,192,214744,1,0,0:0:0:0:
448,192,214744,128,0,215393:0:0:0:0:
320,192,214906,1,0,0:0:0:0:
192,192,214906,1,0,0:0:0:0:
320,192,215068,128,0,215230:0:0:0:0:
192,192,215068,1,0,0:0:0:0:
64,192,215068,1,0,0:0:0:0:
64,192,215230,128,0,215393:0:0:0:0:
192,192,215393,128,0,215717:0:0:0:0:
320,192,215393,1,0,0:0:0:0:
448,192,215555,1,0,0:0:0:0:
64,192,215717,128,0,216041:0:0:0:0:
320,192,215717,128,0,215879:0:0:0:0:
448,192,215717,1,0,0:0:0:0:
192,192,215879,1,0,0:0:0:0:
448,192,216041,128,0,216203:0:0:0:0:
320,192,216041,1,0,0:0:0:0:
192,192,216041,1,0,0:0:0:0:
192,192,216203,128,0,216365:0:0:0:0:
64,192,216203,1,0,0:0:0:0:
320,192,216365,128,0,216528:0:0:0:0:
448,192,216365,1,0,0:0:0:0:
64,192,216365,1,0,0:0:0:0:
64,192,216528,128,0,217014:0:0:0:0:
192,192,216528,1,0,0:0:0:0:
320,192,216690,1,0,0:0:0:0:
448,192,216690,1,0,0:0:0:0:
320,192,216852,1,0,0:0:0:0:
192,192,216852,1,0,0:0:0:0:
448,192,217014,128,0,217338:0:0:0:0:
192,192,217014,1,0,0:0:0:0:
320,192,217014,1,0,0:0:0:0:
64,192,217176,1,0,0:0:0:0:
192,192,217338,128,0,217501:0:0:0:0:
320,192,217338,1,0,0:0:0:0:
64,192,217501,128,0,217663:0:0:0:0:
448,192,217501,1,0,0:0:0:0:
320,192,217663,128,0,217825:0:0:0:0:
192,192,217663,1,0,0:0:0:0:
448,192,217663,1,0,0:0:0:0:
192,192,217825,128,0,217987:0:0:0:0:
64,192,217825,1,0,0:0:0:0:
448,192,217987,128,0,218149:0:0:0:0:
320,192,217987,1,0,0:0:0:0:
320,192,218149,128,0,218311:0:0:0:0:
64,192,218311,128,0,218474:0:0:0:0:
192,192,218311,1,0,0:0:0:0:
448,192,218311,1,0,0:0:0:0:
192,192,218474,128,0,218636:0:0:0:0:
320,192,218474,1,0,0:0:0:0:
448,192,218636,128,0,219122:0:0:0:0:
64,192,218636,1,0,0:0:0:0:
320,192,218636,1,0,0:0:0:0:
192,192,218798,1,0,0:0:0:0:
64,192,218798,1,0,0:0:0:0:
320,192,218960,1,0,0:0:0:0:
64,192,218960,1,0,0:0:0:0:
192,192,218960,1,0,0:0:0:0:
192,192,219122,128,0,219609:0:0:0:0:
320,192,219122,1,0,0:0:0:0:
448,192,219284,1,0,0:0:0:0:
64,192,219284,1,0,0:0:0:0:
320,192,219447,1,0,0:0:0:0:
448,192,219447,1,0,0:0:0:0:
320,192,219609,128,0,219933:0:0:0:0:
64,192,219609,1,0,0:0:0:0:
448,192,219609,1,0,0:0:0:0:
192,192,219771,1,0,0:0:0:0:
64,192,219933,128,0,220420:0:0:0:0:
448,192,219933,1,0,0:0:0:0:
320,192,220095,1,0,0:0:0:0:
192,192,220095,1,0,0:0:0:0:
448,192,220257,1,0,0:0:0:0:
192,192,220257,1,0,0:0:0:0:
320,192,220257,1,0,0:0:0:0:
320,192,220420,128,0,220906:0:0:0:0:
448,192,220420,1,0,0:0:0:0:
192,192,220582,1,0,0:0:0:0:
64,192,220744,1,0,0:0:0:0:
448,192,220744,1,0,0:0:0:0:
192,192,220906,128,0,221230:0:0:0:0:
448,192,220906,1,0,0:0:0:0:
64,192,220906,1,0,0:0:0:0:
320,192,221068,1,0,0:0:0:0:
448,192,221230,128,0,221717:0:0:0:0:
64,192,221230,1,0,0:0:0:0:
192,192,221393,1,0,0:0:0:0:
320,192,221393,1,0,0:0:0:0:
64,192,221555,1,0,0:0:0:0:
192,192,221555,1,0,0:0:0:0:
320,192,221555,1,0,0:0:0:0:
320,192,221717,128,0,221798:0:0:0:0:
64,192,221717,1,0,0:0:0:0:
192,192,221798,128,0,221879:0:0:0:0:
64,192,221879,128,0,222041:0:0:0:0:
448,192,221879,1,0,0:0:0:0:
320,192,221960,1,0,0:0:0:0:
192,192,222041,128,0,222203:0:0:0:0:
448,192,222041,1,0,0:0:0:0:
64,192,222122,1,0,0:0:0:0:
320,192,222203,128,0,222365:0:0:0:0:
448,192,222203,1,0,0:0:0:0:
64,192,222284,1,0,0:0:0:0:
448,192,222365,128,0,222528:0:0:0:0:
192,192,222365,1,0,0:0:0:0:
320,192,222447,1,0,0:0:0:0:
192,192,222528,1,0,0:0:0:0:
64,192,222528,1,0,0:0:0:0:
320,192,222852,1,0,0:0:0:0:
192,192,223014,1,0,0:0:0:0:
192,192,223338,1,0,0:0:0:0:
320,192,223825,1,0,0:0:0:0:
448,192,223825,1,0,0:0:0:0:
64,192,224149,1,0,0:0:0:0:
320,192,224311,1,0,0:0:0:0:
320,192,224636,1,0,0:0:0:0:
320,192,225122,1,0,0:0:0:0:
64,192,225122,1,0,0:0:0:0:
448,192,225447,1,0,0:0:0:0:
192,192,225609,1,0,0:0:0:0:
192,192,225933,1,0,0:0:0:0:
64,192,226420,1,0,0:0:0:0:
448,192,226420,1,0,0:0:0:0:
192,192,226582,1,0,0:0:0:0:
320,192,226744,1,0,0:0:0:0:
448,192,227068,1,0,0:0:0:0:
64,192,227068,1,0,0:0:0:0:
320,192,227230,1,0,0:0:0:0:
192,192,227393,1,0,0:0:0:0:
448,192,227717,1,0,0:0:0:0:
192,192,227717,1,0,0:0:0:0:
320,192,228041,1,0,0:0:0:0:
64,192,228203,1,0,0:0:0:0:
64,192,228528,1,0,0:0:0:0:
320,192,229014,1,0,0:0:0:0:
192,192,229014,1,0,0:0:0:0:
64,192,229338,1,0,0:0:0:0:
192,192,229501,1,0,0:0:0:0:
192,192,229825,1,0,0:0:0:0:
448,192,229987,1,0,0:0:0:0:
192,192,230311,1,0,0:0:0:0:
64,192,230311,1,0,0:0:0:0:
448,192,230636,1,0,0:0:0:0:
64,192,230798,1,0,0:0:0:0:
64,192,231284,1,0,0:0:0:0:
320,192,231609,1,0,0:0:0:0:
192,192,231609,1,0,0:0:0:0:
448,192,231933,1,0,0:0:0:0:
192,192,232257,1,0,0:0:0:0:
320,192,232582,1,0,0:0:0:0:
192,192,232906,1,0,0:0:0:0:
64,192,232906,1,0,0:0:0:0:
448,192,232906,1,0,0:0:0:0:
320,192,233230,1,0,0:0:0:0:
64,192,233393,1,0,0:0:0:0:
64,192,233717,1,0,0:0:0:0:
320,192,234203,1,0,0:0:0:0:
192,192,234203,1,0,0:0:0:0:
320,192,234528,1,0,0:0:0:0:
448,192,234690,1,0,0:0:0:0:
448,192,235014,1,0,0:0:0:0:
320,192,235501,1,0,0:0:0:0:
64,192,235501,1,0,0:0:0:0:
448,192,235825,1,0,0:0:0:0:
192,192,235987,1,0,0:0:0:0:
192,192,236311,1,0,0:0:0:0:
320,192,236798,1,0,0:0:0:0:
64,192,236798,1,0,0:0:0:0:
192,192,237447,1,0,0:0:0:0:
448,192,237447,1,0,0:0:0:0:
192,192,237974,1,0,0:0:0:0:
64,192,237974,1,0,0:0:0:0:
320,192,238014,1,0,0:0:0:0:
448,192,238014,1,0,0:0:0:0:
192,192,238095,1,0,0:0:0:0:
64,192,238095,1,0,0:0:0:0:
448,192,238095,1,0,0:0:0:0:
320,192,238176,1,0,0:0:0:0:
192,192,238257,1,0,0:0:0:0:
64,192,238257,1,0,0:0:0:0:
320,192,238338,1,0,0:0:0:0:
448,192,238420,1,0,0:0:0:0:
192,192,238420,1,0,0:0:0:0:
64,192,238501,1,0,0:0:0:0:
320,192,238582,1,0,0:0:0:0:
448,192,238582,1,0,0:0:0:0:
192,192,238582,1,0,0:0:0:0:
64,192,238582,1,0,0:0:0:0:
320,192,238663,1,0,0:0:0:0:
64,192,238744,1,0,0:0:0:0:
448,192,238744,1,0,0:0:0:0:
192,192,238825,1,0,0:0:0:0:
320,192,238906,1,0,0:0:0:0:
448,192,238906,1,0,0:0:0:0:
64,192,238987,1,0,0:0:0:0:
192,192,239068,1,0,0:0:0:0:
320,192,239068,1,0,0:0:0:0:
448,192,239068,1,0,0:0:0:0:
64,192,239068,1,0,0:0:0:0:
192,192,239230,1,0,0:0:0:0:
64,192,239230,1,0,0:0:0:0:
448,192,239230,1,0,0:0:0:0:
320,192,239230,1,0,0:0:0:0:
320,192,239311,1,0,0:0:0:0:
192,192,239393,1,0,0:0:0:0:
64,192,239393,1,0,0:0:0:0:
448,192,239474,1,0,0:0:0:0:
320,192,239555,1,0,0:0:0:0:
64,192,239555,1,0,0:0:0:0:
448,192,239555,1,0,0:0:0:0:
192,192,239555,1,0,0:0:0:0:
64,192,239717,1,0,0:0:0:0:
192,192,239717,1,0,0:0:0:0:
320,192,239717,1,0,0:0:0:0:
448,192,239717,1,0,0:0:0:0:
320,192,239798,1,0,0:0:0:0:
192,192,239879,1,0,0:0:0:0:
64,192,239879,1,0,0:0:0:0:
448,192,239960,1,0,0:0:0:0:
320,192,240041,1,0,0:0:0:0:
448,192,240041,1,0,0:0:0:0:
64,192,240041,1,0,0:0:0:0:
192,192,240041,1,0,0:0:0:0:
64,192,240122,1,0,0:0:0:0:
320,192,240203,1,0,0:0:0:0:
192,192,240203,1,0,0:0:0:0:
448,192,240284,1,0,0:0:0:0:
320,192,240365,1,0,0:0:0:0:
64,192,240365,1,0,0:0:0:0:
192,192,240447,1,0,0:0:0:0:
320,192,240528,1,0,0:0:0:0:
448,192,240528,1,0,0:0:0:0:
64,192,240609,1,0,0:0:0:0:
448,192,240690,1,0,0:0:0:0:
320,192,240690,1,0,0:0:0:0:
192,192,240690,1,0,0:0:0:0:
64,192,240690,1,0,0:0:0:0:
320,192,240771,1,0,0:0:0:0:
192,192,240852,1,0,0:0:0:0:
64,192,240852,1,0,0:0:0:0:
320,192,240933,1,0,0:0:0:0:
320,192,241014,1,0,0:0:0:0:
448,192,241014,1,0,0:0:0:0:
64,192,241014,1,0,0:0:0:0:
192,192,241014,1,0,0:0:0:0:
448,192,241095,1,0,0:0:0:0:
64,192,241176,1,0,0:0:0:0:
320,192,241176,1,0,0:0:0:0:
192,192,241257,1,0,0:0:0:0:
192,192,241338,1,0,0:0:0:0:
64,192,241338,1,0,0:0:0:0:
448,192,241338,1,0,0:0:0:0:
320,192,241338,1,0,0:0:0:0:
448,192,241420,1,0,0:0:0:0:
192,192,241501,1,0,0:0:0:0:
64,192,241501,1,0,0:0:0:0:
320,192,241582,1,0,0:0:0:0:
448,192,241663,1,0,0:0:0:0:
320,192,241663,1,0,0:0:0:0:
192,192,241663,1,0,0:0:0:0:
64,192,241663,1,0,0:0:0:0:
64,192,241744,1,0,0:0:0:0:
192,192,241825,1,0,0:0:0:0:
320,192,241825,1,0,0:0:0:0:
448,192,241906,1,0,0:0:0:0:
192,192,241987,1,0,0:0:0:0:
320,192,241987,1,0,0:0:0:0:
64,192,241987,1,0,0:0:0:0:
448,192,241987,1,0,0:0:0:0:
192,192,242068,1,0,0:0:0:0:
448,192,242149,1,0,0:0:0:0:
64,192,242149,1,0,0:0:0:0:
320,192,242230,1,0,0:0:0:0:
320,192,242311,1,0,0:0:0:0:
192,192,242311,1,0,0:0:0:0:
64,192,242311,1,0,0:0:0:0:
448,192,242311,1,0,0:0:0:0:
192,192,242393,1,0,0:0:0:0:
64,192,242474,1,0,0:0:0:0:
448,192,242474,1,0,0:0:0:0:
320,192,242555,1,0,0:0:0:0:
320,192,242636,1,0,0:0:0:0:
448,192,242636,1,0,0:0:0:0:
192,192,242636,1,0,0:0:0:0:
64,192,242636,1,0,0:0:0:0:
64,192,242717,1,0,0:0:0:0:
192,192,242798,1,0,0:0:0:0:
448,192,242798,1,0,0:0:0:0:
320,192,242879,1,0,0:0:0:0:
192,192,242960,1,0,0:0:0:0:
64,192,242960,1,0,0:0:0:0:
448,192,243041,1,0,0:0:0:0:
320,192,243041,1,0,0:0:0:0:
64,192,243122,1,0,0:0:0:0:
192,192,243122,1,0,0:0:0:0:
448,192,243203,1,0,0:0:0:0:
320,192,243284,1,0,0:0:0:0:
448,192,243284,1,0,0:0:0:0:
192,192,243284,1,0,0:0:0:0:
64,192,243284,1,0,0:0:0:0:
192,192,243609,1,0,0:0:0:0:
320,192,243609,1,0,0:0:0:0:
320,192,243976,1,0,0:0:0:0:
192,192,243976,1,0,0:0:0:0:
64,192,243976,1,0,0:0:0:0:
448,192,243976,1,0,0:0:0:0:
448,192,244324,1,0,0:0:0:0:
320,192,244324,1,0,0:0:0:0:
320,192,244505,1,0,0:0:0:0:
64,192,244505,1,0,0:0:0:0:
192,192,244505,1,0,0:0:0:0:
448,192,244687,1,0,0:0:0:0:
192,192,244687,1,0,0:0:0:0:
448,192,244869,1,0,0:0:0:0:
64,192,244869,1,0,0:0:0:0:
320,192,244869,1,0,0:0:0:0:
64,192,245056,1,0,0:0:0:0:
192,192,245056,1,0,0:0:0:0:
192,192,245262,1,0,0:0:0:0:
320,192,245262,1,0,0:0:0:0:
64,192,245469,1,0,0:0:0:0:
320,192,245469,1,0,0:0:0:0:
448,192,245469,1,0,0:0:0:0:
448,192,245676,1,0,0:0:0:0:
192,192,245676,1,0,0:0:0:0:
320,192,245878,1,0,0:0:0:0:
64,192,245878,1,0,0:0:0:0:
448,192,246118,1,0,0:0:0:0:
192,192,246118,1,0,0:0:0:0:
320,192,246358,1,0,0:0:0:0:
192,192,246358,1,0,0:0:0:0:
64,192,246358,128,0,247281:0:0:0:0:
448,192,246358,1,0,0:0:0:0:
448,192,247281,1,0,0:0:0:0:
192,192,247281,128,0,248281:0:0:0:0:
320,192,248281,128,0,249531:0:0:0:0:
448,192,248281,1,0,0:0:0:0:
448,192,249531,128,0,250959:0:0:0:0:
64,192,249531,1,0,0:0:0:0:
192,192,250245,1,0,0:0:0:0:
64,192,250245,128,0,250959:0:0:0:0:
320,192,250959,1,0,0:0:0:0:
192,192,250959,1,0,0:0:0:0:
320,192,251121,1,0,0:0:0:0:
64,192,251121,1,0,0:0:0:0:
64,192,251283,1,0,0:0:0:0:
192,192,251283,1,0,0:0:0:0:
448,192,251283,1,0,0:0:0:0:
320,192,251364,1,0,0:0:0:0:
192,192,251445,1,0,0:0:0:0:
64,192,251445,1,0,0:0:0:0:
320,192,251526,1,0,0:0:0:0:
448,192,251607,1,0,0:0:0:0:
64,192,251607,1,0,0:0:0:0:
192,192,251607,1,0,0:0:0:0:
320,192,251688,1,0,0:0:0:0:
64,192,251769,1,0,0:0:0:0:
448,192,251769,1,0,0:0:0:0:
192,192,251850,1,0,0:0:0:0:
448,192,251931,1,0,0:0:0:0:
320,192,251931,1,0,0:0:0:0:
64,192,251931,1,0,0:0:0:0:
192,192,252013,1,0,0:0:0:0:
320,192,252094,1,0,0:0:0:0:
448,192,252094,1,0,0:0:0:0:
192,192,252094,1,0,0:0:0:0:
64,192,252094,1,0,0:0:0:0:
448,192,252175,1,0,0:0:0:0:
64,192,252256,1,0,0:0:0:0:
192,192,252256,1,0,0:0:0:0:
320,192,252256,1,0,0:0:0:0:
448,192,252337,1,0,0:0:0:0:
320,192,252418,1,0,0:0:0:0:
64,192,252418,1,0,0:0:0:0:
192,192,252499,1,0,0:0:0:0:
64,192,252580,1,0,0:0:0:0:
320,192,252580,1,0,0:0:0:0:
448,192,252580,1,0,0:0:0:0:
192,192,252661,1,0,0:0:0:0:
448,192,252742,1,0,0:0:0:0:
320,192,252742,1,0,0:0:0:0:
64,192,252823,1,0,0:0:0:0:
320,192,252904,1,0,0:0:0:0:
192,192,252904,1,0,0:0:0:0:
448,192,252904,1,0,0:0:0:0:
64,192,252986,1,0,0:0:0:0:
192,192,253067,1,0,0:0:0:0:
448,192,253067,1,0,0:0:0:0:
320,192,253148,1,0,0:0:0:0:
448,192,253229,1,0,0:0:0:0:
64,192,253229,1,0,0:0:0:0:
192,192,253229,1,0,0:0:0:0:
320,192,253310,1,0,0:0:0:0:
192,192,253391,1,0,0:0:0:0:
64,192,253391,1,0,0:0:0:0:
448,192,253472,1,0,0:0:0:0:
192,192,253553,1,0,0:0:0:0:
320,192,253553,1,0,0:0:0:0:
64,192,253553,1,0,0:0:0:0:
448,192,253634,1,0,0:0:0:0:
64,192,253715,1,0,0:0:0:0:
192,192,253715,1,0,0:0:0:0:
320,192,253796,1,0,0:0:0:0:
448,192,253877,1,0,0:0:0:0:
64,192,253877,1,0,0:0:0:0:
192,192,253877,1,0,0:0:0:0:
320,192,253959,1,0,0:0:0:0:
64,192,254040,1,0,0:0:0:0:
192,192,254040,1,0,0:0:0:0:
448,192,254121,1,0,0:0:0:0:
64,192,254202,1,0,0:0:0:0:
320,192,254202,1,0,0:0:0:0:
192,192,254202,1,0,0:0:0:0:
448,192,254283,1,0,0:0:0:0:
320,192,254364,1,0,0:0:0:0:
64,192,254364,1,0,0:0:0:0:
192,192,254445,1,0,0:0:0:0:
320,192,254526,1,0,0:0:0:0:
448,192,254526,1,0,0:0:0:0:
64,192,254526,1,0,0:0:0:0:
192,192,254607,1,0,0:0:0:0:
192,192,254688,1,0,0:0:0:0:
64,192,254688,1,0,0:0:0:0:
448,192,254688,1,0,0:0:0:0:
320,192,254688,1,0,0:0:0:0:
320,192,254769,1,0,0:0:0:0:
192,192,254850,1,0,0:0:0:0:
64,192,254850,1,0,0:0:0:0:
448,192,254850,1,0,0:0:0:0:
320,192,254931,1,0,0:0:0:0:
448,192,255013,1,0,0:0:0:0:
64,192,255013,1,0,0:0:0:0:
192,192,255094,1,0,0:0:0:0:
64,192,255175,128,0,255499:0:0:0:0:
320,192,255175,1,0,0:0:0:0:
448,192,255175,1,0,0:0:0:0:
192,192,255175,1,0,0:0:0:0:
320,192,255256,1,0,0:0:0:0:
448,192,255337,1,0,0:0:0:0:
192,192,255337,1,0,0:0:0:0:
320,192,255418,1,0,0:0:0:0:
192,192,255499,128,0,255823:0:0:0:0:
448,192,255499,1,0,0:0:0:0:
320,192,255499,1,0,0:0:0:0:
64,192,255580,1,0,0:0:0:0:
64,192,255661,1,0,0:0:0:0:
320,192,255661,1,0,0:0:0:0:
448,192,255742,1,0,0:0:0:0:
320,192,255823,128,0,256148:0:0:0:0:
64,192,255823,1,0,0:0:0:0:
448,192,255823,1,0,0:0:0:0:
192,192,255904,1,0,0:0:0:0:
192,192,255986,1,0,0:0:0:0:
448,192,255986,1,0,0:0:0:0:
64,192,256067,1,0,0:0:0:0:
448,192,256148,128,0,256472:0:0:0:0:
64,192,256148,1,0,0:0:0:0:
192,192,256148,1,0,0:0:0:0:
192,192,256229,1,0,0:0:0:0:
320,192,256310,1,0,0:0:0:0:
64,192,256310,1,0,0:0:0:0:
192,192,256391,1,0,0:0:0:0:
192,192,256472,1,0,0:0:0:0:
64,192,256472,1,0,0:0:0:0:
320,192,256472,1,0,0:0:0:0:
448,192,256553,1,0,0:0:0:0:
192,192,256634,1,0,0:0:0:0:
320,192,256634,1,0,0:0:0:0:
64,192,256715,1,0,0:0:0:0:
320,192,256796,1,0,0:0:0:0:
192,192,256796,1,0,0:0:0:0:
448,192,256796,1,0,0:0:0:0:
64,192,256877,1,0,0:0:0:0:
192,192,256959,1,0,0:0:0:0:
448,192,256959,1,0,0:0:0:0:
320,192,257040,1,0,0:0:0:0:
64,192,257121,1,0,0:0:0:0:
448,192,257121,1,0,0:0:0:0:
192,192,257121,1,0,0:0:0:0:
320,192,257202,1,0,0:0:0:0:
192,192,257283,1,0,0:0:0:0:
320,192,257283,1,0,0:0:0:0:
64,192,257283,1,0,0:0:0:0:
448,192,257283,1,0,0:0:0:0:
64,192,257364,1,0,0:0:0:0:
192,192,257445,1,0,0:0:0:0:
448,192,257445,1,0,0:0:0:0:
320,192,257445,1,0,0:0:0:0:
64,192,257526,1,0,0:0:0:0:
448,192,257607,1,0,0:0:0:0:
320,192,257607,1,0,0:0:0:0:
192,192,257688,1,0,0:0:0:0:
320,192,257769,1,0,0:0:0:0:
448,192,257769,1,0,0:0:0:0:
64,192,257769,1,0,0:0:0:0:
192,192,257850,1,0,0:0:0:0:
64,192,257931,1,0,0:0:0:0:
448,192,257931,1,0,0:0:0:0:
320,192,258013,1,0,0:0:0:0:
448,192,258094,1,0,0:0:0:0:
192,192,258094,1,0,0:0:0:0:
64,192,258094,1,0,0:0:0:0:
320,192,258175,1,0,0:0:0:0:
192,192,258256,1,0,0:0:0:0:
64,192,258256,1,0,0:0:0:0:
448,192,258337,1,0,0:0:0:0:
64,192,258418,1,0,0:0:0:0:
192,192,258418,1,0,0:0:0:0:
320,192,258418,1,0,0:0:0:0:
448,192,258499,1,0,0:0:0:0:
64,192,258580,1,0,0:0:0:0:
192,192,258580,1,0,0:0:0:0:
320,192,258661,1,0,0:0:0:0:
64,192,258742,1,0,0:0:0:0:
448,192,258742,1,0,0:0:0:0:
192,192,258742,1,0,0:0:0:0:
320,192,258823,1,0,0:0:0:0:
64,192,258904,1,0,0:0:0:0:
448,192,258904,1,0,0:0:0:0:
192,192,258986,1,0,0:0:0:0:
448,192,259067,1,0,0:0:0:0:
320,192,259067,1,0,0:0:0:0:
64,192,259067,1,0,0:0:0:0:
192,192,259148,1,0,0:0:0:0:
320,192,259229,1,0,0:0:0:0:
64,192,259229,1,0,0:0:0:0:
448,192,259310,1,0,0:0:0:0:
64,192,259391,1,0,0:0:0:0:
320,192,259391,1,0,0:0:0:0:
192,192,259391,1,0,0:0:0:0:
448,192,259472,1,0,0:0:0:0:
320,192,259553,1,0,0:0:0:0:
64,192,259553,1,0,0:0:0:0:
192,192,259634,1,0,0:0:0:0:
64,192,259715,1,0,0:0:0:0:
320,192,259715,1,0,0:0:0:0:
448,192,259715,1,0,0:0:0:0:
192,192,259715,1,0,0:0:0:0:
448,192,259796,1,0,0:0:0:0:
192,192,259877,1,0,0:0:0:0:
320,192,259877,1,0,0:0:0:0:
64,192,259959,1,0,0:0:0:0:
320,192,260040,1,0,0:0:0:0:
192,192,260040,1,0,0:0:0:0:
448,192,260040,1,0,0:0:0:0:
64,192,260121,1,0,0:0:0:0:
192,192,260202,1,0,0:0:0:0:
448,192,260202,1,0,0:0:0:0:
320,192,260283,1,0,0:0:0:0:
448,192,260364,1,0,0:0:0:0:
192,192,260364,1,0,0:0:0:0:
64,192,260364,1,0,0:0:0:0:
320,192,260364,1,0,0:0:0:0:
64,192,260445,1,0,0:0:0:0:
320,192,260526,1,0,0:0:0:0:
192,192,260526,1,0,0:0:0:0:
448,192,260607,1,0,0:0:0:0:
192,192,260688,1,0,0:0:0:0:
64,192,260688,1,0,0:0:0:0:
448,192,260688,1,0,0:0:0:0:
320,192,260688,1,0,0:0:0:0:
192,192,260769,1,0,0:0:0:0:
448,192,260850,1,0,0:0:0:0:
320,192,260850,1,0,0:0:0:0:
192,192,260931,1,0,0:0:0:0:
64,192,261013,1,0,0:0:0:0:
320,192,261013,1,0,0:0:0:0:
448,192,261013,1,0,0:0:0:0:
192,192,261094,1,0,0:0:0:0:
448,192,261175,1,0,0:0:0:0:
320,192,261175,1,0,0:0:0:0:
192,192,261256,1,0,0:0:0:0:
64,192,261256,1,0,0:0:0:0:
448,192,261337,1,0,0:0:0:0:
192,192,261337,1,0,0:0:0:0:
64,192,261337,1,0,0:0:0:0:
320,192,261337,1,0,0:0:0:0:
448,192,261418,1,0,0:0:0:0:
320,192,261499,1,0,0:0:0:0:
192,192,261499,1,0,0:0:0:0:
64,192,261580,1,0,0:0:0:0:
320,192,261661,1,0,0:0:0:0:
448,192,261661,1,0,0:0:0:0:
192,192,261661,1,0,0:0:0:0:
64,192,261742,1,0,0:0:0:0:
192,192,261823,1,0,0:0:0:0:
448,192,261823,1,0,0:0:0:0:
320,192,261904,1,0,0:0:0:0:
448,192,261986,1,0,0:0:0:0:
64,192,261986,1,0,0:0:0:0:
192,192,261986,1,0,0:0:0:0:
320,192,262067,1,0,0:0:0:0:
64,192,262148,1,0,0:0:0:0:
192,192,262148,1,0,0:0:0:0:
448,192,262229,1,0,0:0:0:0:
192,192,262310,1,0,0:0:0:0:
64,192,262310,1,0,0:0:0:0:
320,192,262310,1,0,0:0:0:0:
448,192,262391,1,0,0:0:0:0:
320,192,262472,1,0,0:0:0:0:
192,192,262472,1,0,0:0:0:0:
448,192,262472,1,0,0:0:0:0:
64,192,262472,1,0,0:0:0:0:
64,192,262553,1,0,0:0:0:0:
320,192,262634,1,0,0:0:0:0:
192,192,262634,1,0,0:0:0:0:
448,192,262634,1,0,0:0:0:0:
64,192,262715,1,0,0:0:0:0:
448,192,262796,1,0,0:0:0:0:
320,192,262796,1,0,0:0:0:0:
192,192,262877,1,0,0:0:0:0:
320,192,262959,1,0,0:0:0:0:
64,192,262959,1,0,0:0:0:0:
448,192,262959,1,0,0:0:0:0:
192,192,263040,1,0,0:0:0:0:
448,192,263121,1,0,0:0:0:0:
320,192,263121,1,0,0:0:0:0:
64,192,263202,1,0,0:0:0:0:
320,192,263283,1,0,0:0:0:0:
192,192,263283,1,0,0:0:0:0:
448,192,263283,1,0,0:0:0:0:
64,192,263364,1,0,0:0:0:0:
448,192,263445,1,0,0:0:0:0:
320,192,263445,1,0,0:0:0:0:
192,192,263526,1,0,0:0:0:0:
448,192,263607,1,0,0:0:0:0:
64,192,263607,1,0,0:0:0:0:
320,192,263607,1,0,0:0:0:0:
192,192,263688,1,0,0:0:0:0:
448,192,263769,1,0,0:0:0:0:
64,192,263769,1,0,0:0:0:0:
320,192,263850,1,0,0:0:0:0:
192,192,263931,1,0,0:0:0:0:
448,192,263931,1,0,0:0:0:0:
64,192,263931,1,0,0:0:0:0:
320,192,264013,1,0,0:0:0:0:
192,192,264094,1,0,0:0:0:0:
64,192,264094,1,0,0:0:0:0:
448,192,264175,1,0,0:0:0:0:
320,192,264256,1,0,0:0:0:0:
192,192,264256,1,0,0:0:0:0:
64,192,264256,1,0,0:0:0:0:
448,192,264337,1,0,0:0:0:0:
64,192,264418,1,0,0:0:0:0:
192,192,264418,1,0,0:0:0:0:
320,192,264499,1,0,0:0:0:0:
448,192,264580,1,0,0:0:0:0:
192,192,264580,1,0,0:0:0:0:
64,192,264580,1,0,0:0:0:0:
320,192,264661,1,0,0:0:0:0:
448,192,264742,1,0,0:0:0:0:
64,192,264742,1,0,0:0:0:0:
192,192,264823,1,0,0:0:0:0:
448,192,264904,1,0,0:0:0:0:
320,192,264904,1,0,0:0:0:0:
64,192,264904,1,0,0:0:0:0:
192,192,264986,1,0,0:0:0:0:
320,192,265067,1,0,0:0:0:0:
192,192,265067,1,0,0:0:0:0:
64,192,265067,1,0,0:0:0:0:
448,192,265067,1,0,0:0:0:0:
448,192,265148,1,0,0:0:0:0:
64,192,265229,1,0,0:0:0:0:
320,192,265229,1,0,0:0:0:0:
192,192,265229,1,0,0:0:0:0:
448,192,265310,1,0,0:0:0:0:
192,192,265391,1,0,0:0:0:0:
320,192,265391,1,0,0:0:0:0:
64,192,265472,1,0,0:0:0:0:
64,192,265553,1,0,0:0:0:0:
320,192,265553,1,0,0:0:0:0:
448,192,265553,128,0,265877:0:0:0:0:
192,192,265553,1,0,0:0:0:0:
192,192,265634,1,0,0:0:0:0:
64,192,265715,1,0,0:0:0:0:
320,192,265715,1,0,0:0:0:0:
192,192,265796,1,0,0:0:0:0:
320,192,265877,128,0,266202:0:0:0:0:
64,192,265877,1,0,0:0:0:0:
448,192,265959,1,0,0:0:0:0:
64,192,266040,1,0,0:0:0:0:
192,192,266040,1,0,0:0:0:0:
448,192,266121,1,0,0:0:0:0:
192,192,266202,128,0,266526:0:0:0:0:
64,192,266202,1,0,0:0:0:0:
448,192,266202,1,0,0:0:0:0:
320,192,266283,1,0,0:0:0:0:
64,192,266364,1,0,0:0:0:0:
448,192,266364,1,0,0:0:0:0:
320,192,266445,1,0,0:0:0:0:
64,192,266526,128,0,266850:0:0:0:0:
320,192,266526,1,0,0:0:0:0:
448,192,266526,1,0,0:0:0:0:
192,192,266607,1,0,0:0:0:0:
320,192,266688,1,0,0:0:0:0:
448,192,266688,1,0,0:0:0:0:
192,192,266769,1,0,0:0:0:0:
448,192,266850,1,0,0:0:0:0:
320,192,266850,1,0,0:0:0:0:
192,192,266931,1,0,0:0:0:0:
64,192,267013,1,0,0:0:0:0:
448,192,267013,1,0,0:0:0:0:
320,192,267094,1,0,0:0:0:0:
192,192,267175,1,0,0:0:0:0:
64,192,267175,1,0,0:0:0:0:
448,192,267175,1,0,0:0:0:0:
320,192,267256,1,0,0:0:0:0:
448,192,267337,1,0,0:0:0:0:
64,192,267337,1,0,0:0:0:0:
192,192,267418,1,0,0:0:0:0:
64,192,267499,1,0,0:0:0:0:
320,192,267499,1,0,0:0:0:0:
448,192,267499,1,0,0:0:0:0:
192,192,267580,1,0,0:0:0:0:
448,192,267661,1,0,0:0:0:0:
192,192,267661,1,0,0:0:0:0:
64,192,267661,1,0,0:0:0:0:
320,192,267661,1,0,0:0:0:0:
448,192,267742,1,0,0:0:0:0:
320,192,267823,1,0,0:0:0:0:
64,192,267823,1,0,0:0:0:0:
192,192,267823,1,0,0:0:0:0:
448,192,267904,1,0,0:0:0:0:
64,192,267986,1,0,0:0:0:0:
320,192,267986,1,0,0:0:0:0:
192,192,268067,1,0,0:0:0:0:
320,192,268148,1,0,0:0:0:0:
448,192,268148,1,0,0:0:0:0:
64,192,268148,1,0,0:0:0:0:
192,192,268229,1,0,0:0:0:0:
448,192,268310,1,0,0:0:0:0:
320,192,268310,1,0,0:0:0:0:
64,192,268391,1,0,0:0:0:0:
320,192,268472,1,0,0:0:0:0:
192,192,268472,1,0,0:0:0:0:
448,192,268472,1,0,0:0:0:0:
64,192,268553,1,0,0:0:0:0:
320,192,268634,1,0,0:0:0:0:
192,192,268634,1,0,0:0:0:0:
448,192,268715,1,0,0:0:0:0:
192,192,268796,1,0,0:0:0:0:
64,192,268796,1,0,0:0:0:0:
320,192,268796,1,0,0:0:0:0:
448,192,268877,1,0,0:0:0:0:
192,192,268959,1,0,0:0:0:0:
64,192,268959,1,0,0:0:0:0:
448,192,269040,1,0,0:0:0:0:
320,192,269121,1,0,0:0:0:0:
192,192,269121,1,0,0:0:0:0:
64,192,269121,1,0,0:0:0:0:
448,192,269202,1,0,0:0:0:0:
320,192,269283,1,0,0:0:0:0:
64,192,269283,1,0,0:0:0:0:
192,192,269364,1,0,0:0:0:0:
64,192,269445,1,0,0:0:0:0:
448,192,269445,1,0,0:0:0:0:
320,192,269445,1,0,0:0:0:0:
192,192,269526,1,0,0:0:0:0:
320,192,269607,1,0,0:0:0:0:
448,192,269607,1,0,0:0:0:0:
64,192,269688,1,0,0:0:0:0:
192,192,269769,1,0,0:0:0:0:
320,192,269769,1,0,0:0:0:0:
448,192,269769,1,0,0:0:0:0:
64,192,269850,1,0,0:0:0:0:
448,192,269931,1,0,0:0:0:0:
192,192,269931,1,0,0:0:0:0:
320,192,270013,1,0,0:0:0:0:
64,192,270094,1,0,0:0:0:0:
192,192,270094,1,0,0:0:0:0:
320,192,270094,1,0,0:0:0:0:
448,192,270094,1,0,0:0:0:0:
64,192,270175,1,0,0:0:0:0:
448,192,270256,1,0,0:0:0:0:
320,192,270256,1,0,0:0:0:0:
192,192,270337,1,0,0:0:0:0:
320,192,270418,1,0,0:0:0:0:
448,192,270418,1,0,0:0:0:0:
192,192,270499,1,0,0:0:0:0:
64,192,270499,1,0,0:0:0:0:
320,192,270580,1,0,0:0:0:0:
448,192,270580,1,0,0:0:0:0:
192,192,270661,1,0,0:0:0:0:
64,192,270661,1,0,0:0:0:0:
320,192,270742,1,0,0:0:0:0:
448,192,270742,1,0,0:0:0:0:
192,192,270823,1,0,0:0:0:0:
64,192,270904,1,0,0:0:0:0:
448,192,270904,1,0,0:0:0:0:
192,192,270986,1,0,0:0:0:0:
320,192,270986,1,0,0:0:0:0:
64,192,271067,1,0,0:0:0:0:
448,192,271067,1,0,0:0:0:0:
192,192,271148,1,0,0:0:0:0:
320,192,271148,1,0,0:0:0:0:
64,192,271229,1,0,0:0:0:0:
448,192,271229,1,0,0:0:0:0:
320,192,271310,1,0,0:0:0:0:
64,192,271391,1,0,0:0:0:0:
192,192,271391,1,0,0:0:0:0:
448,192,271472,1,0,0:0:0:0:
320,192,271472,1,0,0:0:0:0:
192,192,271553,1,0,0:0:0:0:
64,192,271553,1,0,0:0:0:0:
320,192,271634,1,0,0:0:0:0:
448,192,271634,1,0,0:0:0:0:
192,192,271715,1,0,0:0:0:0:
64,192,271715,1,0,0:0:0:0:
448,192,271715,1,0,0:0:0:0:
320,192,271715,1,0,0:0:0:0:
64,192,271796,1,0,0:0:0:0:
320,192,271877,1,0,0:0:0:0:
192,192,271877,1,0,0:0:0:0:
448,192,271959,1,0,0:0:0:0:
192,192,272040,1,0,0:0:0:0:
64,192,272040,1,0,0:0:0:0:
448,192,272040,1,0,0:0:0:0:
320,192,272040,1,0,0:0:0:0:
64,192,272121,1,0,0:0:0:0:
448,192,272202,1,0,0:0:0:0:
320,192,272202,1,0,0:0:0:0:
192,192,272283,1,0,0:0:0:0:
64,192,272364,1,0,0:0:0:0:
448,192,272364,1,0,0:0:0:0:
320,192,272364,1,0,0:0:0:0:
192,192,272445,1,0,0:0:0:0:
64,192,272526,1,0,0:0:0:0:
448,192,272526,1,0,0:0:0:0:
320,192,272607,1,0,0:0:0:0:
448,192,272688,1,0,0:0:0:0:
64,192,272688,1,0,0:0:0:0:
192,192,272688,1,0,0:0:0:0:
320,192,272769,1,0,0:0:0:0:
192,192,272850,1,0,0:0:0:0:
64,192,272850,1,0,0:0:0:0:
320,192,272931,1,0,0:0:0:0:
448,192,273013,1,0,0:0:0:0:
64,192,273013,1,0,0:0:0:0:
192,192,273013,1,0,0:0:0:0:
320,192,273094,1,0,0:0:0:0:
64,192,273175,1,0,0:0:0:0:
192,192,273175,1,0,0:0:0:0:
320,192,273256,1,0,0:0:0:0:
448,192,273337,1,0,0:0:0:0:
64,192,273337,1,0,0:0:0:0:
192,192,273337,1,0,0:0:0:0:
320,192,273418,1,0,0:0:0:0:
64,192,273499,1,0,0:0:0:0:
448,192,273499,1,0,0:0:0:0:
192,192,273580,1,0,0:0:0:0:
320,192,273661,1,0,0:0:0:0:
448,192,273661,1,0,0:0:0:0:
64,192,273742,1,0,0:0:0:0:
192,192,273823,1,0,0:0:0:0:
320,192,273823,1,0,0:0:0:0:
448,192,273904,1,0,0:0:0:0:
192,192,273986,1,0,0:0:0:0:
64,192,273986,1,0,0:0:0:0:
320,192,273986,1,0,0:0:0:0:
448,192,274067,1,0,0:0:0:0:
64,192,274148,1,0,0:0:0:0:
320,192,274148,1,0,0:0:0:0:
192,192,274229,1,0,0:0:0:0:
64,192,274310,1,0,0:0:0:0:
320,192,274310,1,0,0:0:0:0:
448,192,274310,1,0,0:0:0:0:
192,192,274391,1,0,0:0:0:0:
448,192,274472,1,0,0:0:0:0:
320,192,274472,1,0,0:0:0:0:
64,192,274553,1,0,0:0:0:0:
320,192,274634,1,0,0:0:0:0:
192,192,274634,1,0,0:0:0:0:
448,192,274634,1,0,0:0:0:0:
64,192,274715,1,0,0:0:0:0:
192,192,274796,1,0,0:0:0:0:
448,192,274796,1,0,0:0:0:0:
320,192,274877,1,0,0:0:0:0:
448,192,274959,1,0,0:0:0:0:
64,192,274959,1,0,0:0:0:0:
192,192,274959,1,0,0:0:0:0:
320,192,275040,1,0,0:0:0:0:
448,192,275121,1,0,0:0:0:0:
64,192,275121,1,0,0:0:0:0:
192,192,275202,1,0,0:0:0:0:
64,192,275283,1,0,0:0:0:0:
448,192,275283,1,0,0:0:0:0:
320,192,275283,1,0,0:0:0:0:
192,192,275364,1,0,0:0:0:0:
320,192,275445,1,0,0:0:0:0:
448,192,275445,1,0,0:0:0:0:
64,192,275526,1,0,0:0:0:0:
320,192,275607,1,0,0:0:0:0:
448,192,275607,1,0,0:0:0:0:
192,192,275607,1,0,0:0:0:0:
64,192,275688,1,0,0:0:0:0:
448,192,275769,1,0,0:0:0:0:
320,192,275769,1,0,0:0:0:0:
192,192,275850,1,0,0:0:0:0:
448,192,275931,1,0,0:0:0:0:
320,192,275931,128,0,276256:0:0:0:0:
64,192,275931,1,0,0:0:0:0:
192,192,276013,1,0,0:0:0:0:
64,192,276094,1,0,0:0:0:0:
448,192,276094,1,0,0:0:0:0:
192,192,276175,1,0,0:0:0:0:
64,192,276256,128,0,276580:0:0:0:0:
448,192,276256,1,0,0:0:0:0:
192,192,276337,1,0,0:0:0:0:
320,192,276418,1,0,0:0:0:0:
448,192,276418,1,0,0:0:0:0:
192,192,276499,1,0,0:0:0:0:
448,192,276580,128,0,276904:0:0:0:0:
320,192,276580,1,0,0:0:0:0:
64,192,276661,1,0,0:0:0:0:
320,192,276742,1,0,0:0:0:0:
192,192,276742,1,0,0:0:0:0:
64,192,276823,1,0,0:0:0:0:
192,192,276904,128,0,277229:0:0:0:0:
320,192,276904,1,0,0:0:0:0:
448,192,276986,1,0,0:0:0:0:
320,192,277067,1,0,0:0:0:0:
64,192,277067,1,0,0:0:0:0:
448,192,277148,1,0,0:0:0:0:
64,192,277229,1,0,0:0:0:0:
320,192,277229,1,0,0:0:0:0:
448,192,277310,1,0,0:0:0:0:
192,192,277391,1,0,0:0:0:0:
64,192,277391,1,0,0:0:0:0:
320,192,277472,1,0,0:0:0:0:
320,192,277553,1,0,0:0:0:0:
448,192,277553,1,0,0:0:0:0:
64,192,277553,1,0,0:0:0:0:
192,192,277634,1,0,0:0:0:0:
320,192,277715,1,0,0:0:0:0:
64,192,277715,1,0,0:0:0:0:
448,192,277796,1,0,0:0:0:0:
64,192,277877,1,0,0:0:0:0:
192,192,277877,1,0,0:0:0:0:
320,192,277877,1,0,0:0:0:0:
448,192,277877,1,0,0:0:0:0:
192,192,277959,1,0,0:0:0:0:
448,192,278040,1,0,0:0:0:0:
64,192,278040,1,0,0:0:0:0:
320,192,278121,1,0,0:0:0:0:
320,192,278202,1,0,0:0:0:0:
448,192,278202,1,0,0:0:0:0:
64,192,278202,1,0,0:0:0:0:
192,192,278202,1,0,0:0:0:0:
64,192,278283,1,0,0:0:0:0:
192,192,278364,1,0,0:0:0:0:
320,192,278364,1,0,0:0:0:0:
448,192,278445,1,0,0:0:0:0:
192,192,278526,1,0,0:0:0:0:
64,192,278526,1,0,0:0:0:0:
320,192,278526,1,0,0:0:0:0:
448,192,278607,1,0,0:0:0:0:
320,192,278688,1,0,0:0:0:0:
192,192,278688,1,0,0:0:0:0:
64,192,278769,1,0,0:0:0:0:
192,192,278850,1,0,0:0:0:0:
320,192,278850,1,0,0:0:0:0:
448,192,278850,1,0,0:0:0:0:
64,192,278931,1,0,0:0:0:0:
448,192,279013,1,0,0:0:0:0:
192,192,279013,1,0,0:0:0:0:
320,192,279094,1,0,0:0:0:0:
448,192,279175,1,0,0:0:0:0:
64,192,279175,1,0,0:0:0:0:
192,192,279175,1,0,0:0:0:0:
320,192,279256,1,0,0:0:0:0:
448,192,279337,1,0,0:0:0:0:
64,192,279337,1,0,0:0:0:0:
192,192,279418,1,0,0:0:0:0:
320,192,279499,1,0,0:0:0:0:
448,192,279499,1,0,0:0:0:0:
64,192,279499,1,0,0:0:0:0:
192,192,279499,1,0,0:0:0:0:
320,192,279580,1,0,0:0:0:0:
64,192,279661,1,0,0:0:0:0:
448,192,279661,1,0,0:0:0:0:
192,192,279742,1,0,0:0:0:0:
64,192,279823,1,0,0:0:0:0:
448,192,279823,1,0,0:0:0:0:
320,192,279823,1,0,0:0:0:0:
192,192,279904,1,0,0:0:0:0:
448,192,279986,1,0,0:0:0:0:
320,192,279986,1,0,0:0:0:0:
64,192,280067,1,0,0:0:0:0:
192,192,280148,1,0,0:0:0:0:
320,192,280148,1,0,0:0:0:0:
448,192,280229,1,0,0:0:0:0:
64,192,280310,1,0,0:0:0:0:
192,192,280310,1,0,0:0:0:0:
448,192,280391,1,0,0:0:0:0:
192,192,280472,1,0,0:0:0:0:
64,192,280472,1,0,0:0:0:0:
320,192,280472,1,0,0:0:0:0:
448,192,280472,1,0,0:0:0:0:
64,192,280553,1,0,0:0:0:0:
192,192,280634,1,0,0:0:0:0:
448,192,280634,1,0,0:0:0:0:
320,192,280715,1,0,0:0:0:0:
64,192,280796,1,0,0:0:0:0:
448,192,280796,1,0,0:0:0:0:
192,192,280796,1,0,0:0:0:0:
320,192,280877,1,0,0:0:0:0:
192,192,280958,1,0,0:0:0:0:
64,192,280958,1,0,0:0:0:0:
320,192,281040,1,0,0:0:0:0:
448,192,281121,1,0,0:0:0:0:
64,192,281121,1,0,0:0:0:0:
192,192,281121,1,0,0:0:0:0:
320,192,281202,1,0,0:0:0:0:
64,192,281283,1,0,0:0:0:0:
192,192,281283,1,0,0:0:0:0:
448,192,281364,1,0,0:0:0:0:
64,192,281445,1,0,0:0:0:0:
320,192,281445,1,0,0:0:0:0:
192,192,281486,1,0,0:0:0:0:
448,192,281526,1,0,0:0:0:0:
320,192,281567,1,0,0:0:0:0:
64,192,281607,1,0,0:0:0:0:
192,192,281648,1,0,0:0:0:0:
448,192,281688,1,0,0:0:0:0:
320,192,281729,1,0,0:0:0:0:
192,192,281769,1,0,0:0:0:0:
64,192,281769,1,0,0:0:0:0:
320,192,281850,1,0,0:0:0:0:
448,192,281850,1,0,0:0:0:0:
192,192,281931,1,0,0:0:0:0:
64,192,281931,1,0,0:0:0:0:
320,192,282013,1,0,0:0:0:0:
448,192,282013,1,0,0:0:0:0:
448,192,282094,1,0,0:0:0:0:
64,192,282094,1,0,0:0:0:0:
192,192,282094,1,0,0:0:0:0:
320,192,282094,1,0,0:0:0:0:
192,192,282175,1,0,0:0:0:0:
320,192,282256,1,0,0:0:0:0:
448,192,282256,1,0,0:0:0:0:
64,192,282337,1,0,0:0:0:0:
320,192,282418,1,0,0:0:0:0:
448,192,282418,1,0,0:0:0:0:
192,192,282418,1,0,0:0:0:0:
64,192,282499,1,0,0:0:0:0:
320,192,282580,1,0,0:0:0:0:
192,192,282580,1,0,0:0:0:0:
448,192,282661,1,0,0:0:0:0:
64,192,282742,1,0,0:0:0:0:
320,192,282742,1,0,0:0:0:0:
192,192,282742,1,0,0:0:0:0:
448,192,282823,1,0,0:0:0:0:
320,192,282904,1,0,0:0:0:0:
64,192,282904,1,0,0:0:0:0:
192,192,282986,1,0,0:0:0:0:
64,192,283067,1,0,0:0:0:0:
192,192,283067,1,0,0:0:0:0:
320,192,283067,1,0,0:0:0:0:
448,192,283067,1,0,0:0:0:0:
448,192,283148,1,0,0:0:0:0:
64,192,283229,1,0,0:0:0:0:
192,192,283229,1,0,0:0:0:0:
320,192,283310,1,0,0:0:0:0:
64,192,283391,1,0,0:0:0:0:
448,192,283391,1,0,0:0:0:0:
192,192,283391,1,0,0:0:0:0:
320,192,283472,1,0,0:0:0:0:
448,192,283553,1,0,0:0:0:0:
64,192,283553,1,0,0:0:0:0:
192,192,283634,1,0,0:0:0:0:
192,192,283715,1,0,0:0:0:0:
64,192,283715,1,0,0:0:0:0:
448,192,283715,1,0,0:0:0:0:
320,192,283715,1,0,0:0:0:0:
448,192,283796,1,0,0:0:0:0:
64,192,283877,1,0,0:0:0:0:
192,192,283877,1,0,0:0:0:0:
448,192,283958,1,0,0:0:0:0:
192,192,284040,1,0,0:0:0:0:
320,192,284040,1,0,0:0:0:0:
64,192,284040,1,0,0:0:0:0:
448,192,284121,1,0,0:0:0:0:
192,192,284202,1,0,0:0:0:0:
320,192,284202,1,0,0:0:0:0:
64,192,284283,1,0,0:0:0:0:
320,192,284364,1,0,0:0:0:0:
448,192,284364,1,0,0:0:0:0:
192,192,284364,1,0,0:0:0:0:
64,192,284364,1,0,0:0:0:0:
320,192,284445,1,0,0:0:0:0:
448,192,284526,1,0,0:0:0:0:
64,192,284526,1,0,0:0:0:0:
192,192,284607,1,0,0:0:0:0:
448,192,284688,1,0,0:0:0:0:
320,192,284688,1,0,0:0:0:0:
64,192,284688,1,0,0:0:0:0:
192,192,284769,1,0,0:0:0:0:
448,192,284850,1,0,0:0:0:0:
320,192,284850,1,0,0:0:0:0:
64,192,284931,1,0,0:0:0:0:
320,192,285013,1,0,0:0:0:0:
64,192,285013,1,0,0:0:0:0:
448,192,285013,1,0,0:0:0:0:
192,192,285013,1,0,0:0:0:0:
320,192,285094,1,0,0:0:0:0:
192,192,285175,1,0,0:0:0:0:
64,192,285175,1,0,0:0:0:0:
448,192,285256,1,0,0:0:0:0:
64,192,285337,1,0,0:0:0:0:
320,192,285337,1,0,0:0:0:0:
192,192,285337,1,0,0:0:0:0:
448,192,285418,1,0,0:0:0:0:
192,192,285499,1,0,0:0:0:0:
320,192,285499,1,0,0:0:0:0:
64,192,285580,1,0,0:0:0:0:
192,192,285661,1,0,0:0:0:0:
64,192,285661,1,0,0:0:0:0:
448,192,285661,1,0,0:0:0:0:
320,192,285661,1,0,0:0:0:0:
320,192,285742,1,0,0:0:0:0:
448,192,285823,1,0,0:0:0:0:
192,192,285823,1,0,0:0:0:0:
64,192,285904,1,0,0:0:0:0:
192,192,285986,1,0,0:0:0:0:
320,192,285986,1,0,0:0:0:0:
448,192,285986,1,0,0:0:0:0:
64,192,286067,1,0,0:0:0:0:
192,192,286148,1,0,0:0:0:0:
320,192,286148,1,0,0:0:0:0:
448,192,286229,1,0,0:0:0:0:
320,192,286310,1,0,0:0:0:0:
448,192,286310,1,0,0:0:0:0:
64,192,286310,1,0,0:0:0:0:
192,192,286310,1,0,0:0:0:0:
192,192,286391,1,0,0:0:0:0:
64,192,286472,1,0,0:0:0:0:
448,192,286472,1,0,0:0:0:0:
320,192,286553,1,0,0:0:0:0:
448,192,286634,1,0,0:0:0:0:
192,192,286634,1,0,0:0:0:0:
64,192,286634,1,0,0:0:0:0:
320,192,286715,1,0,0:0:0:0:
192,192,286796,1,0,0:0:0:0:
64,192,286796,1,0,0:0:0:0:
448,192,286877,1,0,0:0:0:0:
320,192,286958,1,0,0:0:0:0:
64,192,286958,1,0,0:0:0:0:
192,192,286958,1,0,0:0:0:0:
448,192,287040,1,0,0:0:0:0:
192,192,287121,1,0,0:0:0:0:
64,192,287121,1,0,0:0:0:0:
320,192,287202,1,0,0:0:0:0:
192,192,287283,1,0,0:0:0:0:
320,192,287283,1,0,0:0:0:0:
448,192,287283,1,0,0:0:0:0:
64,192,287283,128,0,288580:0:0:0:0:
320,192,287931,128,0,289229:0:0:0:0:
192,192,287931,1,0,0:0:0:0:
448,192,287931,1,0,0:0:0:0:
192,192,288580,128,0,289877:0:0:0:0:
448,192,288580,1,0,0:0:0:0:
448,192,289229,128,0,290526:0:0:0:0:
64,192,289229,1,0,0:0:0:0:
64,192,289877,128,0,291175:0:0:0:0:
320,192,289877,1,0,0:0:0:0:
320,192,290526,128,0,291175:0:0:0:0:
192,192,290526,1,0,0:0:0:0:
192,192,291175,128,0,291823:0:0:0:0:
448,192,291175,1,0,0:0:0:0:
448,192,291823,128,0,292472:0:0:0:0:
64,192,292472,128,0,292796:0:0:0:0:
320,192,292472,1,0,0:0:0:0:
320,192,292796,128,0,292958:0:0:0:0:
192,192,292958,128,0,293769:0:0:0:0:
64,192,293445,128,0,293769:0:0:0:0:
320,192,293769,128,0,294094:0:0:0:0:
448,192,293769,1,0,0:0:0:0:
64,192,294094,128,0,294256:0:0:0:0:
192,192,294256,128,0,294904:0:0:0:0:
448,192,295067,128,0,295391:0:0:0:0:
64,192,295067,1,0,0:0:0:0:
192,192,295391,128,0,295553:0:0:0:0:
320,192,295553,128,0,295634:0:0:0:0:
448,192,295634,128,0,295715:0:0:0:0:
320,192,295715,128,0,295796:0:0:0:0:
192,192,295796,128,0,295877:0:0:0:0:
64,192,295877,128,0,296364:0:0:0:0:
320,192,296364,128,0,297013:0:0:0:0:
192,192,296364,1,0,0:0:0:0:
64,192,296688,128,0,297013:0:0:0:0:
448,192,297013,128,0,297661:0:0:0:0:
192,192,297013,1,0,0:0:0:0:
192,192,297337,128,0,297661:0:0:0:0:
64,192,297661,128,0,297986:0:0:0:0:
320,192,297661,1,0,0:0:0:0:
320,192,297986,128,0,298148:0:0:0:0:
192,192,298148,128,0,298958:0:0:0:0:
448,192,298634,128,0,298958:0:0:0:0:
64,192,298958,128,0,299283:0:0:0:0:
320,192,298958,1,0,0:0:0:0:
320,192,299283,128,0,299445:0:0:0:0:
448,192,299445,128,0,300094:0:0:0:0:
64,192,300256,128,0,300580:0:0:0:0:
192,192,300256,1,0,0:0:0:0:
320,192,300580,128,0,300742:0:0:0:0:
192,192,300742,128,0,300823:0:0:0:0:
64,192,300823,128,0,300904:0:0:0:0:
320,192,300904,128,0,300986:0:0:0:0:
192,192,300986,128,0,301067:0:0:0:0:
448,192,301067,128,0,301148:0:0:0:0:
320,192,301148,128,0,301229:0:0:0:0:
192,192,301229,128,0,301553:0:0:0:0:
448,192,301553,128,0,302202:0:0:0:0:
64,192,301553,1,0,0:0:0:0:
192,192,301877,128,0,302202:0:0:0:0:
64,192,302202,128,0,302850:0:0:0:0:
320,192,302202,1,0,0:0:0:0:
320,192,302526,128,0,302850:0:0:0:0:
448,192,302850,128,0,303175:0:0:0:0:
192,192,302850,1,0,0:0:0:0:
192,192,303175,128,0,303337:0:0:0:0:
448,192,303337,128,0,304148:0:0:0:0:
64,192,303823,128,0,304148:0:0:0:0:
320,192,304148,128,0,304472:0:0:0:0:
192,192,304148,1,0,0:0:0:0:
192,192,304472,128,0,304634:0:0:0:0:
64,192,304634,128,0,305283:0:0:0:0:
320,192,305445,128,0,305769:0:0:0:0:
192,192,305445,1,0,0:0:0:0:
64,192,305769,128,0,305931:0:0:0:0:
320,192,305931,128,0,306013:0:0:0:0:
192,192,306013,128,0,306094:0:0:0:0:
64,192,306094,128,0,306175:0:0:0:0:
320,192,306175,128,0,306256:0:0:0:0:
448,192,306256,128,0,306742:0:0:0:0:
64,192,306742,128,0,307391:0:0:0:0:
320,192,306742,1,0,0:0:0:0:
192,192,307067,128,0,307391:0:0:0:0:
448,192,307391,128,0,308040:0:0:0:0:
320,192,307391,1,0,0:0:0:0:
320,192,307715,128,0,308040:0:0:0:0:
64,192,308040,128,0,308364:0:0:0:0:
192,192,308040,1,0,0:0:0:0:
448,192,308364,128,0,308526:0:0:0:0:
192,192,308526,128,0,309337:0:0:0:0:
448,192,309013,128,0,309337:0:0:0:0:
320,192,309337,128,0,309661:0:0:0:0:
64,192,309337,1,0,0:0:0:0:
64,192,309661,128,0,309823:0:0:0:0:
448,192,309823,128,0,310472:0:0:0:0:
64,192,310634,128,0,310958:0:0:0:0:
448,192,310634,1,0,0:0:0:0:
448,192,310958,128,0,311121:0:0:0:0:
320,192,311121,128,0,311202:0:0:0:0:
448,192,311202,128,0,311283:0:0:0:0:
192,192,311283,128,0,311364:0:0:0:0:
320,192,311364,128,0,311445:0:0:0:0:
64,192,311445,128,0,311526:0:0:0:0:
192,192,311526,128,0,311607:0:0:0:0:
320,192,311607,128,0,311931:0:0:0:0:
448,192,311931,128,0,312580:0:0:0:0:
64,192,311931,1,0,0:0:0:0:
192,192,312256,128,0,312580:0:0:0:0:
64,192,312580,128,0,314202:0:0:0:0:
320,192,312580,1,0,0:0:0:0:
320,192,312904,128,0,314202:0:0:0:0:
448,192,314526,1,0,0:0:0:0:
320,192,314580,1,0,0:0:0:0:
192,192,314634,1,0,0:0:0:0:
64,192,314688,128,0,319067:0:0:0:0:
448,192,319067,1,0,0:0:0:0:
