osu file format v14

[General]
AudioFilename: audio.mp3
AudioLeadIn: 0
PreviewTime: 66852
Countdown: 0
SampleSet: Soft
StackLeniency: 0.7
Mode: 3
LetterboxInBreaks: 0
SpecialStyle: 0
WidescreenStoryboard: 1

[Editor]
Bookmarks: 12780,35180,47980,67180,97580,109180
DistanceSpacing: 2.9
BeatDivisor: 4
GridSize: 32
TimelineZoom: 1.5

[Metadata]
Title:Photograph
TitleUnicode:Photograph
Artist:Poppin'Party
ArtistUnicode:Poppin'Party
Creator:DenYi
Version:Normal
Source:バンドリ!ガールズバンドパーティ!
Tags:bang dream girls band party bandori garupa anime jpop j-pop japanese popipa version BRMM-10324 16th single album ポッピンパーティー garupa ガルパ popipa ポピパ Toyama Kasumi 戸山香澄 Hanazono Tae 花園たえ Yamabuki Saya 山吹沙綾 Ichigaya Arisa Alisa 市ヶが谷有咲 伊藤彩沙 Ito Ayasa 大橋彩香 Ohashi Ayaka 西本りみ Nishimoto Rimi 大塚 紗英 Otsuka Sae 寺川愛美 Terakawa Aimi video game
BeatmapID:3343918
BeatmapSetID:1638280

[Difficulty]
HPDrainRate:7.5
CircleSize:4
OverallDifficulty:7.5
ApproachRate:5
SliderMultiplier:1.4
SliderTickRate:1

[Events]
//Background and Video events
0,0,"NORMAL BG SAAYA.png",0,0
//Break Periods
//Storyboard Layer 0 (Background)
//Storyboard Layer 1 (Fail)
//Storyboard Layer 2 (Pass)
//Storyboard Layer 3 (Foreground)
//Storyboard Layer 4 (Overlay)
//Storyboard Sound Samples

[TimingPoints]
3262,400,4,2,1,50,1,0
67262,-100,4,2,1,50,0,1
94462,-100,4,2,1,50,0,0

[HitObjects]
448,192,3262,5,0,0:0:0:0:
192,192,3462,1,0,0:0:0:0:
320,192,3662,1,0,0:0:0:0:
448,192,3862,128,0,4262:0:0:0:0:
64,192,4262,1,0,0:0:0:0:
192,192,4462,1,0,0:0:0:0:
320,192,4662,128,0,5062:0:0:0:0:
192,192,5062,1,0,0:0:0:0:
320,192,5262,1,0,0:0:0:0:
64,192,5462,128,0,5862:0:0:0:0:
448,192,5862,1,0,0:0:0:0:
192,192,6062,128,0,6462:0:0:0:0:
64,192,6462,1,0,0:0:0:0:
192,192,6662,1,0,0:0:0:0:
320,192,6862,1,0,0:0:0:0:
448,192,7062,128,0,7462:0:0:0:0:
320,192,7462,1,0,0:0:0:0:
192,192,7662,1,0,0:0:0:0:
64,192,7862,128,0,8862:0:0:0:0:
448,192,8862,1,0,0:0:0:60:Tom1.wav
320,192,8962,1,0,0:0:0:50:Tom2.wav
64,192,9062,1,0,0:0:0:40:Tom3.wav
192,192,9162,1,0,0:0:0:40:Tom3.wav
320,192,9262,1,0,0:0:0:0:
448,192,9262,1,8,0:0:0:0:
192,192,9662,1,4,0:0:0:0:
64,192,9662,1,0,0:0:0:0:
320,192,10062,1,8,0:0:0:0:
448,192,10062,1,0,0:0:0:0:
64,192,10262,1,0,0:0:0:0:
448,192,10462,1,2,0:0:0:0:
320,192,10662,1,0,0:0:0:0:
64,192,10862,1,8,0:0:0:0:
192,192,10862,1,0,0:0:0:0:
448,192,11062,1,0,0:0:0:0:
64,192,11262,1,2,0:0:0:0:
320,192,11462,1,0,0:0:0:0:
448,192,11662,1,8,0:0:0:0:
192,192,11662,1,0,0:0:0:0:
64,192,11862,1,0,0:0:0:0:
448,192,11962,1,8,0:0:0:0:
320,192,12062,1,2,0:0:0:0:
192,192,12262,1,0,0:0:0:0:
448,192,12462,1,8,0:0:0:0:
64,192,12462,128,0,12662:0:0:0:0:
320,192,12662,1,0,0:0:0:0:
192,192,12862,128,2,13062:0:0:0:0:
320,192,13062,128,0,13262:0:0:0:0:
448,192,13262,1,8,0:0:0:0:
192,192,13262,128,0,13462:0:0:0:0:
64,192,13462,128,0,13862:0:0:0:0:
320,192,13662,1,2,0:0:0:0:
448,192,13862,128,0,14062:0:0:0:0:
64,192,14062,1,8,0:0:0:0:
192,192,14062,128,0,14262:0:0:0:0:
320,192,14262,128,0,14462:0:0:0:0:
448,192,14462,1,2,0:0:0:0:
64,192,14662,128,0,14862:0:0:0:0:
320,192,14862,1,0,0:0:0:0:
192,192,14862,1,8,0:0:0:0:
448,192,15062,1,0,0:0:0:0:
192,192,15162,1,8,0:0:0:0:
320,192,15262,1,2,0:0:0:0:
64,192,15462,1,8,0:0:0:0:
192,192,15562,1,8,0:0:0:0:
448,192,15662,1,2,0:0:0:0:
320,192,15762,1,0,0:0:0:60:Tom1.wav
192,192,15862,1,0,0:0:0:50:Tom2.wav
320,192,16062,1,4,0:0:0:0:
64,192,16062,1,0,0:0:0:0:
320,192,16462,1,8,0:0:0:0:
192,192,16462,1,0,0:0:0:0:
448,192,16662,1,0,0:0:0:0:
64,192,16762,1,8,0:0:0:0:
192,192,16862,1,2,0:0:0:0:
320,192,17062,1,0,0:0:0:0:
448,192,17262,1,0,0:0:0:0:
64,192,17262,1,8,0:0:0:0:
192,192,17462,1,0,0:0:0:0:
448,192,17662,1,2,0:0:0:0:
320,192,17862,1,0,0:0:0:0:
192,192,18062,1,0,0:0:0:0:
64,192,18062,1,8,0:0:0:0:
448,192,18262,1,0,0:0:0:0:
320,192,18362,1,8,0:0:0:0:
64,192,18462,1,2,0:0:0:0:
192,192,18662,1,0,0:0:0:0:
320,192,18862,1,0,0:0:0:0:
448,192,18862,1,8,0:0:0:0:
192,192,19262,1,4,0:0:0:0:
64,192,19262,1,2,0:0:0:0:
320,192,19662,1,0,0:0:0:0:
192,192,19662,1,8,0:0:0:0:
64,192,19862,1,0,0:0:0:0:
448,192,19962,1,8,0:0:0:0:
320,192,20062,1,2,0:0:0:0:
192,192,20262,1,0,0:0:0:60:Tom1.wav
320,192,20462,1,8,0:0:0:0:
448,192,20562,1,8,0:0:0:0:
192,192,20662,1,2,0:0:0:0:
64,192,20662,1,4,0:0:0:0:
64,192,21062,1,2,0:0:0:0:
192,192,21262,1,8,0:0:0:0:
320,192,21462,1,4,0:0:0:0:
448,192,21462,1,2,0:0:0:0:
64,192,21862,1,2,0:0:0:0:
320,192,22062,1,8,0:0:0:0:
448,192,22062,1,0,0:0:0:0:
192,192,22262,1,2,0:0:0:0:
64,192,22462,1,2,0:0:0:0:
448,192,22462,1,4,0:0:0:0:
320,192,22762,1,8,0:0:0:0:
192,192,22862,1,8,0:0:0:0:
448,192,23062,1,0,0:0:0:0:
64,192,23162,1,0,0:0:0:60:Tom1.wav
192,192,23262,1,0,0:0:0:50:Tom2.wav
320,192,23462,1,0,0:0:0:40:Tom3.wav
192,192,23662,1,8,0:0:0:0:
64,192,23862,1,0,0:0:0:0:
448,192,23862,1,4,0:0:0:0:
192,192,24262,1,0,0:0:0:0:
320,192,24362,1,0,0:0:0:0:
448,192,24462,1,0,0:0:0:0:
64,192,24662,1,0,0:0:0:0:
448,192,24862,1,0,0:0:0:0:
320,192,24962,1,0,0:0:0:0:
64,192,25062,1,0,0:0:0:60:Tom1.wav
192,192,25262,1,0,0:0:0:50:Tom2.wav
320,192,25462,1,0,0:0:0:40:Tom3.wav
192,192,25662,128,4,26062:0:0:0:0:
64,192,25662,1,2,0:0:0:0:
448,192,26062,1,0,0:0:0:0:
64,192,26262,1,2,0:0:0:0:
448,192,26462,1,0,0:0:0:0:
192,192,26662,1,0,0:0:0:0:
64,192,26862,1,0,0:0:0:0:
448,192,27062,1,0,0:0:0:0:
64,192,27262,1,0,0:0:0:0:
320,192,27462,1,2,0:0:0:0:
448,192,27662,1,0,0:0:0:0:
64,192,27862,1,2,0:0:0:0:
320,192,28062,1,0,0:0:0:0:
192,192,28262,1,0,0:0:0:0:
448,192,28462,1,0,0:0:0:0:
64,192,28662,1,2,0:0:0:0:
320,192,28862,128,2,29262:0:0:0:0:
64,192,29262,1,0,0:0:0:0:
192,192,29462,1,2,0:0:0:0:
448,192,29662,1,0,0:0:0:0:
320,192,29862,1,0,0:0:0:0:
64,192,30062,1,0,0:0:0:0:
448,192,30262,1,0,0:0:0:0:
320,192,30462,1,0,0:0:0:0:
64,192,30662,1,2,0:0:0:0:
192,192,30862,1,0,0:0:0:0:
448,192,31062,1,2,0:0:0:0:
64,192,31262,1,0,0:0:0:0:
320,192,31462,1,0,0:0:0:60:Tom1.wav
192,192,31662,1,0,0:0:0:50:Tom2.wav
64,192,31862,1,0,0:0:0:40:Tom3.wav
448,192,32062,1,0,0:0:0:0:
320,192,32062,128,4,32462:0:0:0:0:
192,192,32462,1,0,0:0:0:0:
64,192,32662,1,2,0:0:0:0:
320,192,32862,1,0,0:0:0:0:
448,192,33062,1,0,0:0:0:0:
64,192,33262,1,0,0:0:0:0:
320,192,33462,1,0,0:0:0:0:
64,192,33662,1,0,0:0:0:0:
192,192,33862,1,2,0:0:0:0:
320,192,34062,1,0,0:0:0:0:
448,192,34262,1,2,0:0:0:0:
192,192,34462,1,0,0:0:0:0:
64,192,34662,1,0,0:0:0:0:
448,192,34862,1,0,0:0:0:0:
192,192,35062,1,0,0:0:0:0:
320,192,35262,128,0,35662:0:0:0:0:
448,192,35262,1,4,0:0:0:0:
192,192,35662,1,0,0:0:0:40:Tom3.wav
64,192,35662,1,2,0:0:0:0:
448,192,35862,1,4,0:0:0:0:
192,192,35862,128,0,36262:0:0:0:0:
448,192,36262,128,2,36662:0:0:0:0:
192,192,36462,1,8,0:0:0:0:
64,192,36662,128,4,38062:0:0:0:0:
320,192,36662,1,2,0:0:0:0:
448,192,37662,1,0,0:0:0:0:
320,192,37862,1,0,0:0:0:0:
192,192,38062,1,0,0:0:0:0:
64,192,38262,1,0,0:0:0:0:
320,192,38462,1,2,0:0:0:0:
448,192,38462,1,4,0:0:0:0:
192,192,38862,1,0,0:0:0:0:
64,192,38862,1,8,0:0:0:0:
320,192,39062,1,2,0:0:0:0:
448,192,39262,1,0,0:0:0:0:
192,192,39462,1,2,0:0:0:0:
64,192,39662,1,8,0:0:0:0:
448,192,39662,1,0,0:0:0:0:
320,192,39862,1,2,0:0:0:0:
64,192,40062,1,0,0:0:0:0:
192,192,40262,1,2,0:0:0:0:
320,192,40462,1,0,0:0:0:0:
448,192,40462,1,8,0:0:0:0:
192,192,40862,1,2,0:0:0:0:
192,192,41062,1,2,0:0:0:0:
64,192,41262,1,8,0:0:0:0:
448,192,41262,1,0,0:0:0:0:
320,192,41462,1,0,0:0:0:0:
192,192,41662,1,2,0:0:0:0:
448,192,41862,1,0,0:0:0:0:
192,192,42062,1,8,0:0:0:0:
64,192,42062,1,0,0:0:0:0:
320,192,42262,1,2,0:0:0:0:
448,192,42462,1,0,0:0:0:0:
192,192,42662,1,2,0:0:0:0:
64,192,42862,1,8,0:0:0:0:
448,192,42862,1,0,0:0:0:0:
320,192,43062,1,2,0:0:0:0:
64,192,43262,1,0,0:0:0:0:
192,192,43462,1,2,0:0:0:0:
320,192,43662,1,8,0:0:0:0:
448,192,43662,1,0,0:0:0:0:
64,192,43862,1,2,0:0:0:0:
192,192,44062,1,0,0:0:0:0:
448,192,44162,1,8,0:0:0:0:
320,192,44262,1,2,0:0:0:0:
192,192,44462,1,0,0:0:0:0:
64,192,44462,1,8,0:0:0:0:
320,192,44662,1,0,0:0:0:0:
64,192,44862,1,2,0:0:0:0:
448,192,44862,1,4,0:0:0:0:
448,192,45262,1,8,0:0:0:0:
320,192,45262,1,0,0:0:0:0:
192,192,45462,1,2,0:0:0:0:
64,192,45662,1,0,0:0:0:0:
320,192,45862,1,2,0:0:0:0:
64,192,46062,1,0,0:0:0:0:
448,192,46062,1,8,0:0:0:0:
192,192,46262,1,2,0:0:0:0:
448,192,46462,1,0,0:0:0:0:
320,192,46662,1,2,0:0:0:0:
64,192,46862,1,0,0:0:0:0:
192,192,46862,1,8,0:0:0:0:
448,192,47062,1,2,0:0:0:0:
320,192,47462,1,2,0:0:0:0:
448,192,47662,1,0,0:0:0:0:
64,192,47662,1,8,0:0:0:0:
192,192,47862,1,0,0:0:0:40:Tom3.wav
320,192,48062,128,4,48462:0:0:0:0:
448,192,48062,1,2,0:0:0:0:
192,192,48262,1,2,0:0:0:60:Tom1.wav
448,192,48462,1,0,0:0:0:0:
64,192,48462,1,8,0:0:0:0:
64,192,48662,128,4,49062:0:0:0:0:
320,192,48662,1,2,0:0:0:0:
448,192,49062,128,0,49462:0:0:0:60:Tom1.wav
320,192,49262,1,8,0:0:0:0:
64,192,49462,128,2,50862:0:0:0:0:
192,192,49462,1,4,0:0:0:0:
448,192,49862,1,2,0:0:0:0:
320,192,50062,1,8,0:0:0:0:
192,192,50462,1,0,0:0:0:60:Tom1.wav
320,192,50662,1,0,0:0:0:50:Tom2.wav
448,192,50862,1,0,0:0:0:40:Tom3.wav
320,192,51062,1,4,0:0:0:0:
192,192,51062,1,2,0:0:0:0:
448,192,51462,1,2,0:0:0:0:
64,192,51662,1,0,0:0:0:50:Tom2.wav
320,192,51862,1,0,0:0:0:50:Tom2.wav
192,192,52062,1,2,0:0:0:0:
448,192,52262,1,0,0:0:0:50:Tom2.wav
320,192,52462,1,0,0:0:0:60:Tom1.wav
64,192,52662,1,4,0:0:0:0:
192,192,52662,128,0,53062:0:0:0:0:
448,192,53062,128,2,53462:0:0:0:0:
64,192,53262,1,0,0:0:0:60:Tom1.wav
320,192,53462,128,0,53862:0:0:0:0:
192,192,53662,1,0,0:0:0:50:Tom2.wav
448,192,53862,1,0,0:0:0:40:Tom3.wav
192,192,54062,1,0,0:0:0:0:
64,192,54062,1,8,0:0:0:0:
320,192,54262,1,4,0:0:0:0:
448,192,54262,1,2,0:0:0:0:
192,192,54662,1,2,0:0:0:0:
320,192,54862,1,0,0:0:0:60:Tom1.wav
64,192,55062,5,0,0:0:0:50:Tom2.wav
192,192,55262,1,0,0:0:0:60:Tom1.wav
320,192,55362,1,0,0:0:0:60:Tom1.wav
448,192,55462,1,0,0:0:0:50:Tom2.wav
192,192,55562,1,0,0:0:0:50:Tom2.wav
64,192,55662,1,0,0:0:0:40:Tom3.wav
320,192,55862,1,4,0:0:0:0:
448,192,55862,128,0,56262:0:0:0:0:
64,192,56262,1,0,0:0:0:40:Tom3.wav
320,192,56462,1,8,0:0:0:0:
448,192,56462,1,0,0:0:0:0:
192,192,56662,1,8,0:0:0:0:
64,192,56662,1,0,0:0:0:0:
448,192,56862,1,8,0:0:0:0:
320,192,56862,1,0,0:0:0:0:
192,192,57162,1,8,0:0:0:0:
320,192,57262,1,8,0:0:0:0:
64,192,57462,1,0,0:0:0:0:
192,192,57462,128,4,57862:0:0:0:0:
320,192,57862,1,2,0:0:0:0:
64,192,58062,1,0,0:0:0:0:
448,192,58062,1,8,0:0:0:0:
320,192,58262,1,0,0:0:0:0:
192,192,58462,1,2,0:0:0:0:
192,192,58662,1,2,0:0:0:0:
448,192,58862,1,0,0:0:0:0:
64,192,58862,1,8,0:0:0:0:
320,192,59062,128,4,59462:0:0:0:0:
192,192,59062,1,2,0:0:0:0:
192,192,59462,1,2,0:0:0:0:
64,192,59662,1,0,0:0:0:0:
448,192,59662,1,8,0:0:0:0:
192,192,59862,1,0,0:0:0:0:
448,192,59962,5,8,0:0:0:0:
320,192,60062,1,2,0:0:0:0:
320,192,60262,1,2,0:0:0:0:
64,192,60462,1,8,0:0:0:0:
448,192,60462,1,0,0:0:0:0:
320,192,60662,1,2,0:0:0:0:
192,192,60662,128,4,61062:0:0:0:0:
448,192,61062,1,2,0:0:0:0:
64,192,61262,1,8,0:0:0:0:
320,192,61262,1,0,0:0:0:0:
320,192,61462,1,2,0:0:0:0:
448,192,61662,1,0,0:0:0:0:
192,192,61662,1,8,0:0:0:0:
192,192,61862,1,2,0:0:0:0:
64,192,62062,1,8,0:0:0:0:
448,192,62062,1,0,0:0:0:0:
192,192,62262,1,2,0:0:0:0:
320,192,62262,128,4,62662:0:0:0:0:
64,192,62662,1,2,0:0:0:0:
448,192,62862,1,0,0:0:0:0:
192,192,62862,1,8,0:0:0:0:
192,192,63062,1,2,0:0:0:0:
320,192,63262,1,8,0:0:0:0:
64,192,63262,1,0,0:0:0:0:
320,192,63462,1,2,0:0:0:0:
448,192,63662,1,0,0:0:0:0:
64,192,63662,1,8,0:0:0:0:
320,192,63862,1,2,0:0:0:0:
192,192,63962,1,0,0:0:0:0:
64,192,64062,1,8,0:0:0:0:
448,192,64062,1,4,0:0:0:0:
192,192,64262,1,0,0:0:0:0:
320,192,64462,1,0,0:0:0:50:Tom2.wav
448,192,64662,1,0,0:0:0:50:Tom2.wav
192,192,64862,1,0,0:0:0:50:Tom2.wav
320,192,65062,1,0,0:0:0:0:
192,192,65262,1,0,0:0:0:40:Tom3.wav
64,192,65462,1,8,0:0:0:0:
448,192,65462,1,4,0:0:0:0:
192,192,65862,5,8,0:0:0:0:
64,192,65862,1,0,0:0:0:0:
448,192,66062,1,0,0:0:0:0:
320,192,66062,1,2,0:0:0:0:
64,192,66262,1,4,0:0:0:0:
192,192,66262,1,8,0:0:0:0:
320,192,66662,1,2,0:0:0:0:
192,192,66762,1,2,0:0:0:0:
448,192,66862,1,0,0:0:0:0:
64,192,66862,1,8,0:0:0:0:
320,192,67262,1,4,0:0:0:0:
64,192,67262,1,2,0:0:0:0:
448,192,67662,1,0,0:0:0:0:
192,192,67662,1,8,0:0:0:0:
192,192,67862,1,0,0:0:0:0:
64,192,68062,1,2,0:0:0:0:
320,192,68262,1,0,0:0:0:0:
64,192,68462,1,8,0:0:0:0:
448,192,68462,1,0,0:0:0:0:
192,192,68662,1,2,0:0:0:0:
448,192,68862,1,2,0:0:0:0:
320,192,69062,1,0,0:0:0:0:
64,192,69262,1,8,0:0:0:0:
448,192,69262,1,0,0:0:0:0:
192,192,69462,1,0,0:0:0:0:
320,192,69562,1,8,0:0:0:0:
64,192,69662,1,2,0:0:0:0:
448,192,69862,1,0,0:0:0:0:
64,192,70062,1,8,0:0:0:0:
192,192,70062,1,0,0:0:0:0:
448,192,70262,1,0,0:0:0:0:
192,192,70462,1,2,0:0:0:0:
320,192,70662,1,0,0:0:0:0:
448,192,70862,1,0,0:0:0:0:
64,192,70862,1,8,0:0:0:0:
320,192,71062,1,0,0:0:0:0:
192,192,71262,1,2,0:0:0:0:
448,192,71462,1,0,0:0:0:0:
320,192,71662,1,0,0:0:0:0:
64,192,71662,1,8,0:0:0:0:
192,192,71862,1,0,0:0:0:0:
448,192,72062,1,2,0:0:0:0:
64,192,72262,1,0,0:0:0:0:
320,192,72462,1,0,0:0:0:0:
448,192,72462,1,8,0:0:0:0:
192,192,72662,1,0,0:0:0:0:
448,192,72762,1,8,0:0:0:0:
64,192,72862,1,2,0:0:0:0:
320,192,73062,1,0,0:0:0:0:
64,192,73262,1,8,0:0:0:0:
448,192,73262,1,0,0:0:0:0:
192,192,73462,1,8,0:0:0:0:
320,192,73562,1,8,0:0:0:0:
64,192,73662,1,4,0:0:0:0:
448,192,73662,1,2,0:0:0:0:
192,192,74062,1,0,0:0:0:0:
64,192,74062,1,8,0:0:0:0:
192,192,74262,1,0,0:0:0:0:
448,192,74462,1,2,0:0:0:0:
320,192,74662,1,0,0:0:0:0:
64,192,74862,1,8,0:0:0:0:
448,192,74862,1,0,0:0:0:0:
192,192,75062,1,0,0:0:0:0:
448,192,75262,1,2,0:0:0:0:
64,192,75462,1,0,0:0:0:0:
448,192,75662,1,0,0:0:0:0:
320,192,75662,1,8,0:0:0:0:
192,192,75862,1,0,0:0:0:0:
448,192,75962,1,8,0:0:0:0:
64,192,76062,1,2,0:0:0:0:
320,192,76262,1,0,0:0:0:0:
64,192,76462,1,8,0:0:0:0:
448,192,76462,1,0,0:0:0:0:
192,192,76662,1,0,0:0:0:0:
320,192,76862,1,2,0:0:0:0:
448,192,76862,1,4,0:0:0:0:
64,192,77062,1,0,0:0:0:0:
320,192,77262,1,8,0:0:0:0:
448,192,77262,1,0,0:0:0:0:
192,192,77462,1,2,0:0:0:0:
64,192,77462,1,4,0:0:0:0:
448,192,77862,1,2,0:0:0:0:
64,192,78062,1,8,0:0:0:0:
192,192,78062,1,0,0:0:0:0:
448,192,78262,1,4,0:0:0:0:
320,192,78262,1,2,0:0:0:0:
448,192,78662,1,2,0:0:0:0:
192,192,78862,1,0,0:0:0:0:
64,192,78862,1,8,0:0:0:0:
320,192,79062,1,2,0:0:0:0:
448,192,79262,1,8,0:0:0:0:
64,192,79262,1,0,0:0:0:0:
192,192,79462,1,0,0:0:0:50:Tom2.wav
64,192,79662,1,8,0:0:0:0:
448,192,79662,1,0,0:0:0:0:
320,192,79862,1,8,0:0:0:0:
192,192,79962,1,8,0:0:0:0:
64,192,80062,1,4,0:0:0:0:
448,192,80062,1,2,0:0:0:0:
448,192,80462,1,0,0:0:0:0:
320,192,80462,1,8,0:0:0:0:
320,192,80662,1,0,0:0:0:0:
64,192,80862,1,2,0:0:0:0:
192,192,81062,1,0,0:0:0:0:
64,192,81262,1,8,0:0:0:0:
448,192,81262,1,0,0:0:0:0:
320,192,81462,1,0,0:0:0:0:
448,192,81662,1,2,0:0:0:0:
64,192,81862,1,0,0:0:0:0:
448,192,82062,1,0,0:0:0:0:
320,192,82062,1,8,0:0:0:0:
192,192,82262,1,0,0:0:0:0:
448,192,82362,1,8,0:0:0:0:
64,192,82462,1,2,0:0:0:0:
192,192,82662,1,0,0:0:0:0:
320,192,82862,1,0,0:0:0:0:
448,192,82862,1,8,0:0:0:0:
64,192,83062,1,0,0:0:0:0:
448,192,83262,1,2,0:0:0:0:
320,192,83462,1,0,0:0:0:0:
192,192,83662,1,0,0:0:0:0:
64,192,83662,1,8,0:0:0:0:
448,192,83862,1,0,0:0:0:0:
64,192,84062,1,2,0:0:0:0:
192,192,84262,1,0,0:0:0:0:
320,192,84462,1,0,0:0:0:0:
448,192,84462,1,8,0:0:0:0:
64,192,84662,1,0,0:0:0:0:
448,192,84862,1,2,0:0:0:0:
192,192,85062,1,0,0:0:0:0:
320,192,85262,1,4,0:0:0:0:
64,192,85262,1,8,0:0:0:0:
192,192,85562,1,8,0:0:0:0:
448,192,85662,1,2,0:0:0:0:
64,192,85862,1,0,0:0:0:60:Tom1.wav
448,192,86062,1,8,0:0:0:0:
192,192,86162,1,8,0:0:0:0:
64,192,86262,1,0,0:0:0:40:Tom3.wav
320,192,86462,1,2,0:0:0:0:
448,192,86462,1,4,0:0:0:0:
192,192,86862,1,8,0:0:0:0:
320,192,86862,1,0,0:0:0:0:
320,192,87062,1,0,0:0:0:0:
64,192,87162,1,8,0:0:0:0:
448,192,87262,1,2,0:0:0:0:
192,192,87462,1,0,0:0:0:0:
448,192,87662,1,0,0:0:0:0:
320,192,87662,1,8,0:0:0:0:
64,192,87862,1,0,0:0:0:0:
448,192,88062,1,2,0:0:0:0:
192,192,88262,1,0,0:0:0:0:
448,192,88462,1,0,0:0:0:0:
64,192,88462,1,8,0:0:0:0:
320,192,88662,1,0,0:0:0:0:
64,192,88762,1,8,0:0:0:0:
448,192,88862,1,2,0:0:0:0:
320,192,89062,1,0,0:0:0:0:
64,192,89262,1,8,0:0:0:0:
192,192,89262,1,0,0:0:0:0:
448,192,89462,1,8,0:0:0:0:
320,192,89562,1,8,0:0:0:0:
64,192,89662,1,2,0:0:0:0:
192,192,89662,1,4,0:0:0:0:
320,192,89862,1,2,0:0:0:0:
64,192,90062,1,8,0:0:0:0:
448,192,90062,1,0,0:0:0:0:
320,192,90262,1,4,0:0:0:0:
192,192,90262,1,2,0:0:0:0:
448,192,90662,1,0,0:0:0:40:Tom3.wav
320,192,90862,1,8,0:0:0:0:
192,192,90962,1,8,0:0:0:0:
64,192,91062,1,4,0:0:0:0:
448,192,91062,1,2,0:0:0:0:
64,192,91462,1,2,0:0:0:0:
192,192,91662,1,8,0:0:0:0:
320,192,91662,1,0,0:0:0:0:
448,192,91962,1,8,0:0:0:0:
64,192,92062,1,2,0:0:0:0:
448,192,92262,1,0,0:0:0:60:Tom1.wav
320,192,92462,1,0,0:0:0:50:Tom2.wav
64,192,92662,1,0,0:0:0:60:Tom1.wav
192,192,92762,1,0,0:0:0:50:Tom2.wav
320,192,92862,1,0,0:0:0:40:Tom3.wav
448,192,93062,1,0,0:0:0:50:Tom2.wav
64,192,93162,1,0,0:0:0:50:Tom2.wav
192,192,93262,1,0,0:0:0:40:Tom3.wav
320,192,93362,1,0,0:0:0:40:Tom3.wav
448,192,93462,1,0,0:0:0:0:
64,192,93462,1,8,0:0:0:0:
64,192,94062,128,0,94462:0:0:0:40:Tom3.wav
448,192,94462,1,2,0:0:0:0:
320,192,94462,1,4,0:0:0:0:
64,192,94862,1,0,0:0:0:0:
320,192,94862,1,8,0:0:0:0:
192,192,95062,1,0,0:0:0:0:
448,192,95262,1,2,0:0:0:0:
320,192,95462,1,0,0:0:0:0:
64,192,95662,1,8,0:0:0:0:
448,192,95662,1,0,0:0:0:0:
192,192,95862,1,0,0:0:0:0:
448,192,96062,1,2,0:0:0:0:
64,192,96262,1,0,0:0:0:0:
448,192,96462,1,0,0:0:0:0:
320,192,96462,1,8,0:0:0:0:
192,192,96662,1,0,0:0:0:0:
448,192,96762,1,8,0:0:0:0:
320,192,96862,1,2,0:0:0:0:
64,192,97062,1,0,0:0:0:0:
320,192,97262,1,8,0:0:0:0:
448,192,97262,128,0,97462:0:0:0:0:
192,192,97462,1,0,0:0:0:0:
64,192,97662,128,2,97862:0:0:0:0:
192,192,97862,128,0,98062:0:0:0:0:
320,192,98062,128,0,98262:0:0:0:0:
448,192,98062,1,8,0:0:0:0:
64,192,98262,128,0,98662:0:0:0:0:
320,192,98462,1,2,0:0:0:0:
448,192,98662,128,0,98862:0:0:0:0:
64,192,98862,1,8,0:0:0:0:
320,192,98862,128,0,99062:0:0:0:0:
192,192,99062,128,0,99462:0:0:0:0:
448,192,99262,1,2,0:0:0:0:
64,192,99462,128,0,99662:0:0:0:0:
448,192,99662,1,8,0:0:0:0:
192,192,99662,1,0,0:0:0:0:
320,192,99862,1,0,0:0:0:0:
64,192,99962,1,8,0:0:0:0:
192,192,100062,1,2,0:0:0:0:
448,192,100262,1,0,0:0:0:60:Tom1.wav
64,192,100462,1,8,0:0:0:0:
448,192,100562,1,8,0:0:0:0:
192,192,100662,1,0,0:0:0:40:Tom3.wav
448,192,100862,1,4,0:0:0:0:
320,192,100862,1,2,0:0:0:0:
192,192,101262,1,0,0:0:0:0:
64,192,101262,1,8,0:0:0:0:
320,192,101462,1,0,0:0:0:0:
64,192,101662,1,2,0:0:0:0:
448,192,101862,1,0,0:0:0:0:
192,192,102062,1,0,0:0:0:0:
320,192,102062,1,8,0:0:0:0:
448,192,102262,1,0,0:0:0:0:
64,192,102462,1,2,0:0:0:0:
320,192,102662,1,0,0:0:0:0:
448,192,102862,1,8,0:0:0:0:
64,192,102862,1,0,0:0:0:0:
320,192,103062,1,0,0:0:0:0:
64,192,103162,1,8,0:0:0:0:
192,192,103262,1,2,0:0:0:0:
448,192,103462,1,0,0:0:0:0:
192,192,103662,1,8,0:0:0:0:
64,192,103662,1,0,0:0:0:0:
448,192,104062,1,4,0:0:0:0:
192,192,104062,1,2,0:0:0:0:
192,192,104462,1,0,0:0:0:0:
64,192,104462,1,8,0:0:0:0:
320,192,104662,1,2,0:0:0:0:
448,192,104862,1,0,0:0:0:60:Tom1.wav
64,192,104862,1,8,0:0:0:0:
192,192,105162,1,8,0:0:0:0:
320,192,105262,1,2,0:0:0:0:
64,192,105462,1,8,0:0:0:0:
448,192,105462,1,4,0:0:0:0:
320,192,105862,1,0,0:0:0:60:Tom1.wav
192,192,106062,1,0,0:0:0:40:Tom3.wav
448,192,106262,1,2,0:0:0:0:
64,192,106262,1,4,0:0:0:0:
448,192,106662,1,0,0:0:0:0:
320,192,106662,1,2,0:0:0:0:
64,192,106862,1,8,0:0:0:0:
448,192,106962,1,2,0:0:0:0:
320,192,107062,1,0,0:0:0:40:Tom3.wav
64,192,107262,1,8,0:0:0:0:
192,192,107262,1,4,0:0:0:0:
448,192,107562,1,0,0:0:0:60:Tom1.wav
192,192,107662,1,0,0:0:0:60:Tom1.wav
320,192,107862,1,0,0:0:0:60:Tom1.wav
64,192,108062,1,0,0:0:0:60:Tom1.wav
448,192,108262,1,0,0:0:0:0:
192,192,108462,1,0,0:0:0:40:Tom3.wav
448,192,108662,1,2,0:0:0:0:
64,192,108662,1,4,0:0:0:0:
320,192,109062,1,0,0:0:0:0:
192,192,109162,1,0,0:0:0:0:
64,192,109262,1,0,0:0:0:0:
448,192,109462,1,0,0:0:0:0:
320,192,109662,1,2,0:0:0:0:
64,192,109862,1,0,0:0:0:0:
192,192,109962,1,8,0:0:0:0:
448,192,110062,1,10,0:0:0:0:
320,192,110162,1,0,0:0:0:50:Tom2.wav
192,192,110262,1,0,0:0:0:40:Tom3.wav
64,192,110462,128,2,116862:0:0:0:0:
448,192,110462,128,4,116862:0:0:0:0:
