osu file format v14

[General]
AudioFilename: audio.mp3
AudioLeadIn: 0
PreviewTime: 244369
Countdown: 0
SampleSet: Drum
StackLeniency: 0.7
Mode: 3
LetterboxInBreaks: 0
SpecialStyle: 0
WidescreenStoryboard: 0

[Editor]
DistanceSpacing: 0.9
BeatDivisor: 4
GridSize: 4
TimelineZoom: 2.3

[Metadata]
Title:Light Delight
TitleUnicode:Light Delight
Artist:Poppin'Party
ArtistUnicode:Poppin'Party
Creator:BaniiYanii
Version:Embrace
Source:バンドリ!ガールズバンドパーティ!
Tags:circling kasumi toyama 戸山香澄 terakawa aimi 寺川愛美 tae hanazono 花園たえ 大塚紗英 otsuka sae rimi ushigome 牛込りみ nishimoto rimi 西本りみ saaya yamabuki 山吹沙綾 Ohashi Ayaka 大橋彩香 arisa ichigaya 市ヶ谷有咲 itou ayasa 伊藤彩沙 bang dream bandori girls band party bandori popipa ポッピンパーティー ポピパ japanese anime video game single BRMM-10110 pop rock fujinaga ryutaro 藤永 龍太郎
BeatmapID:2295672
BeatmapSetID:1098803

[Difficulty]
HPDrainRate:8.5
CircleSize:4
OverallDifficulty:8.5
ApproachRate:5
SliderMultiplier:1.4
SliderTickRate:1

[Events]
//Background and Video events
0,0,"stop looking at the files.jpg",0,0
//Break Periods
//Storyboard Layer 0 (Background)
//Storyboard Layer 1 (Fail)
//Storyboard Layer 2 (Pass)
//Storyboard Layer 3 (Foreground)
//Storyboard Layer 4 (Overlay)
//Storyboard Sound Samples

[TimingPoints]
533,333.333333333333,4,3,1,60,1,0
74533,-133.333333333333,4,3,1,60,0,0
74616,-400,4,3,1,60,0,0
74699,-1000,4,3,1,60,0,0
74866,-400,4,3,1,60,0,0
74949,-133.333333333333,4,3,1,60,0,0
75033,-80,4,3,1,60,0,0
75116,-57.1428571428571,4,3,1,60,0,0
75199,-100,4,3,1,60,0,1
99032,-100,4,3,1,60,0,0
165866,-100,4,3,1,60,0,1
189699,-100,4,3,1,60,0,0
243866,-133.333333333333,4,3,1,60,0,0
243949,-399.999999999997,4,3,1,60,0,0
244032,-1000,4,3,1,60,0,0
244199,-399.999999999997,4,3,1,60,0,0
244282,-133.333333333333,4,3,1,60,0,0
244366,-80,4,3,1,60,0,0
244449,-57.1428571428571,4,3,1,60,0,0
244532,-100,4,3,1,60,0,0
249866,-100,4,3,1,60,0,1
273699,-100,4,3,1,60,0,0

[HitObjects]
192,192,533,5,0,0:0:0:60:B6.wav
64,192,533,1,0,0:0:0:65:G4#.wav
448,192,699,1,0,0:0:0:60:E6.wav
320,192,866,1,0,0:0:0:60:F6#.wav
64,192,1032,1,0,0:0:0:60:G6#.wav
448,192,1199,5,0,0:0:0:60:B6.wav
320,192,1366,1,0,0:0:0:60:E6.wav
192,192,1532,1,0,0:0:0:60:F6#.wav
448,192,1699,1,0,0:0:0:60:G6#.wav
64,192,1866,5,0,0:0:0:60:B6.wav
320,192,1866,1,0,0:0:0:65:A4.wav
448,192,2032,1,0,0:0:0:60:E6.wav
320,192,2199,1,0,0:0:0:60:F6#.wav
192,192,2366,1,0,0:0:0:60:G6#.wav
448,192,2532,5,0,0:0:0:60:B6.wav
320,192,2699,1,0,0:0:0:60:E6.wav
64,192,2866,1,0,0:0:0:60:F6#.wav
448,192,3032,1,0,0:0:0:60:G6#.wav
192,192,3199,5,0,0:0:0:60:B6.wav
320,192,3199,1,0,0:0:0:65:B4.wav
448,192,3366,1,0,0:0:0:60:E6.wav
192,192,3532,1,0,0:0:0:60:F6#.wav
64,192,3699,1,0,0:0:0:60:G6#.wav
320,192,3866,5,0,0:0:0:60:B6.wav
192,192,4032,1,0,0:0:0:60:E6.wav
448,192,4199,1,0,0:0:0:60:F6#.wav
64,192,4366,1,0,0:0:0:60:G6#.wav
320,192,4532,5,0,0:0:0:60:B6.wav
448,192,4532,1,0,0:0:0:65:C5#.wav
192,192,4699,1,0,0:0:0:60:E6.wav
64,192,4866,1,0,0:0:0:60:F6#.wav
448,192,5032,1,0,0:0:0:60:G6#.wav
192,192,5199,5,0,0:0:0:60:B6.wav
64,192,5366,1,0,0:0:0:60:E7.wav
320,192,5532,1,0,0:0:0:60:D7#.wav
448,192,5699,1,0,0:0:0:60:C7#.wav
64,192,5866,5,0,0:0:0:60:B6.wav
320,192,5866,1,0,0:0:0:65:A4.wav
448,192,6032,1,0,0:0:0:60:E6.wav
192,192,6199,1,0,0:0:0:60:F6#.wav
64,192,6366,1,0,0:0:0:60:G6#.wav
320,192,6532,5,0,0:0:0:60:B6.wav
192,192,6699,1,0,0:0:0:60:E6.wav
448,192,6866,1,0,0:0:0:60:F6#.wav
320,192,7032,1,0,0:0:0:60:G6#.wav
192,192,7199,5,0,0:0:0:60:B6.wav
448,192,7366,1,0,0:0:0:60:E6.wav
320,192,7532,1,0,0:0:0:60:F6#.wav
64,192,7699,1,0,0:0:0:60:G6#.wav
448,192,7866,5,0,0:0:0:60:B6.wav
320,192,8032,1,0,0:0:0:60:E6.wav
192,192,8199,1,0,0:0:0:60:F6#.wav
64,192,8366,1,0,0:0:0:60:G6#.wav
192,192,8532,5,0,0:0:0:60:B6.wav
320,192,8532,1,0,0:0:0:65:B4.wav
448,192,8699,1,0,0:0:0:60:E6.wav
192,192,8866,1,0,0:0:0:60:F6#.wav
64,192,9032,1,0,0:0:0:60:G6#.wav
448,192,9199,5,0,0:0:0:60:B6.wav
64,192,9366,1,0,0:0:0:60:E6.wav
320,192,9532,1,0,0:0:0:60:F6#.wav
64,192,9699,1,0,0:0:0:65:D7#.wav
448,192,9699,1,0,0:0:0:60:G6#.wav
320,192,10866,128,0,11032:0:0:0:0:
448,192,11032,128,0,11199:0:0:0:0:
320,192,11199,1,2,0:0:0:0:
192,192,11199,1,0,0:0:0:0:
64,192,11199,1,4,0:0:0:0:
448,192,11366,1,0,0:0:0:0:
192,192,11366,1,8,0:0:0:0:
320,192,11449,1,8,0:0:0:0:
64,192,11449,1,0,0:0:0:0:
192,192,11532,1,2,0:0:0:0:
448,192,11532,1,0,0:0:0:0:
64,192,11699,1,0,0:0:0:0:
320,192,11699,1,8,0:0:0:0:
448,192,11782,1,8,0:0:0:0:
192,192,11782,1,0,0:0:0:0:
64,192,11866,1,0,0:0:0:0:
320,192,11866,1,2,0:0:0:0:
64,192,12032,1,8,0:0:0:0:
448,192,12032,1,0,0:0:0:0:
320,192,12116,1,8,0:0:0:0:
192,192,12116,1,0,0:0:0:0:
64,192,12199,1,0,0:0:0:0:
448,192,12199,1,2,0:0:0:0:
192,192,12366,1,8,0:0:0:0:
320,192,12366,1,0,0:0:0:0:
448,192,12449,1,8,0:0:0:0:
64,192,12449,1,0,0:0:0:0:
192,192,12532,1,0,0:0:0:0:
320,192,12532,1,2,0:0:0:0:
320,192,12699,1,8,0:0:0:0:
448,192,12699,1,0,0:0:0:0:
64,192,12782,1,8,0:0:0:0:
192,192,12782,1,0,0:0:0:0:
320,192,12866,1,0,0:0:0:0:
448,192,12866,1,2,0:0:0:0:
64,192,13032,1,8,0:0:0:0:
448,192,13032,1,0,0:0:0:0:
320,192,13116,1,8,0:0:0:0:
192,192,13116,1,0,0:0:0:0:
64,192,13199,1,0,0:0:0:0:
448,192,13199,1,2,0:0:0:0:
192,192,13366,1,8,0:0:0:0:
64,192,13366,1,0,0:0:0:0:
320,192,13449,1,8,0:0:0:0:
448,192,13449,1,0,0:0:0:0:
192,192,13532,1,2,0:0:0:0:
64,192,13532,1,0,0:0:0:0:
448,192,13699,1,0,0:0:0:0:
320,192,13699,1,8,0:0:0:0:
192,192,13782,1,8,0:0:0:0:
64,192,13866,1,2,0:0:0:0:
320,192,13866,1,4,0:0:0:0:
448,192,13866,1,0,0:0:0:0:
192,192,14032,1,8,0:0:0:0:
448,192,14032,1,0,0:0:0:0:
320,192,14116,1,8,0:0:0:0:
64,192,14116,1,0,0:0:0:0:
192,192,14199,1,0,0:0:0:0:
448,192,14199,1,2,0:0:0:0:
320,192,14366,1,8,0:0:0:0:
192,192,14366,1,0,0:0:0:0:
64,192,14449,1,0,0:0:0:0:
448,192,14449,1,8,0:0:0:0:
320,192,14532,1,2,0:0:0:0:
192,192,14532,1,0,0:0:0:0:
64,192,14699,1,8,0:0:0:0:
448,192,14699,1,0,0:0:0:0:
320,192,14782,1,0,0:0:0:0:
192,192,14782,1,8,0:0:0:0:
64,192,14866,1,0,0:0:0:0:
448,192,14866,1,2,0:0:0:0:
64,192,15032,1,0,0:0:0:0:
320,192,15032,1,8,0:0:0:0:
192,192,15116,1,8,0:0:0:0:
448,192,15116,1,0,0:0:0:0:
320,192,15199,1,0,0:0:0:0:
64,192,15199,1,2,0:0:0:0:
192,192,15366,1,8,0:0:0:0:
320,192,15366,1,0,0:0:0:0:
448,192,15449,1,8,0:0:0:0:
64,192,15449,1,0,0:0:0:0:
192,192,15532,1,0,0:0:0:0:
320,192,15532,1,2,0:0:0:0:
448,192,15699,1,8,0:0:0:0:
64,192,15699,1,0,0:0:0:0:
192,192,15782,1,8,0:0:0:0:
320,192,15782,1,0,0:0:0:0:
448,192,15866,1,0,0:0:0:0:
64,192,15866,1,2,0:0:0:0:
192,192,16032,1,8,0:0:0:0:
64,192,16032,1,0,0:0:0:0:
320,192,16116,1,8,0:0:0:0:
448,192,16116,1,0,0:0:0:0:
64,192,16199,1,2,0:0:0:0:
192,192,16199,1,0,0:0:0:0:
448,192,16366,1,8,0:0:0:0:
320,192,16366,1,0,0:0:0:0:
192,192,16449,1,8,0:0:0:0:
448,192,16532,1,0,0:0:0:0:
320,192,16532,1,4,0:0:0:0:
64,192,16532,1,2,0:0:0:0:
320,192,16699,1,8,0:0:0:0:
192,192,16699,1,0,0:0:0:0:
448,192,16782,1,0,0:0:0:0:
64,192,16782,1,8,0:0:0:0:
192,192,16866,1,2,0:0:0:0:
320,192,16866,1,0,0:0:0:0:
448,192,17032,1,8,0:0:0:0:
64,192,17032,1,0,0:0:0:0:
192,192,17116,1,0,0:0:0:0:
320,192,17116,1,8,0:0:0:0:
448,192,17199,1,2,0:0:0:0:
64,192,17199,1,0,0:0:0:0:
320,192,17366,1,8,0:0:0:0:
448,192,17366,1,0,0:0:0:0:
192,192,17449,1,8,0:0:0:0:
64,192,17449,1,0,0:0:0:0:
320,192,17532,1,2,0:0:0:0:
448,192,17532,1,0,0:0:0:0:
192,192,17699,1,8,0:0:0:0:
64,192,17699,1,0,0:0:0:0:
320,192,17782,1,0,0:0:0:0:
448,192,17782,1,8,0:0:0:0:
64,192,17866,1,0,0:0:0:0:
192,192,17866,1,2,0:0:0:0:
448,192,18032,1,0,0:0:0:0:
192,192,18032,1,8,0:0:0:0:
320,192,18116,1,8,0:0:0:0:
64,192,18116,1,0,0:0:0:0:
192,192,18199,1,2,0:0:0:0:
448,192,18199,1,0,0:0:0:0:
64,192,18366,1,0,0:0:0:0:
320,192,18366,1,8,0:0:0:0:
192,192,18449,1,8,0:0:0:0:
448,192,18449,1,0,0:0:0:0:
320,192,18532,1,0,0:0:0:0:
64,192,18532,1,2,0:0:0:0:
192,192,18699,1,0,0:0:0:0:
64,192,18699,1,8,0:0:0:0:
320,192,18782,1,8,0:0:0:0:
448,192,18782,1,0,0:0:0:0:
192,192,18866,1,2,0:0:0:0:
64,192,18866,1,0,0:0:0:0:
320,192,19032,1,8,0:0:0:0:
448,192,19032,1,0,0:0:0:0:
64,192,19116,1,8,0:0:0:0:
192,192,19199,1,4,0:0:0:0:
320,192,19199,1,0,0:0:0:0:
448,192,19199,1,2,0:0:0:0:
64,192,19366,1,0,0:0:0:0:
320,192,19366,1,8,0:0:0:0:
192,192,19449,1,8,0:0:0:0:
448,192,19449,1,0,0:0:0:0:
320,192,19532,1,2,0:0:0:0:
64,192,19532,1,0,0:0:0:0:
192,192,19699,1,8,0:0:0:0:
64,192,19699,1,0,0:0:0:0:
320,192,19782,1,0,0:0:0:0:
448,192,19782,1,8,0:0:0:0:
192,192,19866,1,0,0:0:0:0:
64,192,19866,1,2,0:0:0:0:
320,192,20032,1,8,0:0:0:0:
192,192,20032,1,0,0:0:0:0:
448,192,20116,1,0,0:0:0:0:
64,192,20116,1,8,0:0:0:0:
192,192,20199,1,2,0:0:0:0:
320,192,20199,1,0,0:0:0:0:
64,192,20366,1,0,0:0:0:0:
448,192,20366,1,8,0:0:0:0:
192,192,20449,1,8,0:0:0:0:
320,192,20449,1,0,0:0:0:0:
448,192,20532,1,0,0:0:0:0:
64,192,20532,1,2,0:0:0:0:
320,192,20699,1,8,0:0:0:0:
448,192,20699,1,0,0:0:0:0:
64,192,20782,1,0,0:0:0:0:
192,192,20782,1,8,0:0:0:0:
320,192,20866,1,2,0:0:0:0:
448,192,20866,1,0,0:0:0:0:
64,192,20949,1,8,0:0:0:0:
448,192,21032,1,0,0:0:0:0:
192,192,21032,1,8,0:0:0:0:
320,192,21116,1,8,0:0:0:0:
192,192,21199,1,2,0:0:0:0:
64,192,21199,1,8,0:0:0:0:
320,192,21282,1,8,0:0:0:0:
448,192,21282,1,0,0:0:0:0:
192,192,21366,1,8,0:0:0:0:
64,192,21366,1,0,0:0:0:0:
320,192,21449,1,8,0:0:0:0:
448,192,21449,1,0,0:0:0:0:
192,192,21532,1,8,0:0:0:0:
64,192,21532,1,2,0:0:0:0:
320,192,21616,1,8,0:0:0:0:
448,192,21616,1,0,0:0:0:0:
192,192,21699,1,8,0:0:0:0:
64,192,21699,1,0,0:0:0:0:
320,192,21782,1,8,0:0:0:0:
192,192,21866,1,4,0:0:0:0:
64,192,21866,1,2,0:0:0:0:
448,192,21866,1,0,0:0:0:0:
320,192,22032,1,0,0:0:0:0:
192,192,22199,1,8,0:0:0:0:
64,192,22199,1,0,0:0:0:0:
448,192,22199,1,0,0:0:0:0:
320,192,22366,1,0,0:0:0:0:
192,192,22449,1,8,0:0:0:0:
448,192,22449,1,0,0:0:0:0:
320,192,22532,1,2,0:0:0:0:
64,192,22532,1,0,0:0:0:0:
64,192,22699,1,0,0:0:0:0:
448,192,22699,1,2,0:0:0:0:
320,192,22866,1,0,0:0:0:0:
448,192,22866,1,0,0:0:0:0:
192,192,22866,1,8,0:0:0:0:
64,192,23032,1,0,0:0:0:0:
192,192,23199,1,0,0:0:0:0:
448,192,23199,1,2,0:0:0:0:
448,192,23366,1,2,0:0:0:0:
320,192,23366,1,0,0:0:0:0:
320,192,23532,1,0,0:0:0:0:
192,192,23532,1,0,0:0:0:0:
64,192,23532,1,8,0:0:0:0:
64,192,23699,1,0,0:0:0:0:
448,192,23699,1,2,0:0:0:0:
320,192,23866,1,0,0:0:0:0:
192,192,23866,1,0,0:0:0:0:
448,192,23866,1,8,0:0:0:0:
192,192,24032,1,2,0:0:0:0:
64,192,24032,1,0,0:0:0:0:
64,192,24199,1,2,0:0:0:0:
320,192,24199,1,0,0:0:0:0:
448,192,24366,1,0,0:0:0:0:
192,192,24366,1,2,0:0:0:0:
320,192,24532,1,2,0:0:0:0:
448,192,24532,1,4,0:0:0:0:
192,192,24532,128,0,27199:0:0:0:0:
448,192,25532,1,0,0:0:0:60:A6.wav
320,192,25699,1,0,0:0:0:60:G6#.wav
448,192,25866,1,0,0:0:0:60:F6#.wav
64,192,25866,1,0,0:0:0:60:C6#.wav
64,192,26532,1,0,0:0:0:60:E6.wav
448,192,27199,5,0,0:0:0:60:B6.wav
320,192,27199,1,0,0:0:0:65:G4#.wav
64,192,27366,1,0,0:0:0:60:E6.wav
192,192,27532,1,0,0:0:0:60:F6#.wav
448,192,27699,1,0,0:0:0:60:G6#.wav
64,192,27866,128,0,28199:0:0:0:60:B6.wav
192,192,28032,1,0,0:0:0:60:E6.wav
320,192,28199,1,0,0:0:0:60:F6#.wav
448,192,28366,128,0,28699:0:0:0:60:G6#.wav
64,192,28532,5,0,0:0:0:60:B6.wav
192,192,28699,128,0,29032:0:0:0:60:E6.wav
320,192,28866,1,0,0:0:0:60:F6#.wav
64,192,29032,128,0,29866:0:0:0:60:G6#.wav
320,192,29199,5,0,0:0:0:60:B6.wav
448,192,29366,1,0,0:0:0:60:E6.wav
192,192,29532,1,0,0:0:0:60:F6#.wav
320,192,29699,1,0,0:0:0:60:G6#.wav
192,192,29866,5,0,0:0:0:60:B6.wav
448,192,29866,1,0,0:0:0:65:A4.wav
320,192,30032,1,0,0:0:0:60:E6.wav
64,192,30199,1,0,0:0:0:60:F6#.wav
320,192,30366,1,0,0:0:0:60:G6#.wav
448,192,30532,128,0,30866:0:0:0:60:B6.wav
64,192,30699,1,0,0:0:0:60:E6.wav
192,192,30866,1,0,0:0:0:60:F6#.wav
320,192,31032,128,0,31366:0:0:0:60:G6#.wav
64,192,31199,5,0,0:0:0:60:B6.wav
448,192,31366,128,0,31699:0:0:0:60:E6.wav
192,192,31532,1,0,0:0:0:60:F6#.wav
64,192,31699,128,0,32532:0:0:0:60:G6#.wav
448,192,31866,5,0,0:0:0:60:B6.wav
192,192,32032,1,0,0:0:0:60:E6.wav
320,192,32199,1,0,0:0:0:60:F6#.wav
448,192,32366,1,0,0:0:0:60:G6#.wav
320,192,32532,1,0,0:0:0:65:B4.wav
192,192,32532,1,0,0:0:0:60:B6.wav
448,192,32699,1,0,0:0:0:60:E6.wav
64,192,32866,1,0,0:0:0:60:F6#.wav
192,192,33032,1,0,0:0:0:60:G6#.wav
320,192,33199,128,0,33532:0:0:0:60:B6.wav
448,192,33366,1,0,0:0:0:60:E6.wav
64,192,33532,1,0,0:0:0:60:F6#.wav
448,192,33699,128,0,34032:0:0:0:60:G6#.wav
192,192,33866,1,0,0:0:0:60:B6.wav
64,192,34032,128,0,34366:0:0:0:60:E6.wav
192,192,34199,1,0,0:0:0:60:F6#.wav
320,192,34366,128,0,34699:0:0:0:60:G6#.wav
448,192,34532,1,0,0:0:0:60:B6.wav
64,192,34699,1,0,0:0:0:60:E6.wav
192,192,34866,1,0,0:0:0:60:F6#.wav
320,192,35032,1,0,0:0:0:60:G6#.wav
64,192,35199,1,0,0:0:0:65:C5#.wav
448,192,35199,128,0,35532:0:0:0:60:B6.wav
192,192,35366,1,0,0:0:0:60:E6.wav
320,192,35532,1,0,0:0:0:60:F6#.wav
192,192,35699,128,0,36032:0:0:0:60:G6#.wav
448,192,35866,1,0,0:0:0:60:B6.wav
64,192,36032,1,0,0:0:0:60:E6.wav
448,192,36199,128,0,36866:0:0:0:60:F6#.wav
64,192,36366,1,0,0:0:0:60:G6#.wav
320,192,36532,1,0,0:0:0:60:B6.wav
64,192,36699,1,0,0:0:0:60:E6.wav
192,192,36866,1,0,0:0:0:60:F6#.wav
448,192,37032,1,0,0:0:0:60:G6#.wav
64,192,37199,1,0,0:0:0:60:B6.wav
320,192,37366,1,0,0:0:0:60:E7.wav
448,192,37532,1,0,0:0:0:60:D7#.wav
64,192,37532,128,0,37866:0:0:0:0:
192,192,37699,1,0,0:0:0:60:B6.wav
320,192,37866,1,4,0:0:0:0:
448,192,37866,1,2,0:0:0:0:
192,192,37866,1,0,0:0:0:0:
448,192,38032,1,0,0:0:0:0:
192,192,38199,1,2,0:0:0:0:
320,192,38199,1,0,0:0:0:0:
320,192,38366,1,0,0:0:0:0:
448,192,38532,1,0,0:0:0:0:
64,192,38532,1,2,0:0:0:0:
320,192,38699,1,0,0:0:0:0:
192,192,38866,1,0,0:0:0:0:
64,192,38866,1,2,0:0:0:0:
192,192,39032,1,0,0:0:0:0:
64,192,39199,1,0,0:0:0:0:
448,192,39199,1,2,0:0:0:0:
64,192,39366,1,0,0:0:0:0:
448,192,39532,1,0,0:0:0:0:
320,192,39532,1,2,0:0:0:0:
64,192,39699,1,0,0:0:0:0:
320,192,39866,1,0,0:0:0:0:
192,192,39866,1,2,0:0:0:0:
320,192,40032,1,0,0:0:0:0:
64,192,40199,1,0,0:0:0:0:
448,192,40199,1,2,0:0:0:0:
320,192,40366,1,0,0:0:0:0:
448,192,40532,1,0,0:0:0:0:
64,192,40532,1,2,0:0:0:0:
448,192,40699,1,0,0:0:0:0:
320,192,40866,1,0,0:0:0:0:
192,192,40866,1,2,0:0:0:0:
320,192,41032,1,0,0:0:0:0:
64,192,41199,1,0,0:0:0:0:
192,192,41199,1,2,0:0:0:0:
448,192,41366,1,0,0:0:0:0:
192,192,41532,1,0,0:0:0:0:
320,192,41532,1,2,0:0:0:0:
192,192,41699,1,0,0:0:0:0:
64,192,41866,1,0,0:0:0:0:
448,192,41866,1,2,0:0:0:0:
64,192,42032,1,0,0:0:0:0:
448,192,42199,1,0,0:0:0:0:
320,192,42199,1,2,0:0:0:0:
64,192,42366,1,0,0:0:0:0:
320,192,42532,1,0,0:0:0:0:
192,192,42532,1,2,0:0:0:0:
192,192,42699,128,0,42866:0:0:0:0:
448,192,42866,1,0,0:0:0:0:
320,192,42866,1,2,0:0:0:0:
192,192,43032,128,0,43199:0:0:0:0:
448,192,43199,1,0,0:0:0:0:
64,192,43199,1,2,0:0:0:0:
448,192,43366,1,0,0:0:0:0:
320,192,43532,1,0,0:0:0:0:
192,192,43532,1,2,0:0:0:0:
320,192,43699,1,0,0:0:0:0:
64,192,43866,1,0,0:0:0:0:
448,192,43866,1,2,0:0:0:0:
320,192,44032,1,0,0:0:0:0:
192,192,44199,1,0,0:0:0:0:
448,192,44199,1,2,0:0:0:0:
192,192,44366,1,0,0:0:0:0:
64,192,44532,1,0,0:0:0:0:
320,192,44532,1,2,0:0:0:0:
64,192,44699,1,0,0:0:0:0:
320,192,44866,1,0,0:0:0:0:
448,192,44866,1,2,0:0:0:0:
192,192,45032,1,0,0:0:0:0:
320,192,45199,1,0,0:0:0:0:
64,192,45199,1,2,0:0:0:0:
320,192,45366,1,0,0:0:0:0:
448,192,45532,1,0,0:0:0:0:
64,192,45532,1,2,0:0:0:0:
192,192,45699,1,0,0:0:0:0:
320,192,45866,1,0,0:0:0:0:
64,192,45866,1,2,0:0:0:0:
320,192,46032,1,0,0:0:0:0:
448,192,46199,1,0,0:0:0:0:
192,192,46199,1,2,0:0:0:0:
448,192,46366,1,0,0:0:0:0:
320,192,46532,1,2,0:0:0:0:
192,192,46532,128,0,46699:0:0:0:0:
64,192,46699,1,0,0:0:0:0:
448,192,46866,1,2,0:0:0:0:
192,192,46866,128,0,47032:0:0:0:0:
448,192,47032,1,0,0:0:0:0:
64,192,47199,1,2,0:0:0:0:
192,192,47199,128,0,47366:0:0:0:0:
320,192,47366,1,0,0:0:0:0:
448,192,47366,1,2,0:0:0:0:
64,192,47532,1,8,0:0:0:0:
448,192,47532,1,0,0:0:0:0:
192,192,47532,128,0,47699:0:0:0:0:
320,192,47699,1,0,0:0:0:0:
64,192,47699,1,2,0:0:0:0:
320,192,47866,1,0,0:0:0:0:
192,192,47866,1,0,0:0:0:0:
448,192,47866,1,8,0:0:0:0:
448,192,48032,1,0,0:0:0:0:
64,192,48032,1,2,0:0:0:0:
320,192,48199,1,2,0:0:0:0:
192,192,48199,1,0,0:0:0:0:
64,192,48366,1,0,0:0:0:0:
448,192,48366,1,2,0:0:0:0:
320,192,48532,1,2,0:0:0:0:
448,192,48532,1,4,0:0:0:0:
192,192,48532,128,0,49366:0:0:0:0:
320,192,49032,1,0,0:0:0:0:
448,192,49032,1,2,0:0:0:0:
448,192,49199,1,0,0:0:0:0:
320,192,49199,1,0,0:0:0:0:
64,192,49199,1,8,0:0:0:0:
320,192,49532,1,0,0:0:0:0:
448,192,49699,128,0,50199:0:0:0:0:
192,192,49866,1,0,0:0:0:0:
64,192,49866,1,2,0:0:0:0:
192,192,50199,1,2,0:0:0:0:
320,192,50199,128,0,50532:0:0:0:0:
64,192,50532,1,8,0:0:0:0:
448,192,50532,1,0,0:0:0:0:
192,192,50532,128,0,50866:0:0:0:0:
448,192,50866,128,0,51699:0:0:0:0:
64,192,51199,1,0,0:0:0:0:
320,192,51199,1,2,0:0:0:0:
320,192,51699,1,0,0:0:0:0:
192,192,51699,1,2,0:0:0:0:
448,192,51866,1,0,0:0:0:0:
192,192,51866,1,8,0:0:0:0:
64,192,51866,128,0,52199:0:0:0:0:
320,192,52199,128,0,52866:0:0:0:0:
64,192,52532,1,0,0:0:0:0:
448,192,52532,1,2,0:0:0:0:
64,192,52866,1,0,0:0:0:0:
192,192,52866,1,2,0:0:0:0:
320,192,53199,1,0,0:0:0:0:
448,192,53199,1,8,0:0:0:0:
192,192,53199,128,0,53532:0:0:0:0:
448,192,53532,128,0,54366:0:0:0:0:
320,192,53866,1,4,0:0:0:0:
192,192,53866,1,0,0:0:0:0:
64,192,53866,1,2,0:0:0:0:
64,192,54366,1,0,0:0:0:0:
320,192,54366,1,2,0:0:0:0:
448,192,54532,1,0,0:0:0:0:
192,192,54532,1,0,0:0:0:0:
64,192,54532,1,8,0:0:0:0:
192,192,54866,1,0,0:0:0:0:
320,192,55032,1,0,0:0:0:0:
64,192,55199,1,2,0:0:0:0:
448,192,55199,128,0,55532:0:0:0:0:
192,192,55532,1,0,0:0:0:0:
64,192,55532,1,2,0:0:0:0:
320,192,55699,128,0,56199:0:0:0:0:
192,192,55866,1,8,0:0:0:0:
64,192,55866,1,0,0:0:0:0:
448,192,55866,1,0,0:0:0:0:
64,192,56199,1,0,0:0:0:0:
192,192,56366,128,0,57032:0:0:0:0:
448,192,56532,1,0,0:0:0:0:
64,192,56532,1,2,0:0:0:0:
64,192,57032,1,0,0:0:0:0:
448,192,57032,1,2,0:0:0:0:
320,192,57199,1,8,0:0:0:0:
192,192,57199,1,0,0:0:0:0:
448,192,57199,128,0,57866:0:0:0:0:
64,192,57532,1,0,0:0:0:0:
320,192,57866,1,2,0:0:0:0:
192,192,57866,128,0,58532:0:0:0:0:
448,192,58032,1,0,0:0:0:0:
320,192,58032,1,0,0:0:0:0:
64,192,58032,1,8,0:0:0:0:
448,192,58199,1,0,0:0:0:0:
64,192,58199,1,2,0:0:0:0:
448,192,58532,1,0,0:0:0:0:
64,192,58532,1,8,0:0:0:0:
320,192,58532,128,0,58866:0:0:0:0:
192,192,58866,1,0,0:0:0:0:
64,192,58866,1,8,0:0:0:0:
448,192,58866,1,0,0:0:0:0:
320,192,59032,1,0,0:0:0:0:
192,192,59032,1,0,0:0:0:0:
64,192,59032,1,8,0:0:0:0:
64,192,59199,1,4,0:0:0:0:
320,192,59199,1,2,0:0:0:0:
448,192,59199,128,0,60032:0:0:0:0:
192,192,59699,1,0,0:0:0:0:
64,192,59699,1,2,0:0:0:0:
192,192,59866,1,0,0:0:0:0:
320,192,59866,1,0,0:0:0:0:
64,192,59866,1,8,0:0:0:0:
64,192,60199,1,0,0:0:0:0:
192,192,60366,128,0,60866:0:0:0:0:
448,192,60532,1,0,0:0:0:0:
320,192,60532,1,2,0:0:0:0:
448,192,60866,1,2,0:0:0:0:
64,192,60866,128,0,61199:0:0:0:0:
448,192,61199,1,0,0:0:0:0:
192,192,61199,1,8,0:0:0:0:
320,192,61199,128,0,61532:0:0:0:0:
448,192,61532,128,0,62366:0:0:0:0:
320,192,61866,1,0,0:0:0:0:
64,192,61866,1,2,0:0:0:0:
320,192,62366,1,2,0:0:0:0:
192,192,62366,1,0,0:0:0:0:
64,192,62532,1,0,0:0:0:0:
448,192,62532,1,8,0:0:0:0:
192,192,62532,128,0,62866:0:0:0:0:
64,192,62866,128,0,63866:0:0:0:0:
320,192,63199,1,2,0:0:0:0:
448,192,63199,1,0,0:0:0:0:
192,192,63366,1,0,0:0:0:0:
320,192,63366,1,8,0:0:0:0:
448,192,63532,1,2,0:0:0:0:
192,192,63532,1,0,0:0:0:0:
192,192,63866,1,0,0:0:0:0:
448,192,63866,1,8,0:0:0:0:
320,192,63866,128,0,64199:0:0:0:0:
64,192,64199,1,0,0:0:0:0:
192,192,64199,1,8,0:0:0:0:
448,192,64199,128,0,64532:0:0:0:0:
192,192,64532,1,2,0:0:0:0:
64,192,64532,1,0,0:0:0:0:
320,192,64532,1,4,0:0:0:0:
192,192,64699,1,0,0:0:0:0:
320,192,64866,1,8,0:0:0:0:
448,192,64866,1,0,0:0:0:0:
64,192,64866,1,0,0:0:0:0:
192,192,65032,1,0,0:0:0:0:
320,192,65199,1,0,0:0:0:0:
64,192,65199,1,2,0:0:0:0:
320,192,65366,1,0,0:0:0:0:
448,192,65532,1,0,0:0:0:0:
192,192,65532,1,0,0:0:0:0:
64,192,65532,1,8,0:0:0:0:
320,192,65699,1,0,0:0:0:0:
192,192,65866,1,0,0:0:0:0:
448,192,65866,1,2,0:0:0:0:
64,192,66032,1,0,0:0:0:0:
448,192,66199,1,0,0:0:0:0:
64,192,66199,1,0,0:0:0:0:
320,192,66199,1,8,0:0:0:0:
192,192,66366,1,0,0:0:0:0:
320,192,66532,1,0,0:0:0:0:
64,192,66532,1,2,0:0:0:0:
320,192,66699,1,0,0:0:0:0:
192,192,66866,1,8,0:0:0:0:
64,192,66866,1,0,0:0:0:0:
448,192,66866,1,0,0:0:0:0:
320,192,67032,1,0,0:0:0:0:
64,192,67199,1,0,0:0:0:0:
192,192,67199,1,2,0:0:0:0:
192,192,67366,1,0,0:0:0:0:
448,192,67532,1,0,0:0:0:0:
320,192,67532,1,0,0:0:0:0:
64,192,67532,1,8,0:0:0:0:
192,192,67699,1,0,0:0:0:0:
448,192,67866,1,0,0:0:0:0:
64,192,67866,1,2,0:0:0:0:
448,192,68032,1,0,0:0:0:0:
320,192,68199,1,0,0:0:0:0:
192,192,68199,1,8,0:0:0:0:
64,192,68199,1,0,0:0:0:0:
448,192,68366,1,0,0:0:0:0:
320,192,68532,1,0,0:0:0:0:
64,192,68532,1,2,0:0:0:0:
448,192,68699,1,0,0:0:0:0:
320,192,68866,1,0,0:0:0:0:
448,192,68866,1,0,0:0:0:0:
192,192,68866,1,8,0:0:0:0:
64,192,69032,1,0,0:0:0:0:
320,192,69199,1,0,0:0:0:0:
192,192,69199,1,2,0:0:0:0:
448,192,69366,1,0,0:0:0:0:
64,192,69366,1,2,0:0:0:0:
320,192,69532,1,0,0:0:0:0:
192,192,69532,1,8,0:0:0:0:
448,192,69532,1,0,0:0:0:0:
64,192,69699,1,2,0:0:0:0:
320,192,69699,1,4,0:0:0:0:
192,192,69699,128,0,70032:0:0:0:0:
448,192,70032,1,2,0:0:0:0:
192,192,70199,1,8,0:0:0:0:
64,192,70199,1,0,0:0:0:0:
320,192,70199,1,0,0:0:0:0:
320,192,70366,1,2,0:0:0:0:
192,192,70532,1,0,0:0:0:0:
448,192,70532,1,8,0:0:0:0:
64,192,70532,1,0,0:0:0:0:
64,192,70699,1,2,0:0:0:0:
192,192,70866,1,0,0:0:0:0:
320,192,70866,1,8,0:0:0:0:
448,192,70866,1,0,0:0:0:0:
448,192,71032,1,2,0:0:0:0:
192,192,71199,1,8,0:0:0:0:
64,192,71199,1,0,0:0:0:0:
320,192,71199,1,0,0:0:0:0:
192,192,71366,1,2,0:0:0:0:
64,192,71532,1,0,0:0:0:0:
448,192,71532,1,8,0:0:0:0:
320,192,71532,1,0,0:0:0:0:
320,192,71699,1,2,0:0:0:0:
64,192,71866,1,8,0:0:0:0:
192,192,71866,1,0,0:0:0:0:
320,192,71949,1,0,0:0:0:0:
448,192,71949,1,8,0:0:0:0:
192,192,72032,1,0,0:0:0:0:
64,192,72032,1,8,0:0:0:0:
320,192,72116,1,0,0:0:0:0:
448,192,72116,1,8,0:0:0:0:
192,192,72199,1,0,0:0:0:0:
64,192,72199,1,8,0:0:0:0:
320,192,72282,1,0,0:0:0:0:
448,192,72282,1,8,0:0:0:0:
192,192,72366,1,0,0:0:0:0:
64,192,72366,1,8,0:0:0:0:
320,192,72449,1,0,0:0:0:0:
448,192,72449,1,8,0:0:0:0:
192,192,72532,1,4,0:0:0:0:
64,192,72532,128,2,74532:0:0:0:0:
192,192,73199,128,0,74532:0:0:0:0:
320,192,73866,128,0,74532:0:0:0:0:
448,192,74532,1,0,0:0:0:0:
448,192,75199,1,0,0:0:0:0:
320,192,75199,1,8,0:0:0:0:
192,192,75199,1,4,0:0:0:0:
64,192,75199,1,0,0:0:0:0:
192,192,75366,1,0,0:0:0:0:
64,192,75366,1,2,0:0:0:0:
320,192,75532,1,0,0:0:0:0:
448,192,75532,1,2,0:0:0:0:
192,192,75699,1,8,0:0:0:0:
64,192,75699,1,0,0:0:0:0:
320,192,75699,1,4,0:0:0:0:
448,192,75699,1,0,0:0:0:0:
64,192,75866,1,2,0:0:0:0:
448,192,75866,1,0,0:0:0:0:
320,192,76032,1,0,0:0:0:0:
192,192,76032,1,2,0:0:0:0:
64,192,76199,1,8,0:0:0:0:
192,192,76199,1,0,0:0:0:0:
320,192,76199,1,4,0:0:0:0:
448,192,76199,1,0,0:0:0:0:
64,192,76366,1,2,0:0:0:0:
320,192,76366,1,0,0:0:0:0:
192,192,76532,1,2,0:0:0:0:
448,192,76532,1,0,0:0:0:0:
448,192,76699,1,0,0:0:0:0:
320,192,76699,1,8,0:0:0:0:
192,192,76699,1,0,0:0:0:0:
64,192,76699,1,4,0:0:0:0:
320,192,76866,1,2,0:0:0:0:
192,192,76866,1,0,0:0:0:0:
64,192,77032,1,0,0:0:0:0:
448,192,77032,1,2,0:0:0:0:
448,192,77199,1,0,0:0:0:0:
320,192,77199,1,8,0:0:0:0:
192,192,77199,1,0,0:0:0:0:
64,192,77199,1,4,0:0:0:0:
320,192,77366,1,2,0:0:0:0:
192,192,77532,1,0,0:0:0:0:
64,192,77532,1,8,0:0:0:0:
320,192,77532,1,4,0:0:0:0:
448,192,77532,1,0,0:0:0:0:
64,192,77699,1,2,0:0:0:0:
192,192,77866,1,4,0:0:0:0:
64,192,77866,1,0,0:0:0:0:
320,192,77866,1,8,0:0:0:0:
448,192,77866,1,0,0:0:0:0:
192,192,78032,1,0,0:0:0:0:
320,192,78032,1,2,0:0:0:0:
448,192,78199,1,0,0:0:0:0:
64,192,78199,1,2,0:0:0:0:
64,192,78366,1,0,0:0:0:0:
192,192,78366,1,0,0:0:0:0:
320,192,78366,1,4,0:0:0:0:
448,192,78366,1,8,0:0:0:0:
320,192,78532,1,2,0:0:0:0:
64,192,78532,1,0,0:0:0:0:
192,192,78699,1,2,0:0:0:0:
448,192,78699,1,0,0:0:0:0:
320,192,78866,1,8,0:0:0:0:
192,192,78866,1,0,0:0:0:0:
64,192,78866,1,4,0:0:0:0:
448,192,78866,1,0,0:0:0:0:
320,192,79032,1,2,0:0:0:0:
448,192,79032,1,0,0:0:0:0:
192,192,79199,1,0,0:0:0:0:
64,192,79199,1,2,0:0:0:0:
448,192,79366,1,0,0:0:0:0:
320,192,79366,1,8,0:0:0:0:
192,192,79366,1,4,0:0:0:0:
64,192,79366,1,0,0:0:0:0:
448,192,79532,1,0,0:0:0:0:
64,192,79532,1,2,0:0:0:0:
192,192,79699,1,0,0:0:0:0:
320,192,79699,1,2,0:0:0:0:
448,192,79866,1,8,0:0:0:0:
320,192,79866,1,0,0:0:0:0:
192,192,79866,1,4,0:0:0:0:
64,192,79866,1,0,0:0:0:0:
64,192,80032,1,2,0:0:0:0:
320,192,80199,1,8,0:0:0:0:
192,192,80199,1,4,0:0:0:0:
64,192,80199,1,0,0:0:0:0:
448,192,80199,1,0,0:0:0:0:
320,192,80366,1,2,0:0:0:0:
64,192,80532,1,4,0:0:0:0:
192,192,80532,1,0,0:0:0:0:
320,192,80532,1,0,0:0:0:0:
448,192,80532,1,8,0:0:0:0:
448,192,80699,1,0,0:0:0:0:
64,192,80699,1,2,0:0:0:0:
320,192,80866,1,2,0:0:0:0:
192,192,80866,1,0,0:0:0:0:
448,192,81032,1,8,0:0:0:0:
320,192,81032,1,0,0:0:0:0:
192,192,81032,1,4,0:0:0:0:
64,192,81032,1,0,0:0:0:0:
320,192,81199,1,2,0:0:0:0:
448,192,81199,1,0,0:0:0:0:
192,192,81366,1,2,0:0:0:0:
64,192,81366,1,0,0:0:0:0:
64,192,81532,1,0,0:0:0:0:
192,192,81532,1,8,0:0:0:0:
320,192,81532,1,4,0:0:0:0:
448,192,81532,1,0,0:0:0:0:
320,192,81699,1,2,0:0:0:0:
64,192,81699,1,0,0:0:0:0:
192,192,81866,1,2,0:0:0:0:
448,192,81866,1,0,0:0:0:0:
448,192,82032,1,8,0:0:0:0:
320,192,82032,1,4,0:0:0:0:
192,192,82032,1,0,0:0:0:0:
64,192,82032,1,0,0:0:0:0:
320,192,82199,1,0,0:0:0:0:
192,192,82199,1,2,0:0:0:0:
64,192,82366,1,0,0:0:0:0:
448,192,82366,1,2,0:0:0:0:
192,192,82532,1,4,0:0:0:0:
64,192,82532,1,0,0:0:0:0:
320,192,82532,1,8,0:0:0:0:
448,192,82532,1,0,0:0:0:0:
192,192,82699,1,2,0:0:0:0:
320,192,82699,1,0,0:0:0:0:
64,192,82866,1,0,0:0:0:0:
192,192,82866,1,0,0:0:0:0:
320,192,82866,1,4,0:0:0:0:
448,192,82866,1,8,0:0:0:0:
64,192,83032,1,0,0:0:0:0:
448,192,83032,1,2,0:0:0:0:
320,192,83199,1,8,0:0:0:0:
192,192,83199,1,4,0:0:0:0:
64,192,83199,1,0,0:0:0:0:
448,192,83199,1,0,0:0:0:0:
192,192,83366,1,0,0:0:0:0:
320,192,83366,1,2,0:0:0:0:
448,192,83532,1,0,0:0:0:0:
64,192,83532,1,2,0:0:0:0:
320,192,83699,1,8,0:0:0:0:
192,192,83699,1,0,0:0:0:0:
64,192,83699,1,0,0:0:0:0:
448,192,83699,1,4,0:0:0:0:
192,192,83866,1,2,0:0:0:0:
64,192,83866,1,0,0:0:0:0:
320,192,84032,1,2,0:0:0:0:
448,192,84032,1,0,0:0:0:0:
64,192,84199,1,8,0:0:0:0:
192,192,84199,1,0,0:0:0:0:
320,192,84199,1,4,0:0:0:0:
448,192,84199,1,0,0:0:0:0:
64,192,84366,1,0,0:0:0:0:
320,192,84366,1,2,0:0:0:0:
192,192,84532,1,0,0:0:0:0:
448,192,84532,1,2,0:0:0:0:
192,192,84699,1,4,0:0:0:0:
64,192,84699,1,0,0:0:0:0:
320,192,84699,1,8,0:0:0:0:
448,192,84699,1,0,0:0:0:0:
320,192,84866,1,2,0:0:0:0:
448,192,84866,1,0,0:0:0:0:
192,192,85032,1,0,0:0:0:0:
64,192,85032,1,2,0:0:0:0:
192,192,85199,1,0,0:0:0:0:
64,192,85199,1,0,0:0:0:0:
320,192,85199,1,4,0:0:0:0:
448,192,85199,1,8,0:0:0:0:
320,192,85366,1,2,0:0:0:0:
448,192,85366,1,0,0:0:0:0:
64,192,85532,1,8,0:0:0:0:
192,192,85532,1,4,0:0:0:0:
320,192,85532,1,0,0:0:0:0:
448,192,85532,1,0,0:0:0:0:
192,192,85699,1,8,0:0:0:0:
64,192,85699,1,0,0:0:0:0:
320,192,85782,1,8,0:0:0:0:
192,192,85866,1,4,0:0:0:0:
64,192,85866,1,2,0:0:0:0:
448,192,85866,128,0,86199:0:0:0:0:
320,192,86199,1,0,0:0:0:0:
192,192,86199,1,0,0:0:0:0:
64,192,86199,1,8,0:0:0:0:
64,192,86366,1,0,0:0:0:0:
192,192,86449,1,8,0:0:0:0:
320,192,86449,1,0,0:0:0:0:
448,192,86532,1,0,0:0:0:0:
64,192,86532,1,2,0:0:0:0:
192,192,86699,1,0,0:0:0:0:
320,192,86699,1,2,0:0:0:0:
448,192,86866,1,0,0:0:0:0:
192,192,86866,1,8,0:0:0:0:
64,192,86866,1,0,0:0:0:0:
320,192,87032,1,0,0:0:0:0:
448,192,87199,1,0,0:0:0:0:
192,192,87199,1,2,0:0:0:0:
64,192,87366,1,0,0:0:0:0:
320,192,87366,1,2,0:0:0:0:
192,192,87532,1,0,0:0:0:0:
320,192,87532,1,8,0:0:0:0:
448,192,87532,1,0,0:0:0:0:
64,192,87699,1,0,0:0:0:0:
192,192,87782,1,0,0:0:0:0:
448,192,87782,1,8,0:0:0:0:
320,192,87866,1,0,0:0:0:0:
64,192,87866,1,2,0:0:0:0:
192,192,88032,1,0,0:0:0:0:
448,192,88032,1,2,0:0:0:0:
320,192,88199,1,0,0:0:0:0:
448,192,88199,1,0,0:0:0:0:
64,192,88199,1,8,0:0:0:0:
192,192,88366,1,0,0:0:0:0:
64,192,88532,1,0,0:0:0:0:
448,192,88532,1,2,0:0:0:0:
320,192,88699,1,0,0:0:0:0:
192,192,88866,1,8,0:0:0:0:
64,192,88866,1,0,0:0:0:0:
448,192,88866,1,0,0:0:0:0:
320,192,89032,1,0,0:0:0:0:
192,192,89116,1,8,0:0:0:0:
64,192,89116,1,0,0:0:0:0:
320,192,89199,1,0,0:0:0:0:
448,192,89199,1,2,0:0:0:0:
192,192,89366,1,0,0:0:0:0:
64,192,89366,1,2,0:0:0:0:
192,192,89532,1,0,0:0:0:0:
320,192,89532,1,0,0:0:0:0:
448,192,89532,1,8,0:0:0:0:
64,192,89699,1,0,0:0:0:0:
192,192,89866,1,0,0:0:0:0:
448,192,89866,1,2,0:0:0:0:
320,192,90032,1,0,0:0:0:0:
64,192,90032,1,2,0:0:0:0:
448,192,90199,1,0,0:0:0:0:
192,192,90199,1,0,0:0:0:0:
64,192,90199,1,8,0:0:0:0:
320,192,90366,1,0,0:0:0:0:
448,192,90449,1,8,0:0:0:0:
64,192,90449,1,0,0:0:0:0:
192,192,90532,1,2,0:0:0:0:
320,192,90532,1,0,0:0:0:0:
64,192,90699,1,0,0:0:0:0:
448,192,90699,1,2,0:0:0:0:
192,192,90866,1,0,0:0:0:0:
64,192,90866,1,8,0:0:0:0:
448,192,90866,1,0,0:0:0:0:
320,192,91032,1,0,0:0:0:0:
192,192,91199,1,2,0:0:0:0:
64,192,91199,1,4,0:0:0:0:
448,192,91199,128,0,91532:0:0:0:0:
320,192,91532,1,0,0:0:0:0:
192,192,91532,1,0,0:0:0:0:
64,192,91532,1,8,0:0:0:0:
448,192,91699,1,0,0:0:0:0:
320,192,91782,1,8,0:0:0:0:
192,192,91782,1,0,0:0:0:0:
64,192,91866,1,2,0:0:0:0:
448,192,91866,1,0,0:0:0:0:
192,192,92032,1,0,0:0:0:0:
320,192,92032,1,2,0:0:0:0:
64,192,92199,1,0,0:0:0:0:
192,192,92199,1,0,0:0:0:0:
448,192,92199,1,8,0:0:0:0:
320,192,92366,1,0,0:0:0:0:
192,192,92449,1,8,0:0:0:0:
448,192,92449,1,0,0:0:0:0:
320,192,92532,1,0,0:0:0:0:
64,192,92532,1,2,0:0:0:0:
192,192,92699,1,0,0:0:0:0:
448,192,92699,1,2,0:0:0:0:
320,192,92866,1,0,0:0:0:0:
192,192,92866,1,0,0:0:0:0:
64,192,92866,1,8,0:0:0:0:
448,192,93032,1,0,0:0:0:0:
64,192,93116,1,0,0:0:0:0:
192,192,93116,1,8,0:0:0:0:
320,192,93199,1,2,0:0:0:0:
448,192,93199,1,0,0:0:0:0:
192,192,93366,1,0,0:0:0:0:
64,192,93366,1,2,0:0:0:0:
64,192,93532,1,0,0:0:0:0:
320,192,93532,1,8,0:0:0:0:
448,192,93532,1,0,0:0:0:0:
192,192,93699,1,0,0:0:0:0:
320,192,93866,1,0,0:0:0:0:
448,192,93866,1,2,0:0:0:0:
192,192,93866,1,4,0:0:0:0:
64,192,94032,1,0,0:0:0:0:
448,192,94032,1,2,0:0:0:0:
192,192,94199,1,0,0:0:0:0:
64,192,94199,1,0,0:0:0:0:
320,192,94199,1,8,0:0:0:0:
448,192,94366,1,0,0:0:0:0:
320,192,94449,1,0,0:0:0:0:
64,192,94449,1,8,0:0:0:0:
192,192,94532,1,0,0:0:0:0:
448,192,94532,1,2,0:0:0:0:
320,192,94699,1,0,0:0:0:0:
64,192,94699,1,2,0:0:0:0:
192,192,94866,1,0,0:0:0:0:
320,192,94866,1,8,0:0:0:0:
448,192,94866,1,0,0:0:0:0:
64,192,95032,1,0,0:0:0:0:
448,192,95032,1,8,0:0:0:0:
64,192,95199,1,4,0:0:0:0:
320,192,95199,1,2,0:0:0:0:
192,192,95199,1,0,0:0:0:0:
192,192,95366,1,0,0:0:0:0:
448,192,95366,1,2,0:0:0:0:
64,192,95532,1,0,0:0:0:0:
320,192,95532,1,0,0:0:0:0:
448,192,95532,1,8,0:0:0:0:
320,192,95699,1,0,0:0:0:0:
192,192,95699,1,2,0:0:0:0:
448,192,95866,1,0,0:0:0:0:
64,192,95866,1,2,0:0:0:0:
192,192,96032,1,0,0:0:0:0:
448,192,96032,1,2,0:0:0:0:
320,192,96199,1,0,0:0:0:0:
192,192,96199,1,0,0:0:0:0:
64,192,96199,1,8,0:0:0:0:
448,192,96366,128,0,96699:0:0:0:0:
320,192,96366,1,2,0:0:0:0:
64,192,96366,1,4,0:0:0:0:
320,192,96699,1,0,0:0:0:0:
192,192,96699,1,2,0:0:0:0:
192,192,96866,1,8,0:0:0:0:
64,192,96866,1,0,0:0:0:0:
448,192,96866,1,0,0:0:0:0:
320,192,97032,1,0,0:0:0:0:
64,192,97032,1,2,0:0:0:0:
192,192,97199,1,0,0:0:0:0:
320,192,97199,1,0,0:0:0:0:
448,192,97199,1,8,0:0:0:0:
448,192,97366,1,0,0:0:0:0:
64,192,97366,1,2,0:0:0:0:
192,192,97532,1,0,0:0:0:0:
64,192,97532,1,0,0:0:0:0:
320,192,97532,1,8,0:0:0:0:
448,192,97699,1,0,0:0:0:0:
320,192,97699,1,2,0:0:0:0:
448,192,97866,1,0,0:0:0:0:
192,192,97866,1,0,0:0:0:0:
64,192,97866,1,8,0:0:0:0:
320,192,98032,1,0,0:0:0:0:
192,192,98032,1,2,0:0:0:0:
448,192,98199,1,0,0:0:0:0:
320,192,98199,1,0,0:0:0:0:
64,192,98199,1,8,0:0:0:0:
192,192,98366,1,0,0:0:0:0:
64,192,98366,1,2,0:0:0:0:
320,192,98449,1,2,0:0:0:0:
448,192,98449,1,0,0:0:0:0:
64,192,98532,1,0,0:0:0:0:
192,192,98532,1,2,0:0:0:0:
320,192,98699,1,2,0:0:0:0:
448,192,98699,1,0,0:0:0:0:
320,192,98866,1,0,0:0:0:0:
192,192,98866,1,2,0:0:0:0:
192,192,99032,1,8,0:0:0:0:
64,192,99032,1,4,0:0:0:0:
448,192,99032,128,0,101532:0:0:0:0:
320,192,100116,128,0,100532:0:0:0:0:
64,192,100532,128,0,100866:0:0:0:0:
192,192,100866,1,0,0:0:0:0:
320,192,101032,128,0,101532:0:0:0:0:
64,192,101532,128,0,101699:0:0:0:0:
192,192,101699,128,0,101866:0:0:0:0:
64,192,101866,1,4,0:0:0:0:
320,192,101866,1,2,0:0:0:0:
448,192,101866,1,0,0:0:0:0:
192,192,102032,1,0,0:0:0:0:
320,192,102032,1,8,0:0:0:0:
64,192,102116,1,8,0:0:0:0:
448,192,102116,1,0,0:0:0:0:
320,192,102199,1,0,0:0:0:0:
192,192,102199,1,2,0:0:0:0:
192,192,102366,1,8,0:0:0:0:
448,192,102366,1,0,0:0:0:0:
320,192,102449,1,8,0:0:0:0:
64,192,102449,1,0,0:0:0:0:
192,192,102532,1,0,0:0:0:0:
448,192,102532,1,2,0:0:0:0:
64,192,102699,1,8,0:0:0:0:
448,192,102699,1,0,0:0:0:0:
320,192,102782,1,8,0:0:0:0:
192,192,102782,1,0,0:0:0:0:
64,192,102866,1,0,0:0:0:0:
448,192,102866,1,2,0:0:0:0:
320,192,103032,1,8,0:0:0:0:
64,192,103032,1,0,0:0:0:0:
192,192,103116,1,8,0:0:0:0:
448,192,103116,1,0,0:0:0:0:
320,192,103199,1,2,0:0:0:0:
64,192,103199,1,0,0:0:0:0:
320,192,103366,1,8,0:0:0:0:
448,192,103366,1,0,0:0:0:0:
192,192,103449,1,0,0:0:0:0:
64,192,103449,1,8,0:0:0:0:
448,192,103532,1,2,0:0:0:0:
320,192,103532,1,0,0:0:0:0:
192,192,103699,1,8,0:0:0:0:
64,192,103699,1,0,0:0:0:0:
320,192,103782,1,0,0:0:0:0:
448,192,103782,1,8,0:0:0:0:
192,192,103866,1,2,0:0:0:0:
64,192,103866,1,0,0:0:0:0:
64,192,104032,1,0,0:0:0:0:
448,192,104032,1,8,0:0:0:0:
320,192,104116,1,8,0:0:0:0:
192,192,104116,1,0,0:0:0:0:
448,192,104199,1,2,0:0:0:0:
64,192,104199,1,0,0:0:0:0:
320,192,104366,1,0,0:0:0:0:
192,192,104366,1,8,0:0:0:0:
64,192,104449,1,8,0:0:0:0:
320,192,104532,1,2,0:0:0:0:
192,192,104532,1,0,0:0:0:0:
448,192,104532,1,4,0:0:0:0:
192,192,104699,1,0,0:0:0:0:
64,192,104699,1,8,0:0:0:0:
320,192,104782,1,8,0:0:0:0:
448,192,104782,1,0,0:0:0:0:
64,192,104866,1,0,0:0:0:0:
192,192,104866,1,2,0:0:0:0:
448,192,105032,1,8,0:0:0:0:
64,192,105032,1,0,0:0:0:0:
192,192,105116,1,8,0:0:0:0:
320,192,105116,1,0,0:0:0:0:
448,192,105199,1,0,0:0:0:0:
64,192,105199,1,2,0:0:0:0:
320,192,105366,1,8,0:0:0:0:
192,192,105366,1,0,0:0:0:0:
64,192,105449,1,0,0:0:0:0:
448,192,105449,1,8,0:0:0:0:
192,192,105532,1,0,0:0:0:0:
320,192,105532,1,2,0:0:0:0:
320,192,105699,1,8,0:0:0:0:
448,192,105699,1,0,0:0:0:0:
192,192,105782,1,8,0:0:0:0:
64,192,105782,1,0,0:0:0:0:
448,192,105866,1,0,0:0:0:0:
320,192,105866,1,2,0:0:0:0:
192,192,106032,1,8,0:0:0:0:
64,192,106032,1,0,0:0:0:0:
448,192,106116,1,0,0:0:0:0:
320,192,106116,1,8,0:0:0:0:
64,192,106199,1,0,0:0:0:0:
192,192,106199,1,2,0:0:0:0:
448,192,106366,1,8,0:0:0:0:
64,192,106366,1,0,0:0:0:0:
320,192,106449,1,8,0:0:0:0:
192,192,106449,1,0,0:0:0:0:
448,192,106532,1,0,0:0:0:0:
64,192,106532,1,2,0:0:0:0:
192,192,106699,1,0,0:0:0:0:
448,192,106699,1,8,0:0:0:0:
320,192,106782,1,8,0:0:0:0:
64,192,106782,1,0,0:0:0:0:
192,192,106866,1,2,0:0:0:0:
448,192,106866,1,0,0:0:0:0:
64,192,107032,1,0,0:0:0:0:
320,192,107032,1,8,0:0:0:0:
448,192,107116,1,8,0:0:0:0:
320,192,107199,1,4,0:0:0:0:
192,192,107199,1,2,0:0:0:0:
64,192,107199,1,0,0:0:0:0:
448,192,107366,1,0,0:0:0:0:
320,192,107366,1,8,0:0:0:0:
192,192,107449,1,8,0:0:0:0:
64,192,107449,1,0,0:0:0:0:
320,192,107532,1,2,0:0:0:0:
448,192,107532,1,0,0:0:0:0:
64,192,107699,1,0,0:0:0:0:
448,192,107699,1,8,0:0:0:0:
320,192,107782,1,0,0:0:0:0:
192,192,107782,1,8,0:0:0:0:
64,192,107866,1,2,0:0:0:0:
448,192,107866,1,0,0:0:0:0:
320,192,108032,1,8,0:0:0:0:
192,192,108032,1,0,0:0:0:0:
64,192,108116,1,0,0:0:0:0:
448,192,108116,1,8,0:0:0:0:
320,192,108199,1,2,0:0:0:0:
192,192,108199,1,0,0:0:0:0:
448,192,108366,1,0,0:0:0:0:
192,192,108366,1,8,0:0:0:0:
320,192,108449,1,0,0:0:0:0:
64,192,108449,1,8,0:0:0:0:
192,192,108532,1,2,0:0:0:0:
448,192,108532,1,0,0:0:0:0:
448,192,108699,1,8,0:0:0:0:
64,192,108699,1,0,0:0:0:0:
192,192,108782,1,0,0:0:0:0:
320,192,108782,1,8,0:0:0:0:
448,192,108866,1,2,0:0:0:0:
64,192,108866,1,0,0:0:0:0:
320,192,109032,1,8,0:0:0:0:
64,192,109032,1,0,0:0:0:0:
192,192,109116,1,0,0:0:0:0:
448,192,109116,1,8,0:0:0:0:
64,192,109199,1,0,0:0:0:0:
320,192,109199,1,2,0:0:0:0:
448,192,109366,1,8,0:0:0:0:
192,192,109366,1,0,0:0:0:0:
320,192,109449,1,8,0:0:0:0:
64,192,109449,1,0,0:0:0:0:
192,192,109532,1,0,0:0:0:0:
448,192,109532,1,2,0:0:0:0:
64,192,109699,1,8,0:0:0:0:
320,192,109699,1,0,0:0:0:0:
192,192,109782,1,8,0:0:0:0:
64,192,109866,1,2,0:0:0:0:
320,192,109866,1,4,0:0:0:0:
448,192,109866,1,0,0:0:0:0:
64,192,110032,1,0,0:0:0:0:
192,192,110032,1,8,0:0:0:0:
320,192,110116,1,8,0:0:0:0:
448,192,110116,1,0,0:0:0:0:
192,192,110199,1,2,0:0:0:0:
64,192,110199,1,0,0:0:0:0:
448,192,110366,1,8,0:0:0:0:
320,192,110366,1,0,0:0:0:0:
192,192,110449,1,0,0:0:0:0:
64,192,110449,1,8,0:0:0:0:
320,192,110532,1,2,0:0:0:0:
448,192,110532,1,0,0:0:0:0:
64,192,110699,1,8,0:0:0:0:
448,192,110699,1,0,0:0:0:0:
320,192,110782,1,0,0:0:0:0:
192,192,110782,1,8,0:0:0:0:
64,192,110866,1,0,0:0:0:0:
448,192,110866,1,2,0:0:0:0:
320,192,111032,1,8,0:0:0:0:
192,192,111032,1,0,0:0:0:0:
64,192,111116,1,8,0:0:0:0:
320,192,111199,1,0,0:0:0:0:
192,192,111199,1,2,0:0:0:0:
448,192,111199,1,4,0:0:0:0:
64,192,111366,1,0,0:0:0:0:
192,192,111366,1,8,0:0:0:0:
320,192,111449,1,8,0:0:0:0:
448,192,111449,1,0,0:0:0:0:
192,192,111532,1,8,0:0:0:0:
64,192,111532,1,2,0:0:0:0:
320,192,111616,1,2,0:0:0:0:
448,192,111616,1,0,0:0:0:0:
64,192,111699,1,0,0:0:0:0:
192,192,111699,1,2,0:0:0:0:
320,192,111782,1,2,0:0:0:0:
448,192,111782,1,0,0:0:0:0:
192,192,111866,1,2,0:0:0:0:
64,192,111866,1,0,0:0:0:0:
448,192,111949,1,0,0:0:0:0:
320,192,111949,1,2,0:0:0:0:
192,192,112032,1,2,0:0:0:0:
64,192,112032,1,0,0:0:0:0:
320,192,112116,1,2,0:0:0:0:
448,192,112116,1,0,0:0:0:0:
192,192,112199,1,2,0:0:0:0:
64,192,112199,1,0,0:0:0:0:
448,192,112282,1,0,0:0:0:0:
320,192,112282,1,2,0:0:0:0:
192,192,112366,1,2,0:0:0:0:
64,192,112366,1,0,0:0:0:0:
320,192,112449,1,2,0:0:0:0:
448,192,112532,1,2,0:0:0:0:
192,192,112532,1,4,0:0:0:0:
64,192,112532,1,0,0:0:0:0:
320,192,112699,1,0,0:0:0:0:
448,192,112866,1,0,0:0:0:0:
320,192,112866,1,0,0:0:0:0:
192,192,112866,1,8,0:0:0:0:
64,192,113032,1,0,0:0:0:0:
448,192,113116,1,0,0:0:0:0:
192,192,113116,1,8,0:0:0:0:
320,192,113199,1,0,0:0:0:0:
64,192,113199,1,2,0:0:0:0:
192,192,113366,1,0,0:0:0:0:
448,192,113366,1,2,0:0:0:0:
320,192,113532,1,0,0:0:0:0:
192,192,113532,1,0,0:0:0:0:
64,192,113532,1,8,0:0:0:0:
448,192,113699,1,0,0:0:0:0:
64,192,113866,1,0,0:0:0:0:
192,192,113866,1,2,0:0:0:0:
64,192,114032,1,0,0:0:0:0:
448,192,114032,1,2,0:0:0:0:
448,192,114199,1,0,0:0:0:0:
192,192,114199,1,0,0:0:0:0:
320,192,114199,1,8,0:0:0:0:
64,192,114366,1,0,0:0:0:0:
192,192,114449,1,0,0:0:0:0:
320,192,114449,1,8,0:0:0:0:
448,192,114532,1,0,0:0:0:0:
64,192,114532,1,2,0:0:0:0:
192,192,114699,1,0,0:0:0:0:
320,192,114699,1,2,0:0:0:0:
64,192,114866,1,0,0:0:0:0:
192,192,114866,1,0,0:0:0:0:
448,192,114866,1,8,0:0:0:0:
320,192,115032,1,8,0:0:0:0:
448,192,115032,1,0,0:0:0:0:
192,192,115116,1,8,0:0:0:0:
64,192,115116,1,0,0:0:0:0:
320,192,115199,1,4,0:0:0:0:
448,192,115199,128,2,117866:0:0:0:0:
64,192,116199,1,0,0:0:0:60:A6.wav
320,192,116366,1,0,0:0:0:60:G6#.wav
192,192,116532,1,0,0:0:0:60:F6#.wav
64,192,116532,1,0,0:0:0:60:C6#.wav
192,192,117032,1,0,0:0:0:0:
320,192,117116,1,0,0:0:0:0:
64,192,117199,1,0,0:0:0:60:E6.wav
320,192,117366,1,0,0:0:0:0:
192,192,117532,1,0,0:0:0:0:
320,192,117866,5,0,0:0:0:60:B6.wav
64,192,117866,1,6,0:0:0:0:
192,192,117866,1,0,0:0:0:65:G4#.wav
192,192,118032,1,0,0:0:0:60:E6.wav
448,192,118199,1,2,0:0:0:0:
64,192,118199,1,0,0:0:0:60:F6#.wav
320,192,118366,1,0,0:0:0:60:G6#.wav
448,192,118532,5,0,0:0:0:60:B6.wav
64,192,118532,1,2,0:0:0:0:
192,192,118699,1,0,0:0:0:60:E6.wav
320,192,118866,1,0,0:0:0:60:F6#.wav
448,192,118866,1,2,0:0:0:0:
64,192,119032,1,0,0:0:0:60:G6#.wav
192,192,119032,1,0,0:0:0:0:
192,192,119199,5,0,0:0:0:60:B6.wav
320,192,119199,1,2,0:0:0:0:
64,192,119366,1,0,0:0:0:60:E6.wav
320,192,119366,1,0,0:0:0:0:
192,192,119532,1,0,0:0:0:60:F6#.wav
448,192,119532,1,2,0:0:0:0:
64,192,119699,1,0,0:0:0:60:G6#.wav
448,192,119866,5,0,0:0:0:60:B6.wav
192,192,119866,1,2,0:0:0:0:
320,192,120032,1,0,0:0:0:60:E6.wav
64,192,120199,1,0,0:0:0:60:F6#.wav
320,192,120199,1,2,0:0:0:0:
192,192,120366,1,0,0:0:0:60:G6#.wav
448,192,120532,5,0,0:0:0:60:B6.wav
64,192,120532,1,0,0:0:0:65:A4.wav
192,192,120532,1,2,0:0:0:0:
320,192,120699,1,0,0:0:0:60:E6.wav
448,192,120866,1,0,0:0:0:60:F6#.wav
64,192,120866,1,2,0:0:0:0:
192,192,121032,1,0,0:0:0:60:G6#.wav
64,192,121199,5,0,0:0:0:60:B6.wav
320,192,121199,1,2,0:0:0:0:
448,192,121366,1,0,0:0:0:60:E6.wav
320,192,121532,1,0,0:0:0:60:F6#.wav
192,192,121532,1,2,0:0:0:0:
64,192,121699,1,0,0:0:0:60:G6#.wav
192,192,121699,1,0,0:0:0:0:
320,192,121866,5,0,0:0:0:60:B6.wav
448,192,121866,1,2,0:0:0:0:
192,192,122032,1,0,0:0:0:60:E6.wav
64,192,122032,1,0,0:0:0:0:
64,192,122199,1,0,0:0:0:60:F6#.wav
320,192,122199,1,2,0:0:0:0:
192,192,122366,1,0,0:0:0:60:G6#.wav
448,192,122532,5,0,0:0:0:60:B6.wav
64,192,122532,1,2,0:0:0:0:
320,192,122699,1,0,0:0:0:60:E6.wav
448,192,122782,1,0,0:0:0:0:
192,192,122866,1,0,0:0:0:60:F6#.wav
64,192,122866,1,2,0:0:0:0:
448,192,123032,1,0,0:0:0:60:G6#.wav
64,192,123199,5,0,0:0:0:60:B6.wav
192,192,123199,1,2,0:0:0:0:
320,192,123199,1,0,0:0:0:65:B4.wav
448,192,123366,1,0,0:0:0:60:E6.wav
320,192,123532,1,0,0:0:0:60:F6#.wav
64,192,123532,1,2,0:0:0:0:
192,192,123699,1,0,0:0:0:60:G6#.wav
448,192,123866,5,0,0:0:0:60:B6.wav
64,192,123866,1,2,0:0:0:0:
320,192,124032,1,0,0:0:0:60:E6.wav
64,192,124199,1,0,0:0:0:60:F6#.wav
192,192,124199,1,2,0:0:0:0:
448,192,124366,1,0,0:0:0:60:G6#.wav
64,192,124366,1,0,0:0:0:0:
192,192,124532,5,0,0:0:0:60:B6.wav
448,192,124532,1,2,0:0:0:0:
320,192,124699,1,0,0:0:0:60:E6.wav
192,192,124699,1,0,0:0:0:0:
64,192,124866,1,0,0:0:0:60:F6#.wav
320,192,124866,1,2,0:0:0:0:
192,192,125032,1,0,0:0:0:60:G6#.wav
64,192,125199,5,0,0:0:0:60:B6.wav
448,192,125199,1,2,0:0:0:0:
192,192,125282,1,0,0:0:0:0:
320,192,125366,1,0,0:0:0:60:E6.wav
448,192,125449,1,0,0:0:0:0:
192,192,125532,1,0,0:0:0:60:F6#.wav
64,192,125532,1,2,0:0:0:0:
448,192,125699,1,0,0:0:0:60:G6#.wav
64,192,125866,5,0,0:0:0:60:B6.wav
192,192,125866,1,2,0:0:0:0:
320,192,125866,1,0,0:0:0:65:C5#.wav
448,192,126032,1,0,0:0:0:60:E6.wav
64,192,126199,1,0,0:0:0:60:F6#.wav
320,192,126199,1,2,0:0:0:0:
192,192,126366,1,0,0:0:0:60:G6#.wav
64,192,126532,5,0,0:0:0:60:B6.wav
320,192,126532,1,2,0:0:0:0:
192,192,126699,1,0,0:0:0:60:E6.wav
448,192,126699,1,0,0:0:0:0:
320,192,126866,1,0,0:0:0:60:F6#.wav
448,192,126866,1,2,0:0:0:0:
64,192,127032,1,0,0:0:0:60:G6#.wav
192,192,127032,1,0,0:0:0:0:
448,192,127199,5,0,0:0:0:60:B6.wav
320,192,127199,1,2,0:0:0:0:
192,192,127282,1,0,0:0:0:0:
64,192,127366,1,0,0:0:0:60:E6.wav
320,192,127449,1,0,0:0:0:0:
192,192,127532,1,0,0:0:0:60:F6#.wav
448,192,127532,1,2,0:0:0:0:
320,192,127699,1,0,0:0:0:60:G6#.wav
64,192,127866,5,0,0:0:0:60:B6.wav
448,192,127866,1,2,0:0:0:0:
192,192,128032,1,0,0:0:0:60:E7.wav
320,192,128199,1,0,0:0:0:60:D7#.wav
448,192,128366,1,0,0:0:0:60:E6.wav
192,192,128532,1,2,0:0:0:0:
64,192,128532,1,4,0:0:0:0:
320,192,128532,1,0,0:0:0:0:
320,192,128699,1,0,0:0:0:0:
448,192,128866,1,0,0:0:0:0:
64,192,128866,1,0,0:0:0:0:
192,192,128866,1,8,0:0:0:0:
448,192,129032,1,0,0:0:0:0:
192,192,129199,1,0,0:0:0:0:
64,192,129199,1,2,0:0:0:0:
448,192,129366,1,0,0:0:0:0:
320,192,129532,1,8,0:0:0:0:
192,192,129532,1,0,0:0:0:0:
64,192,129532,1,0,0:0:0:0:
64,192,129699,1,0,0:0:0:0:
192,192,129866,1,0,0:0:0:0:
448,192,129866,1,2,0:0:0:0:
192,192,130032,1,0,0:0:0:0:
320,192,130199,1,0,0:0:0:0:
64,192,130199,1,0,0:0:0:0:
448,192,130199,1,8,0:0:0:0:
192,192,130366,1,0,0:0:0:0:
448,192,130532,1,0,0:0:0:0:
320,192,130532,1,2,0:0:0:0:
448,192,130699,1,0,0:0:0:0:
192,192,130866,1,0,0:0:0:0:
64,192,130866,1,8,0:0:0:0:
320,192,130866,1,0,0:0:0:0:
448,192,131032,1,0,0:0:0:0:
64,192,131199,1,0,0:0:0:0:
320,192,131199,1,2,0:0:0:0:
320,192,131366,1,0,0:0:0:0:
448,192,131532,1,0,0:0:0:0:
192,192,131532,1,8,0:0:0:0:
64,192,131532,1,0,0:0:0:0:
448,192,131699,1,0,0:0:0:0:
320,192,131866,1,0,0:0:0:0:
64,192,131866,1,2,0:0:0:0:
192,192,132032,1,0,0:0:0:0:
320,192,132199,1,8,0:0:0:0:
448,192,132199,1,0,0:0:0:0:
64,192,132199,1,0,0:0:0:0:
64,192,132366,1,0,0:0:0:0:
320,192,132532,1,2,0:0:0:0:
192,192,132532,1,0,0:0:0:0:
192,192,132699,1,0,0:0:0:0:
448,192,132866,1,0,0:0:0:0:
320,192,132866,1,0,0:0:0:0:
64,192,132866,1,8,0:0:0:0:
192,192,133032,1,0,0:0:0:0:
64,192,133199,1,0,0:0:0:0:
448,192,133199,1,2,0:0:0:0:
320,192,133366,1,0,0:0:0:0:
192,192,133366,1,8,0:0:0:0:
448,192,133366,1,0,0:0:0:0:
64,192,133532,1,0,0:0:0:0:
320,192,133532,1,2,0:0:0:0:
64,192,133699,1,0,0:0:0:0:
192,192,133699,1,0,0:0:0:0:
448,192,133699,1,8,0:0:0:0:
320,192,133866,1,2,0:0:0:0:
192,192,133866,1,4,0:0:0:0:
448,192,133866,1,0,0:0:0:0:
320,192,134032,1,0,0:0:0:0:
448,192,134199,1,0,0:0:0:0:
192,192,134199,1,0,0:0:0:0:
64,192,134199,1,8,0:0:0:0:
448,192,134366,1,0,0:0:0:0:
64,192,134532,1,0,0:0:0:0:
320,192,134532,1,2,0:0:0:0:
192,192,134699,1,0,0:0:0:0:
64,192,134866,1,0,0:0:0:0:
320,192,134866,1,0,0:0:0:0:
448,192,134866,1,8,0:0:0:0:
64,192,135032,1,0,0:0:0:0:
320,192,135199,1,2,0:0:0:0:
192,192,135199,1,0,0:0:0:0:
192,192,135366,1,0,0:0:0:0:
320,192,135532,1,0,0:0:0:0:
64,192,135532,1,0,0:0:0:0:
448,192,135532,1,8,0:0:0:0:
192,192,135699,1,0,0:0:0:0:
320,192,135866,1,0,0:0:0:0:
64,192,135866,1,2,0:0:0:0:
320,192,136032,1,0,0:0:0:0:
64,192,136199,1,0,0:0:0:0:
192,192,136199,1,0,0:0:0:0:
448,192,136199,1,8,0:0:0:0:
320,192,136366,1,0,0:0:0:0:
64,192,136532,1,0,0:0:0:0:
320,192,136532,1,2,0:0:0:0:
448,192,136532,1,4,0:0:0:0:
64,192,136699,1,0,0:0:0:0:
192,192,136866,1,0,0:0:0:0:
448,192,136866,1,0,0:0:0:0:
320,192,136866,1,8,0:0:0:0:
448,192,137032,1,0,0:0:0:0:
64,192,137199,1,0,0:0:0:0:
320,192,137199,1,2,0:0:0:0:
192,192,137366,1,8,0:0:0:0:
448,192,137366,1,0,0:0:0:0:
320,192,137366,1,0,0:0:0:0:
64,192,137532,1,0,0:0:0:0:
448,192,137532,1,2,0:0:0:0:
320,192,137699,1,0,0:0:0:0:
192,192,137699,1,2,0:0:0:0:
64,192,137866,1,0,0:0:0:0:
448,192,137866,1,8,0:0:0:0:
320,192,137866,1,4,0:0:0:0:
192,192,138032,1,0,0:0:0:0:
448,192,138032,1,2,0:0:0:0:
192,192,138199,1,0,0:0:0:0:
320,192,138199,1,2,0:0:0:0:
448,192,138366,1,0,0:0:0:0:
64,192,138366,1,2,0:0:0:0:
448,192,138532,1,0,0:0:0:0:
192,192,138532,1,2,0:0:0:0:
320,192,138699,1,0,0:0:0:0:
64,192,138699,1,2,0:0:0:0:
192,192,138866,1,0,0:0:0:0:
448,192,138866,1,0,0:0:0:0:
320,192,138866,1,8,0:0:0:0:
192,192,139032,1,0,0:0:0:0:
64,192,139032,1,2,0:0:0:0:
320,192,139199,1,2,0:0:0:0:
64,192,139199,1,4,0:0:0:0:
448,192,139199,128,0,140032:0:0:0:0:
192,192,139532,1,0,0:0:0:0:
320,192,139532,1,2,0:0:0:0:
64,192,139866,1,0,0:0:0:0:
192,192,139866,1,0,0:0:0:0:
320,192,139866,1,8,0:0:0:0:
192,192,140199,1,0,0:0:0:0:
64,192,140199,1,2,0:0:0:0:
320,192,140366,1,2,0:0:0:0:
192,192,140366,128,0,140866:0:0:0:0:
64,192,140532,1,0,0:0:0:0:
448,192,140532,1,2,0:0:0:0:
64,192,140699,1,0,0:0:0:0:
320,192,140699,1,2,0:0:0:0:
320,192,140866,1,2,0:0:0:0:
448,192,140866,128,0,141199:0:0:0:0:
64,192,141199,1,8,0:0:0:0:
320,192,141199,1,0,0:0:0:0:
192,192,141199,128,0,141532:0:0:0:0:
448,192,141532,1,2,0:0:0:0:
64,192,141532,128,0,142532:0:0:0:0:
192,192,141866,1,0,0:0:0:0:
320,192,141866,1,2,0:0:0:0:
320,192,142199,1,0,0:0:0:0:
448,192,142199,1,2,0:0:0:0:
192,192,142532,1,0,0:0:0:0:
448,192,142532,1,8,0:0:0:0:
320,192,142532,128,0,142866:0:0:0:0:
448,192,142866,1,2,0:0:0:0:
192,192,142866,128,0,143866:0:0:0:0:
64,192,143032,1,2,0:0:0:0:
320,192,143032,1,0,0:0:0:0:
448,192,143199,1,2,0:0:0:0:
64,192,143199,1,0,0:0:0:0:
320,192,143366,1,2,0:0:0:0:
448,192,143366,1,0,0:0:0:0:
320,192,143532,1,0,0:0:0:0:
64,192,143532,1,2,0:0:0:0:
448,192,143866,1,8,0:0:0:0:
320,192,143866,128,0,144199:0:0:0:0:
64,192,144032,1,0,0:0:0:0:
192,192,144032,1,8,0:0:0:0:
64,192,144199,1,2,0:0:0:0:
448,192,144199,128,0,145199:0:0:0:0:
192,192,144366,1,2,0:0:0:0:
320,192,144366,1,0,0:0:0:0:
64,192,144532,1,0,0:0:0:0:
320,192,144532,1,4,0:0:0:0:
192,192,144532,1,2,0:0:0:0:
64,192,144866,1,0,0:0:0:0:
320,192,144866,1,2,0:0:0:0:
320,192,145199,1,0,0:0:0:0:
192,192,145199,1,8,0:0:0:0:
64,192,145199,1,0,0:0:0:0:
448,192,145532,1,0,0:0:0:0:
64,192,145532,1,2,0:0:0:0:
320,192,145699,1,2,0:0:0:0:
192,192,145699,128,0,146199:0:0:0:0:
448,192,145866,1,2,0:0:0:0:
64,192,145866,1,0,0:0:0:0:
320,192,146032,1,0,0:0:0:0:
448,192,146032,1,2,0:0:0:0:
64,192,146199,1,2,0:0:0:0:
320,192,146199,1,0,0:0:0:0:
448,192,146366,128,0,146866:0:0:0:0:
192,192,146532,1,8,0:0:0:0:
64,192,146532,1,0,0:0:0:0:
320,192,146532,1,0,0:0:0:0:
64,192,146866,1,2,0:0:0:0:
320,192,146866,1,0,0:0:0:0:
192,192,147032,128,0,147866:0:0:0:0:
320,192,147199,1,0,0:0:0:0:
448,192,147199,1,2,0:0:0:0:
320,192,147532,1,0,0:0:0:0:
448,192,147532,1,2,0:0:0:0:
448,192,147866,1,8,0:0:0:0:
320,192,147866,1,0,0:0:0:0:
64,192,147866,128,0,148532:0:0:0:0:
448,192,148199,1,0,0:0:0:0:
192,192,148199,1,2,0:0:0:0:
320,192,148366,1,2,0:0:0:0:
192,192,148366,1,0,0:0:0:0:
448,192,148532,1,2,0:0:0:0:
320,192,148532,128,0,149199:0:0:0:0:
448,192,148699,1,0,0:0:0:0:
192,192,148699,1,2,0:0:0:0:
64,192,148866,1,0,0:0:0:0:
192,192,148866,1,2,0:0:0:0:
64,192,149032,1,0,0:0:0:0:
448,192,149032,1,2,0:0:0:0:
192,192,149199,1,2,0:0:0:0:
448,192,149199,128,0,149866:0:0:0:0:
320,192,149366,1,0,0:0:0:0:
64,192,149366,1,2,0:0:0:0:
320,192,149532,1,0,0:0:0:0:
192,192,149532,1,0,0:0:0:0:
64,192,149532,1,8,0:0:0:0:
192,192,149866,1,2,0:0:0:0:
64,192,149866,1,4,0:0:0:0:
320,192,149866,128,0,150699:0:0:0:0:
64,192,150199,1,0,0:0:0:0:
448,192,150199,1,2,0:0:0:0:
448,192,150532,1,0,0:0:0:0:
192,192,150532,1,8,0:0:0:0:
64,192,150532,1,0,0:0:0:0:
64,192,150866,1,0,0:0:0:0:
192,192,150866,1,2,0:0:0:0:
320,192,151032,1,2,0:0:0:0:
448,192,151032,128,0,151532:0:0:0:0:
192,192,151199,1,2,0:0:0:0:
64,192,151199,1,0,0:0:0:0:
192,192,151366,1,0,0:0:0:0:
320,192,151366,1,2,0:0:0:0:
64,192,151532,1,2,0:0:0:0:
320,192,151532,128,0,151866:0:0:0:0:
64,192,151866,1,0,0:0:0:0:
448,192,151866,1,8,0:0:0:0:
192,192,151866,128,0,152199:0:0:0:0:
448,192,152199,1,2,0:0:0:0:
320,192,152199,128,0,152866:0:0:0:0:
64,192,152532,1,0,0:0:0:0:
192,192,152532,1,2,0:0:0:0:
64,192,152866,1,0,0:0:0:0:
448,192,152866,1,2,0:0:0:0:
192,192,153199,1,8,0:0:0:0:
320,192,153199,1,0,0:0:0:0:
448,192,153199,128,0,153532:0:0:0:0:
192,192,153532,1,2,0:0:0:0:
64,192,153532,128,0,154366:0:0:0:0:
320,192,153699,1,2,0:0:0:0:
448,192,153699,1,0,0:0:0:0:
320,192,153866,1,2,0:0:0:0:
192,192,153866,1,0,0:0:0:0:
448,192,154032,1,2,0:0:0:0:
192,192,154032,1,0,0:0:0:0:
320,192,154199,1,0,0:0:0:0:
448,192,154199,1,2,0:0:0:0:
320,192,154366,1,2,0:0:0:0:
192,192,154366,1,0,0:0:0:0:
448,192,154532,1,8,0:0:0:0:
192,192,154532,128,0,154866:0:0:0:0:
64,192,154532,1,0,0:0:0:0:
320,192,154699,1,2,0:0:0:0:
448,192,154699,1,0,0:0:0:0:
448,192,154866,1,0,0:0:0:0:
64,192,154866,1,8,0:0:0:0:
320,192,154866,128,0,155199:0:0:0:0:
192,192,155199,1,2,0:0:0:0:
64,192,155199,1,0,0:0:0:0:
448,192,155199,1,4,0:0:0:0:
448,192,155366,1,0,0:0:0:0:
320,192,155532,1,0,0:0:0:0:
192,192,155532,1,8,0:0:0:0:
64,192,155532,1,0,0:0:0:0:
448,192,155699,1,0,0:0:0:0:
64,192,155866,1,0,0:0:0:0:
192,192,155866,1,0,0:0:0:0:
192,192,156032,1,0,0:0:0:0:
320,192,156199,1,0,0:0:0:0:
448,192,156199,1,8,0:0:0:0:
64,192,156199,1,0,0:0:0:0:
192,192,156366,1,0,0:0:0:0:
448,192,156532,1,0,0:0:0:0:
320,192,156532,1,2,0:0:0:0:
192,192,156699,1,0,0:0:0:0:
192,192,156866,1,0,0:0:0:0:
448,192,156866,1,0,0:0:0:0:
64,192,156866,1,8,0:0:0:0:
320,192,157032,1,0,0:0:0:0:
448,192,157199,1,0,0:0:0:0:
64,192,157199,1,2,0:0:0:0:
448,192,157366,1,0,0:0:0:0:
64,192,157532,1,0,0:0:0:0:
192,192,157532,1,0,0:0:0:0:
320,192,157532,1,8,0:0:0:0:
448,192,157699,1,0,0:0:0:0:
320,192,157866,1,0,0:0:0:0:
64,192,157866,1,2,0:0:0:0:
192,192,157866,1,4,0:0:0:0:
64,192,158032,1,0,0:0:0:0:
320,192,158199,1,0,0:0:0:0:
448,192,158199,1,0,0:0:0:0:
192,192,158199,1,8,0:0:0:0:
64,192,158366,1,0,0:0:0:0:
448,192,158532,1,0,0:0:0:0:
320,192,158532,1,2,0:0:0:0:
320,192,158699,1,0,0:0:0:0:
64,192,158866,1,0,0:0:0:0:
448,192,158866,1,0,0:0:0:0:
192,192,158866,1,8,0:0:0:0:
320,192,159032,1,0,0:0:0:0:
192,192,159199,1,0,0:0:0:0:
448,192,159199,1,2,0:0:0:0:
64,192,159366,1,0,0:0:0:0:
64,192,159532,1,0,0:0:0:0:
320,192,159532,1,0,0:0:0:0:
448,192,159532,1,8,0:0:0:0:
192,192,159699,1,0,0:0:0:0:
64,192,159866,1,0,0:0:0:0:
448,192,159866,1,0,0:0:0:0:
320,192,159866,1,8,0:0:0:0:
192,192,160032,1,0,0:0:0:0:
320,192,160032,1,2,0:0:0:0:
192,192,160199,1,0,0:0:0:0:
64,192,160199,1,0,0:0:0:0:
448,192,160199,1,8,0:0:0:0:
320,192,160366,1,2,0:0:0:0:
448,192,160366,1,4,0:0:0:0:
64,192,160366,128,0,160699:0:0:0:0:
320,192,160699,1,2,0:0:0:0:
448,192,160866,1,0,0:0:0:0:
192,192,160866,1,8,0:0:0:0:
64,192,160866,1,0,0:0:0:0:
448,192,161032,1,2,0:0:0:0:
320,192,161199,1,0,0:0:0:0:
192,192,161199,1,0,0:0:0:0:
64,192,161199,1,8,0:0:0:0:
64,192,161366,1,2,0:0:0:0:
320,192,161532,1,0,0:0:0:0:
192,192,161532,1,0,0:0:0:0:
448,192,161532,1,8,0:0:0:0:
64,192,161699,1,2,0:0:0:0:
320,192,161782,1,2,0:0:0:0:
192,192,161866,1,8,0:0:0:0:
448,192,161866,1,0,0:0:0:0:
64,192,161866,1,0,0:0:0:0:
448,192,162032,1,2,0:0:0:0:
64,192,162199,1,0,0:0:0:0:
192,192,162199,1,8,0:0:0:0:
320,192,162199,1,0,0:0:0:0:
192,192,162366,1,2,0:0:0:0:
320,192,162532,1,0,0:0:0:0:
448,192,162532,1,0,0:0:0:0:
64,192,162532,1,8,0:0:0:0:
192,192,162699,1,8,0:0:0:0:
64,192,162699,1,0,0:0:0:0:
320,192,162782,1,8,0:0:0:0:
448,192,162782,1,0,0:0:0:0:
192,192,162866,1,8,0:0:0:0:
64,192,162866,1,0,0:0:0:0:
320,192,162949,1,8,0:0:0:0:
448,192,162949,1,0,0:0:0:0:
192,192,163032,1,8,0:0:0:0:
64,192,163032,1,0,0:0:0:0:
448,192,163116,1,0,0:0:0:0:
320,192,163116,1,8,0:0:0:0:
64,192,163199,1,4,0:0:0:0:
192,192,163199,128,2,164532:0:0:0:0:
320,192,163866,128,0,164532:0:0:0:0:
448,192,164532,1,0,0:0:0:0:
64,192,164699,1,0,0:0:0:0:
320,192,164699,1,2,0:0:0:0:
448,192,164866,1,0,0:0:0:0:
192,192,164866,1,4,0:0:0:0:
64,192,164866,1,8,0:0:0:0:
192,192,165032,1,0,0:0:0:0:
320,192,165032,1,2,0:0:0:0:
64,192,165199,1,4,0:0:0:0:
448,192,165199,1,0,0:0:0:0:
320,192,165199,1,8,0:0:0:0:
192,192,165366,1,2,0:0:0:0:
64,192,165366,1,8,0:0:0:0:
448,192,165449,1,0,0:0:0:0:
320,192,165449,1,8,0:0:0:0:
64,192,165532,1,8,0:0:0:0:
192,192,165532,1,0,0:0:0:0:
448,192,165616,1,8,0:0:0:0:
320,192,165616,1,0,0:0:0:0:
64,192,165699,1,0,0:0:0:0:
192,192,165699,1,8,0:0:0:0:
448,192,165782,1,8,0:0:0:0:
320,192,165782,1,0,0:0:0:0:
192,192,165866,1,2,0:0:0:0:
64,192,165866,1,4,0:0:0:0:
64,192,166032,1,0,0:0:0:0:
448,192,166032,1,2,0:0:0:0:
320,192,166199,1,0,0:0:0:0:
192,192,166199,1,2,0:0:0:0:
64,192,166366,1,0,0:0:0:0:
320,192,166366,1,4,0:0:0:0:
192,192,166366,1,0,0:0:0:0:
448,192,166366,1,8,0:0:0:0:
64,192,166532,1,2,0:0:0:0:
192,192,166532,1,0,0:0:0:0:
320,192,166699,1,0,0:0:0:0:
448,192,166699,1,2,0:0:0:0:
64,192,166866,1,8,0:0:0:0:
192,192,166866,1,0,0:0:0:0:
320,192,166866,1,4,0:0:0:0:
448,192,166866,1,0,0:0:0:0:
192,192,167032,1,2,0:0:0:0:
320,192,167032,1,0,0:0:0:0:
448,192,167199,1,0,0:0:0:0:
64,192,167199,1,2,0:0:0:0:
64,192,167366,1,0,0:0:0:0:
192,192,167366,1,4,0:0:0:0:
448,192,167366,1,0,0:0:0:0:
320,192,167366,1,8,0:0:0:0:
320,192,167532,1,2,0:0:0:0:
448,192,167532,1,0,0:0:0:0:
192,192,167699,1,2,0:0:0:0:
64,192,167699,1,0,0:0:0:0:
64,192,167866,1,8,0:0:0:0:
192,192,167866,1,4,0:0:0:0:
320,192,167866,1,0,0:0:0:0:
448,192,167866,1,0,0:0:0:0:
448,192,168032,1,2,0:0:0:0:
448,192,168199,1,0,0:0:0:0:
320,192,168199,1,8,0:0:0:0:
192,192,168199,1,4,0:0:0:0:
64,192,168199,1,0,0:0:0:0:
64,192,168366,1,2,0:0:0:0:
64,192,168532,1,0,0:0:0:0:
192,192,168532,1,0,0:0:0:0:
320,192,168532,1,8,0:0:0:0:
448,192,168532,1,4,0:0:0:0:
192,192,168699,1,2,0:0:0:0:
448,192,168699,1,0,0:0:0:0:
320,192,168866,1,0,0:0:0:0:
64,192,168866,1,2,0:0:0:0:
64,192,169032,1,0,0:0:0:0:
192,192,169032,1,8,0:0:0:0:
320,192,169032,1,4,0:0:0:0:
448,192,169032,1,0,0:0:0:0:
192,192,169199,1,2,0:0:0:0:
320,192,169199,1,0,0:0:0:0:
448,192,169366,1,0,0:0:0:0:
64,192,169366,1,2,0:0:0:0:
448,192,169532,1,8,0:0:0:0:
320,192,169532,1,0,0:0:0:0:
192,192,169532,1,0,0:0:0:0:
64,192,169532,1,4,0:0:0:0:
320,192,169699,1,0,0:0:0:0:
448,192,169699,1,2,0:0:0:0:
192,192,169866,1,2,0:0:0:0:
64,192,169866,1,0,0:0:0:0:
64,192,170032,1,0,0:0:0:0:
192,192,170032,1,8,0:0:0:0:
320,192,170032,1,4,0:0:0:0:
448,192,170032,1,0,0:0:0:0:
320,192,170199,1,2,0:0:0:0:
192,192,170199,1,0,0:0:0:0:
64,192,170366,1,2,0:0:0:0:
448,192,170366,1,0,0:0:0:0:
448,192,170532,1,0,0:0:0:0:
320,192,170532,1,8,0:0:0:0:
192,192,170532,1,0,0:0:0:0:
64,192,170532,1,4,0:0:0:0:
320,192,170699,1,2,0:0:0:0:
64,192,170866,1,0,0:0:0:0:
192,192,170866,1,4,0:0:0:0:
448,192,170866,1,0,0:0:0:0:
320,192,170866,1,8,0:0:0:0:
64,192,171032,1,2,0:0:0:0:
64,192,171199,1,0,0:0:0:0:
192,192,171199,1,8,0:0:0:0:
320,192,171199,1,0,0:0:0:0:
448,192,171199,1,4,0:0:0:0:
320,192,171366,1,0,0:0:0:0:
192,192,171366,1,2,0:0:0:0:
64,192,171532,1,0,0:0:0:0:
448,192,171532,1,2,0:0:0:0:
192,192,171699,1,0,0:0:0:0:
64,192,171699,1,8,0:0:0:0:
320,192,171699,1,4,0:0:0:0:
448,192,171699,1,0,0:0:0:0:
192,192,171866,1,0,0:0:0:0:
448,192,171866,1,2,0:0:0:0:
320,192,172032,1,0,0:0:0:0:
64,192,172032,1,2,0:0:0:0:
448,192,172199,1,8,0:0:0:0:
320,192,172199,1,0,0:0:0:0:
192,192,172199,1,0,0:0:0:0:
64,192,172199,1,4,0:0:0:0:
64,192,172366,1,2,0:0:0:0:
448,192,172366,1,0,0:0:0:0:
320,192,172532,1,0,0:0:0:0:
192,192,172532,1,2,0:0:0:0:
64,192,172699,1,0,0:0:0:0:
192,192,172699,1,0,0:0:0:0:
320,192,172699,1,4,0:0:0:0:
448,192,172699,1,8,0:0:0:0:
192,192,172866,1,2,0:0:0:0:
64,192,172866,1,0,0:0:0:0:
448,192,173032,1,0,0:0:0:0:
320,192,173032,1,2,0:0:0:0:
448,192,173199,1,8,0:0:0:0:
320,192,173199,1,0,0:0:0:0:
192,192,173199,1,4,0:0:0:0:
64,192,173199,1,0,0:0:0:0:
64,192,173366,1,2,0:0:0:0:
192,192,173366,1,0,0:0:0:0:
64,192,173532,1,8,0:0:0:0:
192,192,173532,1,0,0:0:0:0:
320,192,173532,1,4,0:0:0:0:
448,192,173532,1,0,0:0:0:0:
448,192,173699,1,0,0:0:0:0:
320,192,173699,1,2,0:0:0:0:
192,192,173782,1,2,0:0:0:0:
448,192,173866,1,0,0:0:0:0:
320,192,173866,1,4,0:0:0:0:
64,192,173866,1,8,0:0:0:0:
192,192,174032,1,2,0:0:0:0:
64,192,174032,1,0,0:0:0:0:
448,192,174199,1,0,0:0:0:0:
320,192,174199,1,2,0:0:0:0:
448,192,174366,1,8,0:0:0:0:
320,192,174366,1,0,0:0:0:0:
192,192,174366,1,0,0:0:0:0:
64,192,174366,1,4,0:0:0:0:
448,192,174532,1,0,0:0:0:0:
64,192,174532,1,2,0:0:0:0:
192,192,174699,1,0,0:0:0:0:
320,192,174699,1,2,0:0:0:0:
64,192,174866,1,0,0:0:0:0:
192,192,174866,1,0,0:0:0:0:
320,192,174866,1,4,0:0:0:0:
448,192,174866,1,8,0:0:0:0:
64,192,175032,1,0,0:0:0:0:
320,192,175032,1,2,0:0:0:0:
192,192,175199,1,0,0:0:0:0:
448,192,175199,1,2,0:0:0:0:
448,192,175366,1,0,0:0:0:0:
320,192,175366,1,0,0:0:0:0:
192,192,175366,1,4,0:0:0:0:
64,192,175366,1,8,0:0:0:0:
320,192,175532,1,0,0:0:0:0:
192,192,175532,1,2,0:0:0:0:
64,192,175699,1,0,0:0:0:0:
448,192,175699,1,2,0:0:0:0:
64,192,175866,1,4,0:0:0:0:
192,192,175866,1,0,0:0:0:0:
320,192,175866,1,0,0:0:0:0:
448,192,175866,1,8,0:0:0:0:
320,192,176032,1,8,0:0:0:0:
192,192,176032,1,0,0:0:0:0:
64,192,176116,1,8,0:0:0:0:
192,192,176199,1,0,0:0:0:0:
320,192,176199,1,2,0:0:0:0:
448,192,176199,1,4,0:0:0:0:
64,192,176282,1,8,0:0:0:0:
320,192,176366,1,8,0:0:0:0:
448,192,176366,1,0,0:0:0:0:
192,192,176449,1,8,0:0:0:0:
448,192,176532,1,2,0:0:0:0:
320,192,176532,1,4,0:0:0:0:
64,192,176532,1,0,0:0:0:0:
192,192,176699,1,0,0:0:0:0:
64,192,176699,1,2,0:0:0:0:
320,192,176866,1,0,0:0:0:0:
448,192,176866,1,0,0:0:0:0:
192,192,176866,1,8,0:0:0:0:
64,192,177032,1,0,0:0:0:0:
192,192,177199,1,0,0:0:0:0:
448,192,177199,1,2,0:0:0:0:
320,192,177366,1,0,0:0:0:0:
448,192,177366,1,2,0:0:0:0:
320,192,177532,1,0,0:0:0:0:
192,192,177532,1,0,0:0:0:0:
64,192,177532,1,8,0:0:0:0:
448,192,177699,1,0,0:0:0:0:
64,192,177866,1,0,0:0:0:0:
192,192,177866,1,2,0:0:0:0:
320,192,178032,1,0,0:0:0:0:
448,192,178032,1,2,0:0:0:0:
320,192,178199,1,0,0:0:0:0:
192,192,178199,1,0,0:0:0:0:
64,192,178199,1,8,0:0:0:0:
448,192,178366,1,0,0:0:0:0:
320,192,178449,1,8,0:0:0:0:
192,192,178449,1,0,0:0:0:0:
64,192,178532,1,2,0:0:0:0:
448,192,178532,1,0,0:0:0:0:
320,192,178699,1,0,0:0:0:0:
192,192,178699,1,2,0:0:0:0:
64,192,178866,1,0,0:0:0:0:
448,192,178866,1,0,0:0:0:0:
320,192,178866,1,8,0:0:0:0:
192,192,179032,1,0,0:0:0:0:
320,192,179199,1,2,0:0:0:0:
448,192,179199,1,0,0:0:0:0:
192,192,179366,1,0,0:0:0:0:
64,192,179366,1,2,0:0:0:0:
448,192,179532,1,0,0:0:0:0:
320,192,179532,1,0,0:0:0:0:
64,192,179532,1,8,0:0:0:0:
192,192,179699,1,0,0:0:0:0:
320,192,179782,1,8,0:0:0:0:
448,192,179782,1,0,0:0:0:0:
192,192,179866,1,2,0:0:0:0:
64,192,179866,1,0,0:0:0:0:
320,192,180032,1,0,0:0:0:0:
448,192,180032,1,2,0:0:0:0:
192,192,180199,1,8,0:0:0:0:
64,192,180199,1,0,0:0:0:0:
320,192,180199,1,0,0:0:0:0:
448,192,180366,1,0,0:0:0:0:
64,192,180532,1,0,0:0:0:0:
320,192,180532,1,2,0:0:0:0:
192,192,180699,1,0,0:0:0:0:
320,192,180699,1,2,0:0:0:0:
448,192,180866,1,0,0:0:0:0:
192,192,180866,1,0,0:0:0:0:
64,192,180866,1,8,0:0:0:0:
320,192,181032,1,0,0:0:0:0:
64,192,181116,1,8,0:0:0:0:
192,192,181116,1,0,0:0:0:0:
320,192,181199,1,0,0:0:0:0:
448,192,181199,1,2,0:0:0:0:
192,192,181366,1,0,0:0:0:0:
64,192,181366,1,2,0:0:0:0:
320,192,181532,1,4,0:0:0:0:
448,192,181532,1,0,0:0:0:0:
64,192,181532,1,8,0:0:0:0:
192,192,181699,1,0,0:0:0:0:
320,192,181866,1,4,0:0:0:0:
448,192,181866,1,0,0:0:0:0:
64,192,181866,1,2,0:0:0:0:
192,192,182032,1,2,0:0:0:0:
320,192,182032,1,0,0:0:0:0:
64,192,182199,1,0,0:0:0:0:
192,192,182199,1,0,0:0:0:0:
448,192,182199,1,8,0:0:0:0:
320,192,182366,1,0,0:0:0:0:
64,192,182449,1,8,0:0:0:0:
448,192,182449,1,0,0:0:0:0:
320,192,182532,1,0,0:0:0:0:
192,192,182532,1,2,0:0:0:0:
64,192,182699,1,0,0:0:0:0:
448,192,182699,1,2,0:0:0:0:
320,192,182866,1,0,0:0:0:0:
192,192,182866,1,0,0:0:0:0:
448,192,182866,1,8,0:0:0:0:
64,192,183032,1,0,0:0:0:0:
320,192,183199,1,0,0:0:0:0:
448,192,183199,1,2,0:0:0:0:
320,192,183366,1,0,0:0:0:0:
192,192,183366,1,2,0:0:0:0:
192,192,183532,1,0,0:0:0:0:
64,192,183532,1,0,0:0:0:0:
448,192,183532,1,8,0:0:0:0:
320,192,183699,1,0,0:0:0:0:
448,192,183782,1,0,0:0:0:0:
192,192,183782,1,8,0:0:0:0:
320,192,183866,1,0,0:0:0:0:
64,192,183866,1,2,0:0:0:0:
192,192,184032,1,0,0:0:0:0:
448,192,184032,1,2,0:0:0:0:
64,192,184199,1,0,0:0:0:0:
192,192,184199,1,0,0:0:0:0:
320,192,184199,1,8,0:0:0:0:
448,192,184366,1,0,0:0:0:0:
192,192,184449,1,8,0:0:0:0:
320,192,184449,1,0,0:0:0:0:
448,192,184532,1,4,0:0:0:0:
64,192,184532,1,2,0:0:0:0:
320,192,184699,1,0,0:0:0:0:
192,192,184699,1,2,0:0:0:0:
64,192,184866,1,0,0:0:0:0:
192,192,184866,1,0,0:0:0:0:
448,192,184866,1,8,0:0:0:0:
320,192,185032,1,0,0:0:0:0:
448,192,185199,1,0,0:0:0:0:
192,192,185199,1,2,0:0:0:0:
320,192,185366,1,0,0:0:0:0:
64,192,185366,1,2,0:0:0:0:
192,192,185532,1,4,0:0:0:0:
448,192,185532,1,0,0:0:0:0:
320,192,185532,1,8,0:0:0:0:
64,192,185699,1,0,0:0:0:0:
320,192,185866,1,2,0:0:0:0:
448,192,185866,1,0,0:0:0:0:
64,192,186032,1,0,0:0:0:0:
192,192,186032,1,8,0:0:0:0:
320,192,186116,1,8,0:0:0:0:
448,192,186116,1,0,0:0:0:0:
192,192,186199,1,0,0:0:0:0:
64,192,186199,1,2,0:0:0:0:
320,192,186366,1,2,0:0:0:0:
448,192,186366,1,0,0:0:0:0:
320,192,186532,1,2,0:0:0:0:
192,192,186532,1,0,0:0:0:0:
64,192,186699,1,2,0:0:0:0:
448,192,186699,1,0,0:0:0:0:
192,192,186782,1,2,0:0:0:0:
320,192,186782,1,0,0:0:0:0:
448,192,186866,1,0,0:0:0:0:
64,192,186866,1,8,0:0:0:0:
64,192,187032,1,2,0:0:0:0:
320,192,187032,1,4,0:0:0:0:
192,192,187032,128,0,187366:0:0:0:0:
320,192,187366,1,0,0:0:0:0:
448,192,187366,1,2,0:0:0:0:
448,192,187532,1,0,0:0:0:0:
192,192,187532,1,0,0:0:0:0:
64,192,187532,1,8,0:0:0:0:
320,192,187699,1,2,0:0:0:0:
192,192,187699,1,0,0:0:0:0:
64,192,187866,1,0,0:0:0:0:
320,192,187866,1,8,0:0:0:0:
448,192,187866,1,0,0:0:0:0:
192,192,188032,1,2,0:0:0:0:
64,192,188032,1,0,0:0:0:0:
448,192,188199,1,0,0:0:0:0:
320,192,188199,1,0,0:0:0:0:
192,192,188199,1,8,0:0:0:0:
320,192,188366,1,2,0:0:0:0:
64,192,188366,1,0,0:0:0:0:
192,192,188532,1,0,0:0:0:0:
64,192,188532,1,0,0:0:0:0:
448,192,188532,1,8,0:0:0:0:
320,192,188699,1,0,0:0:0:0:
448,192,188699,1,2,0:0:0:0:
320,192,188866,1,0,0:0:0:0:
192,192,188866,1,0,0:0:0:0:
64,192,188866,1,8,0:0:0:0:
192,192,189032,1,0,0:0:0:0:
448,192,189032,1,2,0:0:0:0:
320,192,189199,1,0,0:0:0:0:
448,192,189199,1,0,0:0:0:0:
64,192,189199,1,8,0:0:0:0:
192,192,189366,1,2,0:0:0:0:
320,192,189366,1,0,0:0:0:0:
64,192,189532,1,0,0:0:0:0:
448,192,189532,1,2,0:0:0:0:
64,192,189699,1,4,0:0:0:0:
320,192,189699,1,8,0:0:0:0:
192,192,189699,128,0,191699:0:0:0:0:
320,192,190866,128,0,191032:0:0:0:0:
448,192,191032,128,0,191199:0:0:0:0:
64,192,191199,128,0,191532:0:0:0:0:
448,192,191532,128,0,191699:0:0:0:0:
320,192,191699,128,0,192199:0:0:0:0:
64,192,192199,128,0,192366:0:0:0:0:
192,192,192366,1,0,0:0:0:0:
320,192,192532,1,2,0:0:0:0:
64,192,192532,1,0,0:0:0:0:
448,192,192532,1,4,0:0:0:0:
192,192,192532,1,0,0:0:0:0:
192,192,193032,1,2,0:0:0:0:
64,192,193032,1,0,0:0:0:0:
320,192,193032,1,4,0:0:0:0:
448,192,193532,1,4,0:0:0:0:
320,192,193532,1,2,0:0:0:0:
192,192,193532,128,0,194032:0:0:0:0:
320,192,194032,128,0,194532:0:0:0:0:
448,192,194199,128,0,194532:0:0:0:0:
64,192,194366,128,0,194866:0:0:0:0:
192,192,194532,128,0,194866:0:0:0:0:
320,192,194866,128,0,195199:0:0:0:0:
448,192,195199,128,0,195699:0:0:0:0:
64,192,195199,128,0,195366:0:0:0:0:
192,192,195366,128,0,195532:0:0:0:0:
64,192,195532,128,0,195699:0:0:0:0:
192,192,195699,1,0,0:0:0:0:
320,192,195699,128,0,196199:0:0:0:0:
192,192,196199,1,0,0:0:0:0:
64,192,196282,1,0,0:0:0:0:
448,192,196366,1,0,0:0:0:0:
192,192,196449,1,0,0:0:0:0:
320,192,196532,1,0,0:0:0:0:
448,192,196532,128,0,197032:0:0:0:0:
64,192,196866,1,0,0:0:0:0:
320,192,197032,1,2,0:0:0:0:
192,192,197032,1,0,0:0:0:0:
64,192,197199,1,2,0:0:0:0:
192,192,197366,1,2,0:0:0:0:
320,192,197366,1,0,0:0:0:0:
448,192,197532,128,0,197866:0:0:0:0:
320,192,197532,1,2,0:0:0:0:
192,192,197866,1,2,0:0:0:0:
64,192,197866,1,0,0:0:0:0:
320,192,197866,1,4,0:0:0:0:
448,192,198366,1,0,0:0:0:0:
64,192,198366,1,2,0:0:0:0:
192,192,198532,1,0,0:0:0:0:
320,192,198532,1,8,0:0:0:0:
448,192,198532,1,0,0:0:0:0:
64,192,198699,1,0,0:0:0:0:
192,192,198699,1,2,0:0:0:0:
448,192,198866,1,2,0:0:0:0:
64,192,198866,1,4,0:0:0:0:
320,192,198866,128,0,199366:0:0:0:0:
64,192,199366,1,0,0:0:0:0:
448,192,199366,1,8,0:0:0:0:
192,192,199366,1,0,0:0:0:0:
320,192,199532,1,0,0:0:0:0:
64,192,199699,1,2,0:0:0:0:
448,192,199699,1,0,0:0:0:0:
192,192,199866,1,8,0:0:0:0:
320,192,199866,1,0,0:0:0:0:
448,192,199866,1,0,0:0:0:0:
320,192,200032,1,0,0:0:0:0:
64,192,200032,1,2,0:0:0:0:
448,192,200199,1,0,0:0:0:0:
192,192,200366,1,0,0:0:0:0:
320,192,200366,1,2,0:0:0:0:
64,192,200532,1,2,0:0:0:0:
448,192,200532,128,0,200699:0:0:0:0:
320,192,200699,128,0,200866:0:0:0:0:
448,192,200866,128,0,201032:0:0:0:0:
64,192,201032,1,2,0:0:0:0:
192,192,201116,1,2,0:0:0:0:
448,192,201199,1,0,0:0:0:0:
64,192,201199,1,8,0:0:0:0:
320,192,201199,1,0,0:0:0:0:
320,192,201366,1,0,0:0:0:0:
448,192,201532,128,0,201699:0:0:0:0:
64,192,201699,1,2,0:0:0:0:
320,192,201782,1,2,0:0:0:0:
448,192,201866,1,4,0:0:0:0:
192,192,201866,1,8,0:0:0:0:
64,192,201866,1,0,0:0:0:0:
320,192,202032,1,0,0:0:0:0:
192,192,202032,1,2,0:0:0:0:
448,192,202199,1,8,0:0:0:0:
320,192,202199,1,0,0:0:0:0:
64,192,202199,1,0,0:0:0:0:
64,192,202366,1,0,0:0:0:0:
192,192,202366,1,8,0:0:0:0:
448,192,202366,1,0,0:0:0:0:
320,192,202532,1,0,0:0:0:0:
192,192,202532,1,8,0:0:0:0:
448,192,202532,1,0,0:0:0:0:
64,192,202699,1,8,0:0:0:0:
192,192,202699,1,0,0:0:0:0:
320,192,202699,1,0,0:0:0:0:
64,192,202866,1,0,0:0:0:0:
320,192,202866,1,8,0:0:0:0:
448,192,202866,1,0,0:0:0:0:
448,192,203032,1,8,0:0:0:0:
192,192,203032,1,0,0:0:0:0:
64,192,203032,1,0,0:0:0:0:
320,192,203199,1,4,0:0:0:0:
448,192,203199,1,0,0:0:0:0:
64,192,203199,1,2,0:0:0:0:
192,192,203199,1,0,0:0:0:0:
448,192,203366,1,0,0:0:0:0:
320,192,203366,1,2,0:0:0:0:
64,192,203532,1,0,0:0:0:0:
192,192,203532,1,2,0:0:0:0:
64,192,203699,1,0,0:0:0:0:
192,192,203699,1,4,0:0:0:0:
448,192,203699,1,8,0:0:0:0:
320,192,203699,1,0,0:0:0:0:
320,192,203866,1,0,0:0:0:0:
448,192,203866,1,2,0:0:0:0:
192,192,204032,1,0,0:0:0:0:
64,192,204032,1,2,0:0:0:0:
64,192,204199,1,0,0:0:0:0:
192,192,204199,1,4,0:0:0:0:
448,192,204199,1,8,0:0:0:0:
320,192,204199,1,0,0:0:0:0:
320,192,204366,1,2,0:0:0:0:
448,192,204366,1,0,0:0:0:0:
192,192,204532,1,2,0:0:0:0:
64,192,204532,1,0,0:0:0:0:
64,192,204699,1,0,0:0:0:0:
192,192,204699,1,4,0:0:0:0:
448,192,204699,1,0,0:0:0:0:
320,192,204699,1,8,0:0:0:0:
64,192,204866,1,2,0:0:0:0:
320,192,204866,1,0,0:0:0:0:
448,192,205032,1,0,0:0:0:0:
192,192,205032,1,2,0:0:0:0:
64,192,205199,1,0,0:0:0:0:
192,192,205199,1,0,0:0:0:0:
320,192,205199,1,4,0:0:0:0:
448,192,205199,1,8,0:0:0:0:
64,192,205366,1,0,0:0:0:0:
448,192,205366,1,2,0:0:0:0:
64,192,205532,1,0,0:0:0:0:
192,192,205532,1,8,0:0:0:0:
320,192,205532,1,4,0:0:0:0:
448,192,205532,1,0,0:0:0:0:
320,192,205699,1,0,0:0:0:0:
192,192,205699,1,2,0:0:0:0:
448,192,205782,1,2,0:0:0:0:
320,192,205866,1,4,0:0:0:0:
192,192,205866,1,0,0:0:0:0:
64,192,205866,1,8,0:0:0:0:
64,192,206032,1,0,0:0:0:0:
448,192,206032,1,2,0:0:0:0:
192,192,206199,1,0,0:0:0:0:
320,192,206199,1,2,0:0:0:0:
64,192,206366,1,0,0:0:0:0:
192,192,206366,1,4,0:0:0:0:
320,192,206366,1,0,0:0:0:0:
448,192,206366,1,8,0:0:0:0:
448,192,206532,1,2,0:0:0:0:
64,192,206532,1,0,0:0:0:0:
192,192,206699,1,0,0:0:0:0:
320,192,206699,1,2,0:0:0:0:
192,192,206866,1,0,0:0:0:0:
64,192,206866,1,0,0:0:0:0:
320,192,206866,1,4,0:0:0:0:
448,192,206866,1,8,0:0:0:0:
64,192,207032,1,0,0:0:0:0:
448,192,207032,1,2,0:0:0:0:
192,192,207199,1,0,0:0:0:0:
320,192,207199,1,2,0:0:0:0:
192,192,207366,1,0,0:0:0:0:
64,192,207366,1,0,0:0:0:0:
320,192,207366,1,4,0:0:0:0:
448,192,207366,1,8,0:0:0:0:
64,192,207532,1,0,0:0:0:0:
448,192,207532,1,2,0:0:0:0:
192,192,207699,1,0,0:0:0:0:
320,192,207699,1,2,0:0:0:0:
64,192,207866,1,0,0:0:0:0:
320,192,207866,1,4,0:0:0:0:
448,192,207866,1,8,0:0:0:0:
192,192,207949,1,8,0:0:0:0:
320,192,208032,1,8,0:0:0:0:
448,192,208032,1,0,0:0:0:0:
192,192,208116,1,8,0:0:0:0:
64,192,208116,1,0,0:0:0:0:
320,192,208199,1,8,0:0:0:0:
448,192,208199,1,0,0:0:0:0:
64,192,208282,1,2,0:0:0:0:
192,192,208366,1,2,0:0:0:0:
320,192,208449,1,2,0:0:0:0:
448,192,208532,1,4,0:0:0:0:
64,192,208532,1,8,0:0:0:0:
192,192,208699,1,0,0:0:0:0:
64,192,208699,1,2,0:0:0:0:
320,192,208866,1,0,0:0:0:0:
448,192,208866,1,2,0:0:0:0:
192,192,209032,1,4,0:0:0:0:
64,192,209032,1,0,0:0:0:0:
320,192,209032,1,8,0:0:0:0:
448,192,209032,1,0,0:0:0:0:
192,192,209199,1,0,0:0:0:0:
64,192,209199,1,2,0:0:0:0:
320,192,209366,1,0,0:0:0:0:
448,192,209366,1,2,0:0:0:0:
64,192,209532,1,0,0:0:0:0:
192,192,209532,1,0,0:0:0:0:
320,192,209532,1,4,0:0:0:0:
448,192,209532,1,8,0:0:0:0:
64,192,209699,1,2,0:0:0:0:
192,192,209699,1,0,0:0:0:0:
448,192,209866,1,0,0:0:0:0:
320,192,209866,1,2,0:0:0:0:
64,192,210032,1,0,0:0:0:0:
192,192,210032,1,4,0:0:0:0:
320,192,210032,1,0,0:0:0:0:
448,192,210032,1,8,0:0:0:0:
192,192,210199,1,2,0:0:0:0:
448,192,210199,1,0,0:0:0:0:
320,192,210366,1,2,0:0:0:0:
64,192,210366,1,0,0:0:0:0:
64,192,210532,1,0,0:0:0:0:
192,192,210532,1,0,0:0:0:0:
320,192,210532,1,4,0:0:0:0:
448,192,210532,1,8,0:0:0:0:
192,192,210699,1,0,0:0:0:0:
448,192,210699,1,2,0:0:0:0:
192,192,210866,1,4,0:0:0:0:
64,192,210866,1,0,0:0:0:0:
320,192,210866,1,0,0:0:0:0:
448,192,210866,1,8,0:0:0:0:
320,192,211032,1,2,0:0:0:0:
64,192,211032,1,0,0:0:0:0:
192,192,211116,1,2,0:0:0:0:
320,192,211199,1,4,0:0:0:0:
64,192,211199,1,0,0:0:0:0:
448,192,211199,1,8,0:0:0:0:
320,192,211366,1,0,0:0:0:0:
448,192,211366,1,2,0:0:0:0:
192,192,211532,1,0,0:0:0:0:
64,192,211532,1,2,0:0:0:0:
64,192,211699,1,0,0:0:0:0:
192,192,211699,1,0,0:0:0:0:
320,192,211699,1,8,0:0:0:0:
448,192,211699,1,4,0:0:0:0:
192,192,211866,1,2,0:0:0:0:
320,192,211866,1,0,0:0:0:0:
64,192,212032,1,0,0:0:0:0:
448,192,212032,1,2,0:0:0:0:
192,192,212199,1,8,0:0:0:0:
64,192,212199,1,0,0:0:0:0:
448,192,212199,1,0,0:0:0:0:
320,192,212199,1,4,0:0:0:0:
320,192,212366,1,0,0:0:0:0:
64,192,212366,1,2,0:0:0:0:
192,192,212532,1,0,0:0:0:0:
448,192,212532,1,2,0:0:0:0:
64,192,212699,1,0,0:0:0:0:
192,192,212699,1,4,0:0:0:0:
320,192,212699,1,0,0:0:0:0:
448,192,212699,1,8,0:0:0:0:
320,192,212866,1,2,0:0:0:0:
448,192,212866,1,0,0:0:0:0:
192,192,213032,1,0,0:0:0:0:
64,192,213032,1,2,0:0:0:0:
448,192,213199,1,0,0:0:0:0:
320,192,213199,1,4,0:0:0:0:
192,192,213199,1,0,0:0:0:0:
64,192,213199,1,8,0:0:0:0:
320,192,213366,1,0,0:0:0:0:
448,192,213366,1,0,0:0:0:0:
64,192,213532,1,0,0:0:0:0:
320,192,213532,1,4,0:0:0:0:
448,192,213532,1,8,0:0:0:0:
192,192,213532,1,0,0:0:0:0:
192,192,213699,1,8,0:0:0:0:
64,192,213699,1,0,0:0:0:0:
448,192,213782,1,0,0:0:0:0:
320,192,213782,1,8,0:0:0:0:
64,192,213866,1,0,0:0:0:0:
192,192,213866,1,8,0:0:0:0:
448,192,213949,1,8,0:0:0:0:
320,192,213949,1,0,0:0:0:0:
192,192,214032,1,2,0:0:0:0:
64,192,214032,1,4,0:0:0:0:
320,192,214199,1,2,0:0:0:0:
448,192,214199,1,0,0:0:0:0:
192,192,214199,1,4,0:0:0:0:
64,192,214366,1,0,0:0:0:0:
448,192,214366,1,8,0:0:0:0:
192,192,214449,1,0,0:0:0:0:
320,192,214449,1,8,0:0:0:0:
448,192,214532,1,4,0:0:0:0:
64,192,214532,1,2,0:0:0:0:
320,192,214699,1,4,0:0:0:0:
64,192,214699,1,2,0:0:0:0:
448,192,214699,1,0,0:0:0:0:
320,192,214866,1,8,0:0:0:0:
192,192,214866,1,0,0:0:0:0:
448,192,214949,1,8,0:0:0:0:
64,192,214949,1,0,0:0:0:0:
320,192,215032,1,2,0:0:0:0:
192,192,215032,1,4,0:0:0:0:
192,192,215199,1,2,0:0:0:0:
64,192,215199,1,0,0:0:0:0:
448,192,215366,1,0,0:0:0:0:
320,192,215366,1,0,0:0:0:0:
64,192,215366,1,8,0:0:0:0:
192,192,215449,1,8,0:0:0:0:
448,192,215532,1,0,0:0:0:0:
320,192,215532,1,2,0:0:0:0:
192,192,215616,1,2,0:0:0:0:
64,192,215616,1,0,0:0:0:0:
320,192,215699,1,2,0:0:0:0:
448,192,215699,1,0,0:0:0:0:
64,192,215782,1,2,0:0:0:0:
192,192,215782,1,0,0:0:0:0:
448,192,215866,1,0,0:0:0:0:
320,192,215866,1,2,0:0:0:0:
192,192,215949,1,2,0:0:0:0:
64,192,215949,1,0,0:0:0:0:
448,192,216032,1,2,0:0:0:0:
320,192,216032,1,0,0:0:0:0:
64,192,216116,1,2,0:0:0:0:
448,192,216199,1,4,0:0:0:0:
320,192,216199,1,8,0:0:0:0:
192,192,216199,1,0,0:0:0:0:
192,192,216532,1,4,0:0:0:0:
320,192,216532,1,0,0:0:0:0:
448,192,216532,1,2,0:0:0:0:
64,192,216532,128,0,216866:0:0:0:0:
192,192,216866,1,0,0:0:0:0:
320,192,216866,1,0,0:0:0:0:
448,192,216866,1,8,0:0:0:0:
320,192,217032,128,0,217366:0:0:0:0:
64,192,217199,1,0,0:0:0:0:
448,192,217199,1,2,0:0:0:0:
192,192,217366,1,2,0:0:0:0:
64,192,217366,1,0,0:0:0:0:
320,192,217532,1,8,0:0:0:0:
192,192,217532,1,0,0:0:0:0:
448,192,217532,128,0,218199:0:0:0:0:
192,192,217866,1,0,0:0:0:0:
64,192,217866,1,2,0:0:0:0:
320,192,218032,1,2,0:0:0:0:
192,192,218199,1,0,0:0:0:0:
320,192,218199,1,0,0:0:0:0:
64,192,218199,1,8,0:0:0:0:
448,192,218366,1,0,0:0:0:0:
192,192,218449,1,8,0:0:0:0:
320,192,218449,1,0,0:0:0:0:
448,192,218532,128,0,218866:0:0:0:0:
64,192,218532,1,2,0:0:0:0:
192,192,218699,1,2,0:0:0:0:
64,192,218866,1,0,0:0:0:0:
320,192,218866,1,8,0:0:0:0:
192,192,218866,128,0,219199:0:0:0:0:
448,192,219032,1,0,0:0:0:0:
320,192,219199,1,2,0:0:0:0:
64,192,219199,128,0,219532:0:0:0:0:
192,192,219532,1,0,0:0:0:0:
320,192,219532,1,0,0:0:0:0:
448,192,219532,1,8,0:0:0:0:
320,192,219699,128,0,220032:0:0:0:0:
448,192,219782,1,0,0:0:0:0:
64,192,219782,1,8,0:0:0:0:
192,192,219866,1,2,0:0:0:0:
64,192,220032,1,2,0:0:0:0:
448,192,220032,1,0,0:0:0:0:
320,192,220199,1,0,0:0:0:0:
64,192,220199,1,8,0:0:0:0:
192,192,220199,128,0,220866:0:0:0:0:
448,192,220532,1,0,0:0:0:0:
64,192,220532,1,2,0:0:0:0:
320,192,220699,1,2,0:0:0:0:
448,192,220866,1,0,0:0:0:0:
64,192,220866,1,8,0:0:0:0:
320,192,220866,1,0,0:0:0:0:
448,192,221032,1,0,0:0:0:0:
320,192,221116,1,0,0:0:0:0:
64,192,221116,1,8,0:0:0:0:
448,192,221199,1,2,0:0:0:0:
192,192,221199,128,0,221532:0:0:0:0:
64,192,221366,1,2,0:0:0:0:
448,192,221532,1,0,0:0:0:0:
64,192,221532,1,8,0:0:0:0:
320,192,221532,128,0,221866:0:0:0:0:
192,192,221699,1,0,0:0:0:0:
448,192,221866,1,4,0:0:0:0:
192,192,221866,1,2,0:0:0:0:
64,192,221866,128,0,222199:0:0:0:0:
192,192,222199,1,0,0:0:0:0:
320,192,222199,1,0,0:0:0:0:
448,192,222199,1,8,0:0:0:0:
320,192,222366,128,0,222699:0:0:0:0:
192,192,222449,1,0,0:0:0:0:
64,192,222449,1,8,0:0:0:0:
448,192,222532,1,2,0:0:0:0:
192,192,222699,1,0,0:0:0:0:
64,192,222699,1,2,0:0:0:0:
320,192,222866,1,0,0:0:0:0:
192,192,222866,1,8,0:0:0:0:
448,192,222866,128,0,223532:0:0:0:0:
320,192,223199,1,0,0:0:0:0:
64,192,223199,1,2,0:0:0:0:
192,192,223366,1,2,0:0:0:0:
64,192,223532,1,0,0:0:0:0:
192,192,223532,1,0,0:0:0:0:
320,192,223532,1,8,0:0:0:0:
448,192,223699,1,0,0:0:0:0:
192,192,223782,1,0,0:0:0:0:
64,192,223782,1,8,0:0:0:0:
448,192,223866,1,2,0:0:0:0:
320,192,223866,128,0,224199:0:0:0:0:
64,192,224032,1,2,0:0:0:0:
448,192,224199,1,0,0:0:0:0:
64,192,224199,1,8,0:0:0:0:
192,192,224199,128,0,224532:0:0:0:0:
320,192,224366,1,0,0:0:0:0:
64,192,224532,1,2,0:0:0:0:
448,192,224532,128,0,224866:0:0:0:0:
192,192,224699,1,2,0:0:0:0:
64,192,224866,1,8,0:0:0:0:
192,192,224866,1,0,0:0:0:0:
320,192,224866,1,0,0:0:0:0:
320,192,225032,128,0,225366:0:0:0:0:
448,192,225116,1,0,0:0:0:0:
64,192,225116,1,8,0:0:0:0:
192,192,225199,1,2,0:0:0:0:
448,192,225366,128,0,225699:0:0:0:0:
64,192,225366,1,2,0:0:0:0:
192,192,225532,1,0,0:0:0:0:
320,192,225532,1,8,0:0:0:0:
64,192,225699,128,0,226199:0:0:0:0:
320,192,225782,1,0,0:0:0:0:
192,192,225782,1,8,0:0:0:0:
448,192,225866,1,2,0:0:0:0:
320,192,226032,1,2,0:0:0:0:
448,192,226032,1,0,0:0:0:0:
320,192,226199,1,0,0:0:0:0:
192,192,226199,1,8,0:0:0:0:
448,192,226366,1,0,0:0:0:0:
64,192,226366,1,2,0:0:0:0:
192,192,226532,1,0,0:0:0:0:
320,192,226532,1,8,0:0:0:0:
448,192,226532,1,0,0:0:0:0:
64,192,226616,1,2,0:0:0:0:
192,192,226699,1,2,0:0:0:0:
320,192,226782,1,2,0:0:0:0:
448,192,226866,1,2,0:0:0:0:
192,192,226866,1,0,0:0:0:0:
64,192,226866,1,4,0:0:0:0:
320,192,227032,1,8,0:0:0:0:
192,192,227032,1,0,0:0:0:0:
64,192,227116,1,0,0:0:0:0:
448,192,227116,1,8,0:0:0:0:
320,192,227199,1,4,0:0:0:0:
192,192,227199,128,2,227532:0:0:0:0:
448,192,227366,1,2,0:0:0:0:
64,192,227366,1,0,0:0:0:0:
320,192,227532,1,0,0:0:0:0:
64,192,227532,1,8,0:0:0:0:
448,192,227532,1,0,0:0:0:0:
320,192,227699,128,0,228032:0:0:0:0:
448,192,227782,1,0,0:0:0:0:
64,192,227782,1,8,0:0:0:0:
192,192,227866,1,2,0:0:0:0:
64,192,228032,1,0,0:0:0:0:
448,192,228032,1,2,0:0:0:0:
448,192,228199,128,0,228866:0:0:0:0:
192,192,228199,1,8,0:0:0:0:
320,192,228199,1,0,0:0:0:0:
64,192,228532,1,0,0:0:0:0:
320,192,228532,1,2,0:0:0:0:
192,192,228699,1,2,0:0:0:0:
64,192,228866,1,0,0:0:0:0:
192,192,228866,1,0,0:0:0:0:
320,192,228866,1,8,0:0:0:0:
448,192,229032,1,0,0:0:0:0:
320,192,229116,1,8,0:0:0:0:
64,192,229116,1,0,0:0:0:0:
192,192,229199,1,2,0:0:0:0:
448,192,229199,128,0,229532:0:0:0:0:
64,192,229366,1,2,0:0:0:0:
192,192,229532,1,8,0:0:0:0:
64,192,229532,1,0,0:0:0:0:
320,192,229532,128,0,229866:0:0:0:0:
448,192,229699,1,0,0:0:0:0:
64,192,229866,128,0,230199:0:0:0:0:
448,192,229866,1,2,0:0:0:0:
192,192,229866,1,4,0:0:0:0:
320,192,230032,1,2,0:0:0:0:
448,192,230199,1,0,0:0:0:0:
320,192,230199,1,8,0:0:0:0:
192,192,230199,1,0,0:0:0:0:
192,192,230366,128,0,230699:0:0:0:0:
320,192,230449,1,0,0:0:0:0:
64,192,230449,1,8,0:0:0:0:
448,192,230532,1,2,0:0:0:0:
320,192,230699,128,0,231032:0:0:0:0:
64,192,230699,1,2,0:0:0:0:
448,192,230866,1,8,0:0:0:0:
192,192,230866,1,0,0:0:0:0:
64,192,230866,1,0,0:0:0:0:
448,192,231032,128,0,231532:0:0:0:0:
320,192,231199,1,0,0:0:0:0:
64,192,231199,1,2,0:0:0:0:
192,192,231366,1,2,0:0:0:0:
320,192,231532,1,4,0:0:0:0:
192,192,231532,1,8,0:0:0:0:
64,192,231532,1,0,0:0:0:0:
320,192,231699,1,0,0:0:0:0:
64,192,231699,1,2,0:0:0:0:
64,192,231866,1,0,0:0:0:0:
192,192,231866,1,8,0:0:0:0:
320,192,231866,1,0,0:0:0:0:
448,192,231866,1,4,0:0:0:0:
192,192,232032,1,0,0:0:0:0:
448,192,232032,1,8,0:0:0:0:
320,192,232116,1,8,0:0:0:0:
64,192,232116,1,0,0:0:0:0:
192,192,232199,1,8,0:0:0:0:
448,192,232199,1,0,0:0:0:0:
64,192,232366,1,0,0:0:0:0:
320,192,232366,1,8,0:0:0:0:
448,192,232449,1,8,0:0:0:0:
192,192,232449,1,0,0:0:0:0:
64,192,232532,1,6,0:0:0:0:
320,192,232532,128,0,233366:0:0:0:0:
192,192,232699,1,0,0:0:0:0:
64,192,232866,1,0,0:0:0:0:
192,192,232866,1,4,0:0:0:0:
448,192,232866,1,8,0:0:0:0:
448,192,233032,1,0,0:0:0:0:
192,192,233199,1,0,0:0:0:0:
64,192,233199,1,2,0:0:0:0:
448,192,233366,1,0,0:0:0:0:
64,192,233532,1,0,0:0:0:0:
192,192,233532,1,0,0:0:0:0:
320,192,233532,1,8,0:0:0:0:
192,192,233699,128,0,234199:0:0:0:0:
64,192,233866,1,0,0:0:0:0:
448,192,233866,1,2,0:0:0:0:
320,192,234032,1,0,0:0:0:0:
320,192,234199,1,0,0:0:0:0:
64,192,234199,1,8,0:0:0:0:
448,192,234199,128,0,234532:0:0:0:0:
192,192,234366,1,0,0:0:0:0:
64,192,234532,1,2,0:0:0:0:
320,192,234532,128,0,234866:0:0:0:0:
192,192,234699,1,0,0:0:0:0:
64,192,234866,1,0,0:0:0:0:
448,192,234866,1,0,0:0:0:0:
192,192,234866,1,8,0:0:0:0:
448,192,235032,128,0,235866:0:0:0:0:
320,192,235199,1,0,0:0:0:0:
192,192,235199,1,2,0:0:0:0:
64,192,235199,1,4,0:0:0:0:
64,192,235366,1,0,0:0:0:0:
320,192,235532,1,0,0:0:0:0:
192,192,235532,1,8,0:0:0:0:
64,192,235699,1,0,0:0:0:0:
320,192,235866,1,0,0:0:0:0:
192,192,235866,1,2,0:0:0:0:
448,192,236032,1,0,0:0:0:0:
192,192,236199,1,0,0:0:0:0:
448,192,236199,1,8,0:0:0:0:
320,192,236199,128,0,236532:0:0:0:0:
64,192,236366,1,0,0:0:0:0:
448,192,236532,1,2,0:0:0:0:
192,192,236532,128,0,237199:0:0:0:0:
64,192,236699,1,0,0:0:0:0:
448,192,236866,1,0,0:0:0:0:
320,192,236866,1,0,0:0:0:0:
64,192,236866,1,8,0:0:0:0:
320,192,237032,1,0,0:0:0:0:
448,192,237199,1,2,0:0:0:0:
64,192,237199,128,0,237699:0:0:0:0:
320,192,237366,1,2,0:0:0:0:
192,192,237532,1,0,0:0:0:0:
448,192,237532,1,8,0:0:0:0:
320,192,237699,1,2,0:0:0:0:
192,192,237699,1,4,0:0:0:0:
448,192,237699,128,0,238032:0:0:0:0:
320,192,238032,1,2,0:0:0:0:
64,192,238199,1,8,0:0:0:0:
192,192,238199,1,0,0:0:0:0:
448,192,238199,1,0,0:0:0:0:
448,192,238366,1,2,0:0:0:0:
64,192,238532,1,0,0:0:0:0:
192,192,238532,1,8,0:0:0:0:
320,192,238532,1,0,0:0:0:0:
64,192,238699,1,2,0:0:0:0:
192,192,238866,1,0,0:0:0:0:
320,192,238866,1,0,0:0:0:0:
448,192,238866,1,8,0:0:0:0:
192,192,239032,1,2,0:0:0:0:
64,192,239199,1,4,0:0:0:0:
448,192,239199,1,0,0:0:0:0:
320,192,239199,1,8,0:0:0:0:
448,192,239366,1,2,0:0:0:0:
192,192,239532,1,8,0:0:0:0:
64,192,239532,1,0,0:0:0:0:
320,192,239532,1,0,0:0:0:0:
448,192,239782,1,2,0:0:0:0:
320,192,239782,1,0,0:0:0:0:
192,192,239866,1,2,0:0:0:0:
64,192,239866,1,0,0:0:0:0:
64,192,240116,1,2,0:0:0:0:
320,192,240116,1,0,0:0:0:0:
192,192,240199,1,2,0:0:0:0:
448,192,240199,1,0,0:0:0:0:
320,192,240449,1,2,0:0:0:0:
192,192,240449,1,0,0:0:0:0:
448,192,240532,1,4,0:0:0:0:
64,192,240532,128,2,243866:0:0:0:0:
192,192,241532,128,0,243866:0:0:0:0:
320,192,241866,128,0,243866:0:0:0:0:
448,192,242532,128,0,243866:0:0:0:0:
320,192,244532,1,4,0:0:0:0:
192,192,244532,128,2,247116:0:0:0:0:
448,192,244532,128,0,247116:0:0:0:0:
64,192,244532,128,0,247116:0:0:0:0:
448,192,247199,1,4,0:0:0:0:
320,192,247199,128,0,249199:0:0:0:0:
192,192,247199,128,0,249199:0:0:0:0:
64,192,247199,128,2,249199:0:0:0:0:
448,192,249366,1,0,0:0:0:0:
192,192,249366,1,2,0:0:0:0:
192,192,249532,1,0,0:0:0:0:
64,192,249532,1,0,0:0:0:0:
320,192,249532,1,8,0:0:0:0:
448,192,249699,1,0,0:0:0:0:
64,192,249699,1,2,0:0:0:0:
192,192,249866,1,8,0:0:0:0:
320,192,249866,1,4,0:0:0:0:
448,192,249866,1,0,0:0:0:0:
64,192,249866,1,0,0:0:0:0:
320,192,250032,1,0,0:0:0:0:
192,192,250032,1,2,0:0:0:0:
64,192,250199,1,0,0:0:0:0:
448,192,250199,1,2,0:0:0:0:
192,192,250366,1,8,0:0:0:0:
320,192,250366,1,4,0:0:0:0:
448,192,250366,1,0,0:0:0:0:
64,192,250366,1,0,0:0:0:0:
192,192,250532,1,2,0:0:0:0:
64,192,250532,1,0,0:0:0:0:
448,192,250699,1,0,0:0:0:0:
320,192,250699,1,2,0:0:0:0:
192,192,250866,1,8,0:0:0:0:
64,192,250866,1,0,0:0:0:0:
320,192,250866,1,4,0:0:0:0:
448,192,250866,1,0,0:0:0:0:
448,192,251032,1,0,0:0:0:0:
64,192,251032,1,2,0:0:0:0:
192,192,251199,1,0,0:0:0:0:
320,192,251199,1,2,0:0:0:0:
192,192,251366,1,4,0:0:0:0:
64,192,251366,1,0,0:0:0:0:
320,192,251366,1,0,0:0:0:0:
448,192,251366,1,8,0:0:0:0:
448,192,251532,1,0,0:0:0:0:
320,192,251532,1,2,0:0:0:0:
192,192,251699,1,0,0:0:0:0:
64,192,251699,1,2,0:0:0:0:
64,192,251866,1,0,0:0:0:0:
192,192,251866,1,0,0:0:0:0:
320,192,251866,1,4,0:0:0:0:
448,192,251866,1,8,0:0:0:0:
448,192,252032,1,0,0:0:0:0:
320,192,252032,1,2,0:0:0:0:
192,192,252199,1,8,0:0:0:0:
64,192,252199,1,4,0:0:0:0:
448,192,252199,1,0,0:0:0:0:
320,192,252199,1,0,0:0:0:0:
192,192,252366,1,0,0:0:0:0:
64,192,252366,1,2,0:0:0:0:
320,192,252449,1,2,0:0:0:0:
64,192,252532,1,0,0:0:0:0:
192,192,252532,1,4,0:0:0:0:
448,192,252532,1,8,0:0:0:0:
320,192,252699,1,2,0:0:0:0:
448,192,252699,1,0,0:0:0:0:
192,192,252866,1,0,0:0:0:0:
64,192,252866,1,2,0:0:0:0:
320,192,253032,1,4,0:0:0:0:
192,192,253032,1,0,0:0:0:0:
64,192,253032,1,0,0:0:0:0:
448,192,253032,1,8,0:0:0:0:
192,192,253199,1,0,0:0:0:0:
448,192,253199,1,2,0:0:0:0:
64,192,253366,1,0,0:0:0:0:
320,192,253366,1,2,0:0:0:0:
192,192,253532,1,8,0:0:0:0:
64,192,253532,1,0,0:0:0:0:
448,192,253532,1,0,0:0:0:0:
320,192,253532,1,4,0:0:0:0:
192,192,253699,1,2,0:0:0:0:
320,192,253699,1,0,0:0:0:0:
64,192,253866,1,0,0:0:0:0:
448,192,253866,1,2,0:0:0:0:
192,192,254032,1,4,0:0:0:0:
64,192,254032,1,0,0:0:0:0:
320,192,254032,1,0,0:0:0:0:
448,192,254032,1,8,0:0:0:0:
320,192,254199,1,0,0:0:0:0:
64,192,254199,1,2,0:0:0:0:
192,192,254366,1,0,0:0:0:0:
448,192,254366,1,2,0:0:0:0:
192,192,254532,1,8,0:0:0:0:
64,192,254532,1,0,0:0:0:0:
320,192,254616,1,8,0:0:0:0:
448,192,254616,1,0,0:0:0:0:
192,192,254699,1,8,0:0:0:0:
64,192,254699,1,0,0:0:0:0:
320,192,254782,1,8,0:0:0:0:
448,192,254782,1,0,0:0:0:0:
64,192,254866,1,0,0:0:0:0:
192,192,254866,1,8,0:0:0:0:
320,192,254949,1,0,0:0:0:0:
448,192,254949,1,8,0:0:0:0:
64,192,255032,1,0,0:0:0:0:
192,192,255032,1,8,0:0:0:0:
320,192,255116,1,8,0:0:0:0:
192,192,255199,1,2,0:0:0:0:
64,192,255199,1,0,0:0:0:0:
448,192,255199,1,4,0:0:0:0:
320,192,255366,1,0,0:0:0:0:
448,192,255366,1,2,0:0:0:0:
192,192,255532,1,0,0:0:0:0:
64,192,255532,1,2,0:0:0:0:
320,192,255699,1,0,0:0:0:0:
64,192,255782,1,0,0:0:0:0:
448,192,255782,1,8,0:0:0:0:
320,192,255866,1,0,0:0:0:0:
192,192,255866,1,2,0:0:0:0:
192,192,256032,1,0,0:0:0:0:
64,192,256032,1,2,0:0:0:0:
320,192,256199,1,0,0:0:0:0:
448,192,256199,1,0,0:0:0:0:
64,192,256199,1,8,0:0:0:0:
192,192,256366,1,0,0:0:0:0:
448,192,256532,1,0,0:0:0:0:
320,192,256532,1,2,0:0:0:0:
64,192,256699,1,0,0:0:0:0:
192,192,256699,1,2,0:0:0:0:
448,192,256866,1,0,0:0:0:0:
320,192,256866,1,0,0:0:0:0:
64,192,256866,1,8,0:0:0:0:
192,192,257032,1,0,0:0:0:0:
320,192,257116,1,0,0:0:0:0:
64,192,257116,1,8,0:0:0:0:
192,192,257199,1,0,0:0:0:0:
448,192,257199,1,2,0:0:0:0:
320,192,257366,1,0,0:0:0:0:
64,192,257366,1,2,0:0:0:0:
192,192,257532,1,0,0:0:0:0:
64,192,257532,1,0,0:0:0:0:
448,192,257532,1,8,0:0:0:0:
320,192,257699,1,0,0:0:0:0:
64,192,257866,1,0,0:0:0:0:
448,192,257866,1,2,0:0:0:0:
192,192,258032,1,0,0:0:0:0:
320,192,258032,1,2,0:0:0:0:
448,192,258199,1,0,0:0:0:0:
192,192,258199,1,0,0:0:0:0:
64,192,258199,1,8,0:0:0:0:
320,192,258366,1,0,0:0:0:0:
448,192,258449,1,0,0:0:0:0:
64,192,258449,1,8,0:0:0:0:
192,192,258532,1,0,0:0:0:0:
320,192,258532,1,2,0:0:0:0:
64,192,258699,1,0,0:0:0:0:
448,192,258699,1,2,0:0:0:0:
320,192,258866,1,0,0:0:0:0:
192,192,258866,1,0,0:0:0:0:
64,192,258866,1,8,0:0:0:0:
448,192,259032,1,0,0:0:0:0:
320,192,259199,1,0,0:0:0:0:
192,192,259199,1,2,0:0:0:0:
64,192,259366,1,0,0:0:0:0:
448,192,259366,1,2,0:0:0:0:
320,192,259532,1,0,0:0:0:0:
192,192,259532,1,0,0:0:0:0:
64,192,259532,1,8,0:0:0:0:
448,192,259699,1,0,0:0:0:0:
320,192,259782,1,8,0:0:0:0:
64,192,259782,1,0,0:0:0:0:
192,192,259866,1,0,0:0:0:0:
448,192,259866,1,2,0:0:0:0:
320,192,260032,1,0,0:0:0:0:
64,192,260032,1,2,0:0:0:0:
320,192,260199,1,0,0:0:0:0:
192,192,260199,1,8,0:0:0:0:
448,192,260199,1,4,0:0:0:0:
192,192,260366,1,0,0:0:0:0:
320,192,260532,1,2,0:0:0:0:
448,192,260532,1,0,0:0:0:0:
64,192,260532,1,4,0:0:0:0:
192,192,260699,1,0,0:0:0:0:
320,192,260699,1,2,0:0:0:0:
448,192,260866,1,0,0:0:0:0:
192,192,260866,1,0,0:0:0:0:
64,192,260866,1,8,0:0:0:0:
320,192,261032,1,0,0:0:0:0:
64,192,261116,1,8,0:0:0:0:
448,192,261116,1,0,0:0:0:0:
192,192,261199,1,0,0:0:0:0:
320,192,261199,1,2,0:0:0:0:
64,192,261366,1,0,0:0:0:0:
448,192,261366,1,2,0:0:0:0:
192,192,261532,1,0,0:0:0:0:
64,192,261532,1,0,0:0:0:0:
320,192,261532,1,8,0:0:0:0:
448,192,261699,1,0,0:0:0:0:
320,192,261866,1,0,0:0:0:0:
192,192,261866,1,2,0:0:0:0:
64,192,262032,1,0,0:0:0:0:
448,192,262032,1,2,0:0:0:0:
320,192,262199,1,0,0:0:0:0:
64,192,262199,1,0,0:0:0:0:
448,192,262199,1,8,0:0:0:0:
192,192,262366,1,0,0:0:0:0:
64,192,262449,1,0,0:0:0:0:
448,192,262449,1,8,0:0:0:0:
320,192,262532,1,0,0:0:0:0:
192,192,262532,1,2,0:0:0:0:
448,192,262699,1,0,0:0:0:0:
64,192,262699,1,2,0:0:0:0:
192,192,262866,1,0,0:0:0:0:
64,192,262866,1,0,0:0:0:0:
448,192,262866,1,8,0:0:0:0:
320,192,263032,1,0,0:0:0:0:
448,192,263199,1,0,0:0:0:0:
192,192,263199,1,4,0:0:0:0:
64,192,263199,1,2,0:0:0:0:
320,192,263366,1,0,0:0:0:0:
192,192,263366,1,2,0:0:0:0:
64,192,263532,1,0,0:0:0:0:
320,192,263532,1,0,0:0:0:0:
448,192,263532,1,8,0:0:0:0:
192,192,263699,1,0,0:0:0:0:
320,192,263782,1,8,0:0:0:0:
448,192,263782,1,0,0:0:0:0:
192,192,263866,1,0,0:0:0:0:
64,192,263866,1,2,0:0:0:0:
320,192,264032,1,0,0:0:0:0:
448,192,264032,1,2,0:0:0:0:
192,192,264199,1,0,0:0:0:0:
64,192,264199,1,0,0:0:0:0:
320,192,264199,1,8,0:0:0:0:
448,192,264366,1,0,0:0:0:0:
64,192,264366,1,2,0:0:0:0:
192,192,264532,1,0,0:0:0:0:
320,192,264532,1,0,0:0:0:0:
448,192,264532,1,8,0:0:0:0:
64,192,264699,1,0,0:0:0:0:
192,192,264699,1,2,0:0:0:0:
320,192,264782,1,2,0:0:0:0:
448,192,264782,1,0,0:0:0:0:
192,192,264866,1,0,0:0:0:0:
64,192,264866,1,2,0:0:0:0:
320,192,264949,1,2,0:0:0:0:
448,192,265032,1,0,0:0:0:0:
192,192,265032,1,0,0:0:0:0:
64,192,265032,1,8,0:0:0:0:
320,192,265116,1,0,0:0:0:0:
448,192,265199,1,0,0:0:0:0:
64,192,265199,1,2,0:0:0:0:
192,192,265282,1,2,0:0:0:0:
320,192,265282,1,0,0:0:0:0:
448,192,265366,1,0,0:0:0:0:
64,192,265366,1,2,0:0:0:0:
192,192,265449,1,2,0:0:0:0:
320,192,265532,1,8,0:0:0:0:
448,192,265532,1,0,0:0:0:0:
64,192,265532,1,0,0:0:0:0:
192,192,265699,1,4,0:0:0:0:
320,192,265699,1,2,0:0:0:0:
448,192,265699,128,0,266032:0:0:0:0:
320,192,266032,1,0,0:0:0:0:
192,192,266032,1,2,0:0:0:0:
448,192,266199,1,0,0:0:0:0:
192,192,266199,1,0,0:0:0:0:
64,192,266199,1,8,0:0:0:0:
64,192,266366,1,0,0:0:0:0:
320,192,266366,1,2,0:0:0:0:
192,192,266532,1,8,0:0:0:0:
448,192,266532,1,0,0:0:0:0:
320,192,266532,1,0,0:0:0:0:
448,192,266699,1,0,0:0:0:0:
64,192,266699,1,2,0:0:0:0:
192,192,266866,1,0,0:0:0:0:
64,192,266866,1,0,0:0:0:0:
320,192,266866,1,8,0:0:0:0:
448,192,267032,1,0,0:0:0:0:
192,192,267032,1,2,0:0:0:0:
448,192,267199,1,0,0:0:0:0:
320,192,267199,1,0,0:0:0:0:
64,192,267199,1,8,0:0:0:0:
192,192,267366,1,0,0:0:0:0:
320,192,267366,1,2,0:0:0:0:
64,192,267532,1,0,0:0:0:0:
192,192,267532,1,0,0:0:0:0:
448,192,267532,1,8,0:0:0:0:
320,192,267699,1,0,0:0:0:0:
448,192,267699,1,2,0:0:0:0:
192,192,267782,1,2,0:0:0:0:
320,192,267866,1,8,0:0:0:0:
448,192,267866,1,0,0:0:0:0:
64,192,267866,1,0,0:0:0:0:
192,192,268032,1,0,0:0:0:0:
64,192,268032,1,2,0:0:0:0:
320,192,268199,1,0,0:0:0:0:
448,192,268199,1,8,0:0:0:0:
192,192,268199,1,0,0:0:0:0:
64,192,268366,1,2,0:0:0:0:
448,192,268366,1,4,0:0:0:0:
320,192,268366,128,0,268699:0:0:0:0:
448,192,268699,1,0,0:0:0:0:
192,192,268699,1,2,0:0:0:0:
64,192,268866,1,0,0:0:0:0:
448,192,268866,1,0,0:0:0:0:
192,192,268866,1,8,0:0:0:0:
320,192,269032,1,0,0:0:0:0:
192,192,269116,1,8,0:0:0:0:
64,192,269116,1,0,0:0:0:0:
320,192,269199,1,0,0:0:0:0:
448,192,269199,1,2,0:0:0:0:
192,192,269366,1,0,0:0:0:0:
64,192,269366,1,2,0:0:0:0:
320,192,269532,1,0,0:0:0:0:
448,192,269532,1,0,0:0:0:0:
192,192,269532,1,8,0:0:0:0:
64,192,269699,1,0,0:0:0:0:
192,192,269782,1,8,0:0:0:0:
448,192,269782,1,0,0:0:0:0:
320,192,269866,1,0,0:0:0:0:
64,192,269866,1,2,0:0:0:0:
192,192,270032,1,0,0:0:0:0:
448,192,270032,1,2,0:0:0:0:
320,192,270199,1,0,0:0:0:0:
192,192,270199,1,0,0:0:0:0:
448,192,270199,1,8,0:0:0:0:
64,192,270366,1,0,0:0:0:0:
320,192,270366,1,2,0:0:0:0:
448,192,270449,1,2,0:0:0:0:
192,192,270532,1,2,0:0:0:0:
64,192,270532,1,0,0:0:0:0:
320,192,270616,1,2,0:0:0:0:
448,192,270616,1,0,0:0:0:0:
192,192,270699,1,2,0:0:0:0:
64,192,270699,1,0,0:0:0:0:
320,192,270782,1,2,0:0:0:0:
448,192,270782,1,0,0:0:0:0:
192,192,270866,1,2,0:0:0:0:
64,192,270866,1,0,0:0:0:0:
320,192,270949,1,2,0:0:0:0:
192,192,271032,1,2,0:0:0:0:
448,192,271032,1,4,0:0:0:0:
64,192,271032,128,0,271366:0:0:0:0:
192,192,271366,1,0,0:0:0:0:
320,192,271366,1,2,0:0:0:0:
448,192,271532,1,0,0:0:0:0:
320,192,271532,1,0,0:0:0:0:
192,192,271532,1,8,0:0:0:0:
448,192,271699,1,0,0:0:0:0:
64,192,271699,1,2,0:0:0:0:
192,192,271866,1,0,0:0:0:0:
320,192,271866,1,8,0:0:0:0:
64,192,271866,1,0,0:0:0:0:
448,192,272032,1,0,0:0:0:0:
192,192,272032,1,2,0:0:0:0:
320,192,272199,1,0,0:0:0:0:
448,192,272199,1,8,0:0:0:0:
64,192,272199,1,4,0:0:0:0:
192,192,272366,1,0,0:0:0:0:
320,192,272366,1,2,0:0:0:0:
448,192,272532,1,0,0:0:0:0:
192,192,272532,1,8,0:0:0:0:
64,192,272532,1,4,0:0:0:0:
448,192,272699,1,0,0:0:0:0:
320,192,272699,1,2,0:0:0:0:
192,192,272866,1,0,0:0:0:0:
64,192,272866,1,0,0:0:0:0:
320,192,272866,1,8,0:0:0:0:
448,192,273032,1,0,0:0:0:0:
192,192,273116,1,8,0:0:0:0:
64,192,273116,1,0,0:0:0:0:
320,192,273199,1,8,0:0:0:0:
448,192,273199,1,0,0:0:0:0:
192,192,273282,1,8,0:0:0:0:
64,192,273282,1,0,0:0:0:0:
320,192,273366,1,8,0:0:0:0:
448,192,273366,1,0,0:0:0:0:
192,192,273449,1,8,0:0:0:0:
64,192,273449,1,0,0:0:0:0:
320,192,273532,1,8,0:0:0:0:
448,192,273532,1,0,0:0:0:0:
192,192,273616,1,8,0:0:0:0:
320,192,273699,1,4,0:0:0:0:
64,192,273699,1,2,0:0:0:0:
448,192,273699,128,0,276199:0:0:0:0:
320,192,274866,128,0,275199:0:0:0:0:
64,192,275032,128,0,275199:0:0:0:0:
192,192,275199,128,0,275532:0:0:0:0:
64,192,275532,128,0,276199:0:0:0:0:
320,192,275699,128,0,276199:0:0:0:0:
192,192,276199,1,0,0:0:0:0:
192,192,276532,1,0,0:0:0:0:
64,192,276532,1,0,0:0:0:0:
320,192,276532,1,2,0:0:0:0:
448,192,276532,1,4,0:0:0:0:
320,192,276699,1,8,0:0:0:0:
448,192,276699,1,0,0:0:0:0:
192,192,276782,1,8,0:0:0:0:
64,192,276782,1,0,0:0:0:0:
448,192,276866,1,0,0:0:0:0:
320,192,276866,1,2,0:0:0:0:
64,192,277032,1,0,0:0:0:0:
448,192,277032,1,8,0:0:0:0:
320,192,277116,1,8,0:0:0:0:
192,192,277116,1,0,0:0:0:0:
64,192,277199,1,2,0:0:0:0:
448,192,277199,1,0,0:0:0:0:
320,192,277366,1,8,0:0:0:0:
64,192,277366,1,0,0:0:0:0:
192,192,277449,1,8,0:0:0:0:
448,192,277449,1,0,0:0:0:0:
320,192,277532,1,0,0:0:0:0:
64,192,277532,1,2,0:0:0:0:
448,192,277699,1,0,0:0:0:0:
192,192,277699,1,8,0:0:0:0:
320,192,277782,1,8,0:0:0:0:
64,192,277782,1,0,0:0:0:0:
192,192,277866,1,2,0:0:0:0:
448,192,277866,1,0,0:0:0:0:
192,192,278032,1,0,0:0:0:0:
64,192,278032,1,8,0:0:0:0:
320,192,278116,1,8,0:0:0:0:
448,192,278116,1,0,0:0:0:0:
192,192,278199,1,0,0:0:0:0:
64,192,278199,1,2,0:0:0:0:
448,192,278366,1,8,0:0:0:0:
64,192,278366,1,0,0:0:0:0:
320,192,278449,1,8,0:0:0:0:
192,192,278449,1,0,0:0:0:0:
448,192,278532,1,0,0:0:0:0:
64,192,278532,1,2,0:0:0:0:
320,192,278699,1,8,0:0:0:0:
448,192,278699,1,0,0:0:0:0:
192,192,278782,1,8,0:0:0:0:
64,192,278782,1,0,0:0:0:0:
320,192,278866,1,0,0:0:0:0:
448,192,278866,1,2,0:0:0:0:
64,192,279032,1,0,0:0:0:0:
192,192,279032,1,8,0:0:0:0:
448,192,279116,1,8,0:0:0:0:
192,192,279199,1,0,0:0:0:0:
320,192,279199,1,4,0:0:0:0:
64,192,279199,1,2,0:0:0:0:
448,192,279366,1,0,0:0:0:0:
320,192,279366,1,8,0:0:0:0:
192,192,279449,1,8,0:0:0:0:
64,192,279449,1,0,0:0:0:0:
320,192,279532,1,0,0:0:0:0:
448,192,279532,1,2,0:0:0:0:
64,192,279699,1,8,0:0:0:0:
448,192,279699,1,0,0:0:0:0:
192,192,279782,1,8,0:0:0:0:
320,192,279782,1,0,0:0:0:0:
64,192,279866,1,0,0:0:0:0:
448,192,279866,1,2,0:0:0:0:
320,192,280032,1,0,0:0:0:0:
64,192,280032,1,8,0:0:0:0:
192,192,280116,1,0,0:0:0:0:
448,192,280116,1,8,0:0:0:0:
320,192,280199,1,0,0:0:0:0:
64,192,280199,1,2,0:0:0:0:
192,192,280366,1,8,0:0:0:0:
320,192,280366,1,0,0:0:0:0:
448,192,280449,1,0,0:0:0:0:
64,192,280449,1,8,0:0:0:0:
192,192,280532,1,0,0:0:0:0:
320,192,280532,1,2,0:0:0:0:
64,192,280699,1,8,0:0:0:0:
192,192,280699,1,0,0:0:0:0:
320,192,280782,1,8,0:0:0:0:
448,192,280782,1,0,0:0:0:0:
192,192,280866,1,2,0:0:0:0:
64,192,280866,1,0,0:0:0:0:
448,192,281032,1,8,0:0:0:0:
64,192,281032,1,0,0:0:0:0:
320,192,281116,1,8,0:0:0:0:
192,192,281116,1,0,0:0:0:0:
64,192,281199,1,0,0:0:0:0:
448,192,281199,1,2,0:0:0:0:
192,192,281282,1,2,0:0:0:0:
320,192,281366,1,0,0:0:0:0:
448,192,281366,1,2,0:0:0:0:
192,192,281449,1,0,0:0:0:0:
64,192,281449,1,2,0:0:0:0:
320,192,281532,1,2,0:0:0:0:
448,192,281532,1,0,0:0:0:0:
64,192,281616,1,2,0:0:0:0:
192,192,281699,1,0,0:0:0:0:
320,192,281699,1,2,0:0:0:0:
64,192,281782,1,2,0:0:0:0:
448,192,281866,1,2,0:0:0:0:
192,192,281866,1,0,0:0:0:0:
320,192,281866,1,4,0:0:0:0:
64,192,282032,1,0,0:0:0:0:
320,192,282032,1,8,0:0:0:0:
448,192,282116,1,0,0:0:0:0:
192,192,282116,1,8,0:0:0:0:
320,192,282199,1,2,0:0:0:0:
64,192,282199,1,0,0:0:0:0:
192,192,282366,1,8,0:0:0:0:
64,192,282366,1,0,0:0:0:0:
320,192,282449,1,8,0:0:0:0:
448,192,282449,1,0,0:0:0:0:
192,192,282532,1,2,0:0:0:0:
64,192,282532,1,0,0:0:0:0:
448,192,282699,1,0,0:0:0:0:
192,192,282699,1,8,0:0:0:0:
320,192,282782,1,0,0:0:0:0:
64,192,282782,1,8,0:0:0:0:
192,192,282866,1,0,0:0:0:0:
448,192,282866,1,2,0:0:0:0:
320,192,283032,1,8,0:0:0:0:
448,192,283032,1,0,0:0:0:0:
192,192,283116,1,0,0:0:0:0:
64,192,283116,1,8,0:0:0:0:
448,192,283199,1,0,0:0:0:0:
320,192,283199,1,2,0:0:0:0:
64,192,283366,1,0,0:0:0:0:
192,192,283366,1,8,0:0:0:0:
320,192,283449,1,8,0:0:0:0:
448,192,283449,1,0,0:0:0:0:
192,192,283532,1,2,0:0:0:0:
64,192,283532,1,0,0:0:0:0:
192,192,283699,1,0,0:0:0:0:
320,192,283699,1,8,0:0:0:0:
448,192,283782,1,8,0:0:0:0:
64,192,283782,1,0,0:0:0:0:
192,192,283866,1,0,0:0:0:0:
320,192,283866,1,2,0:0:0:0:
64,192,284032,1,0,0:0:0:0:
448,192,284032,1,8,0:0:0:0:
320,192,284116,1,8,0:0:0:0:
192,192,284116,1,0,0:0:0:0:
64,192,284199,1,0,0:0:0:0:
448,192,284199,1,2,0:0:0:0:
320,192,284366,1,8,0:0:0:0:
64,192,284366,1,0,0:0:0:0:
448,192,284449,1,8,0:0:0:0:
320,192,284532,1,4,0:0:0:0:
64,192,284532,1,0,0:0:0:0:
192,192,284532,1,2,0:0:0:0:
448,192,284699,1,0,0:0:0:0:
192,192,284699,1,8,0:0:0:0:
320,192,284782,1,8,0:0:0:0:
64,192,284782,1,0,0:0:0:0:
192,192,284866,1,0,0:0:0:0:
448,192,284866,1,2,0:0:0:0:
320,192,285032,1,8,0:0:0:0:
448,192,285032,1,0,0:0:0:0:
192,192,285116,1,8,0:0:0:0:
64,192,285116,1,0,0:0:0:0:
320,192,285199,1,0,0:0:0:0:
448,192,285199,1,2,0:0:0:0:
64,192,285366,1,0,0:0:0:0:
320,192,285366,1,8,0:0:0:0:
192,192,285449,1,8,0:0:0:0:
448,192,285449,1,0,0:0:0:0:
320,192,285532,1,0,0:0:0:0:
64,192,285532,1,2,0:0:0:0:
192,192,285699,1,8,0:0:0:0:
64,192,285699,1,0,0:0:0:0:
320,192,285782,1,8,0:0:0:0:
192,192,285866,1,2,0:0:0:0:
64,192,285866,1,0,0:0:0:0:
448,192,285866,1,4,0:0:0:0:
320,192,285949,1,0,0:0:0:0:
64,192,286032,1,0,0:0:0:0:
192,192,286032,1,8,0:0:0:0:
320,192,286116,1,8,0:0:0:0:
448,192,286116,1,0,0:0:0:0:
192,192,286199,1,8,0:0:0:0:
64,192,286199,1,0,0:0:0:0:
320,192,286282,1,8,0:0:0:0:
448,192,286282,1,0,0:0:0:0:
192,192,286366,1,0,0:0:0:0:
64,192,286366,1,2,0:0:0:0:
320,192,286449,1,2,0:0:0:0:
448,192,286532,1,8,0:0:0:0:
64,192,286532,1,0,0:0:0:0:
192,192,286616,1,8,0:0:0:0:
320,192,286616,1,0,0:0:0:0:
448,192,286699,1,2,0:0:0:0:
64,192,286782,1,8,0:0:0:0:
192,192,286782,1,0,0:0:0:0:
448,192,286866,1,8,0:0:0:0:
320,192,286866,1,0,0:0:0:0:
192,192,286949,1,8,0:0:0:0:
64,192,286949,1,0,0:0:0:0:
320,192,287032,1,8,0:0:0:0:
448,192,287032,1,0,0:0:0:0:
192,192,287116,1,8,0:0:0:0:
64,192,287116,1,0,0:0:0:0:
320,192,287199,1,4,0:0:0:0:
448,192,287199,1,2,0:0:0:0:
64,192,287366,1,0,0:0:0:0:
320,192,287366,1,2,0:0:0:0:
192,192,287532,1,0,0:0:0:0:
64,192,287532,1,0,0:0:0:0:
448,192,287532,1,8,0:0:0:0:
320,192,287699,1,0,0:0:0:0:
64,192,287866,1,0,0:0:0:0:
192,192,287866,1,2,0:0:0:0:
320,192,288032,1,2,0:0:0:0:
192,192,288032,1,0,0:0:0:0:
320,192,288199,1,0,0:0:0:0:
448,192,288199,1,0,0:0:0:0:
64,192,288199,1,8,0:0:0:0:
192,192,288366,1,0,0:0:0:0:
64,192,288532,1,0,0:0:0:0:
320,192,288532,1,2,0:0:0:0:
192,192,288699,1,0,0:0:0:0:
448,192,288699,1,2,0:0:0:0:
448,192,288866,1,0,0:0:0:0:
320,192,288866,1,0,0:0:0:0:
192,192,288866,1,8,0:0:0:0:
64,192,289032,1,0,0:0:0:0:
320,192,289032,1,2,0:0:0:0:
192,192,289199,1,0,0:0:0:0:
448,192,289199,1,2,0:0:0:0:
320,192,289366,1,0,0:0:0:0:
192,192,289366,1,2,0:0:0:0:
64,192,289532,1,0,0:0:0:0:
448,192,289532,1,2,0:0:0:0:
320,192,289699,1,0,0:0:0:0:
448,192,289699,1,2,0:0:0:0:
192,192,289866,1,2,0:0:0:0:
320,192,289866,1,4,0:0:0:0:
64,192,289866,128,0,292532:0:0:0:0:
448,192,290866,1,0,0:0:0:60:A6.wav
192,192,291032,1,0,0:0:0:60:G6#.wav
320,192,291199,1,0,0:0:0:60:F6#.wav
192,192,291866,1,0,0:0:0:60:E6.wav
320,192,292532,5,0,0:0:0:60:B6.wav
448,192,292532,1,0,0:0:0:65:G4#.wav
192,192,292699,1,0,0:0:0:60:E6.wav
64,192,292866,1,0,0:0:0:60:F6#.wav
448,192,293032,1,0,0:0:0:60:G6#.wav
320,192,293199,5,0,0:0:0:60:B6.wav
192,192,293366,1,0,0:0:0:60:E6.wav
448,192,293532,1,0,0:0:0:60:F6#.wav
320,192,293699,1,0,0:0:0:60:G6#.wav
448,192,293866,5,0,0:0:0:60:B6.wav
192,192,293866,1,0,0:0:0:65:A4.wav
320,192,294032,1,0,0:0:0:60:E6.wav
64,192,294199,1,0,0:0:0:60:F6#.wav
448,192,294366,1,0,0:0:0:60:G6#.wav
192,192,294532,5,0,0:0:0:60:B6.wav
64,192,294699,1,0,0:0:0:60:E6.wav
448,192,294866,1,0,0:0:0:60:F6#.wav
64,192,295032,1,0,0:0:0:60:G6#.wav
320,192,295199,5,0,0:0:0:60:B6.wav
192,192,295199,1,0,0:0:0:65:B4.wav
448,192,295366,1,0,0:0:0:60:E6.wav
64,192,295532,1,0,0:0:0:60:F6#.wav
448,192,295699,1,0,0:0:0:60:G6#.wav
192,192,295866,5,0,0:0:0:60:B6.wav
64,192,296032,1,0,0:0:0:60:E6.wav
448,192,296199,1,0,0:0:0:60:F6#.wav
320,192,296366,1,0,0:0:0:60:G6#.wav
192,192,296532,5,0,0:0:0:60:B6.wav
64,192,296532,1,0,0:0:0:65:C5#.wav
448,192,296699,1,0,0:0:0:60:E6.wav
320,192,296866,1,0,0:0:0:60:F6#.wav
64,192,297032,1,0,0:0:0:60:G6#.wav
448,192,297199,5,0,0:0:0:60:B6.wav
64,192,297366,1,0,0:0:0:60:E7.wav
192,192,297532,1,0,0:0:0:60:D7#.wav
320,192,297699,1,0,0:0:0:60:C7#.wav
192,192,297866,5,0,0:0:0:60:B6.wav
448,192,297866,1,0,0:0:0:65:A4.wav
64,192,298032,1,0,0:0:0:60:E6.wav
320,192,298199,1,0,0:0:0:60:F6#.wav
192,192,298366,1,0,0:0:0:60:G6#.wav
448,192,298532,5,0,0:0:0:60:B6.wav
64,192,298699,1,0,0:0:0:60:E6.wav
448,192,298866,1,0,0:0:0:60:F6#.wav
320,192,299032,1,0,0:0:0:60:G6#.wav
192,192,299199,5,0,0:0:0:60:B6.wav
448,192,299366,1,0,0:0:0:60:E6.wav
320,192,299532,1,0,0:0:0:60:F6#.wav
192,192,299699,1,0,0:0:0:60:G6#.wav
448,192,299866,5,0,0:0:0:60:B6.wav
192,192,300032,1,0,0:0:0:60:E6.wav
64,192,300199,1,0,0:0:0:60:F6#.wav
448,192,300366,1,0,0:0:0:60:G6#.wav
320,192,300532,5,0,0:0:0:60:B6.wav
192,192,300532,1,0,0:0:0:65:B4.wav
64,192,300699,1,0,0:0:0:60:E6.wav
448,192,300866,1,0,0:0:0:60:F6#.wav
192,192,301032,1,0,0:0:0:60:G6#.wav
320,192,301199,5,0,0:0:0:60:B6.wav
64,192,301366,1,0,0:0:0:60:E6.wav
320,192,301532,1,0,0:0:0:60:F6#.wav
64,192,301699,1,0,0:0:0:65:D7#.wav
448,192,301699,1,0,0:0:0:60:G6#.wav
