osu file format v14

[General]
AudioFilename: audio.mp3
AudioLeadIn: 0
PreviewTime: 71854
Countdown: 0
SampleSet: Soft
StackLeniency: 0.7
Mode: 3
LetterboxInBreaks: 0
SpecialStyle: 0
WidescreenStoryboard: 0

[Editor]
DistanceSpacing: 1.1
BeatDivisor: 4
GridSize: 32
TimelineZoom: 3.1

[Metadata]
Title:Light Delight
TitleUnicode:Light Delight
Artist:Poppin'Party
ArtistUnicode:Poppin'Party
Creator:-Xooti-
Version:Normal
Source:バンドリ! ガールズバンドパーティ!
Tags:circling kasumi toyama 戸山香澄 terakawa aimi 寺川愛美 tae hanazono 花園たえ otsuka sae 大塚紗英 rimi ushigome 牛込りみ nishimoto rimi 西本りみ Breakthrough! Kou Nakamura 中村航 Fujinaga Ryutaro 藤永龍太郎 Ayaka Ohashi 大橋彩香 Saaya Yamabuki 山吹沙綾 Ayasa Itou 伊藤彩沙 Ichigaya Arisa 市ヶ谷有咲 popipa ポピパ garupa ガルパ bandori bang dream girls vocal idol band jpop j-pop jrock j-rock japanese video game version short ver BRMM-10110
BeatmapID:3938483
BeatmapSetID:1909526

[Difficulty]
HPDrainRate:7
CircleSize:4
OverallDifficulty:7
ApproachRate:5
SliderMultiplier:1.4
SliderTickRate:1

[Events]
//Background and Video events
0,0,"background.jpg",0,0
//Break Periods
//Storyboard Layer 0 (Background)
//Storyboard Layer 1 (Fail)
//Storyboard Layer 2 (Pass)
//Storyboard Layer 3 (Foreground)
//Storyboard Layer 4 (Overlay)
//Storyboard Sound Samples
Sample,61021,0,"Tom3.wav",70
Sample,108687,0,"Tom1.wav",70

[TimingPoints]
2688,333.333333333333,4,2,1,40,1,0
8021,-100.0,4,2,1,40,0,1
18687,-100.0,4,2,1,40,0,0
72021,-100.0,4,2,1,40,0,1
95854,-100.0,4,2,1,40,0,0
98687,-100.0,4,2,1,40,0,1
109354,-100.0,4,2,1,40,0,0

[HitObjects]
64,192,2687,1,0,0:0:0:0:
192,192,3021,1,0,0:0:0:0:
448,192,3187,1,0,0:0:0:0:
320,192,3354,1,0,0:0:0:0:
64,192,3687,1,0,0:0:0:0:
192,192,3854,1,0,0:0:0:0:
448,192,4021,1,0,0:0:0:0:
320,192,4354,1,0,0:0:0:0:
64,192,4521,1,0,0:0:0:0:
192,192,4687,1,0,0:0:0:0:
320,192,5021,1,0,0:0:0:0:
192,192,5187,1,0,0:0:0:0:
64,192,5354,1,0,0:0:0:0:
192,192,5687,1,0,0:0:0:0:
320,192,5854,1,0,0:0:0:0:
448,192,6021,1,0,0:0:0:0:
192,192,6354,1,0,0:0:0:0:
64,192,6521,128,0,7687:0:0:0:0:
320,192,7687,128,0,8021:0:0:0:0:
64,192,8021,1,2,0:0:0:0:
448,192,8021,1,4,0:0:0:0:
320,192,8354,1,10,0:0:0:0:
192,192,8521,1,8,0:0:0:0:
448,192,8687,1,10,0:0:0:0:
192,192,9021,1,10,0:0:0:0:
64,192,9354,1,10,0:0:0:0:
448,192,9521,128,8,10687:0:0:0:0:
192,192,9687,1,10,0:0:0:0:
320,192,10021,1,10,0:0:0:0:
192,192,10354,1,10,0:0:0:0:
64,192,10687,1,2,0:0:0:0:
320,192,10687,1,4,0:0:0:0:
192,192,11021,1,10,0:0:0:0:
64,192,11187,1,8,0:0:0:0:
448,192,11354,1,10,0:0:0:0:
64,192,11687,1,10,0:0:0:0:
192,192,12021,1,10,0:0:0:0:
320,192,12187,1,8,0:0:0:0:
448,192,12354,1,10,0:0:0:0:
320,192,12687,128,10,13021:0:0:0:0:
192,192,13021,128,10,13354:0:0:0:0:
64,192,13354,1,2,0:0:0:0:
448,192,13354,1,4,0:0:0:0:
320,192,13687,1,10,0:0:0:0:
448,192,13854,1,8,0:0:0:0:
64,192,14021,1,10,0:0:0:0:
448,192,14354,1,10,0:0:0:0:
192,192,14687,1,10,0:0:0:0:
64,192,14854,128,8,16021:0:0:0:0:
448,192,15021,1,10,0:0:0:0:
320,192,15354,1,10,0:0:0:0:
192,192,15687,1,10,0:0:0:0:
320,192,16021,1,2,0:0:0:0:
448,192,16021,1,4,0:0:0:0:
192,192,16354,1,10,0:0:0:0:
64,192,16521,1,8,0:0:0:0:
448,192,16687,1,10,0:0:0:0:
192,192,17021,1,10,0:0:0:0:
64,192,17354,1,10,0:0:0:0:
448,192,17521,1,8,0:0:0:0:
320,192,17687,1,10,0:0:0:0:
448,192,18021,1,10,0:0:0:0:
64,192,18187,1,8,0:0:0:0:
320,192,18354,1,10,0:0:0:0:
192,192,18521,1,8,0:0:0:0:
64,192,18687,1,2,0:0:0:0:
448,192,18687,1,4,0:0:0:0:
192,192,19021,1,8,0:0:0:0:
320,192,19021,1,0,0:0:0:0:
192,192,19354,1,2,0:0:0:0:
320,192,19521,1,2,0:0:0:0:
64,192,19687,1,8,0:0:0:0:
448,192,19687,1,0,0:0:0:0:
320,192,20021,1,2,0:0:0:0:
192,192,20187,1,2,0:0:0:0:
64,192,20354,1,8,0:0:0:0:
448,192,20354,1,0,0:0:0:0:
192,192,20521,1,2,0:0:0:0:
320,192,20687,1,8,0:0:0:0:
448,192,20687,1,0,0:0:0:0:
64,192,20854,1,0,0:0:0:70:Tom1.wav
320,192,21021,1,0,0:0:0:70:Tom2.wav
192,192,21187,1,0,0:0:0:70:Tom3.wav
64,192,21354,1,2,0:0:0:0:
448,192,21354,128,4,24021:0:0:0:0:
320,192,22354,1,0,0:0:0:0:
192,192,22521,1,0,0:0:0:0:
64,192,22687,1,0,0:0:0:0:
192,192,23354,1,0,0:0:0:0:
64,192,24021,128,0,25354:0:0:0:0:
320,192,24354,1,0,0:0:0:0:
192,192,24521,1,0,0:0:0:0:
448,192,24687,1,0,0:0:0:0:
320,192,25021,1,0,0:0:0:0:
192,192,25187,1,0,0:0:0:0:
448,192,25354,1,0,0:0:0:0:
320,192,25687,1,0,0:0:0:0:
192,192,25854,1,0,0:0:0:0:
448,192,26021,1,0,0:0:0:0:
320,192,26354,1,0,0:0:0:0:
448,192,26521,1,0,0:0:0:0:
192,192,26687,128,0,29021:0:0:0:0:
448,192,27021,1,0,0:0:0:0:
64,192,27187,1,0,0:0:0:0:
320,192,27354,1,0,0:0:0:0:
448,192,27687,1,0,0:0:0:0:
64,192,27854,1,0,0:0:0:0:
320,192,28021,1,0,0:0:0:0:
448,192,28354,1,0,0:0:0:0:
64,192,28521,1,0,0:0:0:0:
320,192,28687,1,0,0:0:0:0:
448,192,29021,1,0,0:0:0:0:
64,192,29187,1,0,0:0:0:0:
320,192,29354,128,0,31687:0:0:0:0:
64,192,29687,1,0,0:0:0:0:
448,192,29854,1,0,0:0:0:0:
192,192,30021,1,0,0:0:0:0:
64,192,30354,1,0,0:0:0:0:
448,192,30521,1,0,0:0:0:0:
192,192,30687,1,0,0:0:0:0:
64,192,31021,1,0,0:0:0:0:
448,192,31187,1,0,0:0:0:0:
192,192,31354,1,0,0:0:0:0:
64,192,31687,1,0,0:0:0:0:
192,192,31854,1,0,0:0:0:0:
448,192,32021,128,0,34021:0:0:0:0:
192,192,32354,1,0,0:0:0:0:
320,192,32521,1,0,0:0:0:0:
64,192,32687,1,0,0:0:0:0:
192,192,33021,1,0,0:0:0:0:
320,192,33187,1,0,0:0:0:0:
64,192,33354,1,0,0:0:0:0:
192,192,33687,1,0,0:0:0:0:
320,192,33854,1,0,0:0:0:0:
64,192,34021,1,0,0:0:0:0:
192,192,34187,1,0,0:0:0:0:
320,192,34354,128,0,34687:0:0:0:0:
64,192,34687,128,4,37354:0:0:0:0:
448,192,34687,1,2,0:0:0:0:
320,192,35021,1,2,0:0:0:0:
448,192,35354,1,2,0:0:0:0:
192,192,35687,1,2,0:0:0:0:
320,192,36021,1,2,0:0:0:0:
448,192,36354,1,2,0:0:0:0:
320,192,36687,1,2,0:0:0:0:
192,192,37021,1,2,0:0:0:0:
448,192,37354,128,2,40021:0:0:0:0:
192,192,37687,1,2,0:0:0:0:
64,192,38021,1,2,0:0:0:0:
320,192,38354,1,2,0:0:0:0:
64,192,38687,1,2,0:0:0:0:
192,192,39021,1,2,0:0:0:0:
320,192,39354,1,2,0:0:0:0:
64,192,39687,1,2,0:0:0:0:
192,192,40021,128,2,42687:0:0:0:0:
448,192,40354,1,2,0:0:0:0:
64,192,40687,1,2,0:0:0:0:
320,192,41021,1,2,0:0:0:0:
448,192,41354,1,2,0:0:0:0:
64,192,41687,1,2,0:0:0:0:
320,192,42021,1,2,0:0:0:0:
448,192,42354,1,2,0:0:0:0:
320,192,42687,128,2,44354:0:0:0:0:
64,192,43021,1,2,0:0:0:0:
448,192,43354,1,2,0:0:0:0:
192,192,43687,1,2,0:0:0:0:
64,192,44021,1,2,0:0:0:0:
448,192,44187,1,2,0:0:0:0:
64,192,44354,1,8,0:0:0:0:
192,192,44354,1,0,0:0:0:0:
320,192,44521,1,2,0:0:0:0:
64,192,44687,1,8,0:0:0:0:
448,192,44687,1,0,0:0:0:0:
192,192,44854,1,0,0:0:0:70:Tom1.wav
320,192,45021,1,0,0:0:0:70:Tom2.wav
448,192,45187,1,0,0:0:0:70:Tom3.wav
64,192,45354,128,4,46187:0:0:0:0:
192,192,45354,1,2,0:0:0:0:
448,192,45854,1,2,0:0:0:0:
320,192,46021,1,8,0:0:0:0:
192,192,46354,1,0,0:0:0:0:
320,192,46521,128,0,47021:0:0:0:0:
64,192,46687,1,2,0:0:0:0:
192,192,47021,128,2,47354:0:0:0:0:
448,192,47354,128,8,47687:0:0:0:0:
64,192,47687,128,0,48521:0:0:0:0:
320,192,48021,1,2,0:0:0:0:
448,192,48521,1,2,0:0:0:0:
192,192,48687,128,8,49021:0:0:0:0:
320,192,49021,128,0,49687:0:0:0:0:
192,192,49354,1,2,0:0:0:0:
64,192,49687,1,2,0:0:0:0:
448,192,50021,128,8,50354:0:0:0:0:
192,192,50354,128,0,51187:0:0:0:0:
320,192,50687,1,6,0:0:0:0:
448,192,51187,1,2,0:0:0:0:
64,192,51354,1,8,0:0:0:0:
320,192,51687,1,0,0:0:0:0:
448,192,51854,128,0,52354:0:0:0:0:
192,192,52021,1,2,0:0:0:0:
192,192,52354,1,2,0:0:0:0:
64,192,52521,128,0,53021:0:0:0:0:
448,192,52687,1,8,0:0:0:0:
192,192,53021,1,0,0:0:0:0:
320,192,53187,128,0,54021:0:0:0:0:
64,192,53354,1,2,0:0:0:0:
448,192,53854,1,2,0:0:0:0:
64,192,54021,1,8,0:0:0:0:
192,192,54354,1,0,0:0:0:0:
64,192,54687,1,2,0:0:0:0:
448,192,54854,1,8,0:0:0:0:
320,192,55021,1,2,0:0:0:0:
192,192,55354,1,8,0:0:0:0:
64,192,55687,1,8,0:0:0:0:
192,192,55854,1,8,0:0:0:0:
320,192,56021,1,4,0:0:0:0:
448,192,56021,128,2,56854:0:0:0:0:
64,192,56521,1,2,0:0:0:0:
192,192,56687,1,8,0:0:0:0:
320,192,57021,1,0,0:0:0:0:
192,192,57187,128,0,57687:0:0:0:0:
448,192,57354,1,2,0:0:0:0:
320,192,57687,128,2,58021:0:0:0:0:
64,192,58021,128,8,58354:0:0:0:0:
448,192,58354,128,0,59187:0:0:0:0:
320,192,58687,1,2,0:0:0:0:
192,192,59187,1,2,0:0:0:0:
320,192,59354,128,8,59687:0:0:0:0:
64,192,59687,128,0,60354:0:0:0:0:
448,192,60021,1,2,0:0:0:0:
192,192,60187,1,8,0:0:0:0:
320,192,60354,1,2,0:0:0:0:
192,192,60687,128,8,61021:0:0:0:0:
320,192,61021,128,2,61354:0:0:0:0:
64,192,61354,1,4,0:0:0:0:
448,192,61354,1,2,0:0:0:0:
192,192,61687,1,8,0:0:0:0:
320,192,61687,1,0,0:0:0:0:
64,192,62021,1,2,0:0:0:0:
320,192,62354,1,8,0:0:0:0:
448,192,62354,1,0,0:0:0:0:
192,192,62687,1,2,0:0:0:0:
64,192,63021,1,8,0:0:0:0:
448,192,63021,1,0,0:0:0:0:
320,192,63354,1,2,0:0:0:0:
64,192,63687,1,8,0:0:0:0:
192,192,63687,1,0,0:0:0:0:
320,192,64021,1,2,0:0:0:0:
64,192,64354,1,8,0:0:0:0:
448,192,64354,1,0,0:0:0:0:
192,192,64687,1,2,0:0:0:0:
320,192,65021,1,8,0:0:0:0:
448,192,65021,1,0,0:0:0:0:
192,192,65354,128,2,65687:0:0:0:0:
64,192,65687,1,8,0:0:0:0:
448,192,65687,128,0,66021:0:0:0:0:
320,192,66021,1,2,0:0:0:0:
192,192,66187,1,2,0:0:0:0:
64,192,66354,1,8,0:0:0:0:
320,192,66521,1,4,0:0:0:0:
448,192,66521,1,2,0:0:0:0:
64,192,67021,1,8,0:0:0:0:
192,192,67021,1,0,0:0:0:0:
64,192,67354,1,8,0:0:0:0:
192,192,67354,1,0,0:0:0:0:
320,192,67687,1,8,0:0:0:0:
448,192,67687,1,0,0:0:0:0:
320,192,68021,1,8,0:0:0:0:
448,192,68021,1,0,0:0:0:0:
64,192,68354,1,8,0:0:0:0:
192,192,68354,1,0,0:0:0:0:
320,192,68687,1,8,0:0:0:0:
448,192,68687,1,0,0:0:0:0:
64,192,68854,1,8,0:0:0:0:
192,192,69021,1,8,0:0:0:0:
320,192,69021,1,0,0:0:0:0:
448,192,69187,1,8,0:0:0:0:
64,192,69354,128,4,71354:0:0:0:0:
192,192,69354,1,2,0:0:0:0:
448,192,70021,1,0,0:0:0:0:
320,192,70687,1,0,0:0:0:0:
192,192,71354,1,0,0:0:0:0:
64,192,72021,1,10,0:0:0:0:
448,192,72021,1,4,0:0:0:0:
192,192,72187,1,2,0:0:0:0:
320,192,72354,1,2,0:0:0:0:
64,192,72521,1,12,0:0:0:0:
448,192,72521,1,2,0:0:0:0:
320,192,72687,1,2,0:0:0:0:
192,192,72854,1,2,0:0:0:0:
64,192,73021,1,10,0:0:0:0:
448,192,73021,1,4,0:0:0:0:
192,192,73187,1,2,0:0:0:0:
320,192,73354,1,2,0:0:0:0:
64,192,73521,1,6,0:0:0:0:
448,192,73521,1,8,0:0:0:0:
192,192,73687,1,2,0:0:0:0:
320,192,73854,1,2,0:0:0:0:
192,192,74021,1,6,0:0:0:0:
448,192,74021,128,8,74354:0:0:0:0:
64,192,74354,128,10,74687:0:0:0:0:
320,192,74354,1,4,0:0:0:0:
320,192,74687,1,10,0:0:0:0:
448,192,74687,1,4,0:0:0:0:
192,192,74854,1,2,0:0:0:0:
448,192,75021,1,2,0:0:0:0:
64,192,75187,1,6,0:0:0:0:
192,192,75187,1,8,0:0:0:0:
320,192,75354,1,2,0:0:0:0:
64,192,75521,1,2,0:0:0:0:
320,192,75687,1,10,0:0:0:0:
448,192,75687,1,4,0:0:0:0:
192,192,75854,1,2,0:0:0:0:
448,192,76021,1,2,0:0:0:0:
64,192,76187,1,6,0:0:0:0:
192,192,76187,1,8,0:0:0:0:
320,192,76354,1,2,0:0:0:0:
448,192,76521,1,2,0:0:0:0:
64,192,76687,128,10,77021:0:0:0:0:
192,192,76687,1,4,0:0:0:0:
320,192,77021,1,10,0:0:0:0:
448,192,77021,128,4,77354:0:0:0:0:
64,192,77354,1,12,0:0:0:0:
192,192,77354,1,2,0:0:0:0:
320,192,77521,1,2,0:0:0:0:
192,192,77687,1,2,0:0:0:0:
64,192,77854,1,6,0:0:0:0:
448,192,77854,1,8,0:0:0:0:
320,192,78021,1,2,0:0:0:0:
192,192,78187,1,2,0:0:0:0:
64,192,78354,1,6,0:0:0:0:
448,192,78354,1,8,0:0:0:0:
320,192,78521,1,2,0:0:0:0:
192,192,78687,1,2,0:0:0:0:
320,192,78854,1,6,0:0:0:0:
448,192,78854,1,8,0:0:0:0:
64,192,79021,1,2,0:0:0:0:
192,192,79187,1,2,0:0:0:0:
64,192,79354,128,10,79687:0:0:0:0:
320,192,79354,1,4,0:0:0:0:
192,192,79687,1,6,0:0:0:0:
448,192,79687,128,8,80021:0:0:0:0:
64,192,80021,1,12,0:0:0:0:
192,192,80021,1,2,0:0:0:0:
320,192,80187,1,2,0:0:0:0:
64,192,80354,1,2,0:0:0:0:
192,192,80521,1,6,0:0:0:0:
448,192,80521,1,8,0:0:0:0:
320,192,80687,1,2,0:0:0:0:
64,192,80854,1,2,0:0:0:0:
192,192,81021,1,10,0:0:0:0:
320,192,81021,1,4,0:0:0:0:
448,192,81187,1,2,0:0:0:0:
64,192,81354,1,2,0:0:0:0:
192,192,81521,1,6,0:0:0:0:
448,192,81521,1,8,0:0:0:0:
320,192,81687,1,2,0:0:0:0:
192,192,81854,1,2,0:0:0:0:
64,192,82021,1,6,0:0:0:0:
448,192,82021,1,8,0:0:0:0:
192,192,82354,1,12,0:0:0:0:
320,192,82354,128,2,82687:0:0:0:0:
64,192,82687,1,4,0:0:0:0:
448,192,82687,1,2,0:0:0:0:
64,192,83021,1,8,0:0:0:0:
320,192,83021,1,0,0:0:0:0:
192,192,83187,1,8,0:0:0:0:
320,192,83354,1,2,0:0:0:0:
192,192,83521,1,2,0:0:0:0:
64,192,83687,1,8,0:0:0:0:
448,192,83687,1,0,0:0:0:0:
320,192,84021,1,2,0:0:0:0:
192,192,84187,1,2,0:0:0:0:
320,192,84354,1,8,0:0:0:0:
448,192,84354,1,0,0:0:0:0:
64,192,84687,128,2,84854:0:0:0:0:
320,192,84854,128,2,85021:0:0:0:0:
192,192,85021,128,8,85187:0:0:0:0:
448,192,85187,128,0,85354:0:0:0:0:
64,192,85354,1,2,0:0:0:0:
320,192,85354,1,0,0:0:0:0:
320,192,85687,1,8,0:0:0:0:
448,192,85687,1,0,0:0:0:0:
192,192,85854,1,8,0:0:0:0:
448,192,86021,1,2,0:0:0:0:
320,192,86187,1,2,0:0:0:0:
64,192,86354,1,8,0:0:0:0:
192,192,86354,1,0,0:0:0:0:
64,192,86687,1,2,0:0:0:0:
192,192,86854,1,2,0:0:0:0:
320,192,87021,1,8,0:0:0:0:
448,192,87021,1,0,0:0:0:0:
192,192,87187,1,8,0:0:0:0:
448,192,87354,128,2,87687:0:0:0:0:
320,192,87521,1,2,0:0:0:0:
64,192,87687,128,8,88021:0:0:0:0:
192,192,87687,1,0,0:0:0:0:
320,192,88021,128,2,88354:0:0:0:0:
64,192,88354,1,8,0:0:0:0:
448,192,88354,1,0,0:0:0:0:
192,192,88521,1,8,0:0:0:0:
320,192,88687,1,2,0:0:0:0:
192,192,88854,1,2,0:0:0:0:
64,192,89021,1,8,0:0:0:0:
448,192,89021,1,0,0:0:0:0:
320,192,89354,1,2,0:0:0:0:
64,192,89521,1,2,0:0:0:0:
192,192,89687,1,8,0:0:0:0:
448,192,89687,1,0,0:0:0:0:
320,192,89854,1,8,0:0:0:0:
192,192,90021,1,2,0:0:0:0:
64,192,90187,1,2,0:0:0:0:
320,192,90354,1,8,0:0:0:0:
448,192,90354,1,0,0:0:0:0:
64,192,90687,1,4,0:0:0:0:
448,192,90687,1,2,0:0:0:0:
192,192,91021,1,8,0:0:0:0:
448,192,91021,1,0,0:0:0:0:
320,192,91187,1,8,0:0:0:0:
64,192,91354,1,2,0:0:0:0:
192,192,91521,1,2,0:0:0:0:
320,192,91687,1,8,0:0:0:0:
448,192,91687,1,0,0:0:0:0:
192,192,92021,1,2,0:0:0:0:
320,192,92187,1,2,0:0:0:0:
64,192,92354,128,8,92687:0:0:0:0:
448,192,92354,1,0,0:0:0:0:
192,192,92521,1,2,0:0:0:0:
448,192,92687,1,0,0:0:0:70:Tom1.wav
320,192,92854,1,0,0:0:0:70:Tom2.wav
64,192,93021,1,8,0:0:0:0:
192,192,93021,1,0,0:0:0:70:Tom3.wav
320,192,93187,1,4,0:0:0:0:
448,192,93187,1,2,0:0:0:0:
192,192,93687,1,8,0:0:0:0:
448,192,93687,1,0,0:0:0:0:
320,192,94021,1,8,0:0:0:0:
448,192,94021,1,0,0:0:0:0:
64,192,94354,1,8,0:0:0:0:
320,192,94354,1,0,0:0:0:0:
64,192,94687,1,8,0:0:0:0:
192,192,94687,1,0,0:0:0:0:
192,192,95021,1,8,0:0:0:0:
320,192,95021,1,0,0:0:0:0:
448,192,95354,1,0,0:0:0:70:Tom1.wav
320,192,95521,1,0,0:0:0:70:Tom2.wav
192,192,95687,1,0,0:0:0:70:Tom3.wav
64,192,95854,128,4,98021:0:0:0:0:
448,192,95854,1,2,0:0:0:0:
320,192,98354,128,0,98687:0:0:0:0:
64,192,98687,1,2,0:0:0:0:
448,192,98687,1,4,0:0:0:0:
192,192,99021,1,10,0:0:0:0:
320,192,99187,1,8,0:0:0:0:
64,192,99354,1,10,0:0:0:0:
320,192,99687,1,10,0:0:0:0:
448,192,100021,1,10,0:0:0:0:
64,192,100187,128,8,101354:0:0:0:0:
320,192,100354,1,10,0:0:0:0:
192,192,100687,1,10,0:0:0:0:
320,192,101021,1,10,0:0:0:0:
192,192,101354,1,2,0:0:0:0:
448,192,101354,1,4,0:0:0:0:
320,192,101687,1,10,0:0:0:0:
448,192,101854,1,8,0:0:0:0:
64,192,102021,1,10,0:0:0:0:
448,192,102354,1,10,0:0:0:0:
320,192,102687,1,10,0:0:0:0:
192,192,102854,1,8,0:0:0:0:
64,192,103021,1,10,0:0:0:0:
192,192,103354,128,10,103687:0:0:0:0:
320,192,103687,128,10,104021:0:0:0:0:
64,192,104021,1,2,0:0:0:0:
448,192,104021,1,4,0:0:0:0:
192,192,104354,1,10,0:0:0:0:
64,192,104521,1,8,0:0:0:0:
448,192,104687,1,10,0:0:0:0:
64,192,105021,1,10,0:0:0:0:
320,192,105354,1,10,0:0:0:0:
448,192,105521,128,8,106687:0:0:0:0:
64,192,105687,1,10,0:0:0:0:
192,192,106021,1,10,0:0:0:0:
320,192,106354,1,10,0:0:0:0:
64,192,106687,1,2,0:0:0:0:
192,192,106687,1,4,0:0:0:0:
320,192,107021,1,10,0:0:0:0:
448,192,107187,1,8,0:0:0:0:
64,192,107354,1,10,0:0:0:0:
320,192,107687,1,10,0:0:0:0:
64,192,108021,1,2,0:0:0:0:
448,192,108021,1,4,0:0:0:0:
320,192,108187,1,8,0:0:0:0:
192,192,108354,1,10,0:0:0:0:
448,192,108354,1,0,0:0:0:70:Tom1.wav
64,192,108521,1,0,0:0:0:70:Tom1.wav
320,192,108687,1,2,0:0:0:0:
192,192,108854,1,0,0:0:0:70:Tom1.wav
448,192,109021,1,2,0:0:0:0:
320,192,109187,1,0,0:0:0:70:Tom3.wav
64,192,109354,1,2,0:0:0:0:
192,192,109354,1,4,0:0:0:0:
64,192,109687,1,8,0:0:0:0:
448,192,109687,1,0,0:0:0:0:
320,192,110021,1,2,0:0:0:0:
192,192,110187,1,2,0:0:0:0:
64,192,110354,1,8,0:0:0:0:
448,192,110354,1,0,0:0:0:0:
320,192,110687,1,2,0:0:0:0:
64,192,110854,1,2,0:0:0:0:
320,192,111021,1,8,0:0:0:0:
448,192,111021,1,0,0:0:0:0:
192,192,111354,1,2,0:0:0:0:
320,192,111521,1,2,0:0:0:0:
64,192,111687,1,8,0:0:0:0:
448,192,111687,1,0,0:0:0:0:
320,192,111854,1,8,0:0:0:0:
64,192,112021,128,2,114687:0:0:0:0:
192,192,112021,1,4,0:0:0:0:
192,192,113021,1,0,0:0:0:0:
320,192,113187,1,0,0:0:0:0:
448,192,113354,1,0,0:0:0:0:
320,192,114021,1,0,0:0:0:0:
448,192,114687,1,0,0:0:0:0:
320,192,115021,1,0,0:0:0:0:
64,192,115187,1,0,0:0:0:0:
192,192,115354,1,0,0:0:0:0:
448,192,115687,1,0,0:0:0:0:
320,192,115854,1,0,0:0:0:0:
64,192,116021,1,0,0:0:0:0:
192,192,116354,1,0,0:0:0:0:
448,192,116521,1,0,0:0:0:0:
320,192,116687,1,0,0:0:0:0:
192,192,117021,1,0,0:0:0:0:
320,192,117187,1,0,0:0:0:0:
448,192,117354,1,0,0:0:0:0:
320,192,117687,1,0,0:0:0:0:
192,192,117854,1,0,0:0:0:0:
64,192,118021,1,0,0:0:0:0:
320,192,118354,1,0,0:0:0:0:
448,192,118521,128,0,121354:0:0:0:0:
