osu file format v14

[General]
AudioFilename: audio.mp3
AudioLeadIn: 0
PreviewTime: 71854
Countdown: 0
SampleSet: Soft
StackLeniency: 0.7
Mode: 3
LetterboxInBreaks: 0
SpecialStyle: 0
WidescreenStoryboard: 0

[Editor]
DistanceSpacing: 0.9
BeatDivisor: 4
GridSize: 4
TimelineZoom: 3.699999

[Metadata]
Title:Light Delight
TitleUnicode:Light Delight
Artist:Poppin'Party
ArtistUnicode:Poppin'Party
Creator:-Xooti-
Version:Delightful
Source:バンドリ! ガールズバンドパーティ!
Tags:circling kasumi toyama 戸山香澄 terakawa aimi 寺川愛美 tae hanazono 花園たえ otsuka sae 大塚紗英 rimi ushigome 牛込りみ nishimoto rimi 西本りみ Breakthrough! Kou Nakamura 中村航 Fujinaga Ryutaro 藤永龍太郎 Ayaka Ohashi 大橋彩香 Saaya Yamabuki 山吹沙綾 Ayasa Itou 伊藤彩沙 Ichigaya Arisa 市ヶ谷有咲 popipa ポピパ garupa ガルパ bandori bang dream girls vocal idol band jpop j-pop jrock j-rock japanese video game version short ver BRMM-10110
BeatmapID:3938479
BeatmapSetID:1909526

[Difficulty]
HPDrainRate:8.5
CircleSize:4
OverallDifficulty:8.5
ApproachRate:5
SliderMultiplier:1.4
SliderTickRate:1

[Events]
//Background and Video events
0,0,"background.jpg",0,0
//Break Periods
//Storyboard Layer 0 (Background)
//Storyboard Layer 1 (Fail)
//Storyboard Layer 2 (Pass)
//Storyboard Layer 3 (Foreground)
//Storyboard Layer 4 (Overlay)
//Storyboard Sound Samples

[TimingPoints]
2688,333.333333333333,4,2,1,40,1,0
8021,-100,4,2,1,40,0,1
18687,-100,4,2,1,40,0,0
72021,-100,4,2,1,40,0,1
95854,-100,4,2,1,40,0,0
98687,-100,4,2,1,40,0,1
109354,-100,4,2,1,40,0,0

[HitObjects]
320,192,2687,5,0,0:0:0:0:
448,192,2687,1,0,0:0:0:0:
64,192,2854,1,0,0:0:0:0:
192,192,3021,1,0,0:0:0:0:
320,192,3187,1,0,0:0:0:0:
64,192,3354,1,0,0:0:0:0:
448,192,3354,1,0,0:0:0:0:
192,192,3521,1,0,0:0:0:0:
320,192,3687,1,0,0:0:0:0:
448,192,3854,1,0,0:0:0:0:
64,192,4021,1,0,0:0:0:0:
192,192,4021,1,0,0:0:0:0:
448,192,4187,1,0,0:0:0:0:
320,192,4354,1,0,0:0:0:0:
192,192,4521,1,0,0:0:0:0:
64,192,4687,1,0,0:0:0:0:
448,192,4687,1,0,0:0:0:0:
320,192,4854,1,0,0:0:0:0:
192,192,5021,1,0,0:0:0:0:
64,192,5187,1,0,0:0:0:0:
192,192,5354,1,0,0:0:0:0:
448,192,5354,1,0,0:0:0:0:
320,192,5521,1,0,0:0:0:0:
192,192,5687,1,0,0:0:0:0:
320,192,5854,1,0,0:0:0:0:
64,192,6021,1,0,0:0:0:0:
448,192,6021,1,0,0:0:0:0:
192,192,6187,1,0,0:0:0:0:
320,192,6354,1,0,0:0:0:0:
64,192,6521,128,0,7687:0:0:0:0:
448,192,6521,128,0,7687:0:0:0:0:
320,192,7687,128,0,7771:0:0:0:0:
192,192,7771,128,0,7854:0:0:0:0:
64,192,7854,128,0,7937:0:0:0:0:
320,192,7937,128,0,8021:0:0:0:0:
64,192,8021,1,2,0:0:0:0:
192,192,8021,1,4,0:0:0:0:
448,192,8021,1,0,0:0:0:0:
64,192,8187,1,8,0:0:0:0:
448,192,8187,1,0,0:0:0:0:
192,192,8271,1,8,0:0:0:0:
320,192,8271,1,0,0:0:0:0:
64,192,8354,1,2,0:0:0:0:
448,192,8354,1,8,0:0:0:0:
64,192,8521,1,8,0:0:0:0:
192,192,8521,1,0,0:0:0:0:
320,192,8604,1,8,0:0:0:0:
448,192,8604,1,0,0:0:0:0:
64,192,8687,1,2,0:0:0:0:
192,192,8687,1,8,0:0:0:0:
192,192,8854,1,8,0:0:0:0:
448,192,8854,1,0,0:0:0:0:
64,192,8937,1,8,0:0:0:0:
320,192,8937,1,0,0:0:0:0:
192,192,9021,1,8,0:0:0:0:
448,192,9021,1,2,0:0:0:0:
64,192,9187,1,8,0:0:0:0:
448,192,9187,1,0,0:0:0:0:
192,192,9271,1,8,0:0:0:0:
320,192,9271,1,0,0:0:0:0:
64,192,9354,1,2,0:0:0:0:
448,192,9354,1,8,0:0:0:0:
64,192,9521,1,8,0:0:0:0:
192,192,9521,1,0,0:0:0:0:
320,192,9604,1,8,0:0:0:0:
448,192,9604,1,0,0:0:0:0:
64,192,9687,1,2,0:0:0:0:
192,192,9687,1,8,0:0:0:0:
320,192,9771,1,0,0:0:0:0:
64,192,9854,1,8,0:0:0:0:
448,192,9854,1,0,0:0:0:0:
192,192,9937,1,8,0:0:0:0:
320,192,9937,1,0,0:0:0:0:
64,192,10021,1,2,0:0:0:0:
448,192,10021,1,8,0:0:0:0:
192,192,10104,1,0,0:0:0:0:
320,192,10187,1,8,0:0:0:0:
448,192,10187,1,0,0:0:0:0:
64,192,10271,1,8,0:0:0:0:
192,192,10271,1,0,0:0:0:0:
320,192,10354,1,2,0:0:0:0:
448,192,10354,1,8,0:0:0:0:
64,192,10521,1,8,0:0:0:0:
192,192,10521,1,0,0:0:0:0:
320,192,10604,1,8,0:0:0:0:
64,192,10687,1,2,0:0:0:0:
192,192,10687,1,4,0:0:0:0:
448,192,10687,1,0,0:0:0:0:
192,192,10854,1,8,0:0:0:0:
448,192,10854,1,0,0:0:0:0:
64,192,10937,1,8,0:0:0:0:
320,192,10937,1,0,0:0:0:0:
192,192,11021,1,2,0:0:0:0:
448,192,11021,1,8,0:0:0:0:
64,192,11187,1,8,0:0:0:0:
192,192,11187,1,0,0:0:0:0:
320,192,11271,1,8,0:0:0:0:
448,192,11271,1,0,0:0:0:0:
64,192,11354,1,8,0:0:0:0:
192,192,11354,1,2,0:0:0:0:
64,192,11521,1,8,0:0:0:0:
448,192,11521,1,0,0:0:0:0:
192,192,11604,1,8,0:0:0:0:
320,192,11604,1,0,0:0:0:0:
64,192,11687,1,2,0:0:0:0:
448,192,11687,1,8,0:0:0:0:
192,192,11854,1,8,0:0:0:0:
320,192,11854,1,0,0:0:0:0:
64,192,11937,1,8,0:0:0:0:
448,192,11937,1,0,0:0:0:0:
192,192,12021,1,8,0:0:0:0:
320,192,12021,1,2,0:0:0:0:
320,192,12187,1,8,0:0:0:0:
448,192,12187,1,0,0:0:0:0:
64,192,12271,1,8,0:0:0:0:
192,192,12271,1,0,0:0:0:0:
320,192,12354,1,2,0:0:0:0:
448,192,12354,1,8,0:0:0:0:
64,192,12521,1,8,0:0:0:0:
320,192,12521,1,0,0:0:0:0:
192,192,12604,1,8,0:0:0:0:
448,192,12604,1,0,0:0:0:0:
64,192,12687,1,8,0:0:0:0:
320,192,12687,1,2,0:0:0:0:
64,192,12854,1,8,0:0:0:0:
192,192,12854,1,0,0:0:0:0:
320,192,12937,1,8,0:0:0:0:
448,192,12937,1,0,0:0:0:0:
64,192,13021,1,2,0:0:0:0:
192,192,13021,1,8,0:0:0:0:
64,192,13187,1,8,0:0:0:0:
448,192,13187,1,0,0:0:0:0:
320,192,13271,1,8,0:0:0:0:
64,192,13354,1,2,0:0:0:0:
192,192,13354,1,4,0:0:0:0:
448,192,13354,1,0,0:0:0:0:
64,192,13521,1,8,0:0:0:0:
448,192,13521,1,0,0:0:0:0:
192,192,13604,1,8,0:0:0:0:
320,192,13604,1,0,0:0:0:0:
64,192,13687,1,2,0:0:0:0:
448,192,13687,1,8,0:0:0:0:
320,192,13854,1,8,0:0:0:0:
448,192,13854,1,0,0:0:0:0:
64,192,13937,1,8,0:0:0:0:
192,192,13937,1,0,0:0:0:0:
320,192,14021,1,8,0:0:0:0:
448,192,14021,1,2,0:0:0:0:
64,192,14187,1,8,0:0:0:0:
320,192,14187,1,0,0:0:0:0:
192,192,14271,1,8,0:0:0:0:
448,192,14271,1,0,0:0:0:0:
64,192,14354,1,2,0:0:0:0:
320,192,14354,1,8,0:0:0:0:
64,192,14521,1,8,0:0:0:0:
448,192,14521,1,0,0:0:0:0:
192,192,14604,1,8,0:0:0:0:
320,192,14604,1,0,0:0:0:0:
64,192,14687,1,8,0:0:0:0:
448,192,14687,1,2,0:0:0:0:
320,192,14854,1,8,0:0:0:0:
448,192,14854,1,0,0:0:0:0:
64,192,14937,1,8,0:0:0:0:
192,192,14937,1,0,0:0:0:0:
320,192,15021,1,2,0:0:0:0:
448,192,15021,1,8,0:0:0:0:
192,192,15104,1,0,0:0:0:0:
64,192,15187,1,8,0:0:0:0:
448,192,15187,1,0,0:0:0:0:
192,192,15271,1,8,0:0:0:0:
320,192,15271,1,0,0:0:0:0:
64,192,15354,1,8,0:0:0:0:
448,192,15354,1,2,0:0:0:0:
320,192,15437,1,0,0:0:0:0:
64,192,15521,1,8,0:0:0:0:
192,192,15521,1,0,0:0:0:0:
320,192,15604,1,8,0:0:0:0:
448,192,15604,1,0,0:0:0:0:
64,192,15687,1,2,0:0:0:0:
192,192,15687,1,8,0:0:0:0:
320,192,15854,1,8,0:0:0:0:
448,192,15854,1,0,0:0:0:0:
192,192,15937,1,8,0:0:0:0:
64,192,16021,1,2,0:0:0:0:
320,192,16021,1,4,0:0:0:0:
448,192,16021,1,0,0:0:0:0:
64,192,16187,1,8,0:0:0:0:
320,192,16187,1,0,0:0:0:0:
192,192,16271,1,8,0:0:0:0:
448,192,16271,1,0,0:0:0:0:
64,192,16354,1,2,0:0:0:0:
320,192,16354,1,8,0:0:0:0:
320,192,16521,1,8,0:0:0:0:
448,192,16521,1,0,0:0:0:0:
64,192,16604,1,8,0:0:0:0:
192,192,16604,1,0,0:0:0:0:
320,192,16687,1,8,0:0:0:0:
448,192,16687,1,2,0:0:0:0:
64,192,16854,1,8,0:0:0:0:
448,192,16854,1,0,0:0:0:0:
192,192,16937,1,8,0:0:0:0:
320,192,16937,1,0,0:0:0:0:
64,192,17021,1,2,0:0:0:0:
448,192,17021,1,8,0:0:0:0:
64,192,17187,1,8,0:0:0:0:
320,192,17187,1,0,0:0:0:0:
192,192,17271,1,8,0:0:0:0:
448,192,17271,1,0,0:0:0:0:
64,192,17354,1,8,0:0:0:0:
320,192,17354,1,2,0:0:0:0:
64,192,17521,1,8,0:0:0:0:
192,192,17521,1,0,0:0:0:0:
320,192,17604,1,8,0:0:0:0:
448,192,17604,1,0,0:0:0:0:
64,192,17687,1,2,0:0:0:0:
192,192,17687,1,8,0:0:0:0:
320,192,17771,1,0,0:0:0:0:
64,192,17854,1,8,0:0:0:0:
320,192,17937,1,8,0:0:0:0:
448,192,17937,1,0,0:0:0:0:
64,192,18021,1,2,0:0:0:0:
192,192,18021,1,8,0:0:0:0:
448,192,18104,1,8,0:0:0:0:
192,192,18187,1,8,0:0:0:0:
320,192,18271,1,8,0:0:0:0:
448,192,18271,1,0,0:0:0:0:
64,192,18354,1,2,0:0:0:0:
192,192,18354,1,8,0:0:0:0:
320,192,18437,1,8,0:0:0:0:
448,192,18437,1,0,0:0:0:0:
64,192,18521,1,8,0:0:0:0:
192,192,18521,1,0,0:0:0:0:
320,192,18604,1,8,0:0:0:0:
64,192,18687,1,2,0:0:0:0:
192,192,18687,1,4,0:0:0:0:
448,192,18687,1,0,0:0:0:0:
64,192,19021,1,8,0:0:0:0:
192,192,19021,1,0,0:0:0:0:
448,192,19021,1,0,0:0:0:0:
320,192,19187,1,8,0:0:0:0:
64,192,19271,1,8,0:0:0:0:
192,192,19271,1,0,0:0:0:0:
320,192,19354,1,2,0:0:0:0:
448,192,19354,1,0,0:0:0:0:
320,192,19521,1,2,0:0:0:0:
448,192,19521,1,0,0:0:0:0:
64,192,19687,1,8,0:0:0:0:
192,192,19687,1,0,0:0:0:0:
448,192,19687,1,0,0:0:0:0:
320,192,19854,1,0,0:0:0:0:
64,192,20021,1,2,0:0:0:0:
448,192,20021,1,0,0:0:0:0:
192,192,20187,1,2,0:0:0:0:
320,192,20187,1,0,0:0:0:0:
64,192,20354,1,8,0:0:0:0:
192,192,20354,1,0,0:0:0:0:
448,192,20354,1,0,0:0:0:0:
192,192,20521,1,2,0:0:0:0:
320,192,20521,1,0,0:0:0:0:
64,192,20687,128,8,21021:0:0:0:0:
320,192,20687,1,0,0:0:0:0:
448,192,20687,1,0,0:0:0:0:
192,192,20854,1,0,0:0:0:70:Tom1.wav
448,192,20854,1,0,0:0:0:0:
192,192,21021,1,0,0:0:0:70:Tom2.wav
320,192,21021,128,0,21187:0:0:0:0:
64,192,21187,1,0,0:0:0:70:Tom3.wav
192,192,21187,128,0,21354:0:0:0:0:
64,192,21354,128,2,22521:0:0:0:0:
320,192,21354,128,4,22354:0:0:0:0:
448,192,21354,128,0,22521:0:0:0:0:
192,192,22354,128,0,23187:0:0:0:0:
320,192,22521,128,0,23937:0:0:0:0:
64,192,22687,128,0,23937:0:0:0:0:
448,192,22687,128,0,23937:0:0:0:0:
192,192,23354,128,0,23937:0:0:0:0:
64,192,24021,128,0,25354:0:0:0:0:
448,192,24021,1,0,0:0:0:0:
320,192,24187,1,0,0:0:0:0:
192,192,24354,1,0,0:0:0:0:
320,192,24521,1,0,0:0:0:0:
192,192,24687,1,0,0:0:0:0:
448,192,24687,1,0,0:0:0:0:
320,192,24854,1,0,0:0:0:0:
192,192,25021,1,0,0:0:0:0:
320,192,25187,1,0,0:0:0:0:
192,192,25354,1,0,0:0:0:0:
448,192,25354,1,0,0:0:0:0:
320,192,25521,1,0,0:0:0:0:
192,192,25687,1,0,0:0:0:0:
320,192,25854,1,0,0:0:0:0:
192,192,26021,1,0,0:0:0:0:
448,192,26021,1,0,0:0:0:0:
320,192,26187,1,0,0:0:0:0:
192,192,26354,1,0,0:0:0:0:
320,192,26521,1,0,0:0:0:0:
64,192,26687,1,0,0:0:0:0:
448,192,26687,128,0,29021:0:0:0:0:
192,192,26854,1,0,0:0:0:0:
320,192,27021,1,0,0:0:0:0:
192,192,27187,1,0,0:0:0:0:
64,192,27354,1,0,0:0:0:0:
320,192,27354,1,0,0:0:0:0:
192,192,27521,1,0,0:0:0:0:
320,192,27687,1,0,0:0:0:0:
192,192,27854,1,0,0:0:0:0:
64,192,28021,1,0,0:0:0:0:
320,192,28021,1,0,0:0:0:0:
192,192,28187,1,0,0:0:0:0:
320,192,28354,1,0,0:0:0:0:
192,192,28521,1,0,0:0:0:0:
64,192,28687,1,0,0:0:0:0:
320,192,28687,1,0,0:0:0:0:
192,192,28854,1,0,0:0:0:0:
320,192,29021,1,0,0:0:0:0:
64,192,29187,1,0,0:0:0:0:
192,192,29354,128,0,31687:0:0:0:0:
448,192,29354,1,0,0:0:0:0:
320,192,29521,1,0,0:0:0:0:
64,192,29687,1,0,0:0:0:0:
320,192,29854,1,0,0:0:0:0:
64,192,30021,1,0,0:0:0:0:
448,192,30021,1,0,0:0:0:0:
320,192,30187,1,0,0:0:0:0:
64,192,30354,1,0,0:0:0:0:
320,192,30521,1,0,0:0:0:0:
64,192,30687,1,0,0:0:0:0:
448,192,30687,1,0,0:0:0:0:
320,192,30854,1,0,0:0:0:0:
64,192,31021,1,0,0:0:0:0:
320,192,31187,1,0,0:0:0:0:
64,192,31354,1,0,0:0:0:0:
448,192,31354,1,0,0:0:0:0:
320,192,31521,1,0,0:0:0:0:
64,192,31687,1,0,0:0:0:0:
192,192,31854,1,0,0:0:0:0:
64,192,32021,1,0,0:0:0:0:
320,192,32021,128,0,33354:0:0:0:0:
192,192,32187,1,0,0:0:0:0:
448,192,32354,1,0,0:0:0:0:
192,192,32521,1,0,0:0:0:0:
64,192,32687,1,0,0:0:0:0:
448,192,32687,1,0,0:0:0:0:
192,192,32854,1,0,0:0:0:0:
448,192,33021,1,0,0:0:0:0:
192,192,33187,1,0,0:0:0:0:
64,192,33354,1,0,0:0:0:0:
448,192,33354,1,0,0:0:0:0:
192,192,33521,1,0,0:0:0:0:
64,192,33687,1,0,0:0:0:0:
320,192,33854,1,0,0:0:0:0:
64,192,34021,1,0,0:0:0:0:
448,192,34021,1,0,0:0:0:0:
320,192,34187,1,0,0:0:0:0:
192,192,34354,1,0,0:0:0:0:
64,192,34687,1,4,0:0:0:0:
320,192,34687,1,2,0:0:0:0:
448,192,34687,1,0,0:0:0:0:
64,192,35021,1,2,0:0:0:0:
448,192,35021,1,0,0:0:0:0:
192,192,35187,128,0,35354:0:0:0:0:
320,192,35354,128,2,35854:0:0:0:0:
448,192,35354,1,0,0:0:0:0:
64,192,35521,1,0,0:0:0:0:
192,192,35687,128,2,35854:0:0:0:0:
64,192,35854,128,0,36187:0:0:0:0:
192,192,36021,1,2,0:0:0:0:
448,192,36021,1,0,0:0:0:0:
320,192,36187,128,0,36521:0:0:0:0:
64,192,36354,1,2,0:0:0:0:
192,192,36521,128,0,37187:0:0:0:0:
64,192,36687,1,2,0:0:0:0:
448,192,36687,1,0,0:0:0:0:
320,192,36854,1,0,0:0:0:0:
64,192,37021,1,2,0:0:0:0:
448,192,37021,1,0,0:0:0:0:
320,192,37187,1,0,0:0:0:0:
448,192,37271,1,0,0:0:0:0:
64,192,37354,1,2,0:0:0:0:
192,192,37354,1,0,0:0:0:0:
320,192,37521,1,0,0:0:0:0:
192,192,37687,1,2,0:0:0:0:
448,192,37687,1,0,0:0:0:0:
320,192,37854,128,0,38021:0:0:0:0:
64,192,38021,128,2,38521:0:0:0:0:
448,192,38021,1,0,0:0:0:0:
192,192,38187,1,0,0:0:0:0:
320,192,38354,128,2,38521:0:0:0:0:
448,192,38521,128,0,38854:0:0:0:0:
64,192,38687,1,2,0:0:0:0:
320,192,38687,1,0,0:0:0:0:
192,192,38854,128,0,39187:0:0:0:0:
64,192,39021,1,2,0:0:0:0:
320,192,39187,128,0,40021:0:0:0:0:
64,192,39354,1,2,0:0:0:0:
448,192,39354,1,0,0:0:0:0:
192,192,39521,1,0,0:0:0:0:
64,192,39687,1,2,0:0:0:0:
448,192,39687,1,0,0:0:0:0:
192,192,39854,1,0,0:0:0:0:
64,192,40021,1,2,0:0:0:0:
448,192,40021,1,0,0:0:0:0:
320,192,40187,1,0,0:0:0:0:
192,192,40354,1,2,0:0:0:0:
448,192,40354,1,0,0:0:0:0:
320,192,40521,128,0,40687:0:0:0:0:
64,192,40687,1,2,0:0:0:0:
448,192,40687,128,0,41187:0:0:0:0:
320,192,40854,1,0,0:0:0:0:
192,192,41021,128,2,41187:0:0:0:0:
64,192,41187,128,0,41521:0:0:0:0:
448,192,41271,1,0,0:0:0:0:
192,192,41354,1,2,0:0:0:0:
320,192,41354,1,0,0:0:0:0:
192,192,41521,128,0,41854:0:0:0:0:
448,192,41687,1,2,0:0:0:0:
320,192,41854,128,0,42187:0:0:0:0:
64,192,42021,1,2,0:0:0:0:
192,192,42021,1,0,0:0:0:0:
448,192,42187,1,0,0:0:0:0:
192,192,42354,128,2,42521:0:0:0:0:
320,192,42521,128,0,42687:0:0:0:0:
64,192,42687,128,2,43021:0:0:0:0:
448,192,42687,1,0,0:0:0:0:
320,192,42854,1,0,0:0:0:0:
192,192,43021,1,2,0:0:0:0:
448,192,43021,1,0,0:0:0:0:
320,192,43187,128,0,43521:0:0:0:0:
64,192,43354,1,2,0:0:0:0:
448,192,43354,1,0,0:0:0:0:
192,192,43521,1,0,0:0:0:0:
64,192,43687,128,2,44187:0:0:0:0:
320,192,43687,1,0,0:0:0:0:
192,192,43854,1,0,0:0:0:0:
320,192,44021,1,2,0:0:0:0:
448,192,44021,1,0,0:0:0:0:
320,192,44187,1,2,0:0:0:0:
448,192,44187,1,0,0:0:0:0:
64,192,44354,128,8,44521:0:0:0:0:
192,192,44354,1,0,0:0:0:0:
448,192,44354,1,0,0:0:0:0:
192,192,44521,1,2,0:0:0:0:
320,192,44521,1,0,0:0:0:0:
64,192,44687,1,8,0:0:0:0:
320,192,44687,1,0,0:0:0:0:
448,192,44687,128,0,44854:0:0:0:0:
64,192,44854,1,0,0:0:0:70:Tom1.wav
192,192,44854,128,0,45021:0:0:0:0:
320,192,45021,1,0,0:0:0:70:Tom2.wav
448,192,45021,1,0,0:0:0:0:
192,192,45187,1,0,0:0:0:70:Tom3.wav
320,192,45187,1,0,0:0:0:0:
64,192,45354,1,4,0:0:0:0:
192,192,45354,1,2,0:0:0:0:
320,192,45354,128,0,46187:0:0:0:0:
448,192,45354,1,0,0:0:0:0:
64,192,45854,1,2,0:0:0:0:
192,192,45854,1,0,0:0:0:0:
64,192,46021,1,8,0:0:0:0:
192,192,46021,1,0,0:0:0:0:
448,192,46021,1,0,0:0:0:0:
192,192,46354,128,0,46521:0:0:0:0:
448,192,46521,128,0,47021:0:0:0:0:
320,192,46604,1,0,0:0:0:0:
64,192,46687,1,2,0:0:0:0:
192,192,46687,1,0,0:0:0:0:
64,192,47021,1,2,0:0:0:0:
320,192,47021,128,0,47354:0:0:0:0:
64,192,47354,1,8,0:0:0:0:
192,192,47354,128,0,47687:0:0:0:0:
448,192,47354,1,0,0:0:0:0:
320,192,47687,128,0,48521:0:0:0:0:
64,192,47854,1,0,0:0:0:0:
192,192,47937,1,0,0:0:0:0:
64,192,48021,1,2,0:0:0:0:
448,192,48021,1,0,0:0:0:0:
64,192,48521,1,2,0:0:0:0:
192,192,48521,1,0,0:0:0:0:
64,192,48687,1,8,0:0:0:0:
192,192,48687,128,0,49021:0:0:0:0:
448,192,48687,1,0,0:0:0:0:
448,192,49021,128,0,49854:0:0:0:0:
64,192,49187,1,0,0:0:0:0:
192,192,49271,1,0,0:0:0:0:
64,192,49354,1,2,0:0:0:0:
320,192,49354,1,0,0:0:0:0:
64,192,49687,1,2,0:0:0:0:
320,192,49687,128,0,49854:0:0:0:0:
64,192,50021,1,8,0:0:0:0:
192,192,50021,128,0,50354:0:0:0:0:
448,192,50021,1,0,0:0:0:0:
64,192,50354,128,0,51187:0:0:0:0:
448,192,50521,1,0,0:0:0:0:
320,192,50604,1,0,0:0:0:0:
192,192,50687,1,2,0:0:0:0:
448,192,50687,1,4,0:0:0:0:
192,192,51021,1,0,0:0:0:0:
320,192,51187,1,2,0:0:0:0:
448,192,51187,1,0,0:0:0:0:
64,192,51354,1,8,0:0:0:0:
192,192,51354,1,0,0:0:0:0:
448,192,51354,1,0,0:0:0:0:
320,192,51521,1,0,0:0:0:0:
192,192,51687,128,0,51854:0:0:0:0:
448,192,51854,128,0,52021:0:0:0:0:
64,192,51937,1,0,0:0:0:0:
192,192,52021,1,2,0:0:0:0:
320,192,52021,128,0,52354:0:0:0:0:
64,192,52354,1,2,0:0:0:0:
192,192,52354,128,0,52521:0:0:0:0:
320,192,52521,128,0,53021:0:0:0:0:
64,192,52687,1,8,0:0:0:0:
192,192,52687,1,0,0:0:0:0:
448,192,52687,1,0,0:0:0:0:
192,192,53021,128,0,53187:0:0:0:0:
64,192,53187,128,0,53854:0:0:0:0:
192,192,53354,1,2,0:0:0:0:
448,192,53354,1,0,0:0:0:0:
320,192,53854,1,2,0:0:0:0:
448,192,53854,1,0,0:0:0:0:
64,192,54021,1,8,0:0:0:0:
192,192,54021,1,0,0:0:0:0:
448,192,54021,128,0,54687:0:0:0:0:
64,192,54354,1,0,0:0:0:0:
192,192,54687,128,2,55354:0:0:0:0:
320,192,54687,1,0,0:0:0:0:
64,192,54854,1,8,0:0:0:0:
320,192,54854,1,0,0:0:0:0:
448,192,54854,1,0,0:0:0:0:
64,192,55021,1,2,0:0:0:0:
448,192,55021,1,0,0:0:0:0:
64,192,55354,128,8,55687:0:0:0:0:
320,192,55354,1,0,0:0:0:0:
448,192,55354,1,0,0:0:0:0:
192,192,55687,1,8,0:0:0:0:
320,192,55687,1,0,0:0:0:0:
448,192,55687,1,0,0:0:0:0:
192,192,55854,1,8,0:0:0:0:
320,192,55854,1,0,0:0:0:0:
448,192,55854,1,0,0:0:0:0:
64,192,56021,1,4,0:0:0:0:
192,192,56021,1,2,0:0:0:0:
320,192,56021,128,0,56854:0:0:0:0:
448,192,56021,1,0,0:0:0:0:
64,192,56521,1,2,0:0:0:0:
192,192,56521,1,0,0:0:0:0:
64,192,56687,1,8,0:0:0:0:
192,192,56687,1,0,0:0:0:0:
448,192,56687,1,0,0:0:0:0:
320,192,57021,128,0,57187:0:0:0:0:
64,192,57187,128,0,57687:0:0:0:0:
192,192,57271,1,0,0:0:0:0:
320,192,57354,1,2,0:0:0:0:
448,192,57354,1,0,0:0:0:0:
192,192,57687,128,2,58021:0:0:0:0:
448,192,57687,1,0,0:0:0:0:
64,192,58021,1,8,0:0:0:0:
320,192,58021,128,0,58354:0:0:0:0:
448,192,58021,1,0,0:0:0:0:
192,192,58354,128,0,58521:0:0:0:0:
448,192,58521,1,0,0:0:0:0:
320,192,58604,1,0,0:0:0:0:
64,192,58687,1,2,0:0:0:0:
192,192,58687,128,0,59187:0:0:0:0:
320,192,59187,1,2,0:0:0:0:
448,192,59187,1,0,0:0:0:0:
64,192,59354,1,8,0:0:0:0:
192,192,59354,1,0,0:0:0:0:
448,192,59354,128,0,59687:0:0:0:0:
64,192,59687,128,0,60521:0:0:0:0:
192,192,59854,1,0,0:0:0:0:
320,192,60021,1,2,0:0:0:0:
448,192,60021,1,0,0:0:0:0:
192,192,60187,1,8,0:0:0:0:
320,192,60187,1,0,0:0:0:0:
448,192,60187,1,0,0:0:0:0:
192,192,60354,1,2,0:0:0:0:
448,192,60354,1,0,0:0:0:0:
64,192,60687,1,8,0:0:0:0:
320,192,60687,128,0,61021:0:0:0:0:
448,192,60687,1,0,0:0:0:0:
36,192,61021,1,2,0:0:0:0:
192,192,61021,128,0,61354:0:0:0:70:Tom3.wav
448,192,61021,1,0,0:0:0:0:
64,192,61354,1,4,0:0:0:0:
320,192,61354,1,2,0:0:0:0:
448,192,61354,1,0,0:0:0:0:
64,192,61687,1,8,0:0:0:0:
192,192,61687,1,0,0:0:0:0:
448,192,61687,1,0,0:0:0:0:
192,192,62021,1,2,0:0:0:0:
448,192,62021,1,0,0:0:0:0:
64,192,62354,1,8,0:0:0:0:
320,192,62354,1,0,0:0:0:0:
448,192,62354,1,0,0:0:0:0:
192,192,62521,1,0,0:0:0:0:
64,192,62687,1,2,0:0:0:0:
448,192,62687,1,0,0:0:0:0:
192,192,63021,1,8,0:0:0:0:
320,192,63021,1,0,0:0:0:0:
448,192,63021,1,0,0:0:0:0:
64,192,63187,1,0,0:0:0:0:
192,192,63354,1,2,0:0:0:0:
320,192,63354,1,0,0:0:0:0:
64,192,63687,1,8,0:0:0:0:
192,192,63687,1,0,0:0:0:0:
448,192,63687,1,0,0:0:0:0:
320,192,63854,1,0,0:0:0:0:
64,192,64021,1,2,0:0:0:0:
448,192,64021,1,0,0:0:0:0:
64,192,64354,1,8,0:0:0:0:
320,192,64354,1,0,0:0:0:0:
448,192,64354,1,0,0:0:0:0:
192,192,64687,1,2,0:0:0:0:
320,192,64687,1,0,0:0:0:0:
64,192,65021,1,8,0:0:0:0:
192,192,65021,1,0,0:0:0:0:
448,192,65021,1,0,0:0:0:0:
320,192,65187,1,0,0:0:0:0:
64,192,65354,1,2,0:0:0:0:
448,192,65354,1,0,0:0:0:0:
64,192,65521,1,0,0:0:0:0:
192,192,65687,1,8,0:0:0:0:
320,192,65687,1,0,0:0:0:0:
448,192,65687,1,0,0:0:0:0:
320,192,65854,1,0,0:0:0:0:
64,192,66021,1,2,0:0:0:0:
448,192,66021,1,0,0:0:0:0:
192,192,66187,1,2,0:0:0:0:
320,192,66187,1,0,0:0:0:0:
64,192,66354,1,8,0:0:0:0:
192,192,66354,1,0,0:0:0:0:
448,192,66354,1,0,0:0:0:0:
64,192,66521,1,4,0:0:0:0:
192,192,66521,1,2,0:0:0:0:
320,192,66521,1,0,0:0:0:0:
448,192,66521,1,0,0:0:0:0:
64,192,66854,1,2,0:0:0:0:
192,192,66854,1,0,0:0:0:0:
64,192,67021,1,8,0:0:0:0:
320,192,67021,1,0,0:0:0:0:
448,192,67021,1,0,0:0:0:0:
192,192,67187,1,2,0:0:0:0:
448,192,67187,1,0,0:0:0:0:
64,192,67354,1,8,0:0:0:0:
192,192,67354,1,0,0:0:0:0:
320,192,67354,1,0,0:0:0:0:
64,192,67521,1,2,0:0:0:0:
448,192,67521,1,0,0:0:0:0:
192,192,67687,1,8,0:0:0:0:
320,192,67687,1,0,0:0:0:0:
448,192,67687,1,0,0:0:0:0:
64,192,67854,1,2,0:0:0:0:
320,192,67854,1,0,0:0:0:0:
64,192,68021,1,8,0:0:0:0:
192,192,68021,1,0,0:0:0:0:
448,192,68021,1,0,0:0:0:0:
192,192,68187,1,2,0:0:0:0:
320,192,68187,1,0,0:0:0:0:
64,192,68354,1,8,0:0:0:0:
320,192,68354,1,0,0:0:0:0:
448,192,68354,1,0,0:0:0:0:
192,192,68521,1,2,0:0:0:0:
448,192,68521,1,0,0:0:0:0:
64,192,68687,1,8,0:0:0:0:
192,192,68687,1,0,0:0:0:0:
320,192,68771,1,8,0:0:0:0:
448,192,68771,1,0,0:0:0:0:
64,192,68854,1,8,0:0:0:0:
192,192,68854,1,0,0:0:0:0:
320,192,68937,1,8,0:0:0:0:
448,192,68937,1,0,0:0:0:0:
64,192,69021,1,8,0:0:0:0:
192,192,69021,1,0,0:0:0:0:
320,192,69104,1,8,0:0:0:0:
448,192,69104,1,0,0:0:0:0:
64,192,69187,1,8,0:0:0:0:
192,192,69187,1,0,0:0:0:0:
320,192,69271,1,8,0:0:0:0:
64,192,69354,128,4,71354:0:0:0:0:
192,192,69354,1,2,0:0:0:0:
448,192,69354,1,0,0:0:0:0:
320,192,70021,128,0,71854:0:0:0:0:
192,192,70687,128,0,71854:0:0:0:0:
448,192,71354,128,0,71854:0:0:0:0:
64,192,72021,1,2,0:0:0:0:
192,192,72021,1,8,0:0:0:0:
320,192,72021,1,4,0:0:0:0:
448,192,72021,128,0,72187:0:0:0:0:
192,192,72187,1,2,0:0:0:0:
64,192,72354,1,2,0:0:0:0:
320,192,72354,1,0,0:0:0:0:
448,192,72354,1,0,0:0:0:0:
64,192,72521,1,4,0:0:0:0:
192,192,72521,1,8,0:0:0:0:
320,192,72521,1,2,0:0:0:0:
448,192,72521,128,0,72687:0:0:0:0:
192,192,72687,1,2,0:0:0:0:
64,192,72854,1,2,0:0:0:0:
320,192,72854,1,0,0:0:0:0:
448,192,72854,1,0,0:0:0:0:
64,192,73021,1,2,0:0:0:0:
192,192,73021,1,8,0:0:0:0:
320,192,73021,1,4,0:0:0:0:
448,192,73021,128,0,73187:0:0:0:0:
192,192,73187,1,2,0:0:0:0:
64,192,73354,1,2,0:0:0:0:
320,192,73354,1,0,0:0:0:0:
448,192,73354,1,0,0:0:0:0:
64,192,73521,1,4,0:0:0:0:
192,192,73521,1,2,0:0:0:0:
320,192,73521,1,8,0:0:0:0:
448,192,73521,128,0,73687:0:0:0:0:
192,192,73687,1,2,0:0:0:0:
320,192,73854,1,2,0:0:0:0:
448,192,73854,1,0,0:0:0:0:
64,192,74021,1,2,0:0:0:0:
192,192,74021,1,4,0:0:0:0:
448,192,74021,1,8,0:0:0:0:
192,192,74187,1,2,0:0:0:0:
320,192,74187,1,0,0:0:0:0:
64,192,74354,1,8,0:0:0:0:
320,192,74354,1,2,0:0:0:0:
448,192,74354,1,4,0:0:0:0:
64,192,74521,1,2,0:0:0:0:
448,192,74521,1,0,0:0:0:0:
64,192,74687,128,2,74854:0:0:0:0:
192,192,74687,1,8,0:0:0:0:
320,192,74687,1,4,0:0:0:0:
448,192,74687,1,0,0:0:0:0:
320,192,74854,1,2,0:0:0:0:
64,192,75021,1,2,0:0:0:0:
192,192,75021,1,0,0:0:0:0:
448,192,75021,1,0,0:0:0:0:
64,192,75187,128,2,75354:0:0:0:0:
192,192,75187,1,4,0:0:0:0:
320,192,75187,1,8,0:0:0:0:
448,192,75187,1,0,0:0:0:0:
320,192,75354,1,2,0:0:0:0:
64,192,75521,1,2,0:0:0:0:
192,192,75521,1,0,0:0:0:0:
448,192,75521,1,0,0:0:0:0:
64,192,75687,128,2,75854:0:0:0:0:
192,192,75687,1,8,0:0:0:0:
320,192,75687,1,4,0:0:0:0:
448,192,75687,1,0,0:0:0:0:
320,192,75854,1,2,0:0:0:0:
64,192,76021,1,2,0:0:0:0:
192,192,76021,1,0,0:0:0:0:
448,192,76021,1,0,0:0:0:0:
64,192,76187,128,2,76354:0:0:0:0:
192,192,76187,1,4,0:0:0:0:
320,192,76187,1,8,0:0:0:0:
448,192,76187,1,0,0:0:0:0:
320,192,76354,1,2,0:0:0:0:
64,192,76521,1,2,0:0:0:0:
448,192,76521,1,0,0:0:0:0:
192,192,76687,1,8,0:0:0:0:
320,192,76687,1,2,0:0:0:0:
448,192,76687,1,4,0:0:0:0:
64,192,76854,1,2,0:0:0:0:
320,192,76854,1,0,0:0:0:0:
64,192,77021,1,2,0:0:0:0:
192,192,77021,1,8,0:0:0:0:
448,192,77021,1,4,0:0:0:0:
192,192,77187,1,2,0:0:0:0:
320,192,77187,1,0,0:0:0:0:
64,192,77354,128,8,77521:0:0:0:0:
192,192,77354,1,4,0:0:0:0:
320,192,77354,1,2,0:0:0:0:
448,192,77354,1,0,0:0:0:0:
448,192,77521,1,2,0:0:0:0:
192,192,77687,1,2,0:0:0:0:
320,192,77687,1,0,0:0:0:0:
64,192,77854,1,2,0:0:0:0:
192,192,77854,1,4,0:0:0:0:
448,192,77854,128,8,78021:0:0:0:0:
320,192,78021,1,2,0:0:0:0:
64,192,78187,1,2,0:0:0:0:
192,192,78187,1,0,0:0:0:0:
64,192,78354,1,2,0:0:0:0:
320,192,78354,128,4,78521:0:0:0:0:
448,192,78354,1,8,0:0:0:0:
192,192,78521,1,2,0:0:0:0:
64,192,78687,1,2,0:0:0:0:
448,192,78687,1,0,0:0:0:0:
64,192,78854,1,4,0:0:0:0:
192,192,78854,128,2,79021:0:0:0:0:
448,192,78854,1,8,0:0:0:0:
320,192,79021,1,2,0:0:0:0:
64,192,79187,1,2,0:0:0:0:
448,192,79187,1,0,0:0:0:0:
64,192,79354,1,2,0:0:0:0:
192,192,79354,1,8,0:0:0:0:
448,192,79354,1,4,0:0:0:0:
192,192,79521,1,2,0:0:0:0:
320,192,79521,1,0,0:0:0:0:
64,192,79687,1,2,0:0:0:0:
320,192,79687,1,4,0:0:0:0:
448,192,79687,1,8,0:0:0:0:
64,192,79854,1,2,0:0:0:0:
448,192,79854,1,0,0:0:0:0:
64,192,80021,128,4,80354:0:0:0:0:
192,192,80021,1,8,0:0:0:0:
320,192,80021,1,2,0:0:0:0:
448,192,80021,1,0,0:0:0:0:
192,192,80187,1,2,0:0:0:0:
320,192,80354,1,2,0:0:0:0:
448,192,80354,1,0,0:0:0:0:
64,192,80521,1,2,0:0:0:0:
192,192,80521,1,4,0:0:0:0:
448,192,80521,128,8,80687:0:0:0:0:
64,192,80687,1,2,0:0:0:0:
320,192,80687,1,0,0:0:0:0:
192,192,80854,128,2,81021:0:0:0:0:
64,192,81021,1,2,0:0:0:0:
320,192,81021,1,8,0:0:0:0:
448,192,81021,1,4,0:0:0:0:
320,192,81187,128,2,81354:0:0:0:0:
64,192,81354,1,2,0:0:0:0:
448,192,81354,1,0,0:0:0:0:
64,192,81521,1,4,0:0:0:0:
192,192,81521,1,2,0:0:0:0:
448,192,81521,1,8,0:0:0:0:
320,192,81687,1,2,0:0:0:0:
64,192,81854,1,2,0:0:0:0:
192,192,81854,1,0,0:0:0:0:
64,192,82021,1,4,0:0:0:0:
320,192,82021,1,2,0:0:0:0:
448,192,82021,1,8,0:0:0:0:
192,192,82187,1,2,0:0:0:0:
320,192,82187,1,0,0:0:0:0:
64,192,82354,1,8,0:0:0:0:
192,192,82354,1,4,0:0:0:0:
448,192,82354,1,2,0:0:0:0:
64,192,82521,1,8,0:0:0:0:
320,192,82521,1,0,0:0:0:0:
192,192,82604,1,8,0:0:0:0:
64,192,82687,1,4,0:0:0:0:
320,192,82687,1,2,0:0:0:0:
448,192,82687,1,0,0:0:0:0:
192,192,82854,1,0,0:0:0:0:
64,192,83021,1,8,0:0:0:0:
320,192,83021,1,0,0:0:0:0:
448,192,83021,1,0,0:0:0:0:
192,192,83187,1,8,0:0:0:0:
320,192,83271,1,8,0:0:0:0:
448,192,83271,1,0,0:0:0:0:
64,192,83354,1,2,0:0:0:0:
192,192,83354,1,0,0:0:0:0:
64,192,83521,1,2,0:0:0:0:
192,192,83521,1,0,0:0:0:0:
64,192,83687,1,8,0:0:0:0:
320,192,83687,1,0,0:0:0:0:
448,192,83687,1,0,0:0:0:0:
192,192,83854,1,0,0:0:0:0:
64,192,84021,1,2,0:0:0:0:
448,192,84021,1,0,0:0:0:0:
192,192,84187,1,2,0:0:0:0:
320,192,84187,1,0,0:0:0:0:
64,192,84354,1,8,0:0:0:0:
192,192,84354,1,0,0:0:0:0:
448,192,84354,1,0,0:0:0:0:
320,192,84521,1,8,0:0:0:0:
64,192,84604,1,8,0:0:0:0:
192,192,84604,1,0,0:0:0:0:
320,192,84687,1,2,0:0:0:0:
448,192,84687,1,0,0:0:0:0:
320,192,84854,1,2,0:0:0:0:
448,192,84854,1,0,0:0:0:0:
64,192,85021,1,8,0:0:0:0:
192,192,85021,1,0,0:0:0:0:
448,192,85021,1,0,0:0:0:0:
320,192,85187,1,0,0:0:0:0:
64,192,85354,1,2,0:0:0:0:
448,192,85354,1,0,0:0:0:0:
320,192,85521,1,0,0:0:0:0:
64,192,85687,1,8,0:0:0:0:
192,192,85687,1,0,0:0:0:0:
448,192,85687,1,0,0:0:0:0:
320,192,85854,1,8,0:0:0:0:
64,192,85937,1,8,0:0:0:0:
448,192,85937,1,0,0:0:0:0:
192,192,86021,1,2,0:0:0:0:
320,192,86021,1,0,0:0:0:0:
192,192,86187,1,2,0:0:0:0:
320,192,86187,1,0,0:0:0:0:
64,192,86354,1,8,0:0:0:0:
320,192,86354,1,0,0:0:0:0:
448,192,86354,1,0,0:0:0:0:
192,192,86521,1,0,0:0:0:0:
64,192,86687,1,2,0:0:0:0:
448,192,86687,1,0,0:0:0:0:
192,192,86854,1,2,0:0:0:0:
320,192,86854,1,0,0:0:0:0:
64,192,87021,1,8,0:0:0:0:
320,192,87021,1,0,0:0:0:0:
448,192,87021,1,0,0:0:0:0:
192,192,87187,1,8,0:0:0:0:
64,192,87271,1,8,0:0:0:0:
448,192,87271,1,0,0:0:0:0:
192,192,87354,1,2,0:0:0:0:
320,192,87354,1,0,0:0:0:0:
192,192,87521,1,2,0:0:0:0:
320,192,87521,1,0,0:0:0:0:
64,192,87687,1,8,0:0:0:0:
192,192,87687,1,0,0:0:0:0:
448,192,87687,1,0,0:0:0:0:
320,192,87854,1,0,0:0:0:0:
64,192,88021,1,2,0:0:0:0:
448,192,88021,1,0,0:0:0:0:
192,192,88187,1,0,0:0:0:0:
64,192,88354,1,8,0:0:0:0:
320,192,88354,1,0,0:0:0:0:
448,192,88354,1,0,0:0:0:0:
192,192,88521,1,8,0:0:0:0:
320,192,88604,1,8,0:0:0:0:
448,192,88604,1,0,0:0:0:0:
64,192,88687,1,2,0:0:0:0:
192,192,88687,1,0,0:0:0:0:
320,192,88854,1,2,0:0:0:0:
448,192,88854,1,0,0:0:0:0:
64,192,89021,1,8,0:0:0:0:
192,192,89021,1,0,0:0:0:0:
448,192,89021,1,0,0:0:0:0:
320,192,89187,1,0,0:0:0:0:
64,192,89354,1,2,0:0:0:0:
192,192,89354,1,0,0:0:0:0:
64,192,89521,1,2,0:0:0:0:
192,192,89521,1,0,0:0:0:0:
64,192,89687,1,8,0:0:0:0:
320,192,89687,1,0,0:0:0:0:
448,192,89687,1,0,0:0:0:0:
192,192,89854,1,8,0:0:0:0:
64,192,89937,1,8,0:0:0:0:
448,192,89937,1,0,0:0:0:0:
192,192,90021,1,2,0:0:0:0:
320,192,90021,1,0,0:0:0:0:
192,192,90187,1,2,0:0:0:0:
320,192,90187,1,0,0:0:0:0:
64,192,90354,1,8,0:0:0:0:
192,192,90354,1,0,0:0:0:0:
448,192,90354,1,0,0:0:0:0:
320,192,90521,1,0,0:0:0:0:
64,192,90687,1,4,0:0:0:0:
192,192,90687,1,2,0:0:0:0:
320,192,90687,1,0,0:0:0:0:
448,192,90687,1,0,0:0:0:0:
192,192,90854,1,2,0:0:0:0:
448,192,90854,1,0,0:0:0:0:
64,192,91021,1,8,0:0:0:0:
320,192,91021,1,0,0:0:0:0:
448,192,91021,1,0,0:0:0:0:
192,192,91187,1,8,0:0:0:0:
320,192,91271,1,8,0:0:0:0:
448,192,91271,1,0,0:0:0:0:
64,192,91354,1,2,0:0:0:0:
192,192,91354,1,0,0:0:0:0:
64,192,91521,1,2,0:0:0:0:
192,192,91521,1,0,0:0:0:0:
64,192,91687,1,8,0:0:0:0:
320,192,91687,1,0,0:0:0:0:
448,192,91687,1,0,0:0:0:0:
192,192,91854,128,0,92187:0:0:0:0:
320,192,92021,1,2,0:0:0:0:
448,192,92021,1,0,0:0:0:0:
320,192,92187,1,2,0:0:0:0:
448,192,92187,1,0,0:0:0:0:
64,192,92354,1,8,0:0:0:0:
192,192,92354,1,0,0:0:0:0:
448,192,92354,1,0,0:0:0:0:
64,192,92521,1,2,0:0:0:0:
320,192,92521,1,0,0:0:0:0:
192,192,92687,1,0,0:0:0:70:Tom1.wav
448,192,92687,128,0,92854:0:0:0:0:
36,192,92854,1,0,0:0:0:70:Tom2.wav
320,192,92854,1,0,0:0:0:0:
36,192,93021,1,8,0:0:0:0:
192,192,93021,1,0,0:0:0:70:Tom3.wav
448,192,93021,1,0,0:0:0:0:
64,192,93187,1,4,0:0:0:0:
192,192,93187,1,2,0:0:0:0:
320,192,93187,128,0,93521:0:0:0:0:
448,192,93187,1,0,0:0:0:0:
64,192,93521,1,2,0:0:0:0:
192,192,93521,1,0,0:0:0:0:
64,192,93687,1,8,0:0:0:0:
320,192,93687,1,0,0:0:0:0:
448,192,93687,1,0,0:0:0:0:
192,192,93854,1,2,0:0:0:0:
320,192,93854,1,0,0:0:0:0:
64,192,94021,1,8,0:0:0:0:
192,192,94021,1,0,0:0:0:0:
448,192,94021,1,0,0:0:0:0:
64,192,94187,1,2,0:0:0:0:
320,192,94187,1,0,0:0:0:0:
192,192,94354,1,8,0:0:0:0:
320,192,94354,1,0,0:0:0:0:
448,192,94354,1,0,0:0:0:0:
64,192,94521,1,2,0:0:0:0:
448,192,94521,1,0,0:0:0:0:
64,192,94687,1,8,0:0:0:0:
192,192,94687,1,0,0:0:0:0:
320,192,94687,1,0,0:0:0:0:
192,192,94854,1,2,0:0:0:0:
448,192,94854,1,0,0:0:0:0:
64,192,95021,1,8,0:0:0:0:
320,192,95021,1,0,0:0:0:0:
448,192,95021,1,0,0:0:0:0:
64,192,95187,1,0,0:0:0:70:Tom1.wav
192,192,95271,1,0,0:0:0:70:Tom1.wav
320,192,95354,1,0,0:0:0:70:Tom1.wav
448,192,95354,1,0,0:0:0:0:
192,192,95521,1,0,0:0:0:70:Tom2.wav
320,192,95521,1,0,0:0:0:0:
64,192,95687,1,0,0:0:0:70:Tom3.wav
192,192,95687,1,0,0:0:0:0:
64,192,95854,128,4,98021:0:0:0:0:
320,192,95854,1,2,0:0:0:0:
448,192,95854,128,0,96687:0:0:0:0:
320,192,96965,1,0,0:0:0:0:
192,192,97132,1,0,0:0:0:0:
448,192,97354,128,0,97687:0:0:0:0:
192,192,97687,1,0,0:0:0:0:
320,192,97854,128,0,98271:0:0:0:0:
192,192,98354,128,0,98437:0:0:0:0:
320,192,98437,128,0,98521:0:0:0:0:
448,192,98521,128,0,98604:0:0:0:0:
192,192,98604,128,0,98687:0:0:0:0:
64,192,98687,1,2,0:0:0:0:
320,192,98687,1,4,0:0:0:0:
448,192,98687,1,0,0:0:0:0:
64,192,98854,1,8,0:0:0:0:
448,192,98854,1,0,0:0:0:0:
192,192,98937,1,8,0:0:0:0:
320,192,98937,1,0,0:0:0:0:
64,192,99021,1,2,0:0:0:0:
448,192,99021,1,8,0:0:0:0:
320,192,99187,1,8,0:0:0:0:
448,192,99187,1,0,0:0:0:0:
64,192,99271,1,8,0:0:0:0:
192,192,99271,1,0,0:0:0:0:
320,192,99354,1,2,0:0:0:0:
448,192,99354,1,8,0:0:0:0:
64,192,99521,1,8,0:0:0:0:
320,192,99521,1,0,0:0:0:0:
192,192,99604,1,8,0:0:0:0:
448,192,99604,1,0,0:0:0:0:
64,192,99687,1,2,0:0:0:0:
320,192,99687,1,8,0:0:0:0:
64,192,99854,1,8,0:0:0:0:
448,192,99854,1,0,0:0:0:0:
192,192,99937,1,8,0:0:0:0:
320,192,99937,1,0,0:0:0:0:
64,192,100021,1,2,0:0:0:0:
448,192,100021,1,8,0:0:0:0:
320,192,100187,1,8,0:0:0:0:
448,192,100187,1,0,0:0:0:0:
64,192,100271,1,8,0:0:0:0:
192,192,100271,1,0,0:0:0:0:
320,192,100354,1,2,0:0:0:0:
448,192,100354,1,8,0:0:0:0:
192,192,100437,1,0,0:0:0:0:
64,192,100521,1,8,0:0:0:0:
448,192,100521,1,0,0:0:0:0:
192,192,100604,1,8,0:0:0:0:
320,192,100604,1,0,0:0:0:0:
64,192,100687,1,2,0:0:0:0:
448,192,100687,1,8,0:0:0:0:
320,192,100771,1,0,0:0:0:0:
64,192,100854,1,8,0:0:0:0:
192,192,100854,1,0,0:0:0:0:
320,192,100937,1,8,0:0:0:0:
448,192,100937,1,0,0:0:0:0:
64,192,101021,1,2,0:0:0:0:
192,192,101021,1,8,0:0:0:0:
320,192,101187,1,8,0:0:0:0:
448,192,101187,1,0,0:0:0:0:
192,192,101271,1,8,0:0:0:0:
64,192,101354,1,2,0:0:0:0:
320,192,101354,1,4,0:0:0:0:
448,192,101354,1,0,0:0:0:0:
64,192,101521,1,8,0:0:0:0:
320,192,101521,1,0,0:0:0:0:
192,192,101604,1,8,0:0:0:0:
448,192,101604,1,0,0:0:0:0:
64,192,101687,1,2,0:0:0:0:
320,192,101687,1,8,0:0:0:0:
320,192,101854,1,8,0:0:0:0:
448,192,101854,1,0,0:0:0:0:
64,192,101937,1,8,0:0:0:0:
192,192,101937,1,0,0:0:0:0:
320,192,102021,1,2,0:0:0:0:
448,192,102021,1,8,0:0:0:0:
64,192,102187,1,8,0:0:0:0:
448,192,102187,1,0,0:0:0:0:
192,192,102271,1,8,0:0:0:0:
320,192,102271,1,0,0:0:0:0:
64,192,102354,1,2,0:0:0:0:
448,192,102354,1,8,0:0:0:0:
192,192,102521,1,8,0:0:0:0:
320,192,102521,1,0,0:0:0:0:
64,192,102604,1,8,0:0:0:0:
448,192,102604,1,0,0:0:0:0:
192,192,102687,1,2,0:0:0:0:
320,192,102687,1,8,0:0:0:0:
64,192,102854,1,8,0:0:0:0:
192,192,102854,1,0,0:0:0:0:
320,192,102937,1,8,0:0:0:0:
448,192,102937,1,0,0:0:0:0:
64,192,103021,1,2,0:0:0:0:
192,192,103021,1,8,0:0:0:0:
192,192,103187,1,8,0:0:0:0:
448,192,103187,1,0,0:0:0:0:
64,192,103271,1,8,0:0:0:0:
320,192,103271,1,0,0:0:0:0:
192,192,103354,1,2,0:0:0:0:
448,192,103354,1,8,0:0:0:0:
320,192,103521,1,8,0:0:0:0:
448,192,103521,1,0,0:0:0:0:
64,192,103604,1,8,0:0:0:0:
192,192,103604,1,0,0:0:0:0:
320,192,103687,1,2,0:0:0:0:
448,192,103687,1,8,0:0:0:0:
192,192,103771,1,8,0:0:0:0:
448,192,103854,1,8,0:0:0:0:
192,192,103937,1,8,0:0:0:0:
64,192,104021,1,2,0:0:0:0:
320,192,104021,1,4,0:0:0:0:
448,192,104021,1,0,0:0:0:0:
64,192,104187,1,8,0:0:0:0:
448,192,104187,1,0,0:0:0:0:
192,192,104271,1,8,0:0:0:0:
320,192,104271,1,0,0:0:0:0:
64,192,104354,1,2,0:0:0:0:
448,192,104354,1,8,0:0:0:0:
64,192,104521,1,8,0:0:0:0:
192,192,104521,1,0,0:0:0:0:
320,192,104604,1,8,0:0:0:0:
448,192,104604,1,0,0:0:0:0:
64,192,104687,1,2,0:0:0:0:
192,192,104687,1,8,0:0:0:0:
192,192,104854,1,8,0:0:0:0:
448,192,104854,1,0,0:0:0:0:
64,192,104937,1,8,0:0:0:0:
320,192,104937,1,0,0:0:0:0:
192,192,105021,1,2,0:0:0:0:
448,192,105021,1,8,0:0:0:0:
64,192,105187,1,8,0:0:0:0:
448,192,105187,1,0,0:0:0:0:
192,192,105271,1,8,0:0:0:0:
320,192,105271,1,0,0:0:0:0:
64,192,105354,1,2,0:0:0:0:
448,192,105354,1,8,0:0:0:0:
64,192,105521,1,8,0:0:0:0:
192,192,105521,1,0,0:0:0:0:
320,192,105604,1,8,0:0:0:0:
448,192,105604,1,0,0:0:0:0:
64,192,105687,1,2,0:0:0:0:
192,192,105687,1,8,0:0:0:0:
320,192,105771,1,0,0:0:0:0:
64,192,105854,1,8,0:0:0:0:
448,192,105854,1,0,0:0:0:0:
192,192,105937,1,8,0:0:0:0:
320,192,105937,1,0,0:0:0:0:
64,192,106021,1,2,0:0:0:0:
448,192,106021,1,8,0:0:0:0:
192,192,106104,1,0,0:0:0:0:
320,192,106187,1,8,0:0:0:0:
448,192,106187,1,0,0:0:0:0:
64,192,106271,1,8,0:0:0:0:
192,192,106271,1,0,0:0:0:0:
320,192,106354,1,2,0:0:0:0:
448,192,106354,1,8,0:0:0:0:
64,192,106521,1,8,0:0:0:0:
192,192,106521,1,0,0:0:0:0:
320,192,106604,1,8,0:0:0:0:
64,192,106687,1,2,0:0:0:0:
192,192,106687,1,4,0:0:0:0:
448,192,106687,1,0,0:0:0:0:
192,192,106854,1,8,0:0:0:0:
448,192,106854,1,0,0:0:0:0:
64,192,106937,1,8,0:0:0:0:
320,192,106937,1,0,0:0:0:0:
192,192,107021,1,2,0:0:0:0:
448,192,107021,1,8,0:0:0:0:
64,192,107187,1,8,0:0:0:0:
192,192,107187,1,0,0:0:0:0:
320,192,107271,1,8,0:0:0:0:
448,192,107271,1,0,0:0:0:0:
64,192,107354,1,2,0:0:0:0:
192,192,107354,1,8,0:0:0:0:
64,192,107521,1,8,0:0:0:0:
448,192,107521,1,0,0:0:0:0:
192,192,107604,1,8,0:0:0:0:
320,192,107604,1,0,0:0:0:0:
64,192,107687,1,2,0:0:0:0:
448,192,107687,1,8,0:0:0:0:
192,192,107854,1,8,0:0:0:0:
448,192,107854,1,0,0:0:0:0:
320,192,107937,1,8,0:0:0:0:
64,192,108021,1,2,0:0:0:0:
192,192,108021,1,4,0:0:0:0:
448,192,108021,1,0,0:0:0:0:
320,192,108187,1,8,0:0:0:0:
64,192,108271,1,8,0:0:0:0:
192,192,108271,1,0,0:0:0:70:Tom1.wav
320,192,108354,1,10,0:0:0:0:
448,192,108354,1,0,0:0:0:70:Tom1.wav
192,192,108437,1,0,0:0:0:70:Tom1.wav
448,192,108521,1,0,0:0:0:70:Tom1.wav
64,192,108604,1,0,0:0:0:70:Tom1.wav
192,192,108604,1,0,0:0:0:0:
320,192,108687,1,2,0:0:0:0:
448,192,108687,1,0,0:0:0:70:Tom1.wav
64,192,108771,1,0,0:0:0:70:Tom1.wav
320,192,108854,1,0,0:0:0:70:Tom1.wav
64,192,108937,1,0,0:0:0:70:Tom1.wav
192,192,108937,1,0,0:0:0:0:
320,192,109021,1,2,0:0:0:0:
448,192,109021,1,0,0:0:0:0:
192,192,109104,1,0,0:0:0:70:Tom2.wav
448,192,109187,1,0,0:0:0:70:Tom3.wav
320,192,109271,1,0,0:0:0:70:Tom3.wav
64,192,109354,1,2,0:0:0:0:
192,192,109354,1,4,0:0:0:0:
448,192,109354,1,0,0:0:0:0:
64,192,109687,1,8,0:0:0:0:
192,192,109687,1,0,0:0:0:0:
448,192,109687,1,0,0:0:0:0:
192,192,109854,1,8,0:0:0:0:
320,192,109937,1,8,0:0:0:0:
448,192,109937,1,0,0:0:0:0:
64,192,110021,1,2,0:0:0:0:
192,192,110021,1,0,0:0:0:0:
64,192,110187,1,2,0:0:0:0:
192,192,110187,1,0,0:0:0:0:
64,192,110354,1,8,0:0:0:0:
320,192,110354,1,0,0:0:0:0:
448,192,110354,1,0,0:0:0:0:
64,192,110687,1,2,0:0:0:0:
448,192,110687,1,0,0:0:0:0:
192,192,110854,1,2,0:0:0:0:
320,192,110854,1,0,0:0:0:0:
64,192,111021,1,8,0:0:0:0:
192,192,111021,1,0,0:0:0:0:
448,192,111021,1,0,0:0:0:0:
320,192,111187,1,0,0:0:0:0:
192,192,111354,1,2,0:0:0:0:
448,192,111354,128,0,111687:0:0:0:0:
64,192,111521,1,2,0:0:0:0:
320,192,111521,1,0,0:0:0:0:
192,192,111687,128,8,111854:0:0:0:0:
320,192,111687,1,0,0:0:0:0:
64,192,111854,1,8,0:0:0:0:
448,192,111854,128,0,111937:0:0:0:0:
320,192,111937,128,8,112021:0:0:0:0:
64,192,112021,128,2,113187:0:0:0:0:
192,192,112021,128,4,113021:0:0:0:0:
448,192,112021,128,0,113187:0:0:0:0:
320,192,113021,128,0,113854:0:0:0:0:
192,192,113187,128,0,114604:0:0:0:0:
64,192,113354,128,0,114604:0:0:0:0:
448,192,113354,128,0,114604:0:0:0:0:
320,192,114021,128,0,114604:0:0:0:0:
64,192,114687,1,0,0:0:0:0:
192,192,114687,1,0,0:0:0:0:
448,192,114854,1,0,0:0:0:0:
320,192,115021,1,0,0:0:0:0:
192,192,115187,1,0,0:0:0:0:
64,192,115354,1,0,0:0:0:0:
448,192,115354,1,0,0:0:0:0:
320,192,115521,1,0,0:0:0:0:
192,192,115687,1,0,0:0:0:0:
64,192,115854,1,0,0:0:0:0:
320,192,116021,1,0,0:0:0:0:
448,192,116021,1,0,0:0:0:0:
64,192,116187,1,0,0:0:0:0:
192,192,116354,1,0,0:0:0:0:
320,192,116521,1,0,0:0:0:0:
64,192,116687,1,0,0:0:0:0:
448,192,116687,1,0,0:0:0:0:
192,192,116854,1,0,0:0:0:0:
320,192,117021,1,0,0:0:0:0:
448,192,117187,1,0,0:0:0:0:
64,192,117354,1,0,0:0:0:0:
320,192,117354,1,0,0:0:0:0:
192,192,117521,1,0,0:0:0:0:
320,192,117687,1,0,0:0:0:0:
192,192,117854,1,0,0:0:0:0:
64,192,118021,1,0,0:0:0:0:
448,192,118021,1,0,0:0:0:0:
320,192,118187,1,0,0:0:0:0:
192,192,118354,1,0,0:0:0:0:
64,192,118521,128,0,121354:0:0:0:0:
448,192,118521,128,0,121354:0:0:0:0:
