osu file format v14

[General]
AudioFilename: audio.mp3
AudioLeadIn: 0
PreviewTime: 75254
Countdown: 0
SampleSet: Normal
StackLeniency: 0.7
Mode: 1
LetterboxInBreaks: 0
WidescreenStoryboard: 0

[Editor]
DistanceSpacing: 0.4
BeatDivisor: 8
GridSize: 32
TimelineZoom: 2

[Metadata]
Title:Light Delight
TitleUnicode:Light Delight
Artist:Poppin'Party
ArtistUnicode:Poppin'Party
Creator:[Zeth]
Version:A Light, Dear to My Heart
Source:バンドリ! ガールズバンドパーティ!
Tags:circling kasumi toyama 戸山香澄 terakawa aimi 寺川愛美 tae hanazono 花園たえ 大塚紗英 otsuka sae rimi ushigome 牛込りみ nishimoto rimi 西本りみ saaya yamabuki 山吹沙綾 Ohashi Ayaka 大橋彩香 arisa ichigaya 市ヶ谷有咲 itou ayasa 伊藤彩沙 Elements Garden bang dream bandori girls band party popipa ポッピンパーティー ポピパ japanese video game rock
BeatmapID:2224418
BeatmapSetID:1062311

[Difficulty]
HPDrainRate:6
CircleSize:5
OverallDifficulty:6
ApproachRate:10
SliderMultiplier:1.4
SliderTickRate:1

[Events]
//Background and Video events
0,0,"ezgif-4-0d7569899490.jpg",0,60
//Break Periods
//Storyboard Layer 0 (Background)
//Storyboard Layer 1 (Fail)
//Storyboard Layer 2 (Pass)
//Storyboard Layer 3 (Foreground)
//Storyboard Layer 4 (Overlay)
//Storyboard Sound Samples

[TimingPoints]
588,333.333333333333,4,2,0,75,1,0
588,-125,4,2,0,75,0,0
10921,-111.111111111111,4,2,0,75,0,0
11254,-86.9565217391304,4,1,0,100,0,1
21171,-88.1057268722467,4,1,0,100,0,1
21254,-89.2857142857143,4,1,0,100,0,1
21337,-90.4977375565611,4,1,0,100,0,1
21421,-91.743119266055,4,1,0,100,0,1
21504,-93.0232558139535,4,1,0,100,0,1
21587,-94.3396226415094,4,1,0,100,0,1
21671,-95.6937799043062,4,1,0,100,0,1
21754,-97.0873786407767,4,1,0,100,0,1
21837,-98.5221674876847,4,1,0,100,0,1
21921,-100,4,1,0,100,0,1
23837,-101.010101010101,4,1,0,100,0,1
23921,-102.040816326531,4,1,0,100,0,1
24087,-104.166666666667,4,1,0,100,0,1
24254,-106.382978723404,4,1,0,100,0,1
24421,-108.695652173913,4,1,0,100,0,1
24587,-111.111111111111,4,1,0,100,0,0
25587,-119.047619047619,4,1,0,75,0,0
25754,-121.951219512195,4,1,0,75,0,0
25921,-125,4,1,0,75,0,0
26587,-133.333333333333,4,1,0,75,0,0
27254,-142.857142857143,4,1,0,75,0,0
37421,-117.647058823529,4,1,0,100,0,0
37587,-111.111111111111,4,1,0,100,0,0
37754,-105.263157894737,4,1,0,100,0,0
37921,-100,4,1,0,100,0,0
47921,-104.166666666667,4,1,0,100,0,0
48087,-108.695652173913,4,1,0,100,0,0
48254,-113.636363636364,4,1,0,100,0,0
48421,-119.047619047619,4,1,0,100,0,0
48587,-125,4,1,0,100,0,0
63921,-115.473441108545,4,1,0,100,0,0
64254,-107.181136120043,4,1,0,100,0,0
64587,-100,4,1,0,100,0,0
73921,-125,4,1,0,100,0,0
75254,-86.9565217391304,4,1,0,100,0,1
85587,-86.2068965517241,4,1,0,100,0,1
85671,-85.4700854700855,4,1,0,100,0,1
85754,-84.7457627118644,4,1,0,100,0,1
85837,-84.0336134453781,4,1,0,100,0,1
85921,-83.3333333333333,4,1,0,100,0,1
86254,-100,4,1,0,100,0,1
98504,-101.010101010101,4,1,0,100,0,1
98587,-102.040816326531,4,1,0,100,0,1
98754,-104.166666666667,4,1,0,100,0,1
98921,-106.382978723404,4,1,0,100,0,1
99087,-108.695652173913,4,1,0,100,0,0
99254,-111.111111111111,4,1,0,100,0,0
100587,-125,4,1,0,100,0,0
101587,-111.111111111111,4,1,0,100,0,0
101921,-86.9565217391304,4,1,0,100,0,1
111837,-88.1057268722467,4,1,0,100,0,1
111921,-89.2857142857143,4,1,0,100,0,1
112004,-90.4977375565611,4,1,0,100,0,1
112087,-91.743119266055,4,1,0,100,0,1
112171,-93.0232558139535,4,1,0,100,0,1
112254,-94.3396226415094,4,1,0,100,0,1
112337,-95.6937799043062,4,1,0,100,0,1
112421,-97.0873786407767,4,1,0,100,0,1
112504,-98.5221674876847,4,1,0,100,0,1
112587,-100,4,1,0,100,0,1
115254,-100,4,1,0,100,0,0
116254,-119.047619047619,4,1,0,75,0,0
116421,-121.951219512195,4,1,0,75,0,0
116587,-125,4,1,0,75,0,0
117046,-133.333333333333,4,1,0,55,0,0
117129,-133.333333333333,4,1,0,65,0,0
117212,-133.333333333333,4,1,0,75,0,0
117921,-111.111111111111,4,1,0,85,0,0
128587,-100,4,1,0,100,0,0
138587,-104.166666666667,4,1,0,100,0,0
138754,-108.695652173913,4,1,0,100,0,0
138921,-113.636363636364,4,1,0,100,0,0
139087,-119.047619047619,4,1,0,100,0,0
139254,-125,4,1,0,100,0,0
154587,-119.047619047619,4,1,0,100,0,0
154754,-113.636363636364,4,1,0,100,0,0
154921,-108.695652173913,4,1,0,100,0,0
155254,-100,4,1,0,100,0,0
164587,-109.89010989011,4,1,0,100,0,0
164754,-106.382978723404,4,1,0,100,0,0
164921,-103.092783505155,4,1,0,100,0,0
165087,-100,4,1,0,100,0,0
165254,-97.0873786407767,4,1,0,100,0,0
165421,-94.3396226415094,4,1,0,100,0,0
165504,-93.0232558139535,4,1,0,100,0,0
165587,-91.743119266055,4,1,0,100,0,0
165671,-90.4977375565611,4,1,0,100,0,0
165754,-89.2857142857143,4,1,0,100,0,0
165837,-88.1057268722467,4,1,0,100,0,0
165921,-86.9565217391304,4,1,0,100,0,1
176254,-86.2068965517241,4,1,0,100,0,1
176337,-85.4700854700855,4,1,0,100,0,1
176421,-84.7457627118644,4,1,0,100,0,1
176504,-84.0336134453781,4,1,0,100,0,1
176587,-83.3333333333333,4,1,0,100,0,1
176837,-100,4,1,0,100,0,1
189171,-101.010101010101,4,1,0,100,0,1
189254,-102.040816326531,4,1,0,100,0,1
189421,-104.166666666667,4,1,0,100,0,1
189587,-106.382978723404,4,1,0,100,0,1
189754,-108.695652173913,4,1,0,100,0,0
189921,-111.111111111111,4,1,0,100,0,0
191254,-125,4,1,0,100,0,0
192587,-100,4,1,0,100,0,0
193087,-106.382978723404,4,1,0,100,0,0
193587,-113.636363636364,4,1,0,100,0,0
193921,-117.647058823529,4,1,0,100,0,0
195046,-117.647058823529,4,1,0,60,0,0
195129,-117.647058823529,4,1,0,80,0,0
195212,-117.647058823529,4,1,0,100,0,0
196212,-117.647058823529,4,1,0,60,0,0
196296,-117.647058823529,4,1,0,70,0,0
196379,-117.647058823529,4,1,0,80,0,0
196462,-117.647058823529,4,1,0,90,0,0
196546,-117.647058823529,4,1,0,100,0,0
197921,-100,4,1,0,100,0,0
198254,-104.166666666667,4,1,0,100,0,0
198421,-106.382978723404,4,1,0,100,0,0
198587,-108.695652173913,4,1,0,100,0,0
198754,-111.111111111111,4,1,0,100,0,0
198921,-113.636363636364,4,1,0,100,0,0
199254,-117.647058823529,4,1,0,100,0,0
202087,-113.636363636364,4,1,0,100,0,0
202254,-109.89010989011,4,1,0,100,0,0
202421,-106.382978723404,4,1,0,100,0,0
202587,-103.092783505155,4,1,0,100,0,0
202754,-100,4,1,0,100,0,0
202921,-96.8054211035818,4,1,0,100,0,0
203087,-93.8086303939962,4,1,0,100,0,0
203254,-90.9090909090909,4,1,0,100,0,0
215504,-91.743119266055,4,1,0,100,0,0
215587,-92.5925925925926,4,1,0,100,0,0
215671,-93.4579439252336,4,1,0,100,0,0
215754,-94.3396226415094,4,1,0,100,0,0
215837,-95.2380952380952,4,1,0,100,0,0
215921,-96.1538461538461,4,1,0,100,0,0
216004,-97.0873786407767,4,1,0,100,0,0
216087,-98.0392156862745,4,1,0,100,0,0
216171,-99.009900990099,4,1,0,100,0,0
216254,-100,4,1,0,100,0,0
241921,-111.111111111111,4,1,0,100,0,0
243254,-125,4,1,0,100,0,0
244587,-100,4,1,0,100,0,0
245921,-125,4,1,0,100,0,0
247254,-100,4,1,0,100,0,0
248587,-125,4,1,0,100,0,0
249421,-119.047619047619,4,1,0,100,0,0
249504,-117.647058823529,4,1,0,100,0,0
249587,-116.279069767442,4,1,0,100,0,0
249754,-113.636363636364,4,1,0,100,0,0
249921,-86.9565217391304,4,1,0,100,0,1
254921,-86.2068965517241,4,1,0,100,0,1
255004,-85.4700854700855,4,1,0,100,0,1
255087,-84.7457627118644,4,1,0,100,0,1
255171,-84.0336134453781,4,1,0,100,0,1
255254,-83.3333333333333,4,1,0,100,0,1
255504,-100,4,1,0,100,0,1
268421,-95.2380952380952,4,1,0,100,0,1
271087,-90.9090909090909,4,1,0,100,0,1
273171,-90.0900900900901,4,1,0,100,0,1
273254,-89.2857142857143,4,1,0,100,0,1
273337,-88.4955752212389,4,1,0,100,0,1
273421,-87.719298245614,4,1,0,100,0,1
273504,-86.9565217391304,4,1,0,100,0,1
273587,-86.2068965517241,4,1,0,100,0,1
273671,-85.4700854700855,4,1,0,100,0,1
273754,-84.7457627118644,4,1,0,100,0,0
273921,-83.3333333333333,4,1,0,100,0,0
275254,-125,4,1,0,100,0,0
276254,-111.111111111111,4,1,0,100,0,0
276587,-86.9565217391304,4,1,0,100,0,1
286504,-88.1057268722467,4,1,0,100,0,1
286587,-89.2857142857143,4,1,0,100,0,1
286671,-90.4977375565611,4,1,0,100,0,1
286754,-91.743119266055,4,1,0,100,0,1
286837,-93.0232558139535,4,1,0,100,0,1
286921,-94.3396226415094,4,1,0,100,0,1
287004,-95.6937799043062,4,1,0,100,0,1
287087,-97.0873786407767,4,1,0,100,0,1
287171,-98.5221674876847,4,1,0,100,0,1
287254,-100,4,1,0,100,0,1
289171,-101.010101010101,4,1,0,100,0,1
289254,-102.040816326531,4,1,0,100,0,1
289421,-104.166666666667,4,1,0,100,0,1
289587,-106.382978723404,4,1,0,100,0,1
289754,-108.695652173913,4,1,0,100,0,1
289921,-111.111111111111,4,1,0,100,0,0
290921,-119.047619047619,4,1,0,75,0,0
291087,-121.951219512195,4,1,0,75,0,0
291254,-125,4,1,0,75,0,0
291921,-133.333333333333,4,1,0,75,0,0
292587,-142.857142857143,4,1,0,75,0,0

[HitObjects]
256,192,588,5,2,0:0:0:0:
256,192,754,1,0,0:0:0:0:
256,192,921,1,0,0:0:0:0:
256,192,1087,1,2,0:0:0:0:
256,192,1254,1,2,0:0:0:0:
256,192,1421,1,0,0:0:0:0:
256,192,1587,1,0,0:0:0:0:
256,192,1754,1,2,0:0:0:0:
256,192,1921,1,2,0:0:0:0:
256,192,2087,1,2,0:0:0:0:
256,192,2254,1,0,0:0:0:0:
256,192,2421,1,2,0:0:0:0:
256,192,2587,1,2,0:0:0:0:
256,192,2754,1,2,0:0:0:0:
256,192,2921,1,0,0:0:0:0:
256,192,3087,1,2,0:0:0:0:
256,192,3254,1,2,0:0:0:0:
256,192,3421,1,0,0:0:0:0:
256,192,3587,1,2,0:0:0:0:
256,192,3754,1,2,0:0:0:0:
256,192,3921,1,2,0:0:0:0:
256,192,4087,1,0,0:0:0:0:
256,192,4254,1,2,0:0:0:0:
256,192,4421,1,2,0:0:0:0:
256,192,4587,1,2,0:0:0:0:
256,192,4754,1,0,0:0:0:0:
256,192,4921,1,0,0:0:0:0:
256,192,5087,1,2,0:0:0:0:
256,192,5254,1,0,0:0:0:0:
256,192,5421,1,2,0:0:0:0:
256,192,5587,1,2,0:0:0:0:
256,192,5754,1,0,0:0:0:0:
256,192,5921,1,2,0:0:0:0:
256,192,6087,1,0,0:0:0:0:
256,192,6254,1,0,0:0:0:0:
256,192,6421,1,2,0:0:0:0:
256,192,6587,1,2,0:0:0:0:
256,192,6754,1,0,0:0:0:0:
256,192,6921,1,0,0:0:0:0:
256,192,7087,1,2,0:0:0:0:
256,192,7254,1,2,0:0:0:0:
256,192,7421,1,2,0:0:0:0:
256,192,7587,1,0,0:0:0:0:
256,192,7754,1,2,0:0:0:0:
256,192,7921,1,2,0:0:0:0:
256,192,8087,1,2,0:0:0:0:
256,192,8254,1,0,0:0:0:0:
256,192,8421,1,2,0:0:0:0:
256,192,8587,1,2,0:0:0:0:
256,192,8754,1,0,0:0:0:0:
256,192,8921,1,2,0:0:0:0:
256,192,9087,1,2,0:0:0:0:
256,192,9254,1,2,0:0:0:0:
256,192,9421,1,0,0:0:0:0:
256,192,9587,1,0,0:0:0:0:
256,192,9754,1,2,0:0:0:0:
256,192,10921,12,0,11087,0:0:0:0:
256,192,11254,5,4,0:0:0:0:
256,192,11421,1,2,0:0:0:0:
256,192,11504,1,2,0:0:0:0:
256,192,11587,1,0,0:0:0:0:
256,192,11754,1,2,0:0:0:0:
256,192,11837,1,2,0:0:0:0:
256,192,11921,1,0,0:0:0:0:
256,192,12087,1,0,0:0:0:0:
256,192,12171,1,0,0:0:0:0:
256,192,12254,1,2,0:0:0:0:
256,192,12421,1,0,0:0:0:0:
256,192,12504,1,0,0:0:0:0:
256,192,12587,1,0,0:0:0:0:
256,192,12754,1,2,0:0:0:0:
256,192,12837,1,2,0:0:0:0:
256,192,12921,1,0,0:0:0:0:
256,192,13087,1,2,0:0:0:0:
256,192,13171,1,2,0:0:0:0:
256,192,13254,1,2,0:0:0:0:
256,192,13421,1,0,0:0:0:0:
256,192,13504,1,2,0:0:0:0:
256,192,13587,1,2,0:0:0:0:
256,192,13754,1,2,0:0:0:0:
256,192,13837,1,2,0:0:0:0:
256,192,13921,1,4,0:0:0:0:
256,192,14087,1,2,0:0:0:0:
256,192,14171,1,2,0:0:0:0:
256,192,14254,1,0,0:0:0:0:
256,192,14421,1,0,0:0:0:0:
256,192,14504,1,2,0:0:0:0:
256,192,14587,1,0,0:0:0:0:
256,192,14754,1,0,0:0:0:0:
256,192,14837,1,0,0:0:0:0:
256,192,14921,1,2,0:0:0:0:
256,192,15087,1,2,0:0:0:0:
256,192,15171,1,0,0:0:0:0:
256,192,15254,1,0,0:0:0:0:
256,192,15421,1,2,0:0:0:0:
256,192,15504,1,2,0:0:0:0:
256,192,15587,1,2,0:0:0:0:
256,192,15754,1,0,0:0:0:0:
256,192,15837,1,0,0:0:0:0:
256,192,15921,1,2,0:0:0:0:
256,192,16087,1,0,0:0:0:0:
256,192,16171,1,2,0:0:0:0:
256,192,16254,1,0,0:0:0:0:
256,192,16337,1,0,0:0:0:0:
256,192,16421,1,2,0:0:0:0:
256,192,16504,1,2,0:0:0:0:
256,192,16587,1,4,0:0:0:0:
256,192,16754,1,2,0:0:0:0:
256,192,16837,1,2,0:0:0:0:
256,192,16920,1,0,0:0:0:0:
256,192,17087,1,2,0:0:0:0:
256,192,17170,1,2,0:0:0:0:
256,192,17254,1,0,0:0:0:0:
256,192,17420,1,0,0:0:0:0:
256,192,17504,1,0,0:0:0:0:
256,192,17587,1,2,0:0:0:0:
256,192,17754,1,0,0:0:0:0:
256,192,17837,1,0,0:0:0:0:
256,192,17920,1,0,0:0:0:0:
256,192,18087,1,2,0:0:0:0:
256,192,18170,1,2,0:0:0:0:
256,192,18254,1,0,0:0:0:0:
256,192,18420,1,2,0:0:0:0:
256,192,18504,1,2,0:0:0:0:
256,192,18587,1,2,0:0:0:0:
256,192,18754,1,0,0:0:0:0:
256,192,18837,1,2,0:0:0:0:
256,192,18920,1,2,0:0:0:0:
256,192,19087,1,0,0:0:0:0:
256,192,19170,1,0,0:0:0:0:
256,192,19254,1,6,0:0:0:0:
256,192,19421,1,0,0:0:0:0:
256,192,19505,1,0,0:0:0:0:
256,192,19588,1,0,0:0:0:0:
256,192,19755,1,2,0:0:0:0:
256,192,19838,1,2,0:0:0:0:
256,192,19921,1,0,0:0:0:0:
256,192,20088,1,0,0:0:0:0:
256,192,20171,1,0,0:0:0:0:
256,192,20255,1,2,0:0:0:0:
256,192,20421,1,2,0:0:0:0:
256,192,20505,1,0,0:0:0:0:
256,192,20588,1,0,0:0:0:0:
256,192,20755,1,2,0:0:0:0:
256,192,20838,1,2,0:0:0:0:
256,192,20921,1,2,0:0:0:0:
256,192,21088,1,0,0:0:0:0:
256,192,21171,1,0,0:0:0:0:
256,192,21255,1,2,0:0:0:0:
256,192,21337,1,0,0:0:0:0:
256,192,21421,1,0,0:0:0:0:
256,192,21504,1,0,0:0:0:0:
256,192,21588,1,2,0:0:0:0:
256,192,21671,1,2,0:0:0:0:
256,192,21754,1,0,0:0:0:0:
256,192,21837,1,2,0:0:0:0:
256,192,21921,1,4,0:0:0:0:
256,192,22254,1,2,0:0:0:0:
256,192,22504,1,0,0:0:0:0:
256,192,22587,1,0,0:0:0:0:
256,192,22754,1,0,0:0:0:0:
256,192,22921,1,2,0:0:0:0:
256,192,23087,1,0,0:0:0:0:
256,192,23171,1,0,0:0:0:0:
256,192,23254,1,0,0:0:0:0:
256,192,23421,1,2,0:0:0:0:
256,192,23587,1,0,0:0:0:0:
256,192,23754,1,2,0:0:0:0:
256,192,23837,1,0,0:0:0:0:
256,192,23921,1,2,0:0:0:0:
256,192,24087,1,2,0:0:0:0:
256,192,24254,1,0,0:0:0:0:
256,192,24421,1,0,0:0:0:0:
256,192,24587,1,6,0:0:0:0:
256,192,25587,1,2,0:0:0:0:
256,192,25754,1,2,0:0:0:0:
256,192,25921,1,0,0:0:0:0:
256,192,26587,1,0,0:0:0:0:
256,192,27254,1,2,0:0:0:0:
256,192,27754,1,0,0:0:0:0:
256,192,27921,1,0,0:0:0:0:
256,192,28254,1,2,0:0:0:0:
256,192,28421,1,0,0:0:0:0:
256,192,28754,1,2,0:0:0:0:
256,192,29087,1,0,0:0:0:0:
256,192,29921,1,0,0:0:0:0:
256,192,30421,1,2,0:0:0:0:
256,192,30587,1,2,0:0:0:0:
256,192,30921,1,0,0:0:0:0:
256,192,31087,1,0,0:0:0:0:
256,192,31421,1,2,0:0:0:0:
256,192,31754,1,0,0:0:0:0:
256,192,32587,1,2,0:0:0:0:
256,192,33087,1,0,0:0:0:0:
256,192,33254,1,2,0:0:0:0:
256,192,33587,1,2,0:0:0:0:
256,192,33754,1,0,0:0:0:0:
256,192,34087,1,2,0:0:0:0:
256,192,34421,1,0,0:0:0:0:
256,192,34921,1,2,0:0:0:0:
256,192,35087,1,0,0:0:0:0:
256,192,35254,1,2,0:0:0:0:
256,192,35754,1,0,0:0:0:0:
256,192,36254,1,2,0:0:0:0:
256,192,37421,1,0,0:0:0:0:
256,192,37587,1,2,0:0:0:0:
256,192,37754,1,2,0:0:0:0:
256,192,37921,1,4,0:0:0:0:
256,192,38254,1,0,0:0:0:0:
256,192,38421,1,2,0:0:0:0:
256,192,38504,1,2,0:0:0:0:
256,192,38587,1,0,0:0:0:0:
256,192,38921,1,2,0:0:0:0:
256,192,39087,1,0,0:0:0:0:
256,192,39254,1,2,0:0:0:0:
256,192,39421,1,2,0:0:0:0:
256,192,39587,1,0,0:0:0:0:
256,192,39754,1,2,0:0:0:0:
256,192,39921,1,0,0:0:0:0:
256,192,40254,1,0,0:0:0:0:
256,192,40421,1,2,0:0:0:0:
256,192,40504,1,2,0:0:0:0:
256,192,40587,1,0,0:0:0:0:
256,192,40921,1,0,0:0:0:0:
256,192,41087,1,2,0:0:0:0:
256,192,41171,1,0,0:0:0:0:
256,192,41254,1,2,0:0:0:0:
256,192,41587,1,0,0:0:0:0:
256,192,41754,1,2,0:0:0:0:
256,192,41921,1,0,0:0:0:0:
256,192,42087,1,2,0:0:0:0:
256,192,42254,1,2,0:0:0:0:
256,192,42421,1,0,0:0:0:0:
256,192,42504,1,0,0:0:0:0:
256,192,42587,1,0,0:0:0:0:
256,192,42754,1,2,0:0:0:0:
256,192,42921,1,0,0:0:0:0:
256,192,43087,1,2,0:0:0:0:
256,192,43254,1,0,0:0:0:0:
256,192,43587,1,2,0:0:0:0:
256,192,43754,1,0,0:0:0:0:
256,192,43837,1,2,0:0:0:0:
256,192,43921,1,0,0:0:0:0:
256,192,44254,1,2,0:0:0:0:
256,192,44421,1,2,0:0:0:0:
256,192,44587,1,0,0:0:0:0:
256,192,44754,1,2,0:0:0:0:
256,192,44921,1,0,0:0:0:0:
256,192,45087,1,2,0:0:0:0:
256,192,45254,1,0,0:0:0:0:
256,192,45587,1,2,0:0:0:0:
256,192,45754,1,0,0:0:0:0:
256,192,45837,1,0,0:0:0:0:
256,192,45921,1,2,0:0:0:0:
256,192,46254,1,0,0:0:0:0:
256,192,46421,1,2,0:0:0:0:
256,192,46587,1,0,0:0:0:0:
256,192,46754,1,0,0:0:0:0:
256,192,46921,1,2,0:0:0:0:
256,192,47087,1,0,0:0:0:0:
256,192,47171,1,0,0:0:0:0:
256,192,47254,1,2,0:0:0:0:
256,192,47421,1,0,0:0:0:0:
256,192,47504,1,2,0:0:0:0:
256,192,47587,1,2,0:0:0:0:
256,192,47754,1,0,0:0:0:0:
256,192,47921,1,6,0:0:0:0:
256,192,48087,1,0,0:0:0:0:
256,192,48254,1,0,0:0:0:0:
256,192,48421,1,0,0:0:0:0:
256,192,48587,1,6,0:0:0:0:
256,192,49087,1,0,0:0:0:0:
256,192,49254,1,2,0:0:0:0:
256,192,49587,1,0,0:0:0:0:
256,192,49754,1,0,0:0:0:0:
256,192,49921,1,2,0:0:0:0:
256,192,50254,1,0,0:0:0:0:
256,192,50587,1,2,0:0:0:0:
256,192,50921,1,2,0:0:0:0:
256,192,51254,1,0,0:0:0:0:
256,192,51754,1,0,0:0:0:0:
256,192,51921,1,2,0:0:0:0:
256,192,52254,1,0,0:0:0:0:
256,192,52587,1,2,0:0:0:0:
256,192,52754,1,2,0:0:0:0:
256,192,52921,1,0,0:0:0:0:
256,192,53254,1,2,0:0:0:0:
256,192,53587,1,0,0:0:0:0:
256,192,53921,1,6,0:0:0:0:
256,192,54421,1,0,0:0:0:0:
256,192,54587,1,2,0:0:0:0:
256,192,54921,1,0,0:0:0:0:
256,192,55087,1,2,0:0:0:0:
256,192,55254,1,0,0:0:0:0:
256,192,55587,1,2,0:0:0:0:
256,192,55754,1,0,0:0:0:0:
256,192,55921,1,0,0:0:0:0:
256,192,56254,1,2,0:0:0:0:
256,192,56421,1,2,0:0:0:0:
256,192,56587,1,0,0:0:0:0:
256,192,57087,1,0,0:0:0:0:
256,192,57254,1,2,0:0:0:0:
256,192,57587,1,0,0:0:0:0:
256,192,57921,1,2,0:0:0:0:
256,192,58087,1,2,0:0:0:0:
256,192,58254,1,0,0:0:0:0:
256,192,58587,1,2,0:0:0:0:
256,192,58754,1,0,0:0:0:0:
256,192,58921,1,2,0:0:0:0:
256,192,59087,1,2,0:0:0:0:
256,192,59254,1,4,0:0:0:0:
256,192,59754,1,0,0:0:0:0:
256,192,59921,1,2,0:0:0:0:
256,192,60254,1,0,0:0:0:0:
256,192,60421,1,0,0:0:0:0:
256,192,60587,1,2,0:0:0:0:
256,192,60921,1,0,0:0:0:0:
256,192,61254,1,2,0:0:0:0:
256,192,61587,1,2,0:0:0:0:
256,192,61921,1,0,0:0:0:0:
256,192,62421,1,0,0:0:0:0:
256,192,62587,1,2,0:0:0:0:
256,192,62921,1,0,0:0:0:0:
256,192,63254,1,2,0:0:0:0:
256,192,63421,1,2,0:0:0:0:
256,192,63587,1,0,0:0:0:0:
256,192,63921,1,2,0:0:0:0:
256,192,64254,1,0,0:0:0:0:
256,192,64587,1,4,0:0:0:0:
256,192,64837,1,0,0:0:0:0:
256,192,64921,1,2,0:0:0:0:
256,192,65087,1,2,0:0:0:0:
256,192,65171,1,2,0:0:0:0:
256,192,65254,1,0,0:0:0:0:
256,192,65421,1,0,0:0:0:0:
256,192,65587,1,2,0:0:0:0:
256,192,65754,1,0,0:0:0:0:
256,192,65837,1,0,0:0:0:0:
256,192,65921,1,0,0:0:0:0:
256,192,66087,1,0,0:0:0:0:
256,192,66254,1,2,0:0:0:0:
256,192,66421,1,0,0:0:0:0:
256,192,66504,1,2,0:0:0:0:
256,192,66587,1,0,0:0:0:0:
256,192,66754,1,0,0:0:0:0:
256,192,66837,1,0,0:0:0:0:
256,192,66921,1,2,0:0:0:0:
256,192,67087,1,0,0:0:0:0:
256,192,67254,1,0,0:0:0:0:
256,192,67504,1,0,0:0:0:0:
256,192,67587,1,2,0:0:0:0:
256,192,67754,1,0,0:0:0:0:
256,192,67837,1,0,0:0:0:0:
256,192,67921,1,0,0:0:0:0:
256,192,68087,1,2,0:0:0:0:
256,192,68171,1,0,0:0:0:0:
256,192,68254,1,2,0:0:0:0:
256,192,68421,1,0,0:0:0:0:
256,192,68587,1,2,0:0:0:0:
256,192,68754,1,0,0:0:0:0:
256,192,68837,1,0,0:0:0:0:
256,192,68921,1,2,0:0:0:0:
256,192,69087,1,0,0:0:0:0:
256,192,69254,1,2,0:0:0:0:
256,192,69421,1,0,0:0:0:0:
256,192,69587,1,2,0:0:0:0:
256,192,69754,1,4,0:0:0:0:
256,192,70087,1,0,0:0:0:0:
256,192,70254,1,2,0:0:0:0:
256,192,70421,1,0,0:0:0:0:
256,192,70504,1,0,0:0:0:0:
256,192,70587,1,2,0:0:0:0:
256,192,70754,1,0,0:0:0:0:
256,192,70921,1,2,0:0:0:0:
256,192,71087,1,0,0:0:0:0:
256,192,71171,1,0,0:0:0:0:
256,192,71254,1,2,0:0:0:0:
256,192,71421,1,0,0:0:0:0:
256,192,71504,1,0,0:0:0:0:
256,192,71587,1,2,0:0:0:0:
256,192,71754,1,0,0:0:0:0:
256,192,71837,1,0,0:0:0:0:
256,192,71921,1,2,0:0:0:0:
256,192,72004,1,2,0:0:0:0:
256,192,72087,1,2,0:0:0:0:
256,192,72171,1,2,0:0:0:0:
256,192,72254,1,2,0:0:0:0:
256,192,72337,1,2,0:0:0:0:
256,192,72421,1,2,0:0:0:0:
256,192,72504,1,2,0:0:0:0:
256,192,72587,1,4,0:0:0:0:
256,192,75254,1,6,0:0:0:0:
256,192,75421,1,0,0:0:0:0:
256,192,75504,1,0,0:0:0:0:
256,192,75587,1,0,0:0:0:0:
256,192,75754,1,6,0:0:0:0:
256,192,75921,1,0,0:0:0:0:
256,192,76004,1,0,0:0:0:0:
256,192,76087,1,2,0:0:0:0:
256,192,76254,1,6,0:0:0:0:
256,192,76421,1,0,0:0:0:0:
256,192,76504,1,2,0:0:0:0:
256,192,76587,1,0,0:0:0:0:
256,192,76754,1,6,0:0:0:0:
256,192,76921,1,2,0:0:0:0:
256,192,77004,1,0,0:0:0:0:
256,192,77087,1,0,0:0:0:0:
256,192,77254,1,6,0:0:0:0:
256,192,77421,1,0,0:0:0:0:
256,192,77587,1,2,0:0:0:0:
256,192,77754,1,2,0:0:0:0:
256,192,77921,1,4,0:0:0:0:
256,192,78087,1,2,0:0:0:0:
256,192,78171,1,2,0:0:0:0:
256,192,78254,1,2,0:0:0:0:
256,192,78421,1,4,0:0:0:0:
256,192,78587,1,2,0:0:0:0:
256,192,78671,1,2,0:0:0:0:
256,192,78754,1,0,0:0:0:0:
256,192,78921,1,4,0:0:0:0:
256,192,79087,1,2,0:0:0:0:
256,192,79171,1,0,0:0:0:0:
256,192,79254,1,2,0:0:0:0:
256,192,79421,1,4,0:0:0:0:
256,192,79587,1,0,0:0:0:0:
256,192,79671,1,2,0:0:0:0:
256,192,79754,1,2,0:0:0:0:
256,192,79921,1,4,0:0:0:0:
256,192,80087,1,2,0:0:0:0:
256,192,80254,1,2,0:0:0:0:
256,192,80421,1,0,0:0:0:0:
256,192,80587,1,6,0:0:0:0:
256,192,80754,1,0,0:0:0:0:
256,192,80837,1,0,0:0:0:0:
256,192,80921,1,2,0:0:0:0:
256,192,81087,1,4,0:0:0:0:
256,192,81254,1,2,0:0:0:0:
256,192,81337,1,2,0:0:0:0:
256,192,81421,1,0,0:0:0:0:
256,192,81587,1,6,0:0:0:0:
256,192,81754,1,0,0:0:0:0:
256,192,81837,1,2,0:0:0:0:
256,192,81921,1,0,0:0:0:0:
256,192,82087,1,4,0:0:0:0:
256,192,82254,1,2,0:0:0:0:
256,192,82337,1,0,0:0:0:0:
256,192,82421,1,2,0:0:0:0:
256,192,82587,1,6,0:0:0:0:
256,192,82754,1,0,0:0:0:0:
256,192,82921,1,4,0:0:0:0:
256,192,83087,1,2,0:0:0:0:
256,192,83254,1,4,0:0:0:0:
256,192,83421,1,2,0:0:0:0:
256,192,83504,1,0,0:0:0:0:
256,192,83587,1,0,0:0:0:0:
256,192,83754,1,6,0:0:0:0:
256,192,83921,1,0,0:0:0:0:
256,192,84004,1,2,0:0:0:0:
256,192,84087,1,2,0:0:0:0:
256,192,84254,1,4,0:0:0:0:
256,192,84421,1,2,0:0:0:0:
256,192,84504,1,0,0:0:0:0:
256,192,84587,1,2,0:0:0:0:
256,192,84754,1,6,0:0:0:0:
256,192,84921,1,0,0:0:0:0:
256,192,85004,1,0,0:0:0:0:
256,192,85087,1,0,0:0:0:0:
256,192,85254,1,6,0:0:0:0:
256,192,85421,1,0,0:0:0:0:
256,192,85587,1,2,0:0:0:0:
256,192,85671,1,2,0:0:0:0:
256,192,85754,1,2,0:0:0:0:
256,192,85837,1,2,0:0:0:0:
256,192,85921,1,4,0:0:0:0:
256,192,86254,1,2,0:0:0:0:
256,192,86421,1,0,0:0:0:0:
256,192,86504,1,2,0:0:0:0:
256,192,86587,1,0,0:0:0:0:
256,192,86754,1,0,0:0:0:0:
256,192,86921,1,2,0:0:0:0:
256,192,87087,1,2,0:0:0:0:
256,192,87171,1,2,0:0:0:0:
256,192,87254,1,0,0:0:0:0:
256,192,87421,1,0,0:0:0:0:
256,192,87587,1,2,0:0:0:0:
256,192,87754,1,0,0:0:0:0:
256,192,87837,1,0,0:0:0:0:
256,192,87921,1,2,0:0:0:0:
256,192,88004,1,2,0:0:0:0:
256,192,88087,1,0,0:0:0:0:
224,192,88254,1,2,0:0:0:0:
256,192,88421,1,2,0:0:0:0:
256,192,88504,1,2,0:0:0:0:
256,192,88587,1,0,0:0:0:0:
256,192,88921,1,2,0:0:0:0:
256,192,89087,1,0,0:0:0:0:
256,192,89171,1,2,0:0:0:0:
256,192,89254,1,0,0:0:0:0:
256,192,89421,1,0,0:0:0:0:
256,192,89587,1,2,0:0:0:0:
256,192,89754,1,0,0:0:0:0:
256,192,89837,1,0,0:0:0:0:
256,192,89921,1,2,0:0:0:0:
256,192,90087,1,0,0:0:0:0:
256,192,90254,1,2,0:0:0:0:
256,192,90337,1,2,0:0:0:0:
256,192,90421,1,0,0:0:0:0:
256,192,90504,1,0,0:0:0:0:
256,192,90587,1,2,0:0:0:0:
256,192,90754,1,0,0:0:0:0:
256,192,90837,1,2,0:0:0:0:
256,192,90921,1,2,0:0:0:0:
256,192,91087,1,0,0:0:0:0:
256,192,91254,1,6,0:0:0:0:
256,192,91587,1,0,0:0:0:0:
256,192,91754,1,2,0:0:0:0:
256,192,91837,1,0,0:0:0:0:
256,192,91921,1,2,0:0:0:0:
256,192,92087,1,0,0:0:0:0:
256,192,92254,1,2,0:0:0:0:
256,192,92421,1,0,0:0:0:0:
256,192,92504,1,0,0:0:0:0:
256,192,92587,1,0,0:0:0:0:
256,192,92921,1,2,0:0:0:0:
256,192,93087,1,0,0:0:0:0:
256,192,93171,1,2,0:0:0:0:
256,192,93254,1,0,0:0:0:0:
256,192,93421,1,2,0:0:0:0:
256,192,93504,1,0,0:0:0:0:
256,192,93587,1,2,0:0:0:0:
256,192,93754,1,0,0:0:0:0:
256,192,93921,1,4,0:0:0:0:
256,192,94087,1,0,0:0:0:0:
256,192,94171,1,0,0:0:0:0:
256,192,94254,1,2,0:0:0:0:
256,192,94421,1,0,0:0:0:0:
256,192,94504,1,2,0:0:0:0:
256,192,94587,1,0,0:0:0:0:
256,192,94754,1,2,0:0:0:0:
256,192,94837,1,2,0:0:0:0:
256,192,94921,1,0,0:0:0:0:
256,192,95087,1,2,0:0:0:0:
256,192,95421,1,0,0:0:0:0:
256,192,95504,1,0,0:0:0:0:
256,192,95587,1,2,0:0:0:0:
256,192,95754,1,2,0:0:0:0:
256,192,95837,1,0,0:0:0:0:
256,192,95921,1,2,0:0:0:0:
256,192,96087,1,2,0:0:0:0:
256,192,96254,1,0,0:0:0:0:
256,192,96421,1,6,0:0:0:0:
256,192,96754,1,0,0:0:0:0:
256,192,96921,1,2,0:0:0:0:
256,192,97087,1,0,0:0:0:0:
256,192,97171,1,0,0:0:0:0:
256,192,97254,1,2,0:0:0:0:
256,192,97421,1,0,0:0:0:0:
256,192,97587,1,2,0:0:0:0:
256,192,97754,1,0,0:0:0:0:
256,192,97837,1,0,0:0:0:0:
256,192,97921,1,2,0:0:0:0:
256,192,98087,1,0,0:0:0:0:
256,192,98171,1,0,0:0:0:0:
256,192,98254,1,2,0:0:0:0:
256,192,98421,1,2,0:0:0:0:
256,192,98504,1,0,0:0:0:0:
256,192,98587,1,0,0:0:0:0:
256,192,98754,1,0,0:0:0:0:
256,192,98921,1,2,0:0:0:0:
256,192,99087,1,4,0:0:0:0:
256,192,101587,12,2,101754,0:0:0:0:
256,192,101921,5,4,0:0:0:0:
256,192,102088,1,2,0:0:0:0:
256,192,102171,1,2,0:0:0:0:
256,192,102254,1,0,0:0:0:0:
256,192,102421,1,2,0:0:0:0:
256,192,102504,1,2,0:0:0:0:
256,192,102588,1,0,0:0:0:0:
256,192,102754,1,0,0:0:0:0:
256,192,102838,1,0,0:0:0:0:
256,192,102921,1,2,0:0:0:0:
256,192,103088,1,0,0:0:0:0:
256,192,103171,1,0,0:0:0:0:
256,192,103254,1,0,0:0:0:0:
256,192,103421,1,2,0:0:0:0:
256,192,103504,1,2,0:0:0:0:
256,192,103588,1,0,0:0:0:0:
256,192,103754,1,2,0:0:0:0:
256,192,103838,1,2,0:0:0:0:
256,192,103921,1,2,0:0:0:0:
256,192,104088,1,0,0:0:0:0:
256,192,104171,1,2,0:0:0:0:
256,192,104254,1,2,0:0:0:0:
256,192,104421,1,2,0:0:0:0:
256,192,104504,1,2,0:0:0:0:
256,192,104588,1,4,0:0:0:0:
256,192,104754,1,2,0:0:0:0:
256,192,104838,1,2,0:0:0:0:
256,192,104921,1,0,0:0:0:0:
256,192,105088,1,0,0:0:0:0:
256,192,105171,1,2,0:0:0:0:
256,192,105254,1,0,0:0:0:0:
256,192,105421,1,0,0:0:0:0:
256,192,105504,1,0,0:0:0:0:
256,192,105588,1,2,0:0:0:0:
256,192,105754,1,2,0:0:0:0:
256,192,105838,1,0,0:0:0:0:
256,192,105921,1,0,0:0:0:0:
256,192,106088,1,2,0:0:0:0:
256,192,106171,1,2,0:0:0:0:
256,192,106254,1,2,0:0:0:0:
256,192,106421,1,0,0:0:0:0:
256,192,106504,1,0,0:0:0:0:
256,192,106588,1,2,0:0:0:0:
256,192,106754,1,0,0:0:0:0:
256,192,106838,1,2,0:0:0:0:
256,192,106921,1,0,0:0:0:0:
256,192,107004,1,0,0:0:0:0:
256,192,107088,1,2,0:0:0:0:
256,192,107171,1,2,0:0:0:0:
256,192,107254,1,4,0:0:0:0:
256,192,107421,1,2,0:0:0:0:
256,192,107504,1,2,0:0:0:0:
256,192,107587,1,0,0:0:0:0:
256,192,107754,1,2,0:0:0:0:
256,192,107837,1,2,0:0:0:0:
256,192,107921,1,0,0:0:0:0:
256,192,108087,1,0,0:0:0:0:
256,192,108171,1,0,0:0:0:0:
256,192,108254,1,2,0:0:0:0:
256,192,108421,1,0,0:0:0:0:
256,192,108504,1,0,0:0:0:0:
256,192,108587,1,0,0:0:0:0:
256,192,108754,1,2,0:0:0:0:
256,192,108837,1,2,0:0:0:0:
256,192,108921,1,0,0:0:0:0:
256,192,109087,1,2,0:0:0:0:
256,192,109171,1,2,0:0:0:0:
256,192,109254,1,2,0:0:0:0:
256,192,109421,1,0,0:0:0:0:
256,192,109504,1,2,0:0:0:0:
256,192,109587,1,2,0:0:0:0:
256,192,109754,1,0,0:0:0:0:
256,192,109837,1,0,0:0:0:0:
256,192,109921,1,6,0:0:0:0:
256,192,110088,1,0,0:0:0:0:
256,192,110172,1,0,0:0:0:0:
256,192,110255,1,0,0:0:0:0:
256,192,110422,1,2,0:0:0:0:
256,192,110505,1,0,0:0:0:0:
256,192,110588,1,0,0:0:0:0:
256,192,110755,1,0,0:0:0:0:
256,192,110838,1,0,0:0:0:0:
256,192,110922,1,2,0:0:0:0:
256,192,111088,1,2,0:0:0:0:
256,192,111172,1,2,0:0:0:0:
256,192,111255,1,4,0:0:0:0:
256,192,111422,1,2,0:0:0:0:
256,192,111505,1,2,0:0:0:0:
256,192,111588,1,2,0:0:0:0:
256,192,111755,1,0,0:0:0:0:
256,192,111838,1,0,0:0:0:0:
256,192,111922,1,2,0:0:0:0:
256,192,112004,1,0,0:0:0:0:
256,192,112088,1,0,0:0:0:0:
256,192,112171,1,0,0:0:0:0:
256,192,112255,1,2,0:0:0:0:
256,192,112338,1,2,0:0:0:0:
256,192,112421,1,0,0:0:0:0:
256,192,112504,1,2,0:0:0:0:
256,192,112588,1,4,0:0:0:0:
256,192,112921,1,2,0:0:0:0:
256,192,113171,1,0,0:0:0:0:
256,192,113254,1,0,0:0:0:0:
256,192,113421,1,0,0:0:0:0:
256,192,113588,1,2,0:0:0:0:
256,192,113754,1,0,0:0:0:0:
256,192,113838,1,0,0:0:0:0:
256,192,113921,1,0,0:0:0:0:
256,192,114088,1,2,0:0:0:0:
256,192,114171,1,0,0:0:0:0:
256,192,114254,1,2,0:0:0:0:
256,192,114421,1,0,0:0:0:0:
256,192,114588,1,2,0:0:0:0:
256,192,114754,1,0,0:0:0:0:
256,192,114921,1,0,0:0:0:0:
256,192,115088,1,2,0:0:0:0:
256,192,115171,1,2,0:0:0:0:
256,192,115254,1,4,0:0:0:0:
256,192,116254,1,2,0:0:0:0:
256,192,116421,1,2,0:0:0:0:
256,192,116587,1,0,0:0:0:0:
256,192,117087,1,2,0:0:0:0:
256,192,117171,1,2,0:0:0:0:
256,192,117254,1,2,0:0:0:0:
256,192,117421,1,0,0:0:0:0:
256,192,117587,1,2,0:0:0:0:
256,192,117921,1,4,0:0:0:0:
256,192,118254,1,0,0:0:0:0:
256,192,118421,1,2,0:0:0:0:
256,192,118587,1,0,0:0:0:0:
256,192,118921,1,2,0:0:0:0:
256,192,119087,1,2,0:0:0:0:
256,192,119254,1,0,0:0:0:0:
256,192,119421,1,2,0:0:0:0:
256,192,119587,1,0,0:0:0:0:
256,192,119754,1,2,0:0:0:0:
256,192,119921,1,0,0:0:0:0:
256,192,120254,1,0,0:0:0:0:
256,192,120421,1,2,0:0:0:0:
256,192,120587,1,0,0:0:0:0:
256,192,120921,1,0,0:0:0:0:
256,192,121087,1,0,0:0:0:0:
256,192,121254,1,2,0:0:0:0:
256,192,121587,1,0,0:0:0:0:
256,192,121754,1,2,0:0:0:0:
256,192,121921,1,0,0:0:0:0:
256,192,122087,1,0,0:0:0:0:
256,192,122254,1,2,0:0:0:0:
256,192,122421,1,2,0:0:0:0:
256,192,122587,1,0,0:0:0:0:
256,192,122837,1,2,0:0:0:0:
256,192,122921,1,0,0:0:0:0:
256,192,123087,1,2,0:0:0:0:
256,192,123254,1,0,0:0:0:0:
256,192,123587,1,2,0:0:0:0:
256,192,123754,1,2,0:0:0:0:
256,192,123921,1,0,0:0:0:0:
256,192,124254,1,0,0:0:0:0:
256,192,124421,1,2,0:0:0:0:
256,192,124587,1,0,0:0:0:0:
256,192,124754,1,2,0:0:0:0:
256,192,124921,1,2,0:0:0:0:
256,192,125087,1,0,0:0:0:0:
256,192,125254,1,0,0:0:0:0:
256,192,125421,1,2,0:0:0:0:
256,192,125504,1,2,0:0:0:0:
256,192,125587,1,0,0:0:0:0:
256,192,125754,1,2,0:0:0:0:
256,192,125921,1,0,0:0:0:0:
256,192,126254,1,2,0:0:0:0:
256,192,126421,1,2,0:0:0:0:
256,192,126587,1,0,0:0:0:0:
256,192,126754,1,2,0:0:0:0:
256,192,126921,1,0,0:0:0:0:
256,192,127254,1,2,0:0:0:0:
256,192,127421,1,0,0:0:0:0:
256,192,127504,1,2,0:0:0:0:
256,192,127587,1,0,0:0:0:0:
256,192,127671,1,0,0:0:0:0:
256,192,127754,1,2,0:0:0:0:
256,192,127921,1,2,0:0:0:0:
256,192,128587,1,4,0:0:0:0:
256,192,128921,1,0,0:0:0:0:
256,192,129088,1,2,0:0:0:0:
256,192,129171,1,2,0:0:0:0:
256,192,129254,1,0,0:0:0:0:
256,192,129421,1,0,0:0:0:0:
256,192,129588,1,2,0:0:0:0:
256,192,129671,1,0,0:0:0:0:
256,192,129754,1,2,0:0:0:0:
256,192,129921,1,0,0:0:0:0:
256,192,130088,1,2,0:0:0:0:
256,192,130171,1,0,0:0:0:0:
256,192,130254,1,0,0:0:0:0:
256,192,130421,1,2,0:0:0:0:
256,192,130588,1,0,0:0:0:0:
256,192,130837,1,2,0:0:0:0:
256,192,130921,1,0,0:0:0:0:
256,192,131088,1,2,0:0:0:0:
256,192,131171,1,2,0:0:0:0:
256,192,131254,1,0,0:0:0:0:
256,192,131588,1,0,0:0:0:0:
256,192,131754,1,2,0:0:0:0:
256,192,131838,1,0,0:0:0:0:
256,192,131921,1,2,0:0:0:0:
256,192,132087,1,0,0:0:0:0:
256,192,132254,1,0,0:0:0:0:
256,192,132337,1,0,0:0:0:0:
256,192,132421,1,2,0:0:0:0:
256,192,132588,1,0,0:0:0:0:
256,192,132754,1,0,0:0:0:0:
256,192,132921,1,2,0:0:0:0:
256,192,133004,1,2,0:0:0:0:
256,192,133088,1,0,0:0:0:0:
256,192,133171,1,2,0:0:0:0:
256,192,133254,1,0,0:0:0:0:
256,192,133421,1,2,0:0:0:0:
256,192,133588,1,0,0:0:0:0:
256,192,133754,1,2,0:0:0:0:
256,192,133921,1,4,0:0:0:0:
256,192,134254,1,2,0:0:0:0:
256,192,134421,1,0,0:0:0:0:
256,192,134504,1,2,0:0:0:0:
256,192,134588,1,0,0:0:0:0:
256,192,134754,1,2,0:0:0:0:
256,192,134921,1,0,0:0:0:0:
256,192,135004,1,0,0:0:0:0:
256,192,135088,1,2,0:0:0:0:
256,192,135254,1,0,0:0:0:0:
256,192,135421,1,2,0:0:0:0:
256,192,135504,1,2,0:0:0:0:
256,192,135588,1,0,0:0:0:0:
256,192,135671,1,0,0:0:0:0:
256,192,135754,1,2,0:0:0:0:
256,192,135921,1,0,0:0:0:0:
256,192,136171,1,0,0:0:0:0:
256,192,136254,1,2,0:0:0:0:
256,192,136421,1,0,0:0:0:0:
256,192,136588,1,6,0:0:0:0:
256,192,136921,1,0,0:0:0:0:
256,192,137088,1,0,0:0:0:0:
256,192,137254,1,2,0:0:0:0:
256,192,137421,1,2,0:0:0:0:
256,192,137588,1,0,0:0:0:0:
256,192,137754,1,2,0:0:0:0:
256,192,137838,1,0,0:0:0:0:
256,192,137921,1,2,0:0:0:0:
256,192,138088,1,0,0:0:0:0:
256,192,138171,1,0,0:0:0:0:
256,192,138254,1,2,0:0:0:0:
256,192,138337,1,2,0:0:0:0:
256,192,138421,1,0,0:0:0:0:
256,192,138588,1,2,0:0:0:0:
256,192,138754,1,0,0:0:0:0:
256,192,138921,1,2,0:0:0:0:
256,192,139087,1,0,0:0:0:0:
256,192,139254,1,6,0:0:0:0:
256,192,139587,1,0,0:0:0:0:
256,192,139921,1,2,0:0:0:0:
256,192,140254,1,0,0:0:0:0:
256,192,140421,1,0,0:0:0:0:
256,192,140587,1,2,0:0:0:0:
256,192,140754,1,2,0:0:0:0:
256,192,140921,1,0,0:0:0:0:
256,192,141254,1,2,0:0:0:0:
256,192,141587,1,0,0:0:0:0:
256,192,141921,1,0,0:0:0:0:
256,192,142254,1,2,0:0:0:0:
256,192,142587,1,2,0:0:0:0:
256,192,142921,1,0,0:0:0:0:
256,192,143087,1,2,0:0:0:0:
256,192,143254,1,0,0:0:0:0:
256,192,143421,1,0,0:0:0:0:
256,192,143587,1,2,0:0:0:0:
256,192,143921,1,2,0:0:0:0:
256,192,144087,1,2,0:0:0:0:
256,192,144254,1,0,0:0:0:0:
256,192,144421,1,0,0:0:0:0:
256,192,144587,1,6,0:0:0:0:
256,192,144921,1,0,0:0:0:0:
256,192,145254,1,2,0:0:0:0:
256,192,145587,1,0,0:0:0:0:
256,192,145754,1,2,0:0:0:0:
256,192,145921,1,0,0:0:0:0:
256,192,146087,1,2,0:0:0:0:
256,192,146254,1,0,0:0:0:0:
256,192,146421,1,0,0:0:0:0:
256,192,146587,1,2,0:0:0:0:
256,192,146921,1,0,0:0:0:0:
256,192,147087,1,0,0:0:0:0:
256,192,147254,1,2,0:0:0:0:
256,192,147587,1,0,0:0:0:0:
256,192,147921,1,2,0:0:0:0:
256,192,148254,1,2,0:0:0:0:
256,192,148421,1,0,0:0:0:0:
256,192,148587,1,2,0:0:0:0:
256,192,148754,1,2,0:0:0:0:
256,192,148921,1,0,0:0:0:0:
256,192,149087,1,2,0:0:0:0:
256,192,149254,1,0,0:0:0:0:
256,192,149421,1,0,0:0:0:0:
256,192,149587,1,2,0:0:0:0:
256,192,149921,1,4,0:0:0:0:
256,192,150254,1,0,0:0:0:0:
256,192,150587,1,2,0:0:0:0:
256,192,150921,1,0,0:0:0:0:
256,192,151087,1,0,0:0:0:0:
256,192,151254,1,2,0:0:0:0:
256,192,151421,1,2,0:0:0:0:
256,192,151587,1,0,0:0:0:0:
256,192,151921,1,2,0:0:0:0:
256,192,152254,1,0,0:0:0:0:
256,192,152421,1,2,0:0:0:0:
256,192,152587,1,0,0:0:0:0:
256,192,152921,1,0,0:0:0:0:
256,192,153254,1,2,0:0:0:0:
256,192,153587,1,0,0:0:0:0:
256,192,153754,1,2,0:0:0:0:
256,192,153921,1,0,0:0:0:0:
256,192,154087,1,0,0:0:0:0:
256,192,154254,1,2,0:0:0:0:
256,192,154421,1,0,0:0:0:0:
256,192,154587,1,2,0:0:0:0:
256,192,154754,1,0,0:0:0:0:
256,192,154921,1,2,0:0:0:0:
256,192,155254,1,4,0:0:0:0:
256,192,155504,1,2,0:0:0:0:
256,192,155588,1,0,0:0:0:0:
256,192,155754,1,0,0:0:0:0:
256,192,155838,1,0,0:0:0:0:
256,192,155921,1,2,0:0:0:0:
256,192,156088,1,0,0:0:0:0:
256,192,156254,1,2,0:0:0:0:
256,192,156421,1,0,0:0:0:0:
256,192,156504,1,0,0:0:0:0:
256,192,156588,1,0,0:0:0:0:
256,192,156754,1,0,0:0:0:0:
256,192,156921,1,2,0:0:0:0:
256,192,157088,1,2,0:0:0:0:
256,192,157171,1,0,0:0:0:0:
256,192,157254,1,2,0:0:0:0:
256,192,157337,1,2,0:0:0:0:
256,192,157421,1,0,0:0:0:0:
256,192,157588,1,2,0:0:0:0:
256,192,157754,1,0,0:0:0:0:
256,192,157921,1,4,0:0:0:0:
256,192,158171,1,0,0:0:0:0:
256,192,158254,1,2,0:0:0:0:
256,192,158421,1,0,0:0:0:0:
256,192,158504,1,0,0:0:0:0:
256,192,158588,1,0,0:0:0:0:
256,192,158754,1,2,0:0:0:0:
256,192,158838,1,2,0:0:0:0:
256,192,158921,1,0,0:0:0:0:
256,192,159088,1,2,0:0:0:0:
256,192,159254,1,0,0:0:0:0:
256,192,159421,1,0,0:0:0:0:
256,192,159587,1,2,0:0:0:0:
256,192,159671,1,2,0:0:0:0:
256,192,159754,1,0,0:0:0:0:
256,192,159837,1,0,0:0:0:0:
256,192,159921,1,2,0:0:0:0:
256,192,160088,1,0,0:0:0:0:
256,192,160254,1,2,0:0:0:0:
256,192,160421,1,4,0:0:0:0:
256,192,160754,1,0,0:0:0:0:
256,192,160921,1,2,0:0:0:0:
256,192,161088,1,0,0:0:0:0:
256,192,161171,1,0,0:0:0:0:
256,192,161254,1,2,0:0:0:0:
256,192,161421,1,0,0:0:0:0:
256,192,161588,1,2,0:0:0:0:
256,192,161754,1,0,0:0:0:0:
256,192,161838,1,0,0:0:0:0:
256,192,161921,1,2,0:0:0:0:
256,192,162088,1,0,0:0:0:0:
256,192,162171,1,0,0:0:0:0:
256,192,162254,1,2,0:0:0:0:
256,192,162421,1,0,0:0:0:0:
256,192,162504,1,0,0:0:0:0:
256,192,162588,1,2,0:0:0:0:
256,192,162671,1,2,0:0:0:0:
256,192,162754,1,0,0:0:0:0:
256,192,162838,1,0,0:0:0:0:
256,192,162921,1,2,0:0:0:0:
256,192,163004,1,2,0:0:0:0:
256,192,163088,1,2,0:0:0:0:
256,192,163171,1,2,0:0:0:0:
256,192,163254,1,4,0:0:0:0:
256,192,164754,1,0,0:0:0:0:
256,192,164921,1,6,0:0:0:0:
256,192,165087,1,0,0:0:0:0:
256,192,165254,1,6,0:0:0:0:
256,192,165421,1,0,0:0:0:0:
256,192,165504,1,0,0:0:0:0:
256,192,165587,1,2,0:0:0:0:
256,192,165671,1,2,0:0:0:0:
256,192,165754,1,0,0:0:0:0:
256,192,165837,1,0,0:0:0:0:
256,192,165921,1,6,0:0:0:0:
256,192,166087,1,0,0:0:0:0:
256,192,166170,1,0,0:0:0:0:
256,192,166253,1,0,0:0:0:0:
256,192,166420,1,6,0:0:0:0:
256,192,166587,1,0,0:0:0:0:
256,192,166670,1,0,0:0:0:0:
256,192,166753,1,2,0:0:0:0:
256,192,166920,1,6,0:0:0:0:
256,192,167087,1,0,0:0:0:0:
256,192,167170,1,2,0:0:0:0:
256,192,167253,1,0,0:0:0:0:
256,192,167420,1,6,0:0:0:0:
256,192,167587,1,2,0:0:0:0:
256,192,167670,1,0,0:0:0:0:
256,192,167753,1,0,0:0:0:0:
256,192,167920,1,6,0:0:0:0:
256,192,168087,1,0,0:0:0:0:
256,192,168253,1,2,0:0:0:0:
256,192,168420,1,2,0:0:0:0:
256,192,168587,1,4,0:0:0:0:
256,192,168753,1,2,0:0:0:0:
256,192,168837,1,2,0:0:0:0:
256,192,168920,1,2,0:0:0:0:
256,192,169087,1,4,0:0:0:0:
256,192,169253,1,2,0:0:0:0:
256,192,169337,1,2,0:0:0:0:
256,192,169420,1,0,0:0:0:0:
256,192,169587,1,4,0:0:0:0:
256,192,169753,1,2,0:0:0:0:
256,192,169837,1,0,0:0:0:0:
256,192,169920,1,2,0:0:0:0:
256,192,170087,1,4,0:0:0:0:
256,192,170253,1,0,0:0:0:0:
256,192,170337,1,2,0:0:0:0:
256,192,170420,1,2,0:0:0:0:
256,192,170587,1,4,0:0:0:0:
256,192,170753,1,2,0:0:0:0:
256,192,170920,1,2,0:0:0:0:
256,192,171087,1,0,0:0:0:0:
256,192,171253,1,6,0:0:0:0:
256,192,171420,1,0,0:0:0:0:
256,192,171503,1,0,0:0:0:0:
256,192,171587,1,2,0:0:0:0:
256,192,171753,1,4,0:0:0:0:
256,192,171920,1,2,0:0:0:0:
256,192,172003,1,2,0:0:0:0:
256,192,172087,1,0,0:0:0:0:
256,192,172253,1,6,0:0:0:0:
256,192,172420,1,0,0:0:0:0:
256,192,172503,1,2,0:0:0:0:
256,192,172587,1,0,0:0:0:0:
256,192,172753,1,4,0:0:0:0:
256,192,172920,1,2,0:0:0:0:
256,192,173003,1,0,0:0:0:0:
256,192,173087,1,2,0:0:0:0:
256,192,173253,1,6,0:0:0:0:
256,192,173420,1,0,0:0:0:0:
256,192,173587,1,4,0:0:0:0:
256,192,173753,1,2,0:0:0:0:
256,192,173920,1,4,0:0:0:0:
256,192,174087,1,2,0:0:0:0:
256,192,174170,1,0,0:0:0:0:
256,192,174253,1,0,0:0:0:0:
256,192,174420,1,6,0:0:0:0:
256,192,174587,1,0,0:0:0:0:
256,192,174670,1,2,0:0:0:0:
256,192,174753,1,2,0:0:0:0:
256,192,174920,1,4,0:0:0:0:
256,192,175087,1,2,0:0:0:0:
256,192,175170,1,0,0:0:0:0:
256,192,175253,1,2,0:0:0:0:
256,192,175420,1,6,0:0:0:0:
256,192,175587,1,0,0:0:0:0:
256,192,175670,1,0,0:0:0:0:
256,192,175753,1,0,0:0:0:0:
256,192,175920,1,6,0:0:0:0:
256,192,176087,1,0,0:0:0:0:
256,192,176171,1,0,0:0:0:0:
256,192,176254,1,2,0:0:0:0:
256,192,176337,1,2,0:0:0:0:
256,192,176421,1,2,0:0:0:0:
256,192,176504,1,2,0:0:0:0:
256,192,176587,1,4,0:0:0:0:
256,192,176837,1,0,0:0:0:0:
256,192,176921,1,2,0:0:0:0:
256,192,177088,1,0,0:0:0:0:
256,192,177171,1,0,0:0:0:0:
256,192,177254,1,0,0:0:0:0:
256,192,177421,1,2,0:0:0:0:
256,192,177588,1,0,0:0:0:0:
256,192,177754,1,2,0:0:0:0:
256,192,177838,1,2,0:0:0:0:
256,192,177921,1,0,0:0:0:0:
256,192,178088,1,2,0:0:0:0:
256,192,178254,1,0,0:0:0:0:
256,192,178421,1,2,0:0:0:0:
256,192,178504,1,0,0:0:0:0:
256,192,178588,1,2,0:0:0:0:
256,192,178671,1,2,0:0:0:0:
256,192,178754,1,0,0:0:0:0:
224,192,178921,1,2,0:0:0:0:
256,192,179088,1,2,0:0:0:0:
256,192,179171,1,2,0:0:0:0:
256,192,179254,1,0,0:0:0:0:
256,192,179504,1,2,0:0:0:0:
256,192,179587,1,0,0:0:0:0:
256,192,179754,1,2,0:0:0:0:
256,192,179838,1,2,0:0:0:0:
256,192,179921,1,2,0:0:0:0:
256,192,180088,1,0,0:0:0:0:
256,192,180254,1,2,0:0:0:0:
256,192,180421,1,0,0:0:0:0:
256,192,180504,1,2,0:0:0:0:
256,192,180588,1,0,0:0:0:0:
256,192,180754,1,2,0:0:0:0:
256,192,180921,1,0,0:0:0:0:
256,192,181088,1,0,0:0:0:0:
256,192,181171,1,2,0:0:0:0:
256,192,181254,1,0,0:0:0:0:
256,192,181337,1,0,0:0:0:0:
256,192,181421,1,2,0:0:0:0:
256,192,181504,1,0,0:0:0:0:
256,192,181588,1,2,0:0:0:0:
256,192,181754,1,0,0:0:0:0:
256,192,181921,1,6,0:0:0:0:
256,192,182171,1,0,0:0:0:0:
256,192,182254,1,2,0:0:0:0:
256,192,182421,1,0,0:0:0:0:
256,192,182504,1,2,0:0:0:0:
256,192,182588,1,0,0:0:0:0:
256,192,182754,1,2,0:0:0:0:
256,192,182921,1,0,0:0:0:0:
256,192,183088,1,2,0:0:0:0:
256,192,183171,1,0,0:0:0:0:
256,192,183254,1,0,0:0:0:0:
256,192,183504,1,0,0:0:0:0:
256,192,183588,1,2,0:0:0:0:
256,192,183754,1,2,0:0:0:0:
256,192,183838,1,2,0:0:0:0:
256,192,183921,1,0,0:0:0:0:
256,192,184088,1,2,0:0:0:0:
256,192,184171,1,0,0:0:0:0:
256,192,184254,1,2,0:0:0:0:
256,192,184421,1,0,0:0:0:0:
256,192,184588,1,4,0:0:0:0:
256,192,184838,1,2,0:0:0:0:
256,192,184921,1,0,0:0:0:0:
256,192,185088,1,2,0:0:0:0:
256,192,185171,1,0,0:0:0:0:
256,192,185254,1,2,0:0:0:0:
256,192,185421,1,0,0:0:0:0:
256,192,185588,1,6,0:0:0:0:
256,192,185754,1,2,0:0:0:0:
256,192,185921,1,0,0:0:0:0:
256,192,186087,1,2,0:0:0:0:
256,192,186171,1,2,0:0:0:0:
256,192,186254,1,0,0:0:0:0:
256,192,186421,1,0,0:0:0:0:
256,192,186504,1,0,0:0:0:0:
256,192,186588,1,2,0:0:0:0:
256,192,186671,1,2,0:0:0:0:
256,192,186754,1,0,0:0:0:0:
256,192,186837,1,0,0:0:0:0:
256,192,186921,1,0,0:0:0:0:
256,192,187088,1,6,0:0:0:0:
256,192,187421,1,0,0:0:0:0:
256,192,187588,1,2,0:0:0:0:
256,192,187754,1,0,0:0:0:0:
256,192,187838,1,0,0:0:0:0:
256,192,187921,1,2,0:0:0:0:
256,192,188088,1,0,0:0:0:0:
256,192,188254,1,2,0:0:0:0:
256,192,188421,1,0,0:0:0:0:
256,192,188504,1,0,0:0:0:0:
256,192,188588,1,2,0:0:0:0:
256,192,188754,1,0,0:0:0:0:
256,192,188838,1,0,0:0:0:0:
256,192,188921,1,2,0:0:0:0:
256,192,189088,1,2,0:0:0:0:
256,192,189171,1,0,0:0:0:0:
256,192,189254,1,0,0:0:0:0:
256,192,189421,1,0,0:0:0:0:
256,192,189588,1,2,0:0:0:0:
256,192,189754,1,4,0:0:0:0:
256,192,192587,1,6,0:0:0:0:
256,192,193087,1,6,0:0:0:0:
256,192,193587,1,4,0:0:0:0:
256,192,195087,1,0,0:0:0:0:
256,192,195171,1,0,0:0:0:0:
256,192,195254,1,2,0:0:0:0:
256,192,195421,1,2,0:0:0:0:
256,192,195587,1,0,0:0:0:0:
256,192,195754,1,2,0:0:0:0:
256,192,196254,1,0,0:0:0:0:
256,192,196337,1,0,0:0:0:0:
256,192,196421,1,0,0:0:0:0:
256,192,196504,1,0,0:0:0:0:
256,192,196587,1,2,0:0:0:0:
256,192,196921,1,0,0:0:0:0:
256,192,197087,1,2,0:0:0:0:
256,192,197421,1,0,0:0:0:0:
256,192,197587,1,0,0:0:0:0:
256,192,197921,1,6,0:0:0:0:
256,192,198254,1,0,0:0:0:0:
256,192,198421,1,6,0:0:0:0:
256,192,198587,1,2,0:0:0:0:
256,192,198754,1,0,0:0:0:0:
256,192,198921,1,4,0:0:0:0:
256,192,199421,1,2,0:0:0:0:
256,192,199587,1,0,0:0:0:0:
256,192,199754,1,0,0:0:0:0:
256,192,199921,1,2,0:0:0:0:
256,192,200087,1,0,0:0:0:0:
256,192,200421,1,0,0:0:0:0:
256,192,200587,1,0,0:0:0:0:
256,192,200754,1,2,0:0:0:0:
256,192,200921,1,2,0:0:0:0:
256,192,201087,1,0,0:0:0:0:
256,192,201171,1,0,0:0:0:0:
256,192,201254,1,2,0:0:0:0:
256,192,201587,1,2,0:0:0:0:
256,192,201754,1,0,0:0:0:0:
256,192,201837,1,0,0:0:0:0:
256,192,201921,1,2,0:0:0:0:
256,192,202087,1,0,0:0:0:0:
256,192,202254,1,0,0:0:0:0:
256,192,202421,1,2,0:0:0:0:
256,192,202587,1,2,0:0:0:0:
256,192,202754,1,2,0:0:0:0:
256,192,202921,1,0,0:0:0:0:
256,192,203087,1,0,0:0:0:0:
256,192,203254,1,6,0:0:0:0:
256,192,203421,1,0,0:0:0:0:
256,192,203587,1,0,0:0:0:0:
256,192,203754,1,6,0:0:0:0:
256,192,203921,1,2,0:0:0:0:
256,192,204087,1,0,0:0:0:0:
256,192,204254,1,6,0:0:0:0:
256,192,204421,1,0,0:0:0:0:
256,192,204587,1,0,0:0:0:0:
256,192,204754,1,6,0:0:0:0:
256,192,204921,1,2,0:0:0:0:
256,192,205087,1,0,0:0:0:0:
256,192,205254,1,6,0:0:0:0:
256,192,205421,1,0,0:0:0:0:
256,192,205587,1,6,0:0:0:0:
256,192,205754,1,0,0:0:0:0:
256,192,205837,1,0,0:0:0:0:
256,192,205921,1,6,0:0:0:0:
256,192,206087,1,0,0:0:0:0:
256,192,206254,1,0,0:0:0:0:
256,192,206421,1,6,0:0:0:0:
256,192,206587,1,2,0:0:0:0:
256,192,206754,1,0,0:0:0:0:
256,192,206921,1,6,0:0:0:0:
256,192,207087,1,0,0:0:0:0:
256,192,207254,1,0,0:0:0:0:
256,192,207421,1,6,0:0:0:0:
256,192,207587,1,0,0:0:0:0:
256,192,207754,1,0,0:0:0:0:
256,192,207921,1,6,0:0:0:0:
256,192,208087,1,0,0:0:0:0:
256,192,208171,1,2,0:0:0:0:
256,192,208254,1,2,0:0:0:0:
256,192,208421,1,2,0:0:0:0:
256,192,208504,1,2,0:0:0:0:
256,192,208587,1,4,0:0:0:0:
256,192,208754,1,2,0:0:0:0:
256,192,208921,1,2,0:0:0:0:
256,192,209087,1,4,0:0:0:0:
256,192,209254,1,0,0:0:0:0:
256,192,209421,1,2,0:0:0:0:
256,192,209587,1,4,0:0:0:0:
256,192,209754,1,2,0:0:0:0:
256,192,209921,1,2,0:0:0:0:
256,192,210087,1,4,0:0:0:0:
256,192,210254,1,0,0:0:0:0:
256,192,210421,1,2,0:0:0:0:
256,192,210587,1,4,0:0:0:0:
256,192,210754,1,2,0:0:0:0:
256,192,210921,1,4,0:0:0:0:
256,192,211087,1,2,0:0:0:0:
256,192,211171,1,2,0:0:0:0:
256,192,211254,1,4,0:0:0:0:
256,192,211421,1,2,0:0:0:0:
256,192,211587,1,0,0:0:0:0:
256,192,211754,1,6,0:0:0:0:
256,192,212087,1,2,0:0:0:0:
256,192,212254,1,4,0:0:0:0:
256,192,212421,1,0,0:0:0:0:
256,192,212587,1,2,0:0:0:0:
256,192,212754,1,6,0:0:0:0:
256,192,212921,1,0,0:0:0:0:
256,192,213087,1,2,0:0:0:0:
256,192,213254,1,4,0:0:0:0:
256,192,213421,1,0,0:0:0:0:
256,192,213587,1,6,0:0:0:0:
256,192,213754,1,0,0:0:0:0:
256,192,213837,1,0,0:0:0:0:
256,192,213921,1,2,0:0:0:0:
256,192,214004,1,2,0:0:0:0:
256,192,214087,1,0,0:0:0:0:
256,192,214171,1,0,0:0:0:0:
256,192,214254,1,2,0:0:0:0:
256,192,214421,1,2,0:0:0:0:
256,192,214504,1,0,0:0:0:0:
256,192,214587,1,0,0:0:0:0:
256,192,214754,1,0,0:0:0:0:
256,192,214921,1,2,0:0:0:0:
256,192,215004,1,2,0:0:0:0:
256,192,215087,1,0,0:0:0:0:
256,192,215254,1,0,0:0:0:0:
256,192,215421,1,2,0:0:0:0:
256,192,215504,1,2,0:0:0:0:
256,192,215587,1,0,0:0:0:0:
256,192,215671,1,0,0:0:0:0:
256,192,215754,1,2,0:0:0:0:
256,192,215837,1,0,0:0:0:0:
256,192,215921,1,2,0:0:0:0:
256,192,216004,1,2,0:0:0:0:
256,192,216087,1,0,0:0:0:0:
256,192,216171,1,0,0:0:0:0:
256,192,216254,1,6,0:0:0:0:
256,192,216587,1,4,0:0:0:0:
256,192,216921,1,0,0:0:0:0:
256,192,217087,1,2,0:0:0:0:
256,192,217171,1,2,0:0:0:0:
256,192,217254,1,0,0:0:0:0:
256,192,217421,1,2,0:0:0:0:
256,192,217587,1,2,0:0:0:0:
256,192,217921,1,0,0:0:0:0:
256,192,218087,1,0,0:0:0:0:
256,192,218254,1,2,0:0:0:0:
256,192,218421,1,0,0:0:0:0:
256,192,218504,1,2,0:0:0:0:
256,192,218587,1,0,0:0:0:0:
256,192,218754,1,0,0:0:0:0:
256,192,218837,1,0,0:0:0:0:
256,192,218921,1,2,0:0:0:0:
256,192,219087,1,0,0:0:0:0:
256,192,219254,1,0,0:0:0:0:
256,192,219587,1,2,0:0:0:0:
256,192,219754,1,0,0:0:0:0:
256,192,219837,1,2,0:0:0:0:
256,192,219921,1,0,0:0:0:0:
256,192,220087,1,2,0:0:0:0:
256,192,220254,1,2,0:0:0:0:
256,192,220587,1,0,0:0:0:0:
256,192,220754,1,0,0:0:0:0:
256,192,220921,1,2,0:0:0:0:
256,192,221004,1,0,0:0:0:0:
256,192,221087,1,2,0:0:0:0:
256,192,221171,1,2,0:0:0:0:
256,192,221254,1,0,0:0:0:0:
256,192,221421,1,0,0:0:0:0:
256,192,221504,1,0,0:0:0:0:
256,192,221587,1,2,0:0:0:0:
256,192,221754,1,2,0:0:0:0:
256,192,221921,1,4,0:0:0:0:
256,192,222254,1,2,0:0:0:0:
256,192,222421,1,0,0:0:0:0:
256,192,222504,1,0,0:0:0:0:
256,192,222587,1,0,0:0:0:0:
256,192,222754,1,2,0:0:0:0:
256,192,222921,1,2,0:0:0:0:
256,192,223254,1,0,0:0:0:0:
256,192,223421,1,2,0:0:0:0:
256,192,223587,1,2,0:0:0:0:
256,192,223754,1,0,0:0:0:0:
256,192,223837,1,0,0:0:0:0:
256,192,223921,1,0,0:0:0:0:
256,192,224087,1,2,0:0:0:0:
256,192,224171,1,0,0:0:0:0:
256,192,224254,1,2,0:0:0:0:
256,192,224421,1,2,0:0:0:0:
256,192,224587,1,0,0:0:0:0:
256,192,224921,1,0,0:0:0:0:
256,192,225087,1,2,0:0:0:0:
256,192,225254,1,0,0:0:0:0:
256,192,225421,1,2,0:0:0:0:
256,192,225504,1,2,0:0:0:0:
256,192,225587,1,0,0:0:0:0:
256,192,225754,1,2,0:0:0:0:
256,192,225921,1,0,0:0:0:0:
256,192,226087,1,0,0:0:0:0:
256,192,226254,1,2,0:0:0:0:
256,192,226421,1,0,0:0:0:0:
256,192,226504,1,0,0:0:0:0:
256,192,226587,1,2,0:0:0:0:
256,192,226754,1,2,0:0:0:0:
256,192,226837,1,0,0:0:0:0:
256,192,226921,1,2,0:0:0:0:
256,192,227087,1,2,0:0:0:0:
256,192,227171,1,2,0:0:0:0:
256,192,227254,1,4,0:0:0:0:
256,192,227587,1,0,0:0:0:0:
256,192,227754,1,2,0:0:0:0:
256,192,227921,1,0,0:0:0:0:
256,192,228004,1,0,0:0:0:0:
256,192,228087,1,2,0:0:0:0:
256,192,228254,1,2,0:0:0:0:
256,192,228587,1,0,0:0:0:0:
256,192,228754,1,0,0:0:0:0:
256,192,228837,1,0,0:0:0:0:
256,192,228921,1,2,0:0:0:0:
256,192,229087,1,2,0:0:0:0:
256,192,229171,1,2,0:0:0:0:
256,192,229254,1,0,0:0:0:0:
256,192,229337,1,2,0:0:0:0:
256,192,229421,1,0,0:0:0:0:
256,192,229587,1,2,0:0:0:0:
256,192,229754,1,2,0:0:0:0:
256,192,229921,1,4,0:0:0:0:
256,192,230254,1,2,0:0:0:0:
256,192,230421,1,0,0:0:0:0:
256,192,230504,1,2,0:0:0:0:
256,192,230587,1,0,0:0:0:0:
256,192,230754,1,2,0:0:0:0:
256,192,230921,1,2,0:0:0:0:
256,192,231087,1,0,0:0:0:0:
256,192,231254,1,2,0:0:0:0:
256,192,231421,1,0,0:0:0:0:
256,192,231587,1,6,0:0:0:0:
256,192,231754,1,0,0:0:0:0:
256,192,231837,1,0,0:0:0:0:
256,192,231921,1,2,0:0:0:0:
256,192,232087,1,2,0:0:0:0:
256,192,232171,1,0,0:0:0:0:
256,192,232254,1,2,0:0:0:0:
256,192,232421,1,2,0:0:0:0:
256,192,232504,1,2,0:0:0:0:
256,192,232587,1,4,0:0:0:0:
256,192,232921,1,2,0:0:0:0:
256,192,233087,1,0,0:0:0:0:
256,192,233171,1,0,0:0:0:0:
256,192,233254,1,0,0:0:0:0:
256,192,233421,1,0,0:0:0:0:
256,192,233587,1,2,0:0:0:0:
256,192,233754,1,2,0:0:0:0:
256,192,233921,1,0,0:0:0:0:
256,192,234087,1,2,0:0:0:0:
256,192,234171,1,0,0:0:0:0:
256,192,234254,1,2,0:0:0:0:
256,192,234421,1,0,0:0:0:0:
256,192,234504,1,0,0:0:0:0:
256,192,234587,1,2,0:0:0:0:
256,192,234754,1,0,0:0:0:0:
256,192,234921,1,2,0:0:0:0:
256,192,235087,1,2,0:0:0:0:
256,192,235254,1,4,0:0:0:0:
256,192,235587,1,2,0:0:0:0:
256,192,235754,1,0,0:0:0:0:
256,192,235837,1,0,0:0:0:0:
256,192,235921,1,2,0:0:0:0:
256,192,236004,1,2,0:0:0:0:
256,192,236087,1,0,0:0:0:0:
256,192,236254,1,2,0:0:0:0:
256,192,236421,1,0,0:0:0:0:
256,192,236504,1,2,0:0:0:0:
256,192,236587,1,0,0:0:0:0:
256,192,236754,1,0,0:0:0:0:
256,192,236921,1,2,0:0:0:0:
256,192,237087,1,0,0:0:0:0:
256,192,237171,1,0,0:0:0:0:
256,192,237254,1,0,0:0:0:0:
256,192,237421,1,2,0:0:0:0:
256,192,237504,1,2,0:0:0:0:
256,192,237587,1,0,0:0:0:0:
256,192,237754,1,6,0:0:0:0:
256,192,238087,1,0,0:0:0:0:
256,192,238254,1,2,0:0:0:0:
256,192,238421,1,0,0:0:0:0:
256,192,238504,1,0,0:0:0:0:
256,192,238587,1,2,0:0:0:0:
256,192,238754,1,0,0:0:0:0:
256,192,238921,1,2,0:0:0:0:
256,192,239087,1,0,0:0:0:0:
256,192,239171,1,0,0:0:0:0:
256,192,239254,1,2,0:0:0:0:
256,192,239421,1,0,0:0:0:0:
256,192,239504,1,0,0:0:0:0:
256,192,239587,1,2,0:0:0:0:
256,192,239754,1,0,0:0:0:0:
256,192,239837,1,0,0:0:0:0:
256,192,239921,1,2,0:0:0:0:
256,192,240004,1,2,0:0:0:0:
256,192,240087,1,0,0:0:0:0:
256,192,240171,1,2,0:0:0:0:
256,192,240254,1,0,0:0:0:0:
256,192,240337,1,0,0:0:0:0:
256,192,240421,1,2,0:0:0:0:
256,192,240504,1,2,0:0:0:0:
256,192,240587,1,4,0:0:0:0:
256,192,244587,1,6,0:0:0:0:
256,192,247254,1,6,0:0:0:0:
256,192,249421,1,0,0:0:0:0:
256,192,249504,1,0,0:0:0:0:
256,192,249587,1,2,0:0:0:0:
256,192,249754,1,0,0:0:0:0:
256,192,249921,1,6,0:0:0:0:
256,192,250087,1,0,0:0:0:0:
256,192,250170,1,0,0:0:0:0:
256,192,250254,1,2,0:0:0:0:
256,192,250420,1,4,0:0:0:0:
256,192,250587,1,2,0:0:0:0:
256,192,250670,1,2,0:0:0:0:
256,192,250754,1,0,0:0:0:0:
256,192,250920,1,6,0:0:0:0:
256,192,251087,1,0,0:0:0:0:
256,192,251170,1,2,0:0:0:0:
256,192,251254,1,0,0:0:0:0:
256,192,251420,1,4,0:0:0:0:
256,192,251587,1,2,0:0:0:0:
256,192,251670,1,0,0:0:0:0:
256,192,251754,1,2,0:0:0:0:
256,192,251920,1,6,0:0:0:0:
256,192,252087,1,0,0:0:0:0:
256,192,252254,1,4,0:0:0:0:
256,192,252420,1,2,0:0:0:0:
256,192,252587,1,4,0:0:0:0:
256,192,252754,1,2,0:0:0:0:
256,192,252837,1,0,0:0:0:0:
256,192,252920,1,0,0:0:0:0:
256,192,253087,1,6,0:0:0:0:
256,192,253254,1,0,0:0:0:0:
256,192,253337,1,2,0:0:0:0:
256,192,253420,1,2,0:0:0:0:
256,192,253587,1,4,0:0:0:0:
256,192,253754,1,2,0:0:0:0:
256,192,253837,1,0,0:0:0:0:
256,192,253920,1,2,0:0:0:0:
256,192,254087,1,6,0:0:0:0:
256,192,254254,1,0,0:0:0:0:
256,192,254337,1,0,0:0:0:0:
256,192,254420,1,0,0:0:0:0:
256,192,254587,1,2,0:0:0:0:
256,192,254671,1,2,0:0:0:0:
256,192,254754,1,0,0:0:0:0:
256,192,254837,1,0,0:0:0:0:
256,192,254921,1,2,0:0:0:0:
256,192,255004,1,2,0:0:0:0:
256,192,255087,1,2,0:0:0:0:
256,192,255171,1,2,0:0:0:0:
256,192,255254,1,4,0:0:0:0:
256,192,255504,1,0,0:0:0:0:
256,192,255587,1,2,0:0:0:0:
256,192,255755,1,0,0:0:0:0:
256,192,255838,1,0,0:0:0:0:
256,192,255921,1,0,0:0:0:0:
256,192,256088,1,2,0:0:0:0:
256,192,256171,1,2,0:0:0:0:
256,192,256255,1,0,0:0:0:0:
256,192,256421,1,2,0:0:0:0:
256,192,256588,1,0,0:0:0:0:
256,192,256755,1,2,0:0:0:0:
256,192,256837,1,0,0:0:0:0:
256,192,256921,1,2,0:0:0:0:
256,192,257087,1,0,0:0:0:0:
256,192,257171,1,0,0:0:0:0:
256,192,257255,1,2,0:0:0:0:
256,192,257338,1,2,0:0:0:0:
256,192,257421,1,0,0:0:0:0:
224,192,257588,1,2,0:0:0:0:
256,192,257755,1,2,0:0:0:0:
256,192,257838,1,2,0:0:0:0:
256,192,257921,1,0,0:0:0:0:
256,192,258171,1,2,0:0:0:0:
256,192,258254,1,0,0:0:0:0:
256,192,258421,1,2,0:0:0:0:
256,192,258505,1,0,0:0:0:0:
256,192,258588,1,2,0:0:0:0:
256,192,258754,1,0,0:0:0:0:
256,192,258837,1,0,0:0:0:0:
256,192,258921,1,2,0:0:0:0:
256,192,259087,1,0,0:0:0:0:
256,192,259255,1,2,0:0:0:0:
256,192,259421,1,2,0:0:0:0:
256,192,259504,1,2,0:0:0:0:
256,192,259588,1,0,0:0:0:0:
256,192,259755,1,2,0:0:0:0:
256,192,259838,1,0,0:0:0:0:
256,192,259921,1,2,0:0:0:0:
256,192,260004,1,2,0:0:0:0:
256,192,260088,1,0,0:0:0:0:
256,192,260171,1,2,0:0:0:0:
256,192,260255,1,0,0:0:0:0:
256,192,260421,1,0,0:0:0:0:
256,192,260587,1,6,0:0:0:0:
256,192,260837,1,2,0:0:0:0:
256,192,260921,1,0,0:0:0:0:
256,192,261087,1,2,0:0:0:0:
256,192,261171,1,2,0:0:0:0:
256,192,261255,1,0,0:0:0:0:
256,192,261421,1,0,0:0:0:0:
256,192,261588,1,2,0:0:0:0:
256,192,261755,1,0,0:0:0:0:
256,192,261837,1,2,0:0:0:0:
256,192,261921,1,0,0:0:0:0:
256,192,262171,1,0,0:0:0:0:
256,192,262255,1,2,0:0:0:0:
256,192,262421,1,0,0:0:0:0:
256,192,262505,1,2,0:0:0:0:
256,192,262588,1,0,0:0:0:0:
256,192,262755,1,2,0:0:0:0:
256,192,262838,1,2,0:0:0:0:
256,192,262921,1,0,0:0:0:0:
256,192,263088,1,2,0:0:0:0:
256,192,263255,1,4,0:0:0:0:
256,192,263505,1,2,0:0:0:0:
256,192,263588,1,2,0:0:0:0:
256,192,263755,1,0,0:0:0:0:
256,192,263838,1,2,0:0:0:0:
256,192,263921,1,0,0:0:0:0:
256,192,264088,1,0,0:0:0:0:
256,192,264255,1,2,0:0:0:0:
256,192,264421,1,2,0:0:0:0:
256,192,264504,1,0,0:0:0:0:
256,192,264588,1,0,0:0:0:0:
256,192,264754,1,2,0:0:0:0:
256,192,264838,1,2,0:0:0:0:
256,192,264921,1,0,0:0:0:0:
256,192,265004,1,0,0:0:0:0:
256,192,265087,1,2,0:0:0:0:
256,192,265255,1,2,0:0:0:0:
256,192,265338,1,2,0:0:0:0:
256,192,265421,1,0,0:0:0:0:
256,192,265504,1,2,0:0:0:0:
256,192,265588,1,0,0:0:0:0:
256,192,265755,1,6,0:0:0:0:
256,192,266088,1,0,0:0:0:0:
256,192,266255,1,2,0:0:0:0:
256,192,266421,1,0,0:0:0:0:
256,192,266505,1,0,0:0:0:0:
256,192,266588,1,2,0:0:0:0:
256,192,266755,1,0,0:0:0:0:
256,192,266921,1,2,0:0:0:0:
256,192,267088,1,0,0:0:0:0:
256,192,267171,1,0,0:0:0:0:
256,192,267255,1,2,0:0:0:0:
256,192,267421,1,0,0:0:0:0:
256,192,267505,1,0,0:0:0:0:
256,192,267588,1,2,0:0:0:0:
256,192,267755,1,2,0:0:0:0:
256,192,267838,1,0,0:0:0:0:
256,192,267921,1,2,0:0:0:0:
256,192,268088,1,2,0:0:0:0:
256,192,268255,1,0,0:0:0:0:
256,192,268421,1,6,0:0:0:0:
256,192,268754,1,0,0:0:0:0:
256,192,268921,1,2,0:0:0:0:
256,192,269087,1,0,0:0:0:0:
256,192,269171,1,2,0:0:0:0:
256,192,269254,1,0,0:0:0:0:
256,192,269421,1,0,0:0:0:0:
256,192,269587,1,2,0:0:0:0:
256,192,269754,1,0,0:0:0:0:
256,192,269837,1,2,0:0:0:0:
256,192,269921,1,0,0:0:0:0:
256,192,270087,1,0,0:0:0:0:
256,192,270171,1,0,0:0:0:0:
256,192,270254,1,2,0:0:0:0:
256,192,270421,1,0,0:0:0:0:
256,192,270504,1,0,0:0:0:0:
256,192,270587,1,2,0:0:0:0:
256,192,270671,1,2,0:0:0:0:
256,192,270754,1,0,0:0:0:0:
256,192,270921,1,0,0:0:0:0:
256,192,271087,1,6,0:0:0:0:
256,192,271421,1,0,0:0:0:0:
256,192,271587,1,2,0:0:0:0:
256,192,271754,1,0,0:0:0:0:
256,192,271837,1,0,0:0:0:0:
256,192,271921,1,2,0:0:0:0:
256,192,272087,1,0,0:0:0:0:
256,192,272254,1,2,0:0:0:0:
256,192,272421,1,0,0:0:0:0:
256,192,272504,1,0,0:0:0:0:
256,192,272587,1,2,0:0:0:0:
256,192,272754,1,0,0:0:0:0:
256,192,272837,1,0,0:0:0:0:
256,192,272921,1,2,0:0:0:0:
256,192,273087,1,0,0:0:0:0:
256,192,273171,1,0,0:0:0:0:
256,192,273254,1,2,0:0:0:0:
256,192,273337,1,2,0:0:0:0:
256,192,273421,1,2,0:0:0:0:
256,192,273504,1,2,0:0:0:0:
256,192,273587,1,2,0:0:0:0:
256,192,273671,1,2,0:0:0:0:
256,192,273754,1,4,0:0:0:0:
256,192,276254,12,0,276421,0:0:0:0:
256,192,276587,5,4,0:0:0:0:
256,192,276754,1,2,0:0:0:0:
256,192,276837,1,2,0:0:0:0:
256,192,276920,1,0,0:0:0:0:
256,192,277087,1,2,0:0:0:0:
256,192,277170,1,2,0:0:0:0:
256,192,277254,1,0,0:0:0:0:
256,192,277420,1,0,0:0:0:0:
256,192,277504,1,0,0:0:0:0:
256,192,277587,1,2,0:0:0:0:
256,192,277754,1,0,0:0:0:0:
256,192,277837,1,0,0:0:0:0:
256,192,277920,1,0,0:0:0:0:
256,192,278087,1,2,0:0:0:0:
256,192,278170,1,2,0:0:0:0:
256,192,278254,1,0,0:0:0:0:
256,192,278420,1,2,0:0:0:0:
256,192,278504,1,2,0:0:0:0:
256,192,278587,1,2,0:0:0:0:
256,192,278754,1,0,0:0:0:0:
256,192,278837,1,2,0:0:0:0:
256,192,278920,1,2,0:0:0:0:
256,192,279087,1,2,0:0:0:0:
256,192,279170,1,2,0:0:0:0:
256,192,279254,1,4,0:0:0:0:
256,192,279420,1,2,0:0:0:0:
256,192,279504,1,2,0:0:0:0:
256,192,279587,1,0,0:0:0:0:
256,192,279754,1,0,0:0:0:0:
256,192,279837,1,2,0:0:0:0:
256,192,279920,1,0,0:0:0:0:
256,192,280087,1,0,0:0:0:0:
256,192,280170,1,0,0:0:0:0:
256,192,280254,1,2,0:0:0:0:
256,192,280420,1,2,0:0:0:0:
256,192,280504,1,0,0:0:0:0:
256,192,280587,1,0,0:0:0:0:
256,192,280754,1,2,0:0:0:0:
256,192,280837,1,2,0:0:0:0:
256,192,280920,1,2,0:0:0:0:
256,192,281087,1,0,0:0:0:0:
256,192,281170,1,0,0:0:0:0:
256,192,281254,1,2,0:0:0:0:
256,192,281337,1,2,0:0:0:0:
256,192,281420,1,0,0:0:0:0:
256,192,281504,1,0,0:0:0:0:
256,192,281587,1,2,0:0:0:0:
256,192,281671,1,2,0:0:0:0:
256,192,281754,1,0,0:0:0:0:
256,192,281837,1,2,0:0:0:0:
256,192,281921,1,4,0:0:0:0:
256,192,282087,1,2,0:0:0:0:
256,192,282170,1,2,0:0:0:0:
256,192,282253,1,0,0:0:0:0:
256,192,282420,1,2,0:0:0:0:
256,192,282503,1,2,0:0:0:0:
256,192,282587,1,0,0:0:0:0:
256,192,282753,1,0,0:0:0:0:
256,192,282837,1,0,0:0:0:0:
256,192,282920,1,2,0:0:0:0:
256,192,283087,1,0,0:0:0:0:
256,192,283170,1,0,0:0:0:0:
256,192,283253,1,0,0:0:0:0:
256,192,283420,1,2,0:0:0:0:
256,192,283503,1,2,0:0:0:0:
256,192,283587,1,0,0:0:0:0:
256,192,283753,1,2,0:0:0:0:
256,192,283837,1,2,0:0:0:0:
256,192,283920,1,2,0:0:0:0:
256,192,284087,1,0,0:0:0:0:
256,192,284170,1,2,0:0:0:0:
256,192,284253,1,2,0:0:0:0:
256,192,284420,1,0,0:0:0:0:
256,192,284503,1,0,0:0:0:0:
256,192,284587,1,6,0:0:0:0:
256,192,284754,1,0,0:0:0:0:
256,192,284838,1,0,0:0:0:0:
256,192,284921,1,0,0:0:0:0:
256,192,285088,1,2,0:0:0:0:
256,192,285171,1,2,0:0:0:0:
256,192,285254,1,0,0:0:0:0:
256,192,285421,1,0,0:0:0:0:
256,192,285504,1,0,0:0:0:0:
256,192,285588,1,2,0:0:0:0:
256,192,285754,1,2,0:0:0:0:
256,192,285838,1,0,0:0:0:0:
256,192,285921,1,6,0:0:0:0:
256,192,286088,1,0,0:0:0:0:
256,192,286171,1,0,0:0:0:0:
256,192,286254,1,2,0:0:0:0:
256,192,286421,1,0,0:0:0:0:
256,192,286504,1,0,0:0:0:0:
256,192,286587,1,2,0:0:0:0:
256,192,286671,1,2,0:0:0:0:
256,192,286754,1,0,0:0:0:0:
256,192,286837,1,0,0:0:0:0:
256,192,286921,1,2,0:0:0:0:
256,192,287004,1,2,0:0:0:0:
256,192,287087,1,2,0:0:0:0:
256,192,287171,1,2,0:0:0:0:
256,192,287254,1,4,0:0:0:0:
256,192,287504,1,0,0:0:0:0:
256,192,287587,1,2,0:0:0:0:
256,192,287754,1,0,0:0:0:0:
256,192,287837,1,0,0:0:0:0:
256,192,287920,1,0,0:0:0:0:
256,192,288087,1,0,0:0:0:0:
256,192,288254,1,2,0:0:0:0:
256,192,288420,1,2,0:0:0:0:
256,192,288504,1,2,0:0:0:0:
256,192,288587,1,0,0:0:0:0:
256,192,288754,1,0,0:0:0:0:
256,192,288837,1,0,0:0:0:0:
256,192,288921,1,2,0:0:0:0:
256,192,289087,1,2,0:0:0:0:
256,192,289171,1,0,0:0:0:0:
256,192,289254,1,2,0:0:0:0:
256,192,289421,1,2,0:0:0:0:
256,192,289587,1,0,0:0:0:0:
256,192,289754,1,0,0:0:0:0:
256,192,289921,1,6,0:0:0:0:
256,192,290921,1,2,0:0:0:0:
256,192,291087,1,2,0:0:0:0:
256,192,291254,1,0,0:0:0:0:
256,192,291921,1,0,0:0:0:0:
256,192,292587,1,2,0:0:0:0:
256,192,292753,1,0,0:0:0:0:
256,192,292920,1,0,0:0:0:0:
256,192,293086,1,2,0:0:0:0:
256,192,293253,1,2,0:0:0:0:
256,192,293420,1,0,0:0:0:0:
256,192,293586,1,0,0:0:0:0:
256,192,293753,1,2,0:0:0:0:
256,192,293920,1,2,0:0:0:0:
256,192,294086,1,2,0:0:0:0:
256,192,294253,1,0,0:0:0:0:
256,192,294420,1,2,0:0:0:0:
256,192,294586,1,2,0:0:0:0:
256,192,294753,1,2,0:0:0:0:
256,192,294920,1,0,0:0:0:0:
256,192,295086,1,2,0:0:0:0:
256,192,295253,1,2,0:0:0:0:
256,192,295420,1,0,0:0:0:0:
256,192,295586,1,2,0:0:0:0:
256,192,295753,1,2,0:0:0:0:
256,192,295920,1,2,0:0:0:0:
256,192,296086,1,0,0:0:0:0:
256,192,296253,1,2,0:0:0:0:
256,192,296420,1,2,0:0:0:0:
256,192,296586,1,2,0:0:0:0:
256,192,296753,1,0,0:0:0:0:
256,192,296920,1,0,0:0:0:0:
256,192,297086,1,2,0:0:0:0:
256,192,297253,1,0,0:0:0:0:
256,192,297420,1,2,0:0:0:0:
256,192,297586,1,2,0:0:0:0:
256,192,297753,1,0,0:0:0:0:
256,192,297920,1,2,0:0:0:0:
256,192,298086,1,0,0:0:0:0:
256,192,298253,1,0,0:0:0:0:
256,192,298420,1,2,0:0:0:0:
256,192,298586,1,2,0:0:0:0:
256,192,298753,1,0,0:0:0:0:
256,192,298920,1,0,0:0:0:0:
256,192,299086,1,2,0:0:0:0:
256,192,299253,1,2,0:0:0:0:
256,192,299420,1,2,0:0:0:0:
256,192,299586,1,0,0:0:0:0:
256,192,299753,1,2,0:0:0:0:
256,192,299920,1,2,0:0:0:0:
256,192,300086,1,2,0:0:0:0:
256,192,300253,1,0,0:0:0:0:
256,192,300420,1,2,0:0:0:0:
256,192,300586,1,2,0:0:0:0:
256,192,300753,1,0,0:0:0:0:
256,192,300920,1,2,0:0:0:0:
256,192,301086,1,2,0:0:0:0:
256,192,301253,1,2,0:0:0:0:
256,192,301420,1,0,0:0:0:0:
256,192,301586,1,0,0:0:0:0:
256,192,301753,1,2,0:0:0:0:
