osu file format v14

[General]
AudioFilename: audio.mp3
AudioLeadIn: 0
PreviewTime: 58204
Countdown: 0
SampleSet: Soft
StackLeniency: 0.5
Mode: 0
LetterboxInBreaks: 0
WidescreenStoryboard: 1

[Editor]
DistanceSpacing: 0.5
BeatDivisor: 4
GridSize: 16
TimelineZoom: 1.4

[Metadata]
Title:Koko kara Saki wa Uta ni Naranai (TV Size)
TitleUnicode:ここから先は歌にならない (TV Size)
Artist:Poppin'Party
ArtistUnicode:Poppin'Party
Creator:Sotarks
Version:wkyik's Extra
Source:ぼくたちのリメイク
Tags:anime opening Bokutachi no Remake our Life! jpop rock japanese バンドリ!Bandori! BanG Dream! Toyama Kasumi Hanazono Tae Ushigome Rimi Yamabuki Saaya Ichigaya Arisa Aimi Otsuka Sae Nishimoto Ohashi Ayaka Itou Ayasa 愛美 大塚紗英 牛込 りみ 山吹 沙綾 市ヶ谷 有咲 Bokurema akitoshi corinn -laura- toybot elinor [_eli_] schoolboy komore kawaiwkyik rizia eli vikala
BeatmapID:3175530
BeatmapSetID:1542576

[Difficulty]
HPDrainRate:6.8
CircleSize:4
OverallDifficulty:9
ApproachRate:9.3
SliderMultiplier:2
SliderTickRate:1

[Events]
//Background and Video events
0,0,"bg.jpg",0,0
Video,0,"video.mp4"
//Break Periods
//Storyboard Layer 0 (Background)
//Storyboard Layer 1 (Fail)
//Storyboard Layer 2 (Pass)
//Storyboard Layer 3 (Foreground)
//Storyboard Layer 4 (Overlay)
//Storyboard Sound Samples

[TimingPoints]
178,315.789473684211,4,2,22,62,1,0
178,-200,4,2,22,62,0,0
5230,-100,4,2,22,72,0,0
14388,-200,4,2,22,72,0,0
15178,-200,4,2,22,72,0,0
15335,-133.333333333333,4,2,22,52,0,0
25441,-133.333333333333,4,2,22,62,0,0
30493,-100,4,2,22,72,0,0
33020,-100,4,2,22,82,0,0
35546,-100,4,2,22,72,0,0
50704,-153.846153846153,4,2,22,62,0,0
55756,-153.846153846153,4,2,22,72,0,0
57809,-100,4,2,22,62,0,0
57888,-100,4,2,22,5,0,0
57967,-100,4,2,22,82,0,0
58204,-100,4,2,22,5,0,0
58283,-100,4,2,22,72,0,1
59546,-100,4,2,22,82,0,1
85125,-200,4,2,22,82,0,0
85441,-200,4,2,22,52,0,0
86388,-200,4,2,22,42,0,0
86546,-333.333333333333,4,2,22,32,0,0
86625,-333.333333333333,4,2,22,32,0,0
88282,-333.333333333333,4,2,22,32,0,0

[Colours]
Combo1 : 228,97,97
Combo2 : 80,61,188
Combo3 : 185,198,255

[HitObjects]
134,105,178,5,0,1:1:0:0:
174,285,335,1,0,1:1:0:0:
157,120,493,1,0,1:1:0:0:
151,270,650,1,0,0:0:0:0:
125,198,809,2,0,L|207:191,1,50,0|0,1:1|0:0,0:0:0:0:
451,186,1125,5,0,1:1:0:0:
332,227,1283,1,0,1:1:0:0:
408,123,1441,1,0,1:1:0:0:
408,253,1599,1,0,0:0:0:0:
332,149,1756,2,0,L|282:153,1,50,0|0,1:1|0:0,0:0:0:0:
153,257,2072,5,0,0:0:0:0:
242,252,2230,1,0,0:0:0:0:
331,245,2388,2,0,L|281:249,1,50,0|0,1:1|0:0,0:0:0:0:
61,97,2704,5,0,1:1:0:0:
181,162,2862,1,0,0:0:0:0:
61,97,3020,2,0,L|56:27,1,50,0|0,1:1|0:0,0:0:0:0:
181,162,3335,5,0,1:1:0:0:
177,37,3493,1,0,0:0:0:0:
306,96,3651,2,0,L|309:145,1,50,0|0,1:1|0:0,0:0:0:0:
352,242,3967,6,0,L|302:245,1,50,0|0,1:1|0:0,0:0:0:0:
210,252,4283,1,0,1:1:0:0:
74,259,4441,2,0,L|123:255,2,50,0|2|0,0:0|1:2|0:0,0:0:0:0:
360,203,4914,2,0,L|351:112,1,75,10|0,2:2|0:0,0:0:0:0:
386,156,5230,6,0,B|307:149|307:149|261:171|261:171|185:165,2,200,6|10|2,1:2|2:2|1:2,0:0:0:0:
296,294,6020,1,2,1:2:0:0:
453,332,6178,1,8,0:0:0:0:
478,137,6335,2,0,P|429:132|386:156,1,100,2|0,0:0|1:2,0:0:0:0:
172,105,6651,5,2,1:2:0:0:
298,53,6809,1,10,2:2:0:0:
281,182,6967,1,0,1:0:0:0:
276,201,7046,1,0,1:0:0:0:
271,220,7125,1,0,1:1:0:0:
154,106,7283,1,0,1:1:0:0:
291,34,7441,2,0,L|395:25,1,100,8|8,2:2|0:0,0:0:0:0:
460,266,7756,6,0,B|345:269|382:209|271:220,1,200,2|8,1:2|2:2,0:0:0:0:
271,219,8230,1,0,0:0:0:0:
69,116,8388,2,0,B|43:177|43:177|77:330,1,200,2|8,1:2|2:2,0:0:0:0:
72,307,8862,1,0,0:0:0:0:
271,219,9020,6,0,B|168:210,1,100,2|0,1:2|1:1,0:0:0:0:
249,112,9335,2,0,P|304:109|352:140,1,100,8|0,2:2|0:0,0:0:0:0:
419,257,9651,1,2,1:2:0:0:
271,219,9809,1,0,1:1:0:0:
342,129,9967,1,10,2:2:0:0:
277,338,10125,1,0,0:0:0:0:
152,288,10283,6,0,B|128:258|128:258|142:183,1,100,6|0,1:2|0:0,0:0:0:0:
329,38,10599,2,0,B|353:68|353:68|342:129,1,100,10|0,2:2|0:0,0:0:0:0:
209,94,10914,1,2,1:2:0:0:
251,235,11072,2,0,L|368:226,1,100,2|8,1:2|0:0,0:0:0:0:
291,357,11388,2,0,L|191:364,1,100,2|0,0:0|1:2,0:0:0:0:
47,204,11704,5,2,1:2:0:0:
176,260,11862,1,10,2:2:0:0:
59,337,12020,1,0,1:0:0:0:
67,319,12099,1,0,1:0:0:0:
75,301,12178,1,0,1:1:0:0:
147,151,12335,1,0,1:1:0:0:
176,260,12493,1,8,2:2:0:0:
57,121,12651,1,8,0:0:0:0:
244,56,12809,6,0,L|458:73,2,200,2|8|0,1:2|2:2|1:0,0:0:0:0:
274,298,13599,2,0,L|344:284,1,50,0|0,1:1|0:0,0:0:0:0:
423,166,13756,2,0,L|400:230,1,50,8|8,3:2|3:2,0:0:0:0:
447,340,13914,2,0,L|402:293,1,50,8|8,3:2|3:2,0:0:0:0:
313,192,14072,6,0,B|273:177|273:177|236:214|145:221,1,150,10|0,1:2|0:0,0:0:0:0:
88,253,14388,6,0,B|175:246|254:283|254:283|199:201,1,250,12|0,2:2|0:0,0:0:0:0:
103,19,15335,5,6,1:2:0:0:
103,19,15493,2,0,P|99:74|97:175,1,150.000005722046,0|0,1:1|1:1,0:0:0:0:
128,305,15967,2,0,P|93:313|49:317,2,75.0000028610231,0|0|8,0:0|1:1|2:2,0:0:0:0:
259,238,16441,1,0,0:0:0:0:
348,354,16599,5,0,1:1:0:0:
269,333,16756,1,0,1:1:0:0:
410,284,16914,2,0,L|402:206,1,75.0000028610231,8|0,2:2|0:0,0:0:0:0:
248,221,17230,1,0,0:0:0:0:
402,209,17388,6,0,L|410:131,1,75.0000028610231,0|8,0:0|2:2,0:0:0:0:
508,94,17704,1,0,0:0:0:0:
409,134,17862,1,2,1:2:0:0:
269,56,18020,6,0,B|248:99|248:99|269:199,1,150.000005722046,0|0,1:1|1:2,0:0:0:0:
268,198,18493,2,0,L|349:204,1,75.0000028610231,0|0,0:0|1:1,0:0:0:0:
170,106,18809,1,8,2:2:0:0:
81,254,18967,5,0,1:0:0:0:
78,239,19046,1,0,1:0:0:0:
75,224,19125,2,0,L|94:136,1,75.0000028610231,0|0,1:1|1:1,0:0:0:0:
245,56,19441,2,0,P|257:100|251:144,1,75.0000028610231,8|0,2:2|0:0,0:0:0:0:
239,214,19756,2,0,L|164:211,1,75.0000028610231
164,211,20072,2,0,L|311:202,1,112.500004291535,8|0,2:2|0:0,0:0:0:0:
296,202,20388,5,2,1:2:0:0:
387,307,20546,2,0,B|413:336|413:336|432:201,1,150.000005722046,0|0,1:1|1:1,0:0:0:0:
347,134,21020,2,0,L|449:127,1,75.0000028610231,0|0,0:0|1:1,0:0:0:0:
288,237,21335,2,0,B|206:227|206:227|164:187,1,112.500004291535,8|0,2:2|0:0,0:0:0:0:
165,194,21651,5,0,1:1:0:0:
165,194,21809,1,0,1:1:0:0:
251,114,21967,2,0,L|242:32,1,75.0000028610231,8|0,2:2|0:0,0:0:0:0:
111,113,22283,2,0,P|71:117|26:122,1,75.0000028610231
184,206,22599,2,0,P|224:202|269:197,1,75.0000028610231,8|0,2:2|0:0,0:0:0:0:
317,272,22914,5,2,1:2:0:0:
103,338,23072,2,0,B|81:287|81:287|101:187,2,150.000005722046,0|0|0,1:1|1:1|1:1,0:0:0:0:
167,275,23862,2,0,B|181:201,1,75.0000028610231,8|0,2:2|0:0,0:0:0:0:
202,93,24178,5,0,0:0:0:0:
341,149,24335,1,0,1:1:0:0:
421,110,24493,1,8,2:2:0:0:
346,62,24651,1,0,0:0:0:0:
299,264,24809,5,0,0:0:0:0:
457,204,24967,1,8,3:3:0:0:
346,62,25125,2,0,L|263:72,1,75.0000028610231,8|0,2:2|0:0,0:0:0:0:
60,53,25441,5,6,1:2:0:0:
70,155,25599,2,0,B|134:117|134:117|220:140,1,150.000005722046,0|0,1:1|1:0,0:0:0:0:
207,136,26072,2,0,L|199:223,1,75.0000028610231,0|0,2:2|1:1,0:0:0:0:
354,356,26388,1,8,2:2:0:0:
289,269,26546,5,0,3:0:0:0:
289,269,26625,1,0,3:0:0:0:
289,269,26704,2,0,L|282:194,1,75.0000028610231,2|0,1:2|1:1,0:0:0:0:
271,103,27020,2,0,P|345:119|419:110,1,150.000005722046,8|0,2:2|2:2,0:0:0:0:
418,110,27493,1,0,1:1:0:0:
282,194,27651,6,0,P|208:178|134:187,1,150.000005722046,8|2,2:2|1:2,0:0:0:0:
134,186,28125,1,0,1:1:0:0:
72,109,28283,1,0,0:0:0:0:
134,186,28441,1,0,1:1:0:0:
57,250,28599,2,0,L|45:334,1,75.0000028610231,0|0,2:2|1:1,0:0:0:0:
217,310,28914,1,8,2:2:0:0:
134,186,29072,1,0,3:0:0:0:
141,200,29151,1,0,3:0:0:0:
147,213,29230,6,0,L|236:183,1,75.0000028610231,2|0,1:2|1:1,0:0:0:0:
218,189,29546,1,8,2:2:0:0:
349,78,29704,1,0,3:0:0:0:
343,91,29783,1,0,3:0:0:0:
338,105,29862,1,0,1:2:0:0:
196,93,30020,5,8,2:2:0:0:
365,201,30178,1,8,3:3:0:0:
196,93,30335,1,4,3:3:0:0:
428,25,30493,6,0,B|447:72|447:72|431:139,1,100,14|0,2:2|0:0,0:0:0:0:
217,310,30809,1,0,1:2:0:0:
311,286,30967,1,10,2:2:0:0:
243,213,31125,1,0,0:0:0:0:
201,297,31283,5,0,1:2:0:0:
400,325,31441,1,10,2:2:0:0:
228,199,31599,1,0,0:0:0:0:
383,121,31756,5,2,2:2:0:0:
310,348,31914,2,0,B|301:258|355:291|329:171,1,150,8|0,2:2|0:0,0:0:0:0:
328,180,32230,1,0,1:1:0:0:
421,240,32388,2,0,P|467:243|520:220,1,100,8|0,2:2|1:1,0:0:0:0:
357,64,32704,1,2,1:2:0:0:
357,64,32862,1,0,1:1:0:0:
240,320,33020,6,0,L|138:314,1,100,10|0,2:2|0:0,0:0:0:0:
286,151,33335,1,10,2:2:0:0:
356,261,33493,1,2,1:2:0:0:
357,64,33651,1,8,2:2:0:0:
213,241,33809,1,2,1:2:0:0:
210,36,33967,1,8,2:2:0:0:
388,173,34125,5,2,1:2:0:0:
388,173,34204,1,0,1:0:0:0:
388,173,34283,2,0,L|489:161,1,100,8|0,2:2|1:1,0:0:0:0:
224,46,34599,2,0,L|123:58,1,100,8|0,2:2|0:0,0:0:0:0:
109,314,34914,5,0,1:1:0:0:
242,244,35072,2,0,L|186:227,1,50,8|8,2:2|2:2,0:0:0:0:
107,194,35230,1,8,2:2:0:0:
217,354,35388,2,0,L|273:337,1,50,8|8,2:2|2:2,0:0:0:0:
344,220,35546,6,0,P|331:176|338:109,1,100,4|0,1:2|0:0,0:0:0:0:
483,208,35862,2,0,P|496:265|446:358,1,150,8|0,2:2|0:0,0:0:0:0:
386,360,36178,1,2,1:2:0:0:
242,244,36335,1,0,1:1:0:0:
350,199,36493,2,0,B|365:150|365:150|349:86,1,100,10|0,2:2|0:0,0:0:0:0:
118,85,36809,5,2,1:2:0:0:
245,143,36967,1,0,1:1:0:0:
191,30,37125,1,10,2:2:0:0:
152,208,37283,1,0,1:0:0:0:
152,208,37362,1,0,1:0:0:0:
152,208,37441,2,0,L|51:199,1,100,2|0,1:2|1:1,0:0:0:0:
266,138,37756,1,10,2:2:0:0:
215,25,37914,1,0,0:0:0:0:
41,214,38072,6,0,B|145:189|121:267|234:249,1,200,2|8,1:2|2:2,0:0:0:0:
335,372,38546,2,0,P|347:324|332:258,1,100,2|0,0:0|1:2,0:0:0:0:
230,249,38862,1,0,1:1:0:0:
111,321,39020,2,0,P|112:266|140:208,1,100,10|0,2:2|0:0,0:0:0:0:
234,112,39335,6,0,P|281:140|317:193,1,100,2|0,1:2|1:1,0:0:0:0:
459,295,39651,2,0,P|382:288|294:278,1,150,8|8,2:2|0:0,0:0:0:0:
285,273,39967,1,0,1:1:0:0:
424,209,40125,1,0,1:1:0:0:
246,122,40283,1,8,2:2:0:0:
246,122,40441,1,8,0:0:0:0:
346,16,40599,6,0,B|357:84|357:84|335:124|335:124|347:222,1,200,0|10,1:1|2:2,0:0:0:0:
345,208,41072,1,0,0:0:0:0:
159,261,41230,2,0,P|199:232|248:225,1,100,2|0,1:2|1:1,0:0:0:0:
446,183,41546,2,0,L|425:296,1,100,10|0,2:2|0:0,0:0:0:0:
388,108,41862,6,0,P|438:90|493:102,1,100,2|0,1:2|1:1,0:0:0:0:
330,322,42178,2,0,P|277:312|223:306,1,100,10|0,2:2|0:0,0:0:0:0:
55,173,42493,2,0,P|38:228|98:308,1,150,2|0,1:2|0:0,0:0:0:0:
155,275,42809,2,0,P|166:220|156:159,1,100,10|0,2:2|0:0,0:0:0:0:
68,145,43125,5,2,1:2:0:0:
200,67,43283,1,0,0:0:0:0:
115,26,43441,1,8,2:2:0:0:
246,241,43599,1,2,0:0:0:0:
250,221,43678,1,0,1:0:0:0:
254,201,43756,1,2,1:2:0:0:
172,305,43914,1,0,1:1:0:0:
338,153,44072,1,8,2:2:0:0:
66,264,44230,5,0,1:0:0:0:
66,264,44309,1,0,1:0:0:0:
66,264,44388,2,0,L|82:369,1,100,2|0,1:2|1:2,0:0:0:0:
255,147,44704,1,8,2:2:0:0:
323,266,44862,2,0,P|266:259|206:246,1,100,2|0,0:0|1:1,0:0:0:0:
371,122,45178,1,2,1:2:0:0:
255,147,45335,1,10,2:2:0:0:
316,16,45493,6,0,L|305:72,1,50,8|8,1:2|0:2,0:0:0:0:
273,245,45651,1,10,2:2:0:0:
273,245,45809,1,0,0:0:0:0:
144,81,45967,2,0,B|130:177|130:177|156:256,1,150,14|0,2:2|0:0,0:0:0:0:
170,304,46283,5,0,0:0:0:0:
54,235,46441,1,8,2:2:0:0:
231,166,46599,1,2,0:0:0:0:
124,57,46756,1,0,1:1:0:0:
146,227,46914,5,10,2:2:0:0:
231,166,47072,1,2,1:2:0:0:
137,123,47230,1,0,1:1:0:0:
125,307,47388,5,10,3:3:0:0:
325,249,47546,1,0,3:3:0:0:
226,57,47704,1,0,3:3:0:0:
11,235,47862,5,6,3:3:0:0:
11,235,48020,1,0,3:3:0:0:
261,363,48178,6,0,B|323:336|323:336|365:358|365:358|468:366,1,200,6|8,1:2|2:2,0:0:0:0:
399,185,48651,2,0,P|411:128|400:82,1,100,2|0,0:0|1:2,0:0:0:0:
165,240,48967,2,0,P|156:288|168:337,1,100,2|8,1:2|2:2,0:0:0:0:
296,81,49283,1,0,0:0:0:0:
67,133,49441,6,0,B|187:116|133:197|275:165,1,200,2|8,1:2|2:2,0:0:0:0:
436,339,49914,1,8,2:2:0:0:
436,339,49993,1,8,2:2:0:0:
436,339,50072,1,8,2:2:0:0:
243,181,50230,1,8,0:3:0:0:
446,48,50388,1,4,0:3:0:0:
446,48,50704,6,0,L|436:119,1,64.9999970245363,4|0,1:2|0:0,0:0:0:0:
325,95,51020,2,0,L|335:166,1,64.9999970245363,0|0,1:1|0:0,0:0:0:0:
418,215,51335,1,0,1:2:0:0:
255,134,51493,1,0,0:0:0:0:
164,256,51651,1,2,1:2:0:0:
57,216,51809,1,0,0:0:0:0:
329,192,51967,6,0,P|289:188|257:186,1,64.9999970245363,2|0,1:2|0:0,0:0:0:0:
123,151,52283,2,0,P|163:147|195:145,1,64.9999970245363,2|0,1:2|0:0,0:0:0:0:
238,26,52599,2,0,P|242:66|244:98,1,64.9999970245363,2|0,1:2|0:0,0:0:0:0:
196,218,52914,1,2,1:2:0:0:
128,86,53072,6,0,P|126:118|123:151,2,64.9999970245363,2|4|0,2:2|1:2|0:0,0:0:0:0:
196,218,53546,1,0,1:1:0:0:
315,192,53704,1,0,0:0:0:0:
188,224,53862,1,0,1:1:0:0:
323,186,54020,1,0,0:0:0:0:
267,298,54178,6,0,L|257:378,1,64.9999970245363,2|2,1:2|2:2,0:0:0:0:
245,86,54493,2,0,L|255:6,1,64.9999970245363,2|0,1:2|0:0,0:0:0:0:
172,291,54809,1,2,1:2:0:0:
352,264,54967,1,0,0:0:0:0:
150,197,55125,1,2,1:2:0:0:
355,176,55283,1,0,0:0:0:0:
151,101,55441,2,0,L|208:81,1,32.4999985122681,10|0,3:2|0:0,0:0:0:0:
330,75,55599,2,0,L|291:65,1,32.4999985122681,0|0,3:3|3:3,0:0:0:0:
233,17,55756,5,10,2:2:0:0:
260,217,55914,1,2,1:2:0:0:
150,56,56072,1,0,1:1:0:0:
154,283,56230,5,2,1:2:0:0:
217,108,56388,1,0,1:1:0:0:
294,334,56546,5,2,1:2:0:0:
371,50,56704,1,0,1:1:0:0:
439,367,56862,5,10,2:2:0:0:
426,342,57809,5,0,1:0:0:0:
256,256,57967,2,0,L|240:359,1,100,12|0,2:2|0:0,0:0:0:0:
450,334,58283,5,14,2:2:0:0:
276,249,58441,1,0,1:1:0:0:
420,175,58599,1,2,1:2:0:0:
372,283,58756,5,8,2:2:0:0:
221,165,58914,1,2,1:2:0:0:
410,72,59072,1,0,1:1:0:0:
222,50,59230,1,10,0:3:0:0:
222,50,59388,1,0,0:0:0:0:
120,298,59546,6,0,L|133:142,1,150,14|0,2:2|0:0,0:0:0:0:
221,165,59862,1,0,1:1:0:0:
111,53,60020,2,0,L|7:65,1,100,8|0,2:2|1:1,0:0:0:0:
270,339,60335,6,0,L|321:325,1,50,0|0,1:1|0:0,0:0:0:0:
463,351,60493,2,0,L|424:298,1,50,10|0,2:2|0:0,0:0:0:0:
342,225,60651,2,0,L|355:164,1,50,10|8,2:2|2:2,0:0:0:0:
447,133,60809,6,0,B|458:83|458:83|430:40,1,100,6|0,1:2|0:0,0:0:0:0:
325,189,61125,1,10,2:2:0:0:
374,296,61283,2,0,L|484:284,1,100,2|0,0:0|1:2,0:0:0:0:
220,247,61599,1,2,1:2:0:0:
325,189,61756,1,8,2:2:0:0:
194,51,61914,6,0,P|180:102|190:157,1,100,10|0,0:0|1:2,0:0:0:0:
325,189,62230,1,0,1:1:0:0:
285,335,62388,1,8,2:2:0:0:
69,338,62546,2,0,B|44:289|74:243|74:243|124:230|190:273,1,200,0|0,0:0|1:1,0:0:0:0:
285,335,63020,1,10,2:2:0:0:
334,118,63178,5,10,0:0:0:0:
334,118,63256,1,8,0:0:0:0:
334,118,63335,2,0,P|282:126|233:139,1,100,0|0,1:2|0:0,0:0:0:0:
361,319,63651,1,10,2:2:0:0:
453,210,63809,2,0,P|472:160|485:112,1,100,2|0,0:0|1:2,0:0:0:0:
242,235,64125,1,2,1:2:0:0:
361,319,64283,1,10,2:2:0:0:
348,207,64441,1,10,0:0:0:0:
177,328,64599,5,0,1:2:0:0:
242,235,64756,1,0,1:1:0:0:
91,230,64914,2,0,P|85:177|90:107,1,100,8|0,2:2|0:0,0:0:0:0:
296,40,65230,1,2,1:2:0:0:
370,229,65388,1,2,1:2:0:0:
196,120,65546,1,10,2:2:0:0:
406,103,65704,1,10,0:0:0:0:
242,235,65862,6,0,B|171:248|171:248|112:233|112:233|20:248,2,200,0|8|0,1:2|2:2|1:1,0:0:0:0:
374,135,66651,1,0,1:1:0:0:
343,330,66809,2,0,L|221:314,1,100,8|0,2:2|0:0,0:0:0:0:
387,239,67125,5,0,1:1:0:0:
210,170,67283,1,0,1:1:0:0:
441,116,67441,1,8,2:2:0:0:
319,44,67599,5,0,3:3:0:0:
314,63,67678,1,0,3:3:0:0:
310,82,67756,1,0,3:3:0:0:
318,254,67914,1,8,3:2:0:0:
206,78,68072,1,0,1:1:0:0:
393,197,68230,1,8,3:2:0:0:
135,129,68388,6,0,P|85:135|33:113,1,100,6|0,1:2|0:0,0:0:0:0:
299,127,68704,2,0,P|332:86|342:37,1,100,10|0,2:2|0:0,0:0:0:0:
171,210,69020,2,0,P|167:262|187:308,1,100,2|0,1:2|1:1,0:0:0:0:
390,354,69335,1,10,2:2:0:0:
461,183,69493,2,0,L|410:203,1,50
329,183,69651,5,2,1:2:0:0:
435,106,69809,1,0,0:0:0:0:
320,43,69967,1,10,2:2:0:0:
357,269,70125,2,0,L|250:296,1,100,2|0,0:0|1:0,0:0:0:0:
116,133,70441,5,0,1:1:0:0:
329,183,70599,1,8,2:2:0:0:
186,359,70756,1,0,0:0:0:0:
186,359,70914,6,0,P|173:306|183:245,1,100,2|0,1:2|0:0,0:0:0:0:
244,14,71230,2,0,P|257:67|247:128,1,100,10|0,2:2|0:0,0:0:0:0:
31,175,71546,2,0,L|142:183,1,100,2|0,1:2|1:1,0:0:0:0:
106,370,71862,1,10,2:2:0:0:
309,288,72020,6,0,P|317:240|306:183,1,100,2|0,2:2|1:2,0:0:0:0:
440,71,72335,1,0,1:1:0:0:
440,71,72493,2,0,P|378:103|295:98,1,150,8|0,2:2|1:0,0:0:0:0:
227,62,72809,1,0,1:1:0:0:
181,265,72967,1,0,1:1:0:0:
151,152,73125,1,8,2:2:0:0:
39,81,73283,1,8,3:2:0:0:
30,98,73362,1,8,3:2:0:0:
21,115,73441,5,8,3:2:0:0:
151,152,73599,1,0,0:0:0:0:
13,254,73756,2,0,B|129:224|98:309|218:282,1,200,14|0,2:2|0:0,0:0:0:0:
298,257,74230,5,8,3:3:0:0:
298,257,74388,1,6,3:3:0:0:
298,257,74546,1,6,3:3:0:0:
398,255,74704,5,8,2:2:0:0:
423,356,74862,1,0,1:1:0:0:
418,105,75020,5,10,2:2:0:0:
339,340,75178,1,0,1:1:0:0:
334,71,75335,5,8,2:2:0:0:
208,264,75493,1,0,1:1:0:0:
257,10,75651,5,10,2:2:0:0:
107,144,75809,2,0,L|91:85,1,50,0|0,1:2|0:0,0:0:0:0:
72,20,75967,1,6,1:2:0:0:
251,119,76125,5,8,2:2:0:0:
21,205,76283,1,10,2:2:0:0:
115,237,76441,1,0,1:1:0:0:
208,273,76599,5,10,2:2:0:0:
50,332,76756,1,8,2:2:0:0:
335,320,76914,1,2,1:2:0:0:
129,216,77072,1,10,2:2:0:0:
436,76,77230,5,8,2:2:0:0:
264,202,77388,1,0,1:1:0:0:
416,235,77546,1,8,2:2:0:0:
299,53,77704,1,8,2:2:0:0:
357,149,77862,1,12,2:2:0:0:
254,338,78020,6,0,L|197:327,1,50,2|0,3:2|3:3,0:0:0:0:
368,311,78178,1,10,2:2:0:0:
148,117,78335,1,10,3:2:0:0:
153,136,78414,1,8,3:2:0:0:
158,155,78493,6,0,P|207:173|261:165,1,100,6|0,1:2|0:0,0:0:0:0:
451,54,78809,2,0,P|477:111|460:210,1,150,10|0,2:2|0:0,0:0:0:0:
454,273,79125,2,0,L|353:260,1,100,2|0,2:2|1:1,0:0:0:0:
137,184,79441,1,10,2:2:0:0:
332,54,79599,1,0,0:0:0:0:
340,254,79756,5,2,1:2:0:0:
249,187,79914,1,0,1:1:0:0:
351,142,80072,1,8,2:2:0:0:
280,357,80230,1,0,0:0:0:0:
134,307,80388,2,0,P|124:265|132:200,1,100,0|0,1:1|1:1,0:0:0:0:
354,270,80704,1,10,2:2:0:0:
249,187,80862,1,2,0:0:0:0:
435,89,81020,6,0,P|445:131|437:196,1,100,2|0,1:2|0:0,0:0:0:0:
385,333,81335,1,10,2:2:0:0:
385,333,81493,2,0,B|268:325|311:386|184:374,1,200,2|2,1:2|1:2,0:0:0:0:
70,293,81967,1,8,2:2:0:0:
189,180,82125,1,10,2:2:0:0:
47,87,82283,5,0,1:2:0:0:
107,207,82441,1,0,1:1:0:0:
243,120,82599,2,0,L|356:131,1,100,8|0,2:2|0:0,0:0:0:0:
421,215,82914,5,2,1:2:0:0:
323,234,83072,1,0,1:1:0:0:
488,127,83230,2,0,P|490:73|474:21,1,100,10|0,2:2|0:0,0:0:0:0:
452,305,83546,5,10,3:2:0:0:
224,252,83704,1,10,3:2:0:0:
271,26,83862,1,10,3:2:0:0:
499,79,84020,1,10,3:2:0:0:
341,272,84493,5,10,3:2:0:0:
113,325,84651,1,10,3:2:0:0:
66,99,84809,1,10,3:2:0:0:
294,46,84967,1,10,3:2:0:0:
301,214,85441,6,0,L|255:233,1,50,2|0,0:0|0:0,0:0:0:0:
394,231,85756,2,0,L|434:260,1,50,2|0,0:0|0:0,0:0:0:0:
231,341,86072,5,2,0:0:0:0:
156,290,86230,1,0,0:0:0:0:
67,304,86388,1,2,0:0:0:0:
67,304,86546,2,0,B|247:333|192:222|388:262,1,329.9999899292,2|0,0:0|0:0,0:0:0:0:
