osu file format v14

[General]
AudioFilename: audio.mp3
AudioLeadIn: 0
PreviewTime: 58204
Countdown: 0
SampleSet: Soft
StackLeniency: 0.5
Mode: 0
LetterboxInBreaks: 0
WidescreenStoryboard: 0

[Editor]
DistanceSpacing: 0.5
BeatDivisor: 4
GridSize: 16
TimelineZoom: 1.4

[Metadata]
Title:Koko kara Saki wa Uta ni Naranai (TV Size)
TitleUnicode:ここから先は歌にならない (TV Size)
Artist:Poppin'Party
ArtistUnicode:Poppin'Party
Creator:Sotarks
Version:Extra
Source:ぼくたちのリメイク
Tags:anime opening Bokutachi no Remake our Life! jpop rock japanese バンドリ!Bandori! BanG Dream! Toyama Kasumi Hanazono Tae Ushigome Rimi Yamabuki Saaya Ichigaya Arisa Aimi Otsuka Sae Nishimoto Ohashi Ayaka Itou Ayasa 愛美 大塚紗英 牛込 りみ 山吹 沙綾 市ヶ谷 有咲 Bokurema akitoshi corinn -laura- toybot elinor [_eli_] schoolboy komore kawaiwkyik rizia eli vikala
BeatmapID:3153134
BeatmapSetID:1542576

[Difficulty]
HPDrainRate:5.2
CircleSize:4
OverallDifficulty:8.7
ApproachRate:9.2
SliderMultiplier:1.82
SliderTickRate:1

[Events]
//Background and Video events
0,0,"bg.jpg",0,0
Video,0,"video.mp4"
//Break Periods
//Storyboard Layer 0 (Background)
//Storyboard Layer 1 (Fail)
//Storyboard Layer 2 (Pass)
//Storyboard Layer 3 (Foreground)
//Storyboard Layer 4 (Overlay)
//Storyboard Sound Samples

[TimingPoints]
178,315.789473684211,4,2,22,62,1,0
178,-138.888888888889,4,2,22,62,0,0
5230,-108.695652173913,4,2,22,72,0,0
14388,-121.951219512195,4,2,22,72,0,0
15335,-138.888888888889,4,2,22,52,0,0
25441,-138.888888888889,4,2,22,62,0,0
30493,-121.951219512195,4,2,22,72,0,0
33020,-121.951219512195,4,2,22,82,0,0
35546,-108.695652173913,4,2,22,72,0,0
50704,-161.290322580645,4,2,22,62,0,0
55756,-161.290322580645,4,2,22,72,0,0
57809,-192.307692307692,4,2,22,62,0,0
57888,-192.307692307692,4,2,22,5,0,0
57967,-65.7894736842105,4,2,22,82,0,0
58204,-65.7894736842105,4,2,22,5,0,0
58283,-98.0392156862745,4,2,22,72,0,0
59546,-98.0392156862745,4,2,22,82,0,0
84020,-192.307692307692,4,2,22,82,0,0
85441,-192.307692307692,4,2,22,52,0,0
86388,-312.5,4,2,22,42,0,0
86546,-312.5,4,2,22,32,0,0

[Colours]
Combo1 : 228,97,97
Combo2 : 80,61,188
Combo3 : 185,198,255

[HitObjects]
116,272,178,6,0,P|153:278|192:290,1,65.5200015996094,0|0,1:1|1:1,0:0:0:0:
287,224,493,2,0,P|319:219|350:210,1,65.5200015996094,0|0,1:1|0:0,0:0:0:0:
506,260,809,1,0,1:1:0:0:
439,189,967,2,0,P|431:232|420:273,1,65.5200015996094,0|0,0:0|1:1,0:0:0:0:
481,89,1283,1,0,1:1:0:0:
386,109,1441,2,0,P|354:117|322:122,1,65.5200015996094,0|0,1:1|0:0,0:0:0:0:
176,98,1756,1,0,1:1:0:0:
256,56,1914,2,0,P|244:120|233:198,1,131.040003199219
256,287,2388,1,0,1:1:0:0:
256,287,2546,1,0,0:0:0:0:
165,308,2704,6,0,P|133:316|101:321,1,65.5200015996094,0|0,1:1|0:0,0:0:0:0:
340,250,3020,2,0,P|371:241|403:236,1,65.5200015996094,0|0,1:1|0:0,0:0:0:0:
234,185,3335,1,0,1:1:0:0:
328,107,3493,2,0,P|320:138|314:171,1,65.5200015996094,0|0,0:0|1:1,0:0:0:0:
175,114,3809,1,0,0:0:0:0:
270,36,3967,2,0,P|262:67|256:100,1,65.5200015996094,0|0,1:1|0:0,0:0:0:0:
225,269,4283,1,0,1:1:0:0:
225,269,4441,1,0,0:0:0:0:
314,170,4599,2,0,P|351:182|400:192,1,65.5200015996094,2|0,1:2|0:0,0:0:0:0:
161,217,4914,2,0,P|109:245|63:240,1,98.2800023994141,10|0,2:2|0:0,0:0:0:0:
26,155,5230,6,0,P|105:165|202:176,2,167.439994379151,6|10|2,1:2|2:2|1:2,0:0:0:0:
151,332,6020,1,2,1:2:0:0:
285,176,6178,1,8,0:0:0:0:
117,61,6335,6,0,P|130:109|140:158,1,83.7199971895753,2|0,0:0|1:2,0:0:0:0:
137,142,6651,1,2,1:2:0:0:
298,74,6809,2,0,P|370:84|467:101,1,167.439994379151,10|0,2:2|1:1,0:0:0:0:
383,0,7283,1,0,1:1:0:0:
283,212,7441,1,8,2:2:0:0:
403,143,7599,5,8,0:0:0:0:
403,143,7678,1,8,0:0:0:0:
403,143,7756,2,0,P|447:207|426:303,1,167.439994379151,2|8,1:2|2:2,0:0:0:0:
433,291,8230,1,0,0:0:0:0:
258,326,8388,1,2,1:2:0:0:
489,217,8546,1,0,1:1:0:0:
250,317,8704,2,0,P|187:301|150:297,1,83.7199971895753,8|0,2:2|0:0,0:0:0:0:
146,292,8941,1,8,0:0:0:0:
146,292,9020,5,2,1:2:0:0:
301,206,9178,1,0,1:1:0:0:
167,103,9335,2,0,P|180:151|190:200,1,83.7199971895753,8|0,2:2|0:0,0:0:0:0:
276,93,9651,1,2,1:2:0:0:
94,167,9809,1,0,1:1:0:0:
286,79,9967,2,0,P|354:95|420:103,1,125.579995784363,10|0,2:2|0:0,0:0:0:0:
512,160,10283,6,0,B|420:141|447:215|349:197,2,167.439994379151,6|10|2,1:2|2:2|1:2,0:0:0:0:
343,297,11072,1,2,1:2:0:0:
225,163,11230,1,8,0:0:0:0:
385,74,11388,2,0,P|374:126|365:179,1,83.7199971895753,2|0,0:0|1:2,0:0:0:0:
472,325,11704,1,2,1:2:0:0:
343,297,11862,2,0,P|258:314|157:339,1,167.439994379151,10|0,2:2|1:1,0:0:0:0:
14,298,12335,1,0,1:1:0:0:
181,187,12493,1,8,2:2:0:0:
83,366,12651,5,8,0:0:0:0:
83,366,12730,1,8,0:0:0:0:
83,366,12809,2,0,P|48:284|76:204,1,167.439994379151,2|8,1:2|2:2,0:0:0:0:
69,212,13283,1,0,0:0:0:0:
178,63,13441,1,0,1:0:0:0:
16,123,13599,1,0,1:1:0:0:
167,248,13756,1,8,3:2:0:0:
187,243,13834,1,8,3:2:0:0:
207,239,13913,1,8,3:2:0:0:
228,234,13992,1,8,3:2:0:0:
248,230,14072,5,10,1:2:0:0:
380,120,14230,1,0,1:0:0:0:
276,316,14388,2,0,B|264:199|340:225|347:85|290:83|247:78|233:127|250:201|352:200,1,373.100005693054,12|0,2:2|0:0,0:0:0:0:
473,127,15335,5,6,1:2:0:0:
473,127,15493,2,0,P|465:81|457:48,1,65.5200015996094,0|0,1:1|0:0,0:0:0:0:
325,124,15809,2,0,P|378:112|404:105,1,65.5200015996094,0|0,1:1|0:0,0:0:0:0:
336,35,16125,1,0,1:1:0:0:
376,192,16283,2,0,P|389:265|402:335,1,131.040003199219,8|0,2:2|1:1,0:0:0:0:
399,320,16756,1,0,1:1:0:0:
467,232,16914,1,8,2:2:0:0:
159,348,17546,1,8,2:2:0:0:
260,180,17862,5,2,1:2:0:0:
260,180,18020,2,0,P|270:226|280:263,1,65.5200015996094,0|0,1:1|0:0,0:0:0:0:
329,137,18335,2,0,P|339:183|349:220,1,65.5200015996094,0|0,1:2|0:0,0:0:0:0:
137,139,18651,1,0,1:1:0:0:
225,100,18809,2,0,P|212:173|199:243,1,131.040003199219,8|0,2:2|1:1,0:0:0:0:
201,228,19283,1,0,1:1:0:0:
45,87,19441,1,8,2:2:0:0:
45,87,19756,1,0,0:0:0:0:
311,221,20072,1,8,2:2:0:0:
136,357,20388,5,2,1:2:0:0:
136,357,20546,2,0,P|89:365|61:376,1,65.5200015996094,0|0,1:1|0:0,0:0:0:0:
214,322,20862,2,0,P|261:314|289:303,1,65.5200015996094,0|0,1:1|0:0,0:0:0:0:
146,265,21178,1,0,1:1:0:0:
309,383,21335,2,0,P|320:318|332:254,1,131.040003199219,8|0,2:2|1:1,0:0:0:0:
332,254,21809,1,0,1:1:0:0:
448,135,21967,1,8,2:2:0:0:
448,134,22283,1,0,0:0:0:0:
196,247,22599,1,8,2:2:0:0:
454,342,22914,5,2,1:2:0:0:
454,342,23072,1,0,1:1:0:0:
335,188,23388,1,0,1:1:0:0:
255,373,23704,1,0,1:1:0:0:
324,297,23862,2,0,P|312:232|300:168,1,131.040003199219,8|0,2:2|0:0,0:0:0:0:
167,94,24335,2,0,P|204:103|241:106,1,65.5200015996094,0|8,1:1|2:2,0:0:0:0:
253,25,24651,2,0,P|220:22|189:14,1,65.5200015996094
326,86,24967,1,8,3:3:0:0:
98,27,25125,1,8,2:2:0:0:
378,246,25441,5,6,1:2:0:0:
283,279,25599,2,0,P|240:293|198:304,1,65.5200015996094,0|0,1:1|0:0,0:0:0:0:
211,122,25914,2,0,P|220:163|228:196,1,65.5200015996094,0|0,1:0|2:2,0:0:0:0:
56,171,26230,1,0,1:1:0:0:
116,97,26388,2,0,P|129:171|140:237,1,131.040003199219,8|2,2:2|1:2,0:0:0:0:
72,376,26862,1,0,1:1:0:0:
46,299,27020,2,0,B|129:286|93:334|189:316,1,131.040003199219,8|0,2:2|2:2,0:0:0:0:
314,278,27493,1,0,1:1:0:0:
163,214,27651,1,8,2:2:0:0:
249,380,27809,1,0,0:0:0:0:
387,258,27967,5,2,1:2:0:0:
301,213,28125,2,0,P|309:252|316:294,1,65.5200015996094,0|0,1:1|0:0,0:0:0:0:
448,170,28441,2,0,P|440:131|433:89,1,65.5200015996094,0|0,1:1|2:2,0:0:0:0:
294,63,28756,1,0,1:1:0:0:
358,143,28914,2,0,P|347:81|335:13,1,131.040003199219,8|2,2:2|1:2,0:0:0:0:
144,127,29388,1,0,1:1:0:0:
210,186,29546,2,0,P|241:176|272:166,1,65.5200015996094,8|0,2:2|0:0,0:0:0:0:
136,21,29862,1,0,1:2:0:0:
40,225,30020,1,8,2:2:0:0:
144,127,30178,1,8,3:3:0:0:
128,130,30256,1,0,3:3:0:0:
112,134,30335,1,4,3:3:0:0:
272,165,30493,6,0,P|331:178|404:192,1,111.930001707916,14|0,2:2|0:0,0:0:0:0:
411,169,30809,1,0,1:2:0:0:
258,300,30967,2,0,P|190:340|113:311,1,149.240002277222,10|0,2:2|1:2,0:0:0:0:
10,167,31441,2,0,P|54:170|94:188,1,74.6200011386109,10|0,2:2|0:0,0:0:0:0:
188,238,31756,1,2,2:2:0:0:
75,96,31914,2,0,P|85:46|104:7,1,74.6200011386109,8|0,2:2|0:0,0:0:0:0:
296,142,32230,1,0,1:1:0:0:
188,238,32388,2,0,P|140:231|80:222,1,74.6200011386109,8|0,2:2|1:1,0:0:0:0:
409,265,32704,2,0,P|445:270|482:275,1,74.6200011386109,2|0,1:2|1:1,0:0:0:0:
456,182,33020,5,10,2:2:0:0:
434,348,33178,1,0,0:0:0:0:
370,149,33335,5,10,2:2:0:0:
339,354,33493,1,2,1:2:0:0:
287,116,33651,5,8,2:2:0:0:
253,363,33809,1,2,1:2:0:0:
209,86,33967,5,8,2:2:0:0:
162,376,34125,1,2,1:2:0:0:
370,149,34283,5,8,2:2:0:0:
105,254,34441,1,0,1:1:0:0:
105,254,34520,1,0,1:0:0:0:
105,254,34599,2,0,P|56:250|16:217,1,74.6200011386109,8|0,2:2|0:0,0:0:0:0:
209,86,34914,5,0,1:1:0:0:
295,270,35072,1,8,2:2:0:0:
290,291,35150,1,8,2:2:0:0:
286,313,35229,1,8,2:2:0:0:
93,161,35388,2,0,L|84:116,1,37.3100005693054,8|8,2:2|2:2,0:0:0:0:
254,173,35546,6,0,P|332:186|437:202,2,167.439994379151,4|8|2,1:2|2:2|1:2,0:0:0:0:
85,124,36335,1,0,1:1:0:0:
186,103,36493,2,0,P|174:155|165:193,1,83.7199971895753,10|0,2:2|0:0,0:0:0:0:
121,358,36809,5,2,1:2:0:0:
41,242,36967,1,0,1:1:0:0:
246,299,37125,2,0,P|294:312|359:327,1,83.7199971895753,10|0,2:2|0:0,0:0:0:0:
457,137,37441,1,2,1:2:0:0:
306,216,37599,1,0,1:1:0:0:
456,370,37756,2,0,P|468:319|448:273,1,83.7199971895753,10|0,2:2|0:0,0:0:0:0:
404,224,37993,1,8,0:0:0:0:
404,224,38072,6,0,B|310:213|343:283|218:258,1,167.439994379151,2|8,1:2|2:2,0:0:0:0:
116,112,38546,1,2,0:0:0:0:
263,175,38704,1,0,1:2:0:0:
139,333,38862,1,0,1:1:0:0:
66,202,39020,2,0,P|113:214|162:228,1,83.7199971895753,10|0,2:2|0:0,0:0:0:0:
327,320,39335,5,2,1:2:0:0:
263,175,39493,1,0,1:1:0:0:
404,52,39651,1,8,2:2:0:0:
364,243,39809,1,8,0:0:0:0:
344,236,39888,1,8,0:0:0:0:
324,229,39966,1,0,1:1:0:0:
434,142,40125,1,0,1:1:0:0:
327,320,40283,1,8,2:2:0:0:
224,252,40441,5,8,0:0:0:0:
224,252,40520,1,8,0:0:0:0:
224,252,40599,2,0,P|131:264|39:276,2,167.439994379151,0|10|2,1:1|2:2|1:2,0:0:0:0:
394,195,41388,1,0,1:1:0:0:
324,284,41546,2,0,P|315:243|304:195,1,83.7199971895753,10|0,2:2|0:0,0:0:0:0:
216,24,41862,5,2,1:2:0:0:
374,87,42020,1,0,1:1:0:0:
192,199,42178,2,0,P|148:192|90:182,1,83.7199971895753,10|0,2:2|0:0,0:0:0:0:
0,112,42493,1,2,1:2:0:0:
88,300,42651,1,0,1:1:0:0:
174,105,42809,2,0,P|154:54|118:36,1,83.7199971895753,10|0,2:2|0:0,0:0:0:0:
89,115,43046,1,8,0:0:0:0:
89,115,43125,6,0,P|170:130|284:149,1,167.439994379151,2|8,1:2|2:2,0:0:0:0:
443,108,43599,1,2,0:0:0:0:
268,52,43756,1,2,1:2:0:0:
380,264,43914,1,0,1:1:0:0:
418,127,44072,1,8,2:2:0:0:
322,162,44230,1,0,0:0:0:0:
230,193,44388,5,2,1:2:0:0:
384,266,44546,1,0,1:2:0:0:
384,266,44625,1,0,1:0:0:0:
384,266,44704,1,8,2:2:0:0:
249,98,44862,1,2,0:0:0:0:
148,254,45020,1,0,1:1:0:0:
298,318,45178,1,2,1:2:0:0:
107,155,45335,1,10,2:2:0:0:
78,295,45493,1,8,1:2:0:0:
74,311,45571,1,8,0:2:0:0:
71,327,45650,1,10,2:2:0:0:
19,348,45967,6,0,B|67:340|98:383|98:383|140:385|177:344,1,167.439994379151,14|0,2:2|0:0,0:0:0:0:
275,262,46441,2,0,P|283:307|291:353,1,83.7199971895753,8|2,2:2|0:0,0:0:0:0:
380,196,46756,5,0,1:1:0:0:
380,196,46835,1,0,1:0:0:0:
380,196,46914,1,10,2:2:0:0:
185,262,47072,2,0,P|137:274|94:286,1,83.7199971895753,2|0,1:2|1:1,0:0:0:0:
380,196,47388,2,0,P|420:184|461:174,1,83.7199971895753,10|0,3:3|3:3,0:0:0:0:
247,80,47704,1,0,3:3:0:0:
275,262,47862,2,0,P|283:307|291:353,1,83.7199971895753,6|0,3:3|3:3,0:3:0:0:
89,193,48178,6,0,P|56:143|74:66,1,125.579995784363,6|0,1:2|0:0,0:0:0:0:
87,55,48493,1,8,2:2:0:0:
153,261,48651,2,0,P|107:290|60:285,1,83.7199971895753,2|0,0:0|1:2,0:0:0:0:
223,119,48967,1,2,1:2:0:0:
257,209,49125,2,0,P|216:200|165:189,1,83.7199971895753,8|0,2:2|0:0,0:0:0:0:
391,49,49441,5,2,1:2:0:0:
319,157,49599,1,0,1:1:0:0:
473,258,49756,1,8,2:2:0:0:
306,77,49914,1,8,2:2:0:0:
289,79,49992,1,8,2:2:0:0:
273,82,50071,1,8,2:2:0:0:
428,148,50230,1,8,0:3:0:0:
167,79,50388,1,4,0:3:0:0:
167,79,50704,6,0,L|153:145,1,56.4199977616578,4|0,1:2|0:0,0:0:0:0:
140,206,51020,2,0,L|126:272,1,56.4199977616578,0|0,1:1|0:0,0:0:0:0:
239,363,51335,2,0,L|223:270,1,84.6299966424867,0|0,1:2|0:0,0:0:0:0:
221,262,51651,2,0,P|261:265|281:293,1,56.4199977616578,2|0,1:2|0:0,0:0:0:0:
116,344,51967,2,0,L|54:360,1,56.4199977616578,2|0,1:2|0:0,0:0:0:0:
105,334,52283,2,0,L|43:350,1,56.4199977616578,2|0,1:2|0:0,0:0:0:0:
147,171,52599,2,0,L|244:188,1,84.6299966424867,2|0,1:2|0:0,0:0:0:0:
246,190,52914,1,2,1:2:0:0:
378,114,53072,1,2,2:2:0:0:
265,77,53230,6,0,P|293:102|304:130,1,56.4199977616578,4|0,1:2|0:0,0:0:0:0:
226,240,53546,2,0,P|230:213|244:188,1,56.4199977616578,0|0,1:1|0:0,0:0:0:0:
385,196,53862,2,0,P|360:206|331:206,1,56.4199977616578,0|0,1:1|0:0,0:0:0:0:
249,171,54178,1,2,1:2:0:0:
165,191,54335,1,2,2:2:0:0:
88,145,54493,2,0,L|73:243,1,84.6299966424867,2|0,1:2|0:0,0:0:0:0:
56,247,54809,2,0,P|70:278|97:292,1,56.4199977616578,2|0,1:2|0:0,0:0:0:0:
211,339,55125,2,0,L|151:351,1,56.4199977616578,2|0,1:2|0:0,0:0:0:0:
362,226,55441,1,10,3:2:0:0:
213,113,55599,5,0,3:3:0:0:
216,126,55677,1,0,3:3:0:0:
220,140,55756,1,10,2:2:0:0:
322,33,55914,1,2,1:2:0:0:
131,142,56072,1,0,1:1:0:0:
282,294,56230,5,2,1:2:0:0:
220,140,56388,1,0,1:1:0:0:
282,294,56546,1,2,1:2:0:0:
190,70,56704,1,0,1:1:0:0:
312,367,56862,1,10,2:2:0:0:
118,47,57809,5,0,1:0:0:0:
50,176,57967,2,0,B|87:118|182:151|182:151|186:209|129:241,1,207.479997467285,12|0,2:2|0:0,0:0:0:0:
50,176,58283,6,0,P|39:117|30:69,1,92.8200005665283,14|0,2:2|1:1,0:0:0:0:
269,230,58599,1,2,1:2:0:0:
163,42,58756,1,8,2:2:0:0:
90,243,58914,1,2,1:2:0:0:
90,243,59072,1,0,1:1:0:0:
294,121,59230,1,10,0:3:0:0:
127,356,59388,1,0,0:0:0:0:
451,195,59546,6,0,P|433:124|413:40,1,139.230000849792,14|0,2:2|0:0,0:0:0:0:
421,39,59862,2,0,P|401:29|367:28,1,46.4100002832642,0|0,1:1|0:0,0:0:0:0:
206,151,60020,2,0,P|252:135|303:117,1,92.8200005665283,8|0,2:2|1:1,0:0:0:0:
64,61,60335,1,0,1:1:0:0:
296,257,60493,1,10,2:2:0:0:
101,149,60651,5,10,2:2:0:0:
97,171,60729,1,8,2:2:0:0:
93,194,60809,2,0,B|206:167|160:252|277:231,1,185.640001133057,6|10,1:2|2:2,0:0:0:0:
438,97,61283,2,0,P|446:142|463:196,1,92.8200005665283,2|0,0:0|1:2,0:0:0:0:
334,335,61599,1,2,1:2:0:0:
241,153,61756,1,8,2:2:0:0:
382,230,61914,5,10,0:0:0:0:
364,234,61992,1,8,0:0:0:0:
346,239,62071,1,0,1:2:0:0:
152,167,62230,1,0,1:1:0:0:
293,59,62388,2,0,P|274:169|257:283,1,185.640001133057,8|0,2:2|1:1,0:0:0:0:
161,384,62862,1,0,1:1:0:0:
372,326,63020,1,10,2:2:0:0:
156,172,63178,5,10,0:0:0:0:
156,172,63256,1,8,0:0:0:0:
156,172,63335,2,0,P|113:217|131:317,1,139.230000849792,0|0,1:2|0:0,0:0:0:0:
131,321,63651,1,10,2:2:0:0:
351,207,63809,2,0,P|296:193|247:178,1,92.8200005665283,2|0,0:0|1:2,0:0:0:0:
373,313,64125,1,2,1:2:0:0:
495,161,64283,1,10,2:2:0:0:
315,83,64441,5,10,0:0:0:0:
319,100,64519,1,8,0:0:0:0:
324,118,64598,1,0,1:2:0:0:
447,56,64756,1,0,1:1:0:0:
231,128,64914,2,0,B|122:110|155:188|31:161,1,185.640001133057,8|2,2:2|1:2,0:0:0:0:
181,36,65388,1,2,1:2:0:0:
64,270,65546,1,10,2:2:0:0:
324,118,65704,2,8,P|328:140|332:163,1,46.4100002832642,10|8,0:0|0:0,0:0:0:0:
361,318,65862,6,0,P|287:341|189:295,2,185.640001133057,0|8|0,1:2|2:2|1:1,0:0:0:0:
482,177,66651,1,0,1:1:0:0:
333,91,66809,2,0,P|344:146|354:194,1,92.8200005665283,8|0,2:2|0:0,0:0:0:0:
459,308,67125,5,0,1:1:0:0:
265,243,67283,1,0,1:1:0:0:
452,81,67441,1,8,2:2:0:0:
384,246,67599,1,0,3:3:0:0:
384,246,67678,1,0,3:3:0:0:
384,246,67756,1,0,3:3:0:0:
189,127,67914,1,8,3:2:0:0:
461,204,68072,1,0,1:1:0:0:
177,327,68230,1,8,3:2:0:0:
337,154,68388,6,0,P|354:234|374:318,1,139.230000849792,6|0,1:2|0:0,0:0:0:0:
362,363,68704,2,0,P|287:364|252:330,1,92.8200005665283,10|0,2:2|0:0,0:0:0:0:
61,251,69020,2,0,P|118:234|158:219,1,92.8200005665283,2|0,1:2|1:1,0:0:0:0:
289,50,69335,2,0,P|277:120|261:179,1,92.8200005665283,10|0,2:2|0:0,0:0:0:0:
388,290,69651,6,0,P|468:291|514:238,1,139.230000849792,2|0,1:2|0:0,0:0:0:0:
512,217,69967,1,10,2:2:0:0:
269,292,70125,1,2,0:0:0:0:
406,166,70283,1,0,1:0:0:0:
185,300,70441,1,0,1:1:0:0:
359,106,70599,2,0,P|372:177|389:258,1,139.230000849792,8|0,2:2|0:0,0:0:0:0:
326,186,70914,6,0,P|271:177|173:226,1,139.230000849792,2|0,1:2|0:0,0:0:0:0:
156,235,71230,2,0,P|145:181|123:114,1,92.8200005665283,10|0,2:2|0:0,0:0:0:0:
210,7,71546,1,2,1:2:0:0:
27,124,71704,1,0,1:1:0:0:
250,263,71862,1,10,2:2:0:0:
241,103,72020,1,2,2:2:0:0:
55,268,72178,5,0,1:2:0:0:
314,184,72335,1,0,1:1:0:0:
39,289,72493,2,0,P|45:218|48:174,1,92.8200005665283,8|0,2:2|1:0,0:0:0:0:
46,196,72730,1,0,1:0:0:0:
46,196,72809,1,0,1:1:0:0:
244,310,72967,1,0,1:1:0:0:
154,179,73125,2,0,P|150:225|146:271,1,92.8200005665283,8|8,2:2|3:2,0:0:0:0:
134,355,73362,1,8,3:2:0:0:
132,371,73441,1,8,3:2:0:0:
308,63,73756,6,0,B|383:7|470:57|470:57|490:118|426:177,1,278.460001699585,14|8,2:2|3:3,0:0:0:0:
333,236,74388,1,6,3:3:0:0:
295,167,74546,1,6,3:3:0:0:
315,373,74704,6,0,P|372:379|416:390,1,92.8200005665283,8|0,2:2|1:1,0:0:0:0:
307,62,75020,2,0,P|261:57|216:48,1,92.8200005665283,10|0,2:2|1:1,0:0:0:0:
115,19,75256,1,0,1:0:0:0:
115,19,75335,2,0,P|140:106|145:136,1,92.8200005665283,8|0,2:2|1:1,0:0:0:0:
409,119,75651,2,0,P|394:74|383:29,1,92.8200005665283,10|0,2:2|1:2,0:0:0:0:
260,241,75967,5,6,1:2:0:0:
81,172,76125,1,8,2:2:0:0:
435,254,76283,1,10,2:2:0:0:
260,142,76441,5,0,1:1:0:0:
262,151,76519,1,0,1:0:0:0:
265,160,76598,1,10,2:2:0:0:
205,17,76756,1,8,2:2:0:0:
307,316,76914,1,2,1:2:0:0:
400,93,77072,1,10,2:2:0:0:
115,253,77230,5,8,2:2:0:0:
307,316,77388,1,0,1:1:0:0:
133,91,77546,1,8,2:2:0:0:
8,301,77704,1,8,2:2:0:0:
300,168,77862,1,12,2:2:0:0:
64,24,78020,2,0,P|59:57|55:82,1,46.4100002832642,2|0,3:2|3:3,0:0:0:0:
32,186,78178,1,10,2:2:0:0:
256,27,78335,5,10,3:2:0:0:
260,49,78414,1,8,3:2:0:0:
265,72,78493,2,0,P|328:125|428:86,1,185.640001133057,6|10,1:2|2:2,0:0:0:0:
221,243,78967,1,0,1:0:0:0:
377,196,79125,1,2,2:2:0:0:
214,252,79283,1,0,1:1:0:0:
469,164,79441,2,0,P|459:209|454:256,1,92.8200005665283,10|0,2:2|0:0,0:0:0:0:
491,328,79678,1,8,0:0:0:0:
491,328,79756,6,0,P|426:342|367:359,1,92.8200005665283,2|0,1:2|1:1,0:0:0:0:
214,252,80072,2,0,P|137:239|55:322,1,185.640001133057,8|0,2:2|1:1,0:0:0:0:
180,372,80546,1,0,1:1:0:0:
304,202,80704,1,10,2:2:0:0:
146,116,80862,1,2,0:0:0:0:
287,305,81020,6,0,P|356:289|429:274,1,139.230000849792,2|0,1:2|0:0,0:0:0:0:
458,266,81335,1,10,2:2:0:0:
316,117,81493,2,0,P|328:173|340:232,1,92.8200005665283,2|0,1:2|0:0,0:0:0:0:
435,58,81809,1,2,1:2:0:0:
233,181,81967,1,8,2:2:0:0:
427,134,82125,5,10,2:2:0:0:
445,137,82203,1,8,0:0:0:0:
463,140,82282,1,0,1:2:0:0:
294,34,82441,1,0,1:1:0:0:
335,207,82599,2,0,P|352:290|365:350,1,139.230000849792,8|0,2:2|0:0,0:0:0:0:
356,371,82914,2,0,P|291:377|254:346,1,92.8200005665283,2|0,1:2|1:1,0:0:0:0:
266,67,83230,2,0,P|310:56|352:73,1,92.8200005665283,10|0,2:2|0:0,0:0:0:0:
137,326,83546,5,10,3:2:0:0:
368,180,83704,1,10,3:2:0:0:
162,27,83862,1,10,3:2:0:0:
102,220,84020,2,0,P|153:227|201:238,1,94.6399994223633,10|0,3:2|0:0,0:0:0:0:
412,51,84493,5,10,3:2:0:0:
177,143,84651,1,10,3:2:0:0:
376,336,84809,1,10,3:2:0:0:
449,132,84967,2,0,P|398:139|350:150,1,94.6399994223633,10|0,3:2|0:0,0:0:0:0:
191,38,85441,5,2,0:0:0:0:
213,159,85756,1,2,0:0:0:0:
241,297,86072,2,0,P|212:307|188:312,2,47.3199997111816,2|0|2,0:0|0:0|0:0,0:0:0:0:
77,235,86546,6,0,B|166:192|236:250|207:271|265:327|381:275,1,320.32,2|0,0:0|0:0,0:0:0:0:
