osu file format v14

[General]
AudioFilename: audio.mp3
AudioLeadIn: 0
PreviewTime: 58204
Countdown: 0
SampleSet: Soft
StackLeniency: 0.5
Mode: 0
LetterboxInBreaks: 0
WidescreenStoryboard: 1

[Editor]
DistanceSpacing: 1
BeatDivisor: 4
GridSize: 32
TimelineZoom: 1

[Metadata]
Title:Koko kara Saki wa Uta ni Naranai (TV Size)
TitleUnicode:ここから先は歌にならない (TV Size)
Artist:Poppin'Party
ArtistUnicode:Poppin'Party
Creator:Sotarks
Version:Akitoshi's Normal
Source:ぼくたちのリメイク
Tags:anime opening Bokutachi no Remake our Life! jpop rock japanese バンドリ!Bandori! BanG Dream! Toyama Kasumi Hanazono Tae Ushigome Rimi Yamabuki Saaya Ichigaya Arisa Aimi Otsuka Sae Nishimoto Ohashi Ayaka Itou Ayasa 愛美 大塚紗英 牛込 りみ 山吹 沙綾 市ヶ谷 有咲 Bokurema akitoshi corinn -laura- toybot elinor [_eli_] schoolboy komore kawaiwkyik rizia eli vikala
BeatmapID:3153133
BeatmapSetID:1542576

[Difficulty]
HPDrainRate:3.5
CircleSize:3.2
OverallDifficulty:4
ApproachRate:5.5
SliderMultiplier:0.999999999999999
SliderTickRate:1

[Events]
//Background and Video events
0,0,"bg.jpg",0,0
Video,0,"video.mp4"
//Break Periods
//Storyboard Layer 0 (Background)
//Storyboard Layer 1 (Fail)
//Storyboard Layer 2 (Pass)
//Storyboard Layer 3 (Foreground)
//Storyboard Layer 4 (Overlay)
//Storyboard Sound Samples

[TimingPoints]
178,315.789473684211,4,2,22,62,1,0
178,-100,4,2,22,62,0,0
5230,-100,4,2,22,72,0,0
14388,-100,4,2,22,72,0,0
15335,-111.111111111111,4,2,22,52,0,0
25443,-111.111111111111,4,2,22,62,0,0
30493,-100,4,2,22,72,0,0
33022,-100,4,2,22,82,0,0
35548,-100,4,2,22,72,0,0
50706,-100,4,2,22,62,0,0
55758,-100,4,2,22,72,0,0
57811,-100,4,2,22,62,0,0
57890,-100,4,2,22,5,0,0
57966,-100,4,2,22,82,0,0
57969,-100,4,2,22,82,0,0
58206,-100,4,2,22,5,0,0
58283,-95.2380952380952,4,2,22,72,0,0
59548,-95.2380952380952,4,2,22,82,0,0
85441,-100,4,2,22,52,0,0
86390,-100,4,2,22,42,0,0
86548,-100,4,2,22,32,0,0

[Colours]
Combo1 : 228,97,97
Combo2 : 80,61,188
Combo3 : 185,198,255

[HitObjects]
74,157,178,6,0,P|102:152|132:148,1,50,0|0,1:1|1:1,0:0:0:0:
172,142,493,2,0,P|224:169|282:158,1,99.9999999999999,0|0,1:1|1:1,0:0:0:0:
352,119,1125,2,0,L|340:61,2,50,0|0|0,1:1|1:1|1:1,0:0:0:0:
395,144,1599,2,0,P|384:203|378:249,1,99.9999999999999
371,292,2072,1,0,1:2:0:0:
278,330,2388,1,0,1:2:0:0:
196,271,2704,6,0,P|126:287|89:271,2,99.9999999999999,0|0|0,1:1|1:1|1:1,0:0:0:0:
275,210,3651,1,0,1:1:0:0:
257,111,3967,2,0,P|202:103|140:97,1,99.9999999999999,0|0,1:1|1:1,0:0:0:0:
58,86,4599,1,2,1:2:0:0:
4,170,4914,1,10,2:2:0:0:
60,252,5230,6,0,B|42:292|42:292|63:352,1,99.9999999999999,6|10,1:2|2:2,0:0:0:0:
161,374,5862,1,2,1:2:0:0:
161,374,6020,2,0,P|199:366|230:362,1,50,2|8,1:2|0:0,0:0:0:0:
258,354,6335,2,0,P|307:369|368:355,1,99.9999999999999,2|2,0:0|1:2,0:0:0:0:
399,338,6809,2,0,P|408:276|414:227,1,99.9999999999999,10|0,2:2|1:1,0:0:0:0:
433,140,7441,1,8,2:2:0:0:
360,71,7756,6,0,B|325:87|325:87|248:71,1,99.9999999999999,2|8,1:2|2:2,0:0:0:0:
212,159,8388,2,0,P|232:209|224:256,1,99.9999999999999,2|8,1:2|2:2,0:0:0:0:
166,334,9020,2,0,P|116:354|69:346,1,99.9999999999999,2|8,1:2|2:2,0:0:0:0:
5,271,9651,2,0,P|12:229|14:216,1,50,2|0,1:2|1:1,0:0:0:0:
23,172,9967,1,10,2:2:0:0:
72,85,10283,6,0,B|99:93|115:100|115:100|141:87|181:84,1,99.9999999999999,6|10,1:2|2:2,0:0:0:0:
265,123,10914,1,2,1:2:0:0:
265,123,11072,2,0,P|269:151|275:188,1,50,2|8,1:2|0:0,0:0:0:0:
278,222,11388,2,0,P|325:204|389:224,1,99.9999999999999,2|2,0:0|1:2,0:0:0:0:
414,241,11862,2,0,P|399:295|389:339,1,99.9999999999999,10|0,2:2|1:1,0:0:0:0:
295,373,12493,1,8,2:2:0:0:
206,325,12809,6,0,B|171:345|171:345|97:337,1,99.9999999999999,2|8,1:2|2:2,0:0:0:0:
27,284,13441,2,0,P|14:231|30:186,1,99.9999999999999,0|8,1:0|3:2,0:0:0:0:
98,118,14072,2,0,P|126:122|156:128,1,50,10|0,1:2|1:0,0:0:0:0:
197,131,14388,2,0,B|225:128|252:109|252:109|206:186|257:257,1,200,12|0,2:2|0:0,0:0:0:0:
296,316,15335,6,0,B|336:304|381:290|381:290|432:315,2,134.999995880127,6|0|8,1:2|1:1|2:2,0:0:0:0:
207,332,16599,1,0,1:1:0:0:
134,279,16914,2,0,P|113:228|125:180,1,89.999997253418,8|0,2:2|0:0,0:0:0:0:
150,110,17546,1,8,2:2:0:0:
211,43,17862,6,0,B|266:58|266:58|278:77|278:77|342:95,2,134.999995880127,2|0|8,1:2|1:2|2:2,0:0:0:0:
124,19,19125,1,0,1:1:0:0:
44,60,19441,2,0,P|25:100|37:158,1,89.999997253418,8|0,2:2|0:0,0:0:0:0:
56,230,20072,1,8,2:2:0:0:
144,245,20388,6,0,B|226:217|226:217|248:238|287:240,2,134.999995880127,2|0|8,1:2|1:1|2:2,0:0:0:0:
86,314,21651,2,0,P|125:347|168:353,1,89.999997253418,0|8,1:2|2:2,2:2:0:0:
252,354,22283,2,0,P|300:336|326:302,1,89.999997253418,2|8,0:2|2:2,2:2:0:0:
268,237,22914,6,0,B|241:192|241:192|266:103,2,134.999995880127,2|0|8,1:2|1:1|2:2,0:0:0:0:
324,308,24178,1,0,0:0:0:0:
406,272,24493,2,0,P|417:221|402:174,1,89.999997253418,8|0,2:2|0:0,0:0:0:0:
351,114,25125,1,8,2:2:0:0:
263,112,25441,5,6,1:2:0:0:
263,112,25599,2,0,P|193:128|162:135,1,89.999997253418,0|0,1:1|1:0,0:0:0:0:
131,143,26072,2,0,P|112:186|122:235,1,89.999997253418,2|8,0:0|0:0,0:0:0:0:
99,317,26704,2,0,L|36:308,2,44.999998626709,0|0|8,1:0|1:0|0:0,0:0:0:0:
183,348,27335,2,0,P|230:341|278:334,1,89.999997253418,2|8,2:2|2:2,0:0:0:0:
355,291,27967,5,2,1:2:0:0:
355,291,28125,2,0,P|424:302|457:308,2,89.999997253418,0|0|0,1:1|1:1|1:1,0:0:0:0:
318,264,28914,1,8,2:2:0:0:
356,182,29230,2,0,P|402:190|459:168,1,89.999997253418,2|8,1:2|2:2,0:0:0:0:
477,97,29862,1,0,1:2:0:0:
477,97,30020,2,0,L|423:88,1,44.999998626709,8|8,2:2|3:3,0:0:0:0:
344,42,30493,6,0,B|288:63|288:63|243:51,1,99.9999999999999,14|0,2:2|1:2,0:0:0:0:
200,40,30967,2,0,P|214:87|216:149,1,99.9999999999999,10|0,2:2|1:2,0:0:0:0:
206,186,31441,1,10,2:2:0:0:
304,221,31756,1,2,2:2:0:0:
304,221,31914,2,0,P|289:268|287:318,1,99.9999999999999,8|0,2:2|1:1,0:0:0:0:
294,368,32388,1,8,2:2:0:0:
393,378,32704,2,0,P|438:370|454:367,1,50,2|0,1:2|1:1,0:0:0:0:
489,353,33020,6,0,P|474:305|472:255,1,99.9999999999999,10|10,2:2|2:2,0:0:0:0:
494,157,33651,1,8,2:2:0:0:
412,99,33967,1,8,2:2:0:0:
336,164,34283,2,0,P|294:158|276:155,1,50,8|0,2:2|1:1,0:0:0:0:
244,128,34599,2,0,P|175:140|136:149,1,99.9999999999999,8|0,2:2|1:1,0:0:0:0:
47,165,35230,2,0,P|37:210|37:223,1,50,8|8,2:2|2:2,0:0:0:0:
32,263,35546,6,0,P|75:257|133:290,1,99.9999999999999,4|8,1:2|2:2,0:0:0:0:
195,351,36178,1,2,1:2:0:0:
294,351,36493,1,10,2:2:0:0:
364,280,36809,2,0,P|355:217|348:160,1,99.9999999999999,2|10,1:2|2:2,0:0:0:0:
339,81,37441,1,2,1:2:0:0:
249,37,37756,1,10,2:2:0:0:
168,96,38072,6,0,P|150:146|158:200,1,99.9999999999999,2|8,1:2|2:2,0:0:0:0:
170,239,38546,2,0,P|220:221|274:229,1,99.9999999999999,2|0,0:0|1:1,0:0:0:0:
308,252,39020,1,10,2:2:0:0:
284,348,39335,2,0,P|231:341|171:335,1,99.9999999999999,2|8,1:2|2:2,0:0:0:0:
85,322,39967,1,0,1:1:0:0:
32,237,40283,2,0,P|19:191|36:131,1,99.9999999999999,8|0,2:2|1:1,0:0:0:0:
99,68,40914,5,10,2:2:0:0:
188,112,41230,2,0,P|240:101|297:90,1,99.9999999999999,2|10,1:2|2:2,0:0:0:0:
384,71,41862,1,2,1:2:0:0:
465,129,42178,1,10,2:2:0:0:
436,224,42493,2,0,P|390:247|325:238,1,99.9999999999999,2|10,1:2|2:2,0:0:0:0:
250,205,43125,6,0,P|230:272|224:315,1,99.9999999999999,2|8,1:2|2:2,0:0:0:0:
220,355,43599,1,2,0:0:0:0:
220,355,43756,2,0,P|170:363|117:344,1,99.9999999999999,2|8,1:2|2:2,0:0:0:0:
42,289,44388,2,0,P|37:242|26:177,1,99.9999999999999,2|8,1:2|2:2,0:0:0:0:
16,140,44862,2,0,P|65:145|116:121,1,99.9999999999999,2|0,0:2|1:2,2:2:0:0:
147,91,45335,1,10,0:0:0:0:
246,82,45651,2,0,L|257:141,1,50,8|0,0:0|1:0,0:0:0:0:
263,180,45967,6,0,B|322:187|322:187|372:158,1,99.9999999999999,14|2,2:2|0:0,0:0:0:0:
436,104,46599,1,2,0:0:0:0:
505,172,46914,2,0,P|481:221|487:274,1,99.9999999999999,10|0,2:2|1:1,0:0:0:0:
486,315,47388,2,0,P|436:313|392:336,1,99.9999999999999,10|0,3:3|3:3,0:0:0:0:
349,362,47862,1,6,3:3:0:0:
251,337,48178,6,0,B|229:300|229:300|244:224,1,99.9999999999999,6|8,1:2|2:2,0:0:0:0:
281,215,48651,1,2,0:0:0:0:
281,215,48809,2,0,P|273:167|263:101,1,99.9999999999999,0|8,1:2|0:2,0:0:0:0:
185,54,49441,2,0,P|150:73|83:73,1,99.9999999999999,2|8,1:2|2:2,0:0:0:0:
46,65,49914,1,8,2:2:0:0:
46,65,50072,2,0,P|51:39|56:12,2,50,8|8|4,2:2|0:3|0:3,0:0:0:0:
4,156,50704,6,0,B|22:190|22:190|34:254,1,99.9999999999999,4|0,1:2|1:1,0:0:0:0:
43,350,51335,1,0,1:2:0:0:
141,369,51651,1,2,1:2:0:0:
203,290,51967,2,0,P|245:270|300:280,1,99.9999999999999,2|2,1:2|1:2,0:0:0:0:
377,337,52599,1,2,1:2:0:0:
457,276,52914,2,0,P|462:244|467:210,1,50,2|2,1:2|2:2,0:0:0:0:
494,186,53230,6,0,P|483:133|472:86,1,99.9999999999999,4|0,1:2|1:1,0:0:0:0:
396,22,53862,1,0,1:1:0:0:
316,82,54178,2,0,P|280:80|256:73,1,50,2|2,1:2|2:2,0:0:0:0:
217,67,54493,2,0,P|234:118|236:173,1,99.9999999999999,2|2,1:2|1:2,0:0:0:0:
221,263,55125,1,2,1:2:0:0:
126,296,55441,2,0,P|93:288|59:284,1,50,10|0,3:2|3:3,0:0:0:0:
27,289,55756,6,0,P|11:240|28:184,1,99.9999999999999,10|0,2:2|1:1,0:0:0:0:
49,152,56230,1,2,1:2:0:0:
147,168,56546,1,2,1:2:0:0:
234,119,56862,1,10,2:2:0:0:
234,119,57809,6,0,P|226:156|221:174,1,50,0|12,1:0|2:2,0:0:0:0:
217,272,58283,6,0,B|283:256|283:256|335:277,1,104.999996795654,14|2,2:2|1:2,0:0:0:0:
369,294,58756,1,8,2:2:0:0:
369,294,58914,2,0,P|413:310|477:291,1,104.999996795654,2|10,1:2|0:3,0:0:0:0:
506,198,59546,2,0,P|488:136|481:95,1,104.999996795654,14|0,2:2|1:1,0:0:0:0:
472,44,60020,2,0,P|428:60|364:41,1,104.999996795654,8|0,2:2|1:1,0:0:0:0:
326,21,60493,2,0,L|269:34,1,52.4999983978271,8|8,0:0|0:0,0:0:0:0:
223,45,60809,5,6,1:2:0:0:
191,147,61125,1,10,0:0:0:0:
191,147,61283,2,0,P|177:201|199:257,1,104.999996795654,2|2,0:0|1:2,0:0:0:0:
216,298,61756,1,8,2:2:0:0:
216,298,61914,2,0,P|166:321|110:315,1,104.999996795654,2|0,0:0|1:0,0:0:0:0:
67,301,62388,1,10,0:0:0:0:
44,198,62704,1,0,1:1:0:0:
139,155,63020,2,0,P|166:150|199:146,1,52.4999983978271,10|10,2:2|0:0,0:0:0:0:
243,140,63335,6,0,P|287:156|352:144,1,104.999996795654,0|10,1:2|2:2,0:0:0:0:
395,135,63809,2,0,P|379:179|391:244,1,104.999996795654,2|2,0:0|1:2,0:0:0:0:
402,291,64283,1,10,2:2:0:0:
402,291,64441,2,0,P|347:302|286:315,1,104.999996795654,2|0,0:2|1:2,0:0:0:0:
246,318,64914,1,10,0:0:0:0:
169,246,65230,1,2,1:2:0:0:
238,167,65546,2,0,P|231:122|229:110,1,52.4999983978271,10|10,2:2|0:0,0:0:0:0:
219,63,65862,6,0,P|266:63|326:30,2,104.999996795654,0|8|0,1:2|2:2|1:1,0:0:0:0:
116,38,66809,1,8,2:2:0:0:
58,125,67125,2,0,P|71:183|83:235,1,104.999996795654,0|8,1:1|2:2,0:0:0:0:
121,269,67599,1,2,0:3:0:0:
121,269,67756,2,0,P|115:298|111:322,2,52.4999983978271,0|8|0,3:3|3:2|1:1,0:0:0:0:
198,197,68388,6,0,P|257:189|316:215,1,104.999996795654,6|10,1:2|2:2,0:0:0:0:
386,262,69020,1,2,1:2:0:0:
476,208,69335,1,10,2:2:0:0:
456,104,69651,2,0,P|369:90|347:87,1,104.999996795654,2|10,1:2|2:2,0:0:0:0:
312,52,70125,2,0,P|225:66|203:69,1,104.999996795654,2|0,0:0|1:1,0:0:0:0:
156,76,70599,1,8,2:2:0:0:
74,141,70914,6,0,P|94:197|90:242,1,104.999996795654,2|10,1:2|2:2,0:0:0:0:
52,340,71546,1,2,1:2:0:0:
150,376,71862,2,0,P|181:370|209:364,1,52.4999983978271,10|2,2:2|2:2,0:0:0:0:
247,338,72178,2,0,P|312:346|361:351,2,104.999996795654,0|8|0,1:2|2:2|1:1,0:0:0:0:
180,256,73125,2,0,B|190:224|203:209|203:209|189:189|184:154,1,104.999996795654,8|8,2:2|3:2,0:0:0:0:
193,55,73756,6,0,B|228:75|228:75|303:56,1,104.999996795654,14|0,2:2|0:0,0:0:0:0:
386,14,74388,2,0,P|417:19|449:24,1,52.4999983978271,6|6,3:3|3:3,0:0:0:0:
489,34,74704,1,8,2:2:0:0:
497,138,75020,2,0,B|482:167|479:195|479:195|489:212|497:238,1,104.999996795654,10|8,2:2|2:2,0:0:0:0:
440,325,75651,1,10,2:2:0:0:
343,283,75967,6,0,P|258:282|233:303,1,104.999996795654,6|10,1:2|2:2,0:0:0:0:
209,330,76441,1,0,1:1:0:0:
209,330,76599,2,0,P|161:321|99:310,1,104.999996795654,10|2,2:2|1:2,0:0:0:0:
33,234,77230,2,0,P|29:201|25:172,1,52.4999983978271,8|0,2:2|1:1,0:0:0:0:
16,129,77546,2,0,P|59:136|119:108,1,104.999996795654,8|12,2:2|2:2,0:0:0:0:
180,30,78178,2,0,P|219:34|242:37,1,52.4999983978271,10|10,2:2|3:2,0:0:0:0:
283,45,78493,6,0,B|258:83|258:83|280:150,1,104.999996795654,6|10,1:2|2:2,0:0:0:0:
295,194,78967,1,0,1:0:0:0:
295,194,79125,2,0,P|332:189|403:220,1,104.999996795654,2|10,2:2|2:2,2:2:0:0:
490,254,79756,2,0,P|505:205|491:153,2,104.999996795654,2|8|0,1:2|2:2|1:1,0:0:0:0:
406,318,80704,1,10,2:2:0:0:
310,274,81020,6,0,P|226:288|182:295,1,104.999996795654,2|10,1:2|2:2,0:0:0:0:
168,327,81493,2,0,P|84:313|40:306,1,104.999996795654,2|2,1:2|1:2,0:0:0:0:
17,298,81967,1,8,2:2:0:0:
17,298,82125,2,0,P|7:248|30:193,1,104.999996795654,2|0,0:0|1:0,0:0:0:0:
62,161,82599,1,10,0:0:0:0:
158,201,82914,1,2,1:2:0:0:
251,154,83230,1,10,2:2:0:0:
217,54,83546,6,0,L|155:65,1,52.4999983978271,10|10,3:2|3:2,0:0:0:0:
115,81,83862,2,0,L|53:70,1,52.4999983978271,10|10,3:2|3:2,0:0:0:0:
13,221,84493,6,0,L|24:283,1,52.4999983978271,10|10,3:2|3:2,0:0:0:0:
40,323,84809,2,0,L|29:385,1,52.4999983978271,10|10,3:2|3:2,0:0:0:0:
256,192,85441,12,0,88283,0:0:0:0:
