osu file format v14

[General]
AudioFilename: audio.mp3
AudioLeadIn: 0
PreviewTime: 57658
Countdown: 0
SampleSet: Normal
StackLeniency: 0.7
Mode: 1
LetterboxInBreaks: 0
WidescreenStoryboard: 0

[Editor]
DistanceSpacing: 0.5
BeatDivisor: 4
GridSize: 4
TimelineZoom: 4.699996

[Metadata]
Title:Koko kara Saki wa Uta ni Naranai (TV Size)
TitleUnicode:ここから先は歌にならない (TV Size)
Artist:Poppin'Party
ArtistUnicode:Poppin'Party
Creator:MyAngelMira
Version:Oni
Source:ぼくたちのリメイク
Tags:anime opening op Bokurema Bokutachi no Rimeiku Remake our Life! jpop j-pop pop jrock j-rock rock japanese バンドリ!Bandori! BanG Dream! ポピパ popipa 戸山香澄 Toyama Kasumi 寺川愛美 Terakawa Aimi 花園たえ Hanazono Tae 大塚紗英 Ōtsuka Sae Ootsuka Otsuka 牛込りみ Ushigome Rimi 西本りみ Nishimoto Rimi 山吹沙綾 Yamabuki Saaya 大橋彩香 Ohashi Ayaka 市ヶ谷有咲 Ichigaya Arisa 伊藤彩沙 Ito Ayasa south korea chitanda eru
BeatmapID:3151346
BeatmapSetID:1541648

[Difficulty]
HPDrainRate:5.5
CircleSize:2
OverallDifficulty:6
ApproachRate:10
SliderMultiplier:1.4
SliderTickRate:1

[Events]
//Background and Video events
0,0,"bg.jpg",0,100
//Break Periods
//Storyboard Layer 0 (Background)
//Storyboard Layer 1 (Fail)
//Storyboard Layer 2 (Pass)
//Storyboard Layer 3 (Foreground)
//Storyboard Layer 4 (Overlay)
//Storyboard Sound Samples

[TimingPoints]
200,315.789473684211,4,1,0,70,1,0
200,-111.111111111111,4,1,0,70,0,0
4621,-111.111111111111,4,1,0,70,0,0
4936,-105.28069298684,4,1,0,70,0,0
5094,-102.580749878267,4,1,0,70,0,0
5252,-100.015825288811,4,1,0,80,0,0
15357,-125,4,1,0,80,0,0
24200,-125,4,1,0,65,0,0
24356,-123.087418380275,4,1,0,65,0,0
24515,-121.220846530377,4,1,0,70,0,0
24673,-119.41004065425,4,1,0,70,0,0
24831,-117.65253842571,4,1,0,70,0,0
24989,-115.946020380061,4,1,0,70,0,0
25067,-115.11119212541,4,1,0,70,0,0
25146,-114.288299701385,4,1,0,70,0,0
25463,-111.111111111111,4,1,0,70,0,0
29883,-111.111111111111,4,1,0,70,0,0
30042,-108.108108108108,4,1,0,75,0,0
30121,-106.666666666667,4,1,0,75,0,0
30200,-105.263157894737,4,1,0,75,0,0
30357,-102.580749878267,4,1,0,75,0,0
30515,-100,4,1,0,80,0,0
49778,-99.9894414528561,4,1,0,80,0,0
49936,-101.685815526683,4,1,0,80,0,0
50014,-102.555772146415,4,1,0,80,0,0
50094,-103.440742763517,4,1,0,80,0,0
50252,-105.257307991553,4,1,0,80,0,0
50409,-107.138816608214,4,1,0,80,0,0
50726,-111.111111111111,4,1,0,70,0,0
55147,-108.695652173913,4,1,0,75,0,0
55463,-104.166666666667,4,1,0,75,0,0
55621,-102.040816326531,4,1,0,75,0,0
55700,-101.010101010101,4,1,0,75,0,0
55778,-100.012659830358,4,1,0,70,0,0
58305,-95.2380952380952,4,1,0,85,0,1
83568,-90.9090909090909,4,1,0,85,0,1
85463,-100,4,1,0,70,0,0

[HitObjects]
251,190,200,5,0,0:0:0:0:
251,190,357,1,0,0:0:0:0:
251,190,515,1,8,0:0:0:0:
251,190,673,1,8,0:0:0:0:
251,190,989,1,0,0:0:0:0:
242,187,1147,1,8,0:0:0:0:
251,190,1305,1,8,0:0:0:0:
251,190,1463,1,0,0:0:0:0:
246,184,1621,1,0,0:0:0:0:
246,184,1936,1,8,0:0:0:0:
242,186,2252,1,0,0:0:0:0:
236,187,2410,1,8,0:0:0:0:
236,187,2568,1,8,0:0:0:0:
236,187,2726,1,0,0:0:0:0:
236,185,3042,1,8,0:0:0:0:
242,186,3200,1,0,0:0:0:0:
236,187,3515,1,8,0:0:0:0:
236,187,3673,1,0,0:0:0:0:
236,185,3989,1,8,0:0:0:0:
242,186,4147,1,0,0:0:0:0:
236,187,4305,1,0,0:0:0:0:
236,187,4463,1,8,0:0:0:0:
236,187,4621,1,0,0:0:0:0:
227,178,4936,1,8,0:0:0:0:
236,187,5094,1,8,0:0:0:0:
233,300,5252,1,4,0:0:0:0:
233,180,5568,1,8,0:0:0:0:
233,180,5884,1,8,0:0:0:0:
233,180,6042,1,0,0:0:0:0:
233,180,6200,1,8,0:0:0:0:
233,180,6357,1,8,0:0:0:0:
233,180,6515,1,0,0:0:0:0:
233,180,6673,1,8,0:0:0:0:
233,180,6831,1,0,0:0:0:0:
233,180,7147,1,0,0:0:0:0:
233,180,7305,1,0,0:0:0:0:
233,180,7384,1,0,0:0:0:0:
233,180,7463,1,8,0:0:0:0:
233,180,7621,1,8,0:0:0:0:
231,309,7778,1,4,0:0:0:0:
233,180,8094,1,8,0:0:0:0:
233,180,8252,1,0,0:0:0:0:
221,179,8410,1,8,0:0:0:0:
233,180,8489,1,8,0:0:0:0:
233,180,8568,1,0,0:0:0:0:
224,179,8726,1,8,0:0:0:0:
225,183,8884,1,0,0:0:0:0:
225,182,9042,1,8,0:0:0:0:
221,179,9357,1,8,0:0:0:0:
224,179,9515,1,8,0:0:0:0:
224,180,9673,1,0,0:0:0:0:
216,180,9752,1,0,0:0:0:0:
218,180,9831,1,0,0:0:0:0:
221,174,9989,1,8,0:0:0:0:
221,179,10147,1,0,0:0:0:0:
221,179,10305,1,12,0:0:0:0:
224,180,10621,1,8,0:0:0:0:
216,180,10778,1,0,0:0:0:0:
221,174,10936,1,0,0:0:0:0:
222,179,11094,1,0,0:0:0:0:
221,179,11173,1,0,0:0:0:0:
221,179,11252,1,8,0:0:0:0:
224,180,11410,1,8,0:0:0:0:
224,180,11568,1,0,0:0:0:0:
222,179,11726,1,8,0:0:0:0:
222,179,11884,1,0,0:0:0:0:
221,179,12200,1,0,0:0:0:0:
221,179,12278,1,0,0:0:0:0:
224,180,12357,1,0,0:0:0:0:
224,180,12515,1,8,0:0:0:0:
222,179,12673,1,8,0:0:0:0:
221,310,12831,1,4,0:0:0:0:
222,179,13147,1,8,0:0:0:0:
224,180,13305,1,0,0:0:0:0:
224,180,13463,1,8,0:0:0:0:
222,179,13621,1,0,0:0:0:0:
222,179,13778,1,8,0:0:0:0:
222,179,13857,1,8,0:0:0:0:
222,179,13936,1,0,0:0:0:0:
222,179,14015,1,0,0:0:0:0:
222,179,14094,1,8,0:0:0:0:
219,296,14410,1,12,0:0:0:0:
253,194,15357,1,0,0:0:0:0:
245,190,15515,1,0,0:0:0:0:
253,194,15831,1,0,0:0:0:0:
253,194,16147,1,0,0:0:0:0:
253,185,16305,1,8,0:0:0:0:
247,179,16621,1,0,0:0:0:0:
242,174,16778,1,0,0:0:0:0:
244,171,16936,1,8,0:0:0:0:
239,174,17410,1,0,0:0:0:0:
242,174,17568,1,8,0:0:0:0:
244,171,17884,1,0,0:0:0:0:
246,175,18042,1,0,0:0:0:0:
239,174,18357,1,0,0:0:0:0:
234,170,18673,1,0,0:0:0:0:
232,172,18831,1,8,0:0:0:0:
226,169,18989,1,0,0:0:0:0:
227,169,19068,1,0,0:0:0:0:
239,174,19147,1,8,0:0:0:0:
231,175,19305,1,0,0:0:0:0:
233,172,19463,1,8,0:0:0:0:
234,170,19621,1,8,0:0:0:0:
232,172,19778,1,0,0:0:0:0:
231,174,20094,1,8,0:0:0:0:
233,172,20410,1,0,0:0:0:0:
232,172,20568,1,0,0:0:0:0:
231,175,20884,1,0,0:0:0:0:
233,172,21200,1,0,0:0:0:0:
233,172,21357,1,8,0:0:0:0:
231,175,21673,1,0,0:0:0:0:
221,168,21831,1,0,0:0:0:0:
231,174,21989,1,8,0:0:0:0:
224,176,22305,1,0,0:0:0:0:
231,175,22621,1,8,0:0:0:0:
231,174,22936,1,0,0:0:0:0:
233,172,23094,1,0,0:0:0:0:
232,168,23410,1,0,0:0:0:0:
231,174,23726,1,0,0:0:0:0:
231,174,23884,1,8,0:0:0:0:
231,175,24200,1,8,0:0:0:0:
231,175,24357,1,0,0:0:0:0:
231,175,24515,1,8,0:0:0:0:
231,174,24673,1,8,0:0:0:0:
231,174,24831,1,0,0:0:0:0:
231,175,24989,1,8,0:0:0:0:
231,174,25068,1,0,0:0:0:0:
231,175,25147,1,8,0:0:0:0:
236,297,25463,1,4,0:0:0:0:
231,174,25621,1,8,0:0:0:0:
231,174,25778,1,0,0:0:0:0:
227,181,26094,1,0,0:0:0:0:
224,176,26252,1,0,0:0:0:0:
225,178,26410,1,8,0:0:0:0:
226,181,26568,1,0,0:0:0:0:
226,181,26884,1,0,0:0:0:0:
223,174,27042,1,8,0:0:0:0:
222,174,27357,1,0,0:0:0:0:
221,173,27515,1,0,0:0:0:0:
223,173,27673,1,8,0:0:0:0:
223,173,27989,1,0,0:0:0:0:
222,174,28147,1,0,0:0:0:0:
222,174,28305,1,8,0:0:0:0:
221,173,28463,1,0,0:0:0:0:
230,161,28621,1,8,0:0:0:0:
230,161,28936,1,8,0:0:0:0:
231,162,29094,1,8,0:0:0:0:
233,164,29252,1,0,0:0:0:0:
233,165,29410,1,0,0:0:0:0:
235,301,29568,1,8,0:0:0:0:
237,168,29884,1,8,0:0:0:0:
237,168,30042,1,0,0:0:0:0:
235,168,30121,1,0,0:0:0:0:
237,168,30200,1,8,0:0:0:0:
233,165,30357,1,8,0:0:0:0:
240,299,30515,1,12,0:0:0:0:
237,168,30831,1,8,0:0:0:0:
240,299,30989,1,4,0:0:0:0:
239,167,31305,1,8,0:0:0:0:
240,299,31463,1,4,0:0:0:0:
237,168,31778,1,0,0:0:0:0:
237,168,31936,1,0,0:0:0:0:
237,168,32015,1,0,0:0:0:0:
242,165,32094,1,8,0:0:0:0:
237,168,32252,1,0,0:0:0:0:
236,299,32410,1,8,0:0:0:0:
237,168,32568,1,8,0:0:0:0:
237,168,32726,1,0,0:0:0:0:
237,168,32884,1,0,0:0:0:0:
236,299,33042,1,12,0:0:0:0:
239,167,33357,1,8,0:0:0:0:
237,168,33515,1,0,0:0:0:0:
237,168,33594,1,0,0:0:0:0:
237,168,33673,1,8,0:0:0:0:
237,168,33831,1,8,0:0:0:0:
237,168,33989,1,8,0:0:0:0:
237,168,34068,1,8,0:0:0:0:
239,167,34147,1,0,0:0:0:0:
239,167,34305,1,8,0:0:0:0:
237,168,34463,1,8,0:0:0:0:
244,166,34621,1,0,0:0:0:0:
247,164,34778,1,0,0:0:0:0:
247,164,34936,1,8,0:0:0:0:
245,164,35015,1,8,0:0:0:0:
239,167,35094,1,0,0:0:0:0:
251,164,35173,1,0,0:0:0:0:
239,167,35252,1,8,0:0:0:0:
244,166,35410,1,8,0:0:0:0:
241,172,35489,1,8,0:0:0:0:
244,166,35568,1,0,0:0:0:0:
237,168,35726,1,0,0:0:0:0:
244,166,35884,1,8,0:0:0:0:
244,166,36200,1,8,0:0:0:0:
239,167,36357,1,0,0:0:0:0:
238,161,36436,1,0,0:0:0:0:
244,166,36515,1,8,0:0:0:0:
240,165,36673,1,8,0:0:0:0:
236,171,36831,1,0,0:0:0:0:
237,170,36910,1,0,0:0:0:0:
244,166,36989,1,0,0:0:0:0:
235,170,37147,1,8,0:0:0:0:
233,170,37305,1,0,0:0:0:0:
233,172,37463,1,8,0:0:0:0:
236,171,37778,1,0,0:0:0:0:
236,170,37936,1,0,0:0:0:0:
235,170,38094,1,8,0:0:0:0:
233,170,38252,1,8,0:0:0:0:
233,170,38331,1,8,0:0:0:0:
233,172,38410,1,0,0:0:0:0:
236,171,38568,1,8,0:0:0:0:
236,171,38726,1,0,0:0:0:0:
236,171,38805,1,0,0:0:0:0:
229,173,38884,1,0,0:0:0:0:
235,170,39042,1,8,0:0:0:0:
233,170,39200,1,8,0:0:0:0:
233,172,39357,1,0,0:0:0:0:
229,170,39673,1,8,0:0:0:0:
229,176,39989,1,0,0:0:0:0:
233,170,40147,1,0,0:0:0:0:
233,170,40226,1,0,0:0:0:0:
233,170,40305,1,8,0:0:0:0:
229,174,40463,1,8,0:0:0:0:
229,174,40621,1,0,0:0:0:0:
229,176,40936,1,8,0:0:0:0:
231,176,41252,1,0,0:0:0:0:
229,174,41410,1,8,0:0:0:0:
229,174,41568,1,0,0:0:0:0:
229,176,41726,1,0,0:0:0:0:
229,176,41884,1,8,0:0:0:0:
231,176,42042,1,0,0:0:0:0:
231,176,42121,1,0,0:0:0:0:
231,176,42200,1,8,0:0:0:0:
237,178,42357,1,0,0:0:0:0:
237,178,42515,1,8,0:0:0:0:
237,178,42831,1,8,0:0:0:0:
231,176,43147,1,8,0:0:0:0:
237,178,43305,1,0,0:0:0:0:
237,178,43463,1,8,0:0:0:0:
237,178,43542,1,8,0:0:0:0:
237,178,43621,1,8,0:0:0:0:
237,178,43778,1,0,0:0:0:0:
231,176,44094,1,0,0:0:0:0:
227,174,44410,1,8,0:0:0:0:
227,174,44568,1,0,0:0:0:0:
227,174,44647,1,0,0:0:0:0:
228,174,44726,1,8,0:0:0:0:
231,176,44884,1,0,0:0:0:0:
231,176,45042,1,8,0:0:0:0:
237,178,45200,1,8,0:0:0:0:
237,178,45278,1,8,0:0:0:0:
227,174,45357,1,0,0:0:0:0:
238,176,45515,1,0,0:0:0:0:
238,176,45673,1,8,0:0:0:0:
236,311,45989,1,4,0:0:0:0:
227,174,46463,1,0,0:0:0:0:
229,178,46621,1,8,0:0:0:0:
231,176,46936,1,8,0:0:0:0:
229,178,47094,1,0,0:0:0:0:
227,174,47410,1,0,0:0:0:0:
231,176,47726,1,0,0:0:0:0:
231,176,47884,1,8,0:0:0:0:
227,174,48200,1,4,0:0:0:0:
227,174,48357,1,0,0:0:0:0:
231,176,48515,1,8,0:0:0:0:
231,176,48673,1,0,0:0:0:0:
231,176,48831,1,8,0:0:0:0:
241,176,48910,1,8,0:0:0:0:
241,176,48989,1,0,0:0:0:0:
241,176,49147,1,8,0:0:0:0:
241,176,49305,1,0,0:0:0:0:
241,176,49384,1,8,0:0:0:0:
241,176,49463,1,0,0:0:0:0:
241,174,49621,1,0,0:0:0:0:
241,174,49778,1,8,0:0:0:0:
241,176,49936,1,8,0:0:0:0:
241,176,50015,1,8,0:0:0:0:
241,176,50094,1,8,0:0:0:0:
241,176,50252,1,0,0:0:0:0:
241,176,50410,1,8,0:0:0:0:
241,174,50726,1,12,0:0:0:0:
249,175,51042,1,0,0:0:0:0:
249,175,51357,1,0,0:0:0:0:
249,175,51673,1,8,0:0:0:0:
249,175,51831,1,0,0:0:0:0:
249,175,51989,1,8,0:0:0:0:
249,175,52305,1,0,0:0:0:0:
249,175,52621,1,8,0:0:0:0:
249,175,52778,1,0,0:0:0:0:
249,175,52936,1,8,0:0:0:0:
249,175,53094,1,8,0:0:0:0:
249,175,53252,1,4,0:0:0:0:
249,175,53568,1,8,0:0:0:0:
249,175,53884,1,0,0:0:0:0:
249,175,54200,1,0,0:0:0:0:
249,175,54357,1,0,0:0:0:0:
249,175,54515,1,8,0:0:0:0:
249,175,54831,1,8,0:0:0:0:
249,175,55147,1,0,0:0:0:0:
249,175,55463,1,8,0:0:0:0:
249,175,55621,1,0,0:0:0:0:
249,175,55700,1,0,0:0:0:0:
249,175,55778,1,8,0:0:0:0:
249,175,55936,1,0,0:0:0:0:
249,175,56252,1,0,0:0:0:0:
249,175,56568,1,0,0:0:0:0:
242,301,56884,1,12,0:0:0:0:
255,191,57831,1,0,0:0:0:0:
258,304,57989,1,12,0:0:0:0:
258,304,58305,1,4,0:0:0:0:
258,304,58621,1,8,0:0:0:0:
258,304,58778,1,0,0:0:0:0:
258,304,58857,1,0,0:0:0:0:
258,304,58936,1,8,0:0:0:0:
258,304,59094,1,8,0:0:0:0:
258,304,59252,1,0,0:0:0:0:
253,298,59331,1,0,0:0:0:0:
253,297,59410,1,0,0:0:0:0:
253,296,59568,1,12,0:0:0:0:
253,298,59884,1,0,0:0:0:0:
253,297,60042,1,12,0:0:0:0:
253,298,60357,1,0,0:0:0:0:
253,297,60515,1,8,0:0:0:0:
253,296,60594,1,8,0:0:0:0:
253,298,60673,1,8,0:0:0:0:
253,298,60831,1,4,0:0:0:0:
253,297,61147,1,8,0:0:0:0:
253,297,61305,1,8,0:0:0:0:
253,297,61463,1,0,0:0:0:0:
253,297,61542,1,0,0:0:0:0:
253,296,61621,1,8,0:0:0:0:
247,293,61778,1,0,0:0:0:0:
245,292,61936,1,8,0:0:0:0:
245,292,62015,1,8,0:0:0:0:
245,292,62094,1,0,0:0:0:0:
246,291,62252,1,0,0:0:0:0:
246,290,62410,1,8,0:0:0:0:
247,293,62726,1,0,0:0:0:0:
245,292,62884,1,0,0:0:0:0:
245,292,63042,1,8,0:0:0:0:
245,292,63121,1,8,0:0:0:0:
246,291,63200,1,8,0:0:0:0:
246,290,63357,1,0,0:0:0:0:
247,293,63515,1,0,0:0:0:0:
247,293,63673,1,8,0:0:0:0:
247,293,63752,1,8,0:0:0:0:
245,292,63831,1,0,0:0:0:0:
247,283,63989,1,0,0:0:0:0:
247,283,64147,1,0,0:0:0:0:
246,283,64226,1,0,0:0:0:0:
246,283,64305,1,8,0:0:0:0:
247,282,64463,1,8,0:0:0:0:
248,282,64542,1,8,0:0:0:0:
246,281,64621,1,0,0:0:0:0:
246,280,64778,1,0,0:0:0:0:
242,275,64936,1,8,0:0:0:0:
243,273,65252,1,8,0:0:0:0:
243,273,65410,1,0,0:0:0:0:
241,272,65489,1,0,0:0:0:0:
241,271,65568,1,8,0:0:0:0:
240,269,65726,1,8,0:0:0:0:
242,275,65884,1,0,0:0:0:0:
242,275,65963,1,0,0:0:0:0:
238,266,66042,1,0,0:0:0:0:
238,265,66200,1,8,0:0:0:0:
238,265,66357,1,8,0:0:0:0:
237,264,66515,1,0,0:0:0:0:
232,265,66831,1,8,0:0:0:0:
232,264,66989,1,0,0:0:0:0:
238,266,67068,1,0,0:0:0:0:
228,259,67147,1,8,0:0:0:0:
228,259,67305,1,8,0:0:0:0:
228,258,67463,1,8,0:0:0:0:
228,258,67621,1,8,0:0:0:0:
223,256,67700,1,8,0:0:0:0:
228,258,67778,1,0,0:0:0:0:
228,258,67936,1,0,0:0:0:0:
228,259,68094,1,8,0:0:0:0:
228,258,68410,1,12,0:0:0:0:
228,258,68568,1,0,0:0:0:0:
228,258,68647,1,0,0:0:0:0:
232,256,68726,1,8,0:0:0:0:
228,258,68884,1,0,0:0:0:0:
232,252,69042,1,8,0:0:0:0:
232,252,69200,1,0,0:0:0:0:
228,258,69278,1,8,0:0:0:0:
232,252,69357,1,8,0:0:0:0:
228,258,69515,1,8,0:0:0:0:
228,258,69673,1,0,0:0:0:0:
228,258,69831,1,0,0:0:0:0:
228,258,69910,1,0,0:0:0:0:
232,252,69989,1,8,0:0:0:0:
228,259,70147,1,0,0:0:0:0:
232,252,70305,1,8,0:0:0:0:
228,258,70621,1,8,0:0:0:0:
223,252,70778,1,0,0:0:0:0:
222,252,70857,1,0,0:0:0:0:
222,252,70936,1,8,0:0:0:0:
217,249,71094,1,8,0:0:0:0:
217,249,71252,1,0,0:0:0:0:
219,251,71331,1,0,0:0:0:0:
217,249,71410,1,0,0:0:0:0:
217,248,71568,1,8,0:0:0:0:
215,247,71647,1,8,0:0:0:0:
215,247,71726,1,0,0:0:0:0:
215,247,71805,1,0,0:0:0:0:
215,247,71884,1,8,0:0:0:0:
216,239,72042,1,0,0:0:0:0:
216,239,72200,1,8,0:0:0:0:
215,239,72278,1,8,0:0:0:0:
215,239,72357,1,8,0:0:0:0:
201,229,72515,1,0,0:0:0:0:
213,230,72673,1,8,0:0:0:0:
199,232,72989,1,8,0:0:0:0:
200,229,73147,1,0,0:0:0:0:
203,233,73226,1,0,0:0:0:0:
204,227,73305,1,0,0:0:0:0:
201,229,73463,1,8,0:0:0:0:
200,226,73778,1,4,0:0:0:0:
203,233,74252,1,8,0:0:0:0:
201,229,74410,1,0,0:0:0:0:
200,226,74568,1,0,0:0:0:0:
200,226,74726,1,12,0:0:0:0:
206,225,74884,1,0,0:0:0:0:
206,224,74963,1,0,0:0:0:0:
206,225,75042,1,8,0:0:0:0:
202,225,75200,1,8,0:0:0:0:
201,229,75357,1,0,0:0:0:0:
206,220,75515,1,0,0:0:0:0:
206,220,75673,1,8,0:0:0:0:
206,220,75752,1,8,0:0:0:0:
206,225,75831,1,0,0:0:0:0:
206,225,75910,1,0,0:0:0:0:
206,224,75989,1,8,0:0:0:0:
202,225,76147,1,0,0:0:0:0:
202,225,76226,1,0,0:0:0:0:
201,221,76305,1,0,0:0:0:0:
205,222,76463,1,0,0:0:0:0:
206,220,76621,1,8,0:0:0:0:
202,201,76778,1,8,0:0:0:0:
202,207,76857,1,8,0:0:0:0:
205,212,76936,1,0,0:0:0:0:
205,212,77094,1,0,0:0:0:0:
201,208,77173,1,0,0:0:0:0:
205,212,77252,1,8,0:0:0:0:
206,212,77410,1,8,0:0:0:0:
206,212,77568,1,0,0:0:0:0:
199,213,77726,1,0,0:0:0:0:
205,212,77884,1,8,0:0:0:0:
205,212,78042,1,0,0:0:0:0:
205,212,78121,1,0,0:0:0:0:
205,212,78200,1,8,0:0:0:0:
205,212,78278,1,8,0:0:0:0:
215,206,78357,1,8,0:0:0:0:
215,206,78515,1,4,0:0:0:0:
258,304,78831,1,8,0:0:0:0:
258,304,78989,1,0,0:0:0:0:
258,304,79068,1,0,0:0:0:0:
258,304,79147,1,8,0:0:0:0:
258,304,79305,1,8,0:0:0:0:
258,304,79463,1,0,0:0:0:0:
253,298,79542,1,0,0:0:0:0:
253,297,79621,1,0,0:0:0:0:
253,296,79778,1,8,0:0:0:0:
251,296,80094,1,0,0:0:0:0:
251,297,80252,1,0,0:0:0:0:
251,297,80331,1,0,0:0:0:0:
251,297,80410,1,8,0:0:0:0:
253,298,80568,1,8,0:0:0:0:
253,296,80726,1,0,0:0:0:0:
253,296,80805,1,0,0:0:0:0:
251,296,80884,1,0,0:0:0:0:
253,297,81042,1,8,0:0:0:0:
253,297,81200,1,8,0:0:0:0:
253,297,81357,1,0,0:0:0:0:
253,297,81436,1,0,0:0:0:0:
253,296,81515,1,8,0:0:0:0:
247,293,81673,1,0,0:0:0:0:
245,292,81831,1,8,0:0:0:0:
245,292,81910,1,8,0:0:0:0:
245,292,81989,1,0,0:0:0:0:
246,291,82147,1,0,0:0:0:0:
246,290,82305,1,8,0:0:0:0:
247,293,82621,1,0,0:0:0:0:
245,292,82778,1,0,0:0:0:0:
238,278,82857,1,8,0:0:0:0:
245,292,82936,1,8,0:0:0:0:
241,285,83094,1,0,0:0:0:0:
240,286,83252,1,8,0:0:0:0:
229,321,83568,5,4,0:0:0:0:
229,321,83726,1,4,0:0:0:0:
229,321,83884,1,4,0:0:0:0:
225,320,84042,1,12,0:0:0:0:
229,321,84515,1,4,0:0:0:0:
229,321,84673,1,4,0:0:0:0:
229,321,84831,1,4,0:0:0:0:
225,320,84989,1,12,0:0:0:0:
237,178,85463,1,8,0:0:0:0:
237,178,85778,1,8,0:0:0:0:
237,178,86094,1,8,0:0:0:0:
237,178,86410,1,0,0:0:0:0:
237,178,86568,1,8,0:0:0:0:
256,192,86726,12,8,88305,0:0:0:0:
