osu file format v14

[General]
AudioFilename: audio.mp3
AudioLeadIn: 0
PreviewTime: 57658
Countdown: 0
SampleSet: Normal
StackLeniency: 0.7
Mode: 1
LetterboxInBreaks: 0
WidescreenStoryboard: 1

[Editor]
DistanceSpacing: 0.6
BeatDivisor: 4
GridSize: 4
TimelineZoom: 1.7

[Metadata]
Title:Koko kara Saki wa Uta ni Naranai (TV Size)
TitleUnicode:ここから先は歌にならない (TV Size)
Artist:Poppin'Party
ArtistUnicode:Poppin'Party
Creator:MyAngelMira
Version:Chitanda's Muzukashii
Source:ぼくたちのリメイク
Tags:anime opening op Bokurema Bokutachi no Rimeiku Remake our Life! jpop j-pop pop jrock j-rock rock japanese バンドリ!Bandori! BanG Dream! ポピパ popipa 戸山香澄 Toyama Kasumi 寺川愛美 Terakawa Aimi 花園たえ Hanazono Tae 大塚紗英 Ōtsuka Sae Ootsuka Otsuka 牛込りみ Ushigome Rimi 西本りみ Nishimoto Rimi 山吹沙綾 Yamabuki Saaya 大橋彩香 Ohashi Ayaka 市ヶ谷有咲 Ichigaya Arisa 伊藤彩沙 Ito Ayasa south korea chitanda eru
BeatmapID:3223090
BeatmapSetID:1541648

[Difficulty]
HPDrainRate:6.5
CircleSize:2
OverallDifficulty:5
ApproachRate:10
SliderMultiplier:1.4
SliderTickRate:1

[Events]
//Background and Video events
0,0,"bg.jpg",0,100
//Break Periods
//Storyboard Layer 0 (Background)
//Storyboard Layer 1 (Fail)
//Storyboard Layer 2 (Pass)
//Storyboard Layer 3 (Foreground)
//Storyboard Layer 4 (Overlay)
//Storyboard Sound Samples

[TimingPoints]
200,315.789473684211,4,1,0,70,1,0
200,-100,4,1,0,70,0,0
5252,-100,4,1,0,80,0,0
15357,-100,4,1,0,65,0,0
25463,-100,4,1,0,70,0,0
30515,-100,4,1,0,80,0,0
50410,-100,4,1,0,70,0,0
55778,-100,4,1,0,70,0,0
58305,-100,4,1,0,85,0,1
83568,-100,4,1,0,85,0,1
85463,-100,4,1,0,70,0,0

[HitObjects]
103,60,200,5,0,0:0:0:0:
103,60,357,1,0,0:0:0:0:
103,60,515,1,8,0:0:0:0:
103,60,989,1,0,0:0:0:0:
103,60,1463,1,8,0:0:0:0:
103,60,1936,1,8,0:0:0:0:
103,60,2410,1,0,0:0:0:0:
103,60,2726,1,8,0:0:0:0:
103,60,2884,1,8,0:0:0:0:
103,60,3042,1,0,0:0:0:0:
103,60,3515,1,8,0:0:0:0:
103,60,3989,1,0,0:0:0:0:
103,60,4463,1,0,0:0:0:0:
103,60,4621,1,0,0:0:0:0:
103,60,4936,1,8,0:0:0:0:
258,143,5252,1,4,0:0:0:0:
103,60,5568,1,0,0:0:0:0:
103,60,5884,1,0,0:0:0:0:
103,60,6042,1,0,0:0:0:0:
103,60,6200,1,8,0:0:0:0:
103,60,6357,1,0,0:0:0:0:
103,60,6673,1,0,0:0:0:0:
103,60,6831,1,8,0:0:0:0:
103,60,7147,1,0,0:0:0:0:
103,60,7305,1,0,0:0:0:0:
103,60,7463,1,8,0:0:0:0:
103,60,7778,1,4,0:0:0:0:
103,60,8410,1,8,0:0:0:0:
103,60,8568,1,8,0:0:0:0:
103,60,8726,1,0,0:0:0:0:
103,60,9042,1,0,0:0:0:0:
103,60,9357,1,8,0:0:0:0:
103,60,9673,1,0,0:0:0:0:
103,60,9831,1,0,0:0:0:0:
103,60,9989,1,8,0:0:0:0:
258,143,10305,1,4,0:0:0:0:
103,60,10621,1,8,0:0:0:0:
103,60,10936,1,8,0:0:0:0:
103,60,11094,1,8,0:0:0:0:
103,60,11252,1,0,0:0:0:0:
103,60,11410,1,8,0:0:0:0:
103,60,11726,1,8,0:0:0:0:
103,60,11884,1,0,0:0:0:0:
103,60,12200,1,8,0:0:0:0:
103,60,12357,1,8,0:0:0:0:
103,60,12515,1,0,0:0:0:0:
103,60,12831,1,12,0:0:0:0:
103,60,13147,1,0,0:0:0:0:
103,60,13463,1,0,0:0:0:0:
103,60,13621,1,0,0:0:0:0:
103,60,13778,1,8,0:0:0:0:
103,60,13857,1,8,0:0:0:0:
103,60,13936,1,8,0:0:0:0:
103,60,14094,1,8,0:0:0:0:
260,145,14410,1,12,0:0:0:0:
260,145,15357,1,4,0:0:0:0:
103,60,15515,1,0,0:0:0:0:
103,60,15989,1,0,0:0:0:0:
103,60,16305,1,8,0:0:0:0:
103,60,16463,1,0,0:0:0:0:
103,60,16936,1,8,0:0:0:0:
103,60,17252,1,0,0:0:0:0:
103,60,17410,1,8,0:0:0:0:
103,60,17726,1,8,0:0:0:0:
103,60,17884,1,0,0:0:0:0:
103,60,18042,1,0,0:0:0:0:
103,60,18515,1,0,0:0:0:0:
103,60,18831,1,0,0:0:0:0:
103,60,18989,1,8,0:0:0:0:
103,60,19147,1,0,0:0:0:0:
103,60,19463,1,8,0:0:0:0:
103,60,19778,1,0,0:0:0:0:
103,60,20094,1,8,0:0:0:0:
103,60,20410,1,8,0:0:0:0:
103,60,20568,1,8,0:0:0:0:
103,60,20726,1,8,0:0:0:0:
103,60,20884,1,0,0:0:0:0:
103,60,21357,1,0,0:0:0:0:
103,60,21673,1,8,0:0:0:0:
103,60,21831,1,8,0:0:0:0:
103,60,21989,1,0,0:0:0:0:
103,60,22305,1,8,0:0:0:0:
103,60,22621,1,0,0:0:0:0:
103,60,22936,1,0,0:0:0:0:
95,62,23094,1,0,0:0:0:0:
103,60,23410,1,0,0:0:0:0:
103,60,23726,1,0,0:0:0:0:
103,60,23884,1,8,0:0:0:0:
103,60,24200,1,0,0:0:0:0:
103,60,24357,1,8,0:0:0:0:
103,60,24515,1,0,0:0:0:0:
103,60,24673,1,0,0:0:0:0:
103,60,24831,1,8,0:0:0:0:
103,60,24989,1,8,0:0:0:0:
103,60,25147,1,0,0:0:0:0:
260,145,25463,1,12,0:0:0:0:
103,60,25621,1,0,0:0:0:0:
103,60,26094,1,0,0:0:0:0:
103,60,26252,1,8,0:0:0:0:
103,60,26568,1,0,0:0:0:0:
103,60,26726,1,8,0:0:0:0:
103,60,26884,1,8,0:0:0:0:
103,60,27042,1,0,0:0:0:0:
103,60,27357,1,8,0:0:0:0:
103,60,27515,1,0,0:0:0:0:
103,60,27673,1,8,0:0:0:0:
103,60,27989,1,8,0:0:0:0:
103,60,28147,1,0,0:0:0:0:
103,60,28463,1,8,0:0:0:0:
103,60,28936,1,0,0:0:0:0:
103,60,29094,1,8,0:0:0:0:
103,60,29252,1,8,0:0:0:0:
103,60,29568,1,0,0:0:0:0:
103,60,29884,1,8,0:0:0:0:
103,60,30042,1,0,0:0:0:0:
103,60,30121,1,0,0:0:0:0:
103,60,30200,1,0,0:0:0:0:
103,60,30357,1,8,0:0:0:0:
260,145,30515,1,4,0:0:0:0:
103,60,30673,1,0,0:0:0:0:
103,60,30831,1,0,0:0:0:0:
103,60,30989,1,8,0:0:0:0:
103,60,31305,1,0,0:0:0:0:
103,60,31463,1,8,0:0:0:0:
103,60,31621,1,8,0:0:0:0:
103,60,31778,1,0,0:0:0:0:
103,60,31936,1,8,0:0:0:0:
103,60,32252,1,8,0:0:0:0:
103,60,32410,1,0,0:0:0:0:
103,60,32568,1,0,0:0:0:0:
103,60,32726,1,8,0:0:0:0:
103,60,32884,1,8,0:0:0:0:
260,145,33042,1,4,0:0:0:0:
103,60,33357,1,0,0:0:0:0:
103,60,33515,1,8,0:0:0:0:
103,60,33673,1,8,0:0:0:0:
103,60,33831,1,0,0:0:0:0:
103,60,33989,1,0,0:0:0:0:
103,60,34147,1,0,0:0:0:0:
103,60,34305,1,8,0:0:0:0:
103,60,34621,1,8,0:0:0:0:
103,60,34778,1,8,0:0:0:0:
103,60,34936,1,0,0:0:0:0:
103,60,35094,1,0,0:0:0:0:
103,60,35173,1,0,0:0:0:0:
103,60,35252,1,0,0:0:0:0:
103,60,35410,1,0,0:0:0:0:
260,145,35568,1,12,0:0:0:0:
103,60,36042,1,0,0:0:0:0:
103,60,36200,1,8,0:0:0:0:
103,60,36515,1,0,0:0:0:0:
103,60,36673,1,0,0:0:0:0:
103,60,36831,1,8,0:0:0:0:
103,60,36989,1,8,0:0:0:0:
103,60,37147,1,0,0:0:0:0:
103,60,37463,1,8,0:0:0:0:
103,60,37621,1,8,0:0:0:0:
103,60,37778,1,0,0:0:0:0:
103,60,38094,1,0,0:0:0:0:
103,60,38410,1,8,0:0:0:0:
103,60,38568,1,0,0:0:0:0:
103,60,38726,1,0,0:0:0:0:
103,60,38884,1,0,0:0:0:0:
103,60,39042,1,8,0:0:0:0:
103,60,39357,1,0,0:0:0:0:
103,60,39989,1,0,0:0:0:0:
103,60,40305,1,8,0:0:0:0:
103,60,40463,1,0,0:0:0:0:
103,60,40621,1,0,0:0:0:0:
103,60,40936,1,0,0:0:0:0:
103,60,41252,1,8,0:0:0:0:
103,60,41410,1,8,0:0:0:0:
103,60,41568,1,0,0:0:0:0:
103,60,41884,1,8,0:0:0:0:
103,60,42042,1,8,0:0:0:0:
103,60,42200,1,0,0:0:0:0:
103,60,42357,1,8,0:0:0:0:
103,60,42515,1,0,0:0:0:0:
103,60,42831,1,8,0:0:0:0:
103,60,42989,1,8,0:0:0:0:
103,60,43147,1,0,0:0:0:0:
103,60,43621,1,8,0:0:0:0:
103,60,43778,1,8,0:0:0:0:
103,60,44094,1,0,0:0:0:0:
103,60,44410,1,0,0:0:0:0:
103,60,44568,1,0,0:0:0:0:
103,60,44726,1,8,0:0:0:0:
103,60,44884,1,0,0:0:0:0:
103,60,45200,1,0,0:0:0:0:
103,60,45357,1,8,0:0:0:0:
250,141,45673,1,0,0:0:0:0:
250,141,45989,1,12,0:0:0:0:
103,60,46305,1,8,0:0:0:0:
103,60,46463,1,8,0:0:0:0:
103,60,46621,1,0,0:0:0:0:
103,60,46936,1,0,0:0:0:0:
103,60,47094,1,0,0:0:0:0:
103,60,47252,1,0,0:0:0:0:
103,60,47410,1,8,0:0:0:0:
103,60,47568,1,0,0:0:0:0:
103,60,47726,1,8,0:0:0:0:
103,60,47884,1,0,0:0:0:0:
260,145,48200,1,12,0:0:0:0:
103,60,48673,1,8,0:0:0:0:
103,60,48989,1,0,0:0:0:0:
103,60,49147,1,8,0:0:0:0:
103,60,49463,1,0,0:0:0:0:
103,60,49621,1,0,0:0:0:0:
103,60,49778,1,8,0:0:0:0:
103,60,49936,1,0,0:0:0:0:
103,60,50015,1,0,0:0:0:0:
103,60,50094,1,0,0:0:0:0:
103,60,50252,1,0,0:0:0:0:
103,60,50410,1,0,0:0:0:0:
103,60,50568,1,8,0:0:0:0:
260,145,50726,1,4,0:0:0:0:
103,60,51673,1,0,0:0:0:0:
103,60,51989,1,0,0:0:0:0:
103,60,52305,1,8,0:0:0:0:
103,60,52621,1,8,0:0:0:0:
103,60,52936,1,0,0:0:0:0:
103,60,53094,1,8,0:0:0:0:
103,60,53252,1,4,0:0:0:0:
103,60,54200,1,8,0:0:0:0:
103,60,54357,1,0,0:0:0:0:
103,60,54515,1,8,0:0:0:0:
103,60,54831,1,8,0:0:0:0:
103,60,55147,1,0,0:0:0:0:
103,60,55463,1,0,0:0:0:0:
103,60,55542,1,0,0:0:0:0:
103,60,55621,1,0,0:0:0:0:
103,60,55778,1,8,0:0:0:0:
103,60,55936,1,8,0:0:0:0:
103,60,56252,1,8,0:0:0:0:
103,60,56568,1,8,0:0:0:0:
103,60,56884,1,4,0:0:0:0:
103,60,57831,1,0,0:0:0:0:
267,142,57989,1,12,0:0:0:0:
267,142,58305,1,4,0:0:0:0:
103,60,58463,1,0,0:0:0:0:
103,60,58621,1,8,0:0:0:0:
103,60,58778,1,8,0:0:0:0:
103,60,58936,1,0,0:0:0:0:
103,60,59094,1,0,0:0:0:0:
103,60,59252,1,8,0:0:0:0:
103,60,59410,1,8,0:0:0:0:
267,142,59568,1,4,0:0:0:0:
103,60,59884,1,0,0:0:0:0:
267,142,60042,1,12,0:0:0:0:
103,60,60357,1,0,0:0:0:0:
103,60,60515,1,8,0:0:0:0:
103,60,60673,1,0,0:0:0:0:
103,60,60752,1,0,0:0:0:0:
103,60,60831,1,0,0:0:0:0:
103,60,61147,1,8,0:0:0:0:
103,60,61305,1,0,0:0:0:0:
103,60,61463,1,0,0:0:0:0:
103,60,61621,1,0,0:0:0:0:
103,60,61778,1,8,0:0:0:0:
103,60,62094,1,0,0:0:0:0:
103,60,62252,1,0,0:0:0:0:
103,60,62410,1,8,0:0:0:0:
103,60,62568,1,8,0:0:0:0:
103,60,62647,1,8,0:0:0:0:
103,60,62726,1,8,0:0:0:0:
103,60,62884,1,0,0:0:0:0:
103,60,63042,1,0,0:0:0:0:
103,60,63200,1,8,0:0:0:0:
103,60,63357,1,0,0:0:0:0:
103,60,63673,1,0,0:0:0:0:
103,60,63831,1,8,0:0:0:0:
103,60,64147,1,0,0:0:0:0:
103,60,64305,1,0,0:0:0:0:
103,60,64463,1,8,0:0:0:0:
103,60,64936,1,8,0:0:0:0:
103,60,65252,1,0,0:0:0:0:
103,60,65410,1,0,0:0:0:0:
103,60,65568,1,8,0:0:0:0:
103,60,65726,1,0,0:0:0:0:
103,60,65884,1,8,0:0:0:0:
103,60,66200,1,8,0:0:0:0:
103,60,66515,1,0,0:0:0:0:
103,60,66673,1,0,0:0:0:0:
103,60,66831,1,8,0:0:0:0:
103,60,67147,1,0,0:0:0:0:
103,60,67305,1,0,0:0:0:0:
103,60,67463,1,8,0:0:0:0:
103,60,67621,1,8,0:0:0:0:
103,60,67700,1,8,0:0:0:0:
103,60,67778,1,8,0:0:0:0:
103,60,67936,1,0,0:0:0:0:
103,60,68094,1,0,0:0:0:0:
103,60,68252,1,8,0:0:0:0:
267,142,68410,1,12,0:0:0:0:
103,60,68726,1,0,0:0:0:0:
103,60,69042,1,8,0:0:0:0:
103,60,69357,1,0,0:0:0:0:
103,60,69515,1,8,0:0:0:0:
103,60,69673,1,0,0:0:0:0:
103,60,69989,1,0,0:0:0:0:
103,60,70147,1,8,0:0:0:0:
103,60,70305,1,8,0:0:0:0:
103,60,70463,1,8,0:0:0:0:
103,60,70621,1,0,0:0:0:0:
103,60,70936,1,0,0:0:0:0:
103,60,71252,1,8,0:0:0:0:
103,60,71410,1,8,0:0:0:0:
103,60,71568,1,0,0:0:0:0:
103,60,71884,1,0,0:0:0:0:
103,60,72042,1,8,0:0:0:0:
103,60,72200,1,0,0:0:0:0:
103,60,72357,1,0,0:0:0:0:
103,60,72515,1,8,0:0:0:0:
103,60,72673,1,0,0:0:0:0:
103,60,72989,1,0,0:0:0:0:
103,60,73147,1,8,0:0:0:0:
103,60,73305,1,0,0:0:0:0:
103,60,73384,1,0,0:0:0:0:
103,60,73463,1,0,0:0:0:0:
267,142,73778,1,12,0:0:0:0:
103,60,74410,1,0,0:0:0:0:
103,60,74568,1,0,0:0:0:0:
267,142,74726,1,12,0:0:0:0:
103,60,75042,1,8,0:0:0:0:
103,60,75200,1,0,0:0:0:0:
103,60,75357,1,8,0:0:0:0:
103,60,75515,1,0,0:0:0:0:
103,60,75673,1,8,0:0:0:0:
103,60,75831,1,0,0:0:0:0:
103,60,75910,1,0,0:0:0:0:
103,60,75989,1,0,0:0:0:0:
103,60,76147,1,0,0:0:0:0:
103,60,76305,1,8,0:0:0:0:
103,60,76621,1,8,0:0:0:0:
103,60,76778,1,8,0:0:0:0:
103,60,76936,1,0,0:0:0:0:
103,60,77094,1,8,0:0:0:0:
103,60,77173,1,8,0:0:0:0:
103,60,77252,1,8,0:0:0:0:
103,60,77410,1,8,0:0:0:0:
103,60,77568,1,0,0:0:0:0:
103,60,77726,1,8,0:0:0:0:
103,60,78042,1,0,0:0:0:0:
103,60,78200,1,0,0:0:0:0:
103,60,78357,1,8,0:0:0:0:
103,60,78436,1,8,0:0:0:0:
103,60,78515,1,8,0:0:0:0:
103,60,78831,1,0,0:0:0:0:
103,60,78989,1,0,0:0:0:0:
103,60,79147,1,8,0:0:0:0:
103,60,79305,1,8,0:0:0:0:
103,60,79463,1,0,0:0:0:0:
103,60,79778,1,8,0:0:0:0:
103,60,80094,1,0,0:0:0:0:
103,60,80410,1,8,0:0:0:0:
103,60,80568,1,8,0:0:0:0:
103,60,80726,1,0,0:0:0:0:
103,60,80884,1,0,0:0:0:0:
103,60,81042,1,8,0:0:0:0:
103,60,81357,1,8,0:0:0:0:
103,60,81515,1,0,0:0:0:0:
103,60,81831,1,0,0:0:0:0:
103,60,81989,1,8,0:0:0:0:
103,60,82147,1,8,0:0:0:0:
103,60,82305,1,8,0:0:0:0:
103,60,82463,1,8,0:0:0:0:
103,60,82621,1,0,0:0:0:0:
103,60,82936,1,0,0:0:0:0:
103,60,83252,1,8,0:0:0:0:
267,142,83568,1,4,0:0:0:0:
267,142,83726,1,4,0:0:0:0:
267,142,83884,1,12,0:0:0:0:
267,142,84042,1,4,0:0:0:0:
267,142,84515,1,12,0:0:0:0:
267,142,84673,1,12,0:0:0:0:
267,142,84831,1,4,0:0:0:0:
267,142,84989,1,12,0:0:0:0:
103,60,85463,1,0,0:0:0:0:
103,60,85778,1,0,0:0:0:0:
103,60,86094,1,8,0:0:0:0:
103,60,86410,1,8,0:0:0:0:
103,60,86568,1,0,0:0:0:0:
256,192,86726,12,0,88305,0:0:0:0:
