osu file format v14

[General]
AudioFilename: kirakira.mp3
AudioLeadIn: 0
PreviewTime: 56331
Countdown: 1
SampleSet: Soft
StackLeniency: 0.7
Mode: 0
LetterboxInBreaks: 0
WidescreenStoryboard: 1

[Editor]
DistanceSpacing: 0.8
BeatDivisor: 4
GridSize: 32
TimelineZoom: 2.2

[Metadata]
Title:Kira Kira datoka Yume datoka ~Sing Girls~ (TV Size)
TitleUnicode:キラキラだとか夢だとか ~Sing Girls~ (TV Size)
Artist:Poppin'Party
ArtistUnicode:Poppin'Party
Creator:Nitrous
Version:scanter's Insane
Source:BanG Dream!
Tags:バンドリ!ガールズバンドパーティ! bandori Girls Band Party garupa Bandori ending Toyama Kasumi Hanazono Tae Ushigome Rimi Yamabuki Saaya Ichigaya Arisa Aimi Otsuka Sae Nishimoto Rimi Ohashi Ayaka Itou Ayasa 愛美 大塚紗英 牛込 りみ 山吹 沙綾 市ヶ谷 有咲 山吹 沙綾 市ヶ谷 有咲 花園 たえ 戸山 香澄 牛込 りみ Kisses scanter Gaia Kibbleru StarrStyx
BeatmapID:1309705
BeatmapSetID:614346

[Difficulty]
HPDrainRate:6
CircleSize:4
OverallDifficulty:8
ApproachRate:9
SliderMultiplier:1.8
SliderTickRate:1

[Events]
//Background and Video events
0,0,"BG-scanter.jpg",0,0
Video,300,"kirakira.avi"
//Break Periods
//Storyboard Layer 0 (Background)
//Storyboard Layer 1 (Fail)
//Storyboard Layer 2 (Pass)
//Storyboard Layer 3 (Foreground)
//Storyboard Sound Samples

[TimingPoints]
-418,333.333333333333,4,2,1,80,1,0
11415,-142.857142857143,4,2,1,60,0,0
16748,-100,4,2,1,60,0,0
22248,-142.857142857143,4,2,1,60,0,0
27415,-100,4,2,1,60,0,0
32915,-142.857142857143,4,2,1,60,0,0
38248,-100,4,2,1,60,0,0
43581,-142.857142857143,4,2,1,60,0,0
47748,-200,4,2,1,60,0,0
48081,-100,4,2,1,70,0,0
51581,-100,4,2,1,80,0,0
54331,-100,4,2,1,20,0,0
54415,-100,4,2,1,24,0,0
54498,-100,4,2,1,28,0,0
54581,-100,4,2,1,32,0,0
54665,-100,4,2,1,36,0,0
54748,-100,4,2,1,40,0,0
54831,-100,4,2,1,44,0,0
54915,-100,4,2,1,48,0,0
54998,-100,4,2,1,52,0,0
55081,-100,4,2,1,56,0,0
55165,-100,4,2,1,60,0,0
55248,-100,4,2,1,64,0,0
55331,-100,4,2,1,68,0,0
55415,-100,4,2,1,72,0,0
55498,-100,4,2,1,76,0,0
55581,-142.857142857143,4,2,1,80,0,0
55748,-142.857142857143,4,2,1,30,0,0
56081,-100,4,2,1,60,0,0
56581,-142.857142857143,4,2,1,60,0,0
56915,-90.9090909090909,4,2,1,90,0,1
66748,-100,4,2,1,80,0,0
67581,-90.9090909090909,4,2,1,90,0,1
77415,-90.9090909090909,4,2,1,85,0,0
78248,-100,4,2,1,80,0,1
80415,-90.9090909090909,4,2,1,90,0,1
80915,-100,4,2,1,80,0,1
82248,-90.9090909090909,4,2,1,90,0,1
83581,-100,4,2,1,80,0,1
86248,-90.9090909090909,4,2,1,90,0,1
88748,-142.857142857143,4,2,1,50,0,0
89248,-142.857142857143,4,2,1,20,0,0

[Colours]
Combo1 : 244,160,49
Combo2 : 239,106,160
Combo3 : 99,183,224
Combo4 : 167,127,244
Combo5 : 249,104,70

[HitObjects]
347,276,415,5,2,0:0:0:0:
347,276,498,1,2,0:0:0:0:
347,276,581,2,0,P|376:225|375:189,1,90,8|0,0:0|0:0,0:0:0:0:
248,46,915,6,0,P|239:104|293:210,1,180,6|8,0:0|0:0,0:0:0:0:
333,19,1415,1,0,0:0:0:0:
161,26,1581,2,0,L|55:29,1,90,2|2,0:0|0:0,0:0:0:0:
178,188,1915,1,8,0:0:0:0:
31,110,2081,6,0,L|216:103,1,180,6|2,0:0|0:0,0:0:0:0:
147,271,2581,2,0,P|113:248|91:205,1,90,8|0,0:0|0:0,0:0:0:0:
267,194,2915,1,2,0:0:0:0:
258,229,2998,1,0,0:0:0:0:
237,258,3081,1,2,0:0:0:0:
124,116,3248,2,0,P|161:100|210:102,1,90,8|0,0:0|0:0,0:0:0:0:
68,58,3581,6,0,P|130:27|243:30,1,180,6|8,0:0|0:0,0:0:0:0:
186,196,4081,1,2,0:0:0:0:
186,196,4165,1,8,0:0:0:0:
186,196,4248,1,2,0:0:0:0:
314,78,4415,2,0,P|327:45|318:-12,1,90,2|8,0:0|0:0,0:0:0:0:
209,101,4748,6,0,P|184:172|228:268,1,180,6|2,0:0|0:0,0:0:0:0:
397,237,5248,2,0,L|492:230,1,90,8|0,0:0|0:0,0:0:0:0:
309,250,5581,1,2,0:0:0:0:
462,126,5748,1,2,0:0:0:0:
480,330,5915,1,8,0:0:0:0:
342,168,6081,6,0,P|277:167|222:264,1,180,6|2,0:0|0:0,0:0:0:0:
397,237,6581,1,8,0:0:0:0:
380,86,6748,1,0,0:0:0:0:
380,86,6831,1,0,0:0:0:0:
380,86,6915,1,2,0:0:0:0:
512,222,7081,1,8,0:0:0:0:
512,222,7165,1,8,0:0:0:0:
512,222,7248,1,8,0:0:0:0:
364,320,7415,6,0,P|319:337|259:318,1,90,6|0,0:0|0:0,0:0:0:0:
224,253,7748,1,2,0:0:0:0:
397,237,7915,1,8,0:0:0:0:
193,340,8082,1,2,0:0:0:0:
193,340,8165,1,8,0:0:0:0:
193,340,8248,1,2,0:0:0:0:
174,141,8415,1,8,0:0:0:0:
174,141,8498,1,8,0:0:0:0:
174,141,8581,2,0,L|167:43,1,90,8|0,0:0|0:0,0:0:0:0:
294,228,8915,6,0,P|343:244|374:289,1,90,12|2,0:0|0:0,0:0:0:0:
290,316,9248,1,2,0:0:0:0:
267,140,9415,2,0,P|256:96|269:54,1,90,12|2,0:0|0:0,0:0:0:0:
346,100,9748,1,2,0:0:0:0:
204,205,9915,2,0,P|172:237|129:246,1,90,12|2,0:0|0:0,0:0:0:0:
131,159,10248,5,2,0:0:0:0:
346,100,10415,2,0,L|449:106,1,90,12|2,0:0|0:0,0:0:0:0:
268,141,10748,1,2,0:0:0:0:
394,23,10915,1,12,0:0:0:0:
480,192,11081,1,8,0:0:0:0:
480,192,11165,1,8,0:0:0:0:
480,192,11248,1,8,0:0:0:0:
282,59,11415,6,0,P|230:66|186:126,1,125.999996154785,6|0,0:0|0:0,0:0:0:0:
192,209,11915,2,0,L|199:273,1,62.9999980773926,2|0,0:0|0:0,0:0:0:0:
119,352,12248,2,0,L|113:290,1,62.9999980773926,2|0,0:0|0:0,0:0:0:0:
192,209,12581,1,2,0:0:0:0:
84,273,12748,1,0,0:0:0:0:
207,356,12915,6,0,P|247:343|267:321,1,62.9999980773926,2|0,0:0|0:0,0:0:0:0:
192,209,13248,1,2,0:0:0:0:
112,289,13415,1,0,0:0:0:0:
285,239,13581,2,0,L|351:236,1,62.9999980773926,2|0,0:0|0:0,0:0:0:0:
274,153,13915,1,2,0:0:0:0:
365,320,14081,1,8,0:0:0:0:
423,199,14248,6,0,L|429:123,1,62.9999980773926,2|0,0:0|0:0,0:0:0:0:
468,280,14581,2,0,L|474:356,1,62.9999980773926,2|0,0:0|0:0,0:0:0:0:
365,320,14915,1,2,0:0:0:0:
506,202,15081,2,0,L|511:139,1,62.9999980773926,0|2,0:0|0:0,0:0:0:0:
352,91,15415,6,0,L|338:242,1,125.999996154785
391,16,15915,2,0,P|368:8|318:13,1,62.9999980773926,2|0,0:0|0:0,0:0:0:0:
258,218,16248,1,8,0:0:0:0:
428,168,16415,1,8,0:0:0:0:
271,75,16581,1,8,0:0:0:0:
198,295,16748,6,0,P|273:314|347:249,1,180,6|2,0:0|0:0,0:0:0:0:
131,225,17248,2,0,L|32:228,1,90,8|0,0:0|0:0,0:0:0:0:
109,318,17581,1,2,0:0:0:0:
258,218,17748,1,2,0:0:0:0:
104,127,17915,1,8,0:0:0:0:
198,295,18081,6,0,P|274:312|348:251,1,180,2|2,0:0|0:0,0:0:0:0:
308,60,18581,1,8,0:0:0:0:
258,218,18748,1,0,0:0:0:0:
421,165,18915,1,2,0:0:0:0:
227,123,19081,2,0,L|138:110,1,90,2|8,0:0|0:0,0:0:0:0:
258,218,19415,6,0,L|67:190,1,180,2|2,0:0|0:0,0:0:0:0:
196,34,19915,1,8,0:0:0:0:
53,100,20081,1,0,0:0:0:0:
227,123,20248,1,2,0:0:0:0:
85,248,20415,2,0,P|78:292|94:338,1,90,2|8,0:0|0:0,0:0:0:0:
258,218,20748,1,0,0:0:0:0:
170,283,20915,5,2,0:0:0:0:
142,109,21081,1,8,0:0:0:0:
142,109,21165,1,8,0:0:0:0:
142,109,21248,1,8,0:0:0:0:
341,211,21415,2,0,P|390:215|433:197,1,90,2|0,0:0|0:0,0:0:0:0:
405,46,21748,2,0,P|356:42|313:60,1,90,2|0,0:0|0:0,0:0:0:0:
305,283,22081,6,0,P|375:298|487:258,1,180,12|0,0:0|0:0,0:0:0:0:
374,129,22581,1,2,0:0:0:0:
341,211,22748,1,0,0:0:0:0:
247,103,22915,2,0,P|231:59|236:33,1,62.9999980773926,2|0,0:0|0:0,0:0:0:0:
374,129,23248,1,2,0:0:0:0:
258,208,23415,1,0,0:0:0:0:
318,56,23581,5,2,0:0:0:0:
404,130,23748,2,0,L|477:130,1,62.9999980773926,0|2,0:0|0:0,0:0:0:0:
370,209,24081,1,0,0:0:0:0:
370,234,24165,1,0,0:0:0:0:
370,259,24248,2,0,L|370:328,1,62.9999980773926,2|0,0:0|0:0,0:0:0:0:
459,246,24581,1,2,0:0:0:0:
287,356,24748,6,0,P|224:365|174:305,1,125.999996154785,8|0,0:0|0:0,0:0:0:0:
68,245,25248,2,0,L|131:253,1,62.9999980773926,2|0,0:0|0:0,0:0:0:0:
95,334,25581,1,2,0:0:0:0:
170,179,25748,1,0,0:0:0:0:
42,256,25915,1,2,0:0:0:0:
214,253,26081,6,0,P|252:204|229:120,1,125.999996154785
104,131,26581,2,0,P|89:157|97:211,1,62.9999980773926,2|0,0:0|0:0,0:0:0:0:
183,81,26915,1,2,0:0:0:0:
238,292,27081,1,8,0:0:0:0:
238,292,27165,1,8,0:0:0:0:
238,292,27248,1,8,0:0:0:0:
396,197,27415,6,0,B|527:190|527:190|476:236,1,180,6|2,0:0|0:0,0:0:0:0:
317,246,27915,2,0,P|304:213|315:151,1,90,8|0,0:0|0:0,0:0:0:0:
400,291,28248,1,2,0:0:0:0:
390,106,28415,1,2,0:0:0:0:
225,212,28581,1,8,0:0:0:0:
396,197,28748,6,0,B|527:203|527:203|476:158,1,180,2|2,0:0|0:0,0:0:0:0:
310,159,29248,2,0,P|302:203|317:246,1,90,8|0,0:0|0:0,0:0:0:0:
390,106,29581,1,2,0:0:0:0:
206,43,29748,2,0,P|148:45|109:72,1,90,2|8,0:0|0:0,0:0:0:0:
173,251,30081,6,0,B|205:226|210:168|180:127|180:127|225:166,1,180,2|2,0:0|0:0,0:0:0:0:
199,336,30581,2,0,P|141:334|102:307,1,90,8|0,0:0|0:0,0:0:0:0:
266,272,30915,1,2,0:0:0:0:
108,188,31081,1,2,0:0:0:0:
294,186,31248,2,0,L|413:178,1,90,8|0,0:0|0:0,0:0:0:0:
266,272,31581,5,2,0:0:0:0:
413,199,31748,1,2,0:0:0:0:
242,109,31915,2,0,P|233:67|246:22,1,90,8|0,0:0|0:0,0:0:0:0:
325,70,32248,1,2,0:0:0:0:
207,199,32415,1,8,0:0:0:0:
407,109,32581,1,8,0:0:0:0:
242,109,32748,1,8,0:0:0:0:
374,272,32915,6,0,P|434:273|491:220,1,125.999996154785,6|0,0:0|0:0,0:0:0:0:
316,191,33415,1,2,0:0:0:0:
316,191,33581,2,0,P|280:237|280:311,1,125.999996154785,8|0,0:0|0:0,0:0:0:0:
356,361,34081,1,2,0:0:0:0:
356,361,34165,1,2,0:0:0:0:
356,361,34248,5,2,0:0:0:0:
407,184,34415,2,0,P|387:131|318:97,1,125.999996154785,8|2,0:0|0:0,0:0:0:0:
182,118,34915,2,0,L|245:129,1,62.9999980773926,8|0,0:0|0:0,0:0:0:0:
121,57,35248,2,0,L|58:67,1,62.9999980773926
135,194,35581,6,0,L|281:217,1,125.999996154785,2|0,0:0|0:0,0:0:0:0:
206,38,36081,1,2,0:0:0:0:
59,148,36248,2,0,P|48:174|83:267,1,125.999996154785,8|0,0:0|0:0,0:0:0:0:
170,290,36748,1,2,0:0:0:0:
170,290,36831,1,2,0:0:0:0:
170,290,36915,5,2,0:0:0:0:
346,241,37081,2,0,P|343:176|287:128,1,125.999996154785,8|2,0:0|0:0,0:0:0:0:
166,183,37581,1,8,0:0:0:0:
255,54,37748,1,2,0:0:0:0:
259,213,37915,1,2,0:0:0:0:
164,86,38081,1,2,0:0:0:0:
328,119,38248,6,0,P|373:115|423:141,1,90,6|0,0:0|0:0,0:0:0:0:
480,206,38581,1,8,0:0:0:0:
365,34,38748,2,0,P|307:27|274:43,1,90,0|2,0:0|0:0,0:0:0:0:
361,206,39081,1,2,0:0:0:0:
490,89,39248,2,0,L|496:-13,1,90,8|0,0:0|0:0,0:0:0:0:
361,206,39581,6,0,B|351:252|351:252|364:306,1,90,2|0,0:0|0:0,0:0:0:0:
413,132,39915,1,8,0:0:0:0:
263,246,40081,2,0,L|168:240,1,90,0|2,0:0|0:0,0:0:0:0:
285,157,40415,1,2,0:0:0:0:
438,253,40581,2,0,B|448:299|448:299|435:353,1,90,8|0,0:0|0:0,0:0:0:0:
282,332,40915,6,0,B|263:247|263:247|285:157,1,180,2|8,0:0|0:0,0:0:0:0:
324,76,41415,1,0,0:0:0:0:
194,158,41581,2,0,P|138:166|100:155,1,90,2|2,0:0|0:0,0:0:0:0:
237,78,41915,2,0,P|280:66|323:75,1,90,8|0,0:0|0:0,0:0:0:0:
156,251,42248,5,8,0:0:0:0:
156,251,42415,1,2,0:0:0:0:
367,0,42748,2,0,P|412:70|357:157,1,180,6|8,0:0|0:0,0:0:0:0:
237,78,43248,2,0,P|280:66|323:75,1,90,2|0,0:0|0:0,0:0:0:0:
196,154,43581,6,0,P|151:92|166:29,1,125.999996154785,6|2,0:0|0:0,0:0:0:0:
288,156,44081,1,2,0:0:0:0:
288,156,44248,2,0,P|333:218|318:281,1,125.999996154785,8|0,0:0|0:0,0:0:0:0:
253,239,44748,1,2,0:0:0:0:
253,239,44831,1,2,0:0:0:0:
253,239,44915,5,2,0:0:0:0:
385,136,45081,2,0,L|519:129,1,125.999996154785,8|2,0:0|0:0,0:0:0:0:
317,77,45581,2,0,L|250:80,1,62.9999980773926,8|2,0:0|0:0,0:0:0:0:
398,49,45915,2,0,L|460:45,1,62.9999980773926
303,162,46248,6,0,L|177:168,1,125.999996154785,6|0,0:0|0:0,0:0:0:0:
104,116,46748,1,2,0:0:0:0:
32,167,46915,2,0,P|18:203|22:236,1,62.9999980773926,8|0,0:0|0:0,0:0:0:0:
177,167,47248,1,0,0:0:0:0:
99,32,47415,1,8,0:0:0:0:
99,32,47498,1,8,0:0:0:0:
99,32,47581,5,8,0:0:0:0:
102,210,47748,1,2,0:0:0:0:
172,362,48081,6,0,P|94:381|-3:324,1,180,12|2,0:0|0:0,0:0:0:0:
228,241,48581,1,8,0:0:0:0:
394,358,48748,1,8,0:0:0:0:
394,358,48831,1,8,0:0:0:0:
394,358,48915,6,0,L|295:360,1,90,6|0,0:0|0:0,0:0:0:0:
389,176,49248,1,8,0:0:0:0:
471,223,49415,2,0,P|482:258|471:312,1,90,0|2,0:0|0:0,0:0:0:0:
309,220,49748,1,2,0:0:0:0:
389,176,49915,1,8,0:0:0:0:
388,266,50081,1,0,0:0:0:0:
311,131,50248,6,0,P|342:98|389:85,1,90,6|0,0:0|0:0,0:0:0:0:
388,266,50581,1,8,0:0:0:0:
236,178,50748,2,0,L|123:175,1,90,0|2,0:0|0:0,0:0:0:0:
14,290,51081,1,8,0:0:0:0:
14,290,51165,1,8,0:0:0:0:
14,290,51248,1,8,0:0:0:0:
106,94,51415,1,8,0:0:0:0:
106,94,51498,1,8,0:0:0:0:
106,94,51581,6,0,P|158:74|196:79,1,90,6|0,0:0|0:0,0:0:0:0:
256,192,51915,1,8,0:0:0:0:
157,341,52081,6,0,P|139:301|141:256,1,90,0|2,0:0|0:0,0:0:0:0:
256,192,52415,1,0,0:0:0:0:
406,290,52581,6,0,P|354:310|316:305,1,90,8|0,0:0|0:0,0:0:0:0:
256,192,52915,1,2,0:0:0:0:
354,42,53081,6,0,P|372:82|370:127,1,90,0|8,0:0|0:0,0:0:0:0:
256,192,53415,1,0,0:0:0:0:
102,123,53581,6,0,L|192:128,1,90,2|0,0:0|0:0,0:0:0:0:
409,260,53915,2,0,L|320:256,1,90,8|0,0:0|0:0,0:0:0:0:
144,379,54248,5,12,0:0:0:0:
120,352,54331,1,8,0:0:0:0:
113,317,54415,1,8,0:0:0:0:
126,284,54498,1,8,0:0:0:0:
154,263,54581,1,2,0:0:0:0:
189,259,54665,1,8,0:0:0:0:
221,275,54748,1,8,0:0:0:0:
244,304,54831,1,8,0:0:0:0:
247,339,54915,6,0,P|240:361|224:376,3,45,8|8|8|8,0:0|0:0|0:0|0:0,0:0:0:0:
325,314,55248,2,0,P|333:291|353:275,3,45,8|8|8|8,0:0|0:0|0:0|0:0,0:0:0:0:
315,202,55581,5,8,0:0:0:0:
428,265,55748,2,0,L|426:353,1,62.9999980773926
387,141,56081,2,0,L|384:43,1,90
315,202,56415,1,2,0:0:0:0:
315,202,56498,1,2,0:0:0:0:
315,202,56581,1,8,0:0:0:0:
475,103,56748,1,0,0:0:0:0:
293,93,56915,6,0,L|183:96,1,99.0000030212403,6|0,0:0|0:0,0:0:0:0:
11,214,57248,1,8,0:0:0:0:
124,35,57415,1,2,0:0:0:0:
183,222,57581,1,8,0:0:0:0:
30,80,57748,1,2,0:0:0:0:
227,95,57915,1,8,0:0:0:0:
37,194,58081,1,2,0:0:0:0:
226,308,58248,6,0,P|265:271|279:221,1,99.0000030212403,8|0,0:0|0:0,0:0:0:0:
227,95,58581,1,8,0:0:0:0:
369,224,58748,1,2,0:0:0:0:
404,33,58915,1,8,0:0:0:0:
295,155,59081,1,2,0:0:0:0:
493,212,59248,1,8,0:0:0:0:
312,337,59415,1,2,0:0:0:0:
459,235,59581,6,0,P|492:264|501:330,1,99.0000030212403,8|0,0:0|0:0,0:0:0:0:
282,349,59915,1,8,0:0:0:0:
387,173,60081,1,2,0:0:0:0:
412,384,60248,1,8,0:0:0:0:
271,185,60415,1,2,0:0:0:0:
476,136,60581,1,8,0:0:0:0:
372,294,60748,1,2,0:0:0:0:
189,234,60915,6,0,P|175:184|194:127,1,99.0000030212403,8|0,0:0|0:0,0:0:0:0:
140,307,61248,2,0,P|104:343|45:355,1,99.0000030212403,8|2,0:0|0:0,0:0:0:0:
227,315,61581,2,0,P|275:326|315:371,1,99.0000030212403,8|2,0:0|0:0,0:0:0:0:
62,259,61915,1,8,0:0:0:0:
271,202,62081,1,8,0:0:0:0:
271,202,62165,1,8,0:0:0:0:
271,202,62248,6,0,L|270:99,1,99.0000030212403,6|0,0:0|0:0,0:0:0:0:
31,64,62581,2,0,B|66:155|2:172|36:271,1,198.000006042481,8|2,0:0|0:0,0:0:0:0:
214,346,63081,1,2,0:0:0:0:
116,216,63248,1,8,0:0:0:0:
279,149,63415,6,0,P|351:121|436:201,1,198.000006042481,2|2,0:0|0:0,0:0:0:0:
214,219,63915,2,0,L|114:215,1,99.0000030212403,8|0,0:0|0:0,0:0:0:0:
191,130,64248,1,2,0:0:0:0:
348,214,64415,2,0,P|358:269|344:315,1,99.0000030212403,2|8,0:0|0:0,0:0:0:0:
279,149,64748,1,0,0:0:0:0:
422,171,64915,6,0,P|444:246|415:372,1,198.000006042481,2|8,0:0|0:0,0:0:0:0:
267,258,65415,1,0,0:0:0:0:
355,109,65581,2,0,P|398:83|458:92,1,99.0000030212403,2|2,0:0|0:0,0:0:0:0:
267,258,65915,2,0,L|168:250,1,99.0000030212403,8|0,0:0|0:0,0:0:0:0:
89,77,66248,5,8,0:0:0:0:
89,77,66415,1,2,0:0:0:0:
121,335,66748,6,0,L|306:349,1,180,6|8,0:0|0:0,0:0:0:0:
300,348,67165,1,8,0:0:0:0:
300,348,67248,1,8,0:0:0:0:
111,176,67415,1,8,0:0:0:0:
111,176,67498,1,8,0:0:0:0:
111,176,67581,6,0,P|75:219|75:276,1,99.0000030212403,6|0,0:0|0:0,0:0:0:0:
242,129,67915,1,8,0:0:0:0:
38,107,68081,1,2,0:0:0:0:
174,252,68248,1,8,0:0:0:0:
148,54,68415,1,2,0:0:0:0:
0,189,68581,1,8,0:0:0:0:
189,272,68748,1,2,0:0:0:0:
264,99,68915,6,0,L|269:-10,1,99.0000030212403,8|0,0:0|0:0,0:0:0:0:
177,174,69248,1,8,0:0:0:0:
362,68,69415,1,2,0:0:0:0:
121,34,69581,1,8,0:0:0:0:
258,223,69748,1,2,0:0:0:0:
391,50,69915,1,8,0:0:0:0:
232,101,70081,1,2,0:0:0:0:
355,257,70248,6,0,P|410:272|461:249,1,99.0000030212403,8|0,0:0|0:0,0:0:0:0:
314,91,70581,1,8,0:0:0:0:
318,335,70748,1,2,0:0:0:0:
498,187,70915,1,8,0:0:0:0:
269,215,71081,1,2,0:0:0:0:
440,357,71248,1,8,0:0:0:0:
347,165,71415,1,2,0:0:0:0:
205,349,71581,6,0,P|151:359|100:335,1,99.0000030212403,8|2,0:0|0:0,0:0:0:0:
83,314,71831,1,2,0:0:0:0:
70,275,71915,2,0,L|68:165,1,99.0000030212403,8|0,0:0|0:0,0:0:0:0:
229,206,72248,1,8,0:0:0:0:
65,93,72415,1,8,0:0:0:0:
65,93,72498,1,8,0:0:0:0:
65,93,72581,1,8,0:0:0:0:
263,42,72748,1,2,0:0:0:0:
263,42,72831,1,2,0:0:0:0:
263,42,72915,6,0,P|312:38|360:65,1,99.0000030212403,6|2,0:0|0:0,0:0:0:0:
419,241,73248,2,0,P|370:245|322:218,1,99.0000030212403,8|0,0:0|0:0,0:0:0:0:
451,82,73581,1,2,0:0:0:0:
388,155,73748,1,2,0:0:0:0:
425,0,73915,1,8,0:0:0:0:
484,173,74081,6,0,P|510:274|447:334,1,198.000006042481,2|2,0:0|0:0,0:0:0:0:
244,222,74581,1,8,0:0:0:0:
419,241,74748,1,2,0:0:0:0:
419,241,74831,1,8,0:0:0:0:
419,241,74915,1,2,0:0:0:0:
362,112,75081,1,2,0:0:0:0:
262,312,75248,2,0,P|210:308|166:276,1,99.0000030212403,8|2,0:0|0:0,0:0:0:0:
332,201,75581,5,2,0:0:0:0:
357,376,75748,1,2,0:0:0:0:
433,163,75915,1,8,0:0:0:0:
244,222,76081,1,2,0:0:0:0:
244,222,76165,1,8,0:0:0:0:
244,222,76248,1,2,0:0:0:0:
390,286,76415,1,2,0:0:0:0:
266,98,76581,2,0,L|272:-5,1,99.0000030212403,8|2,0:0|0:0,0:0:0:0:
151,127,76915,5,8,0:0:0:0:
367,63,77081,1,2,0:0:0:0:
172,151,77248,1,8,0:0:0:0:
288,308,77415,2,0,B|382:343|387:274|480:305,1,198.000006042481,6|8,0:0|0:0,0:0:0:0:
338,224,77915,1,8,0:0:0:0:
440,384,78081,1,8,0:0:0:0:
427,203,78248,6,0,P|359:132|269:161,1,180,6|8,0:0|0:0,0:0:0:0:
338,224,78748,1,2,0:0:0:0:
442,81,78915,2,0,P|400:56|333:47,1,90,0|2,0:0|0:0,0:0:0:0:
338,224,79248,2,0,L|334:328,1,90,8|0,0:0|0:0,0:0:0:0:
246,231,79581,5,2,0:0:0:0:
427,206,79748,1,2,0:0:0:0:
356,348,79915,1,8,0:0:0:0:
258,145,80081,2,0,P|211:149|169:187,1,90,2|0,0:0|0:0,0:0:0:0:
280,384,80415,1,8,0:0:0:0:
350,185,80581,2,0,B|358:143|358:143|338:64,1,99.0000030212403,8|0,0:0|0:0,0:0:0:0:
127,119,80915,6,0,B|116:165|116:165|129:227|129:227|114:294,1,180,6|8,0:0|0:0,0:0:0:0:
205,165,81415,1,2,0:0:0:0:
40,226,81581,1,0,0:0:0:0:
212,252,81749,1,2,0:0:0:0:
33,139,81915,1,8,0:0:0:0:
38,339,82081,1,2,0:0:0:0:
38,339,82165,1,2,0:0:0:0:
38,339,82248,6,0,P|72:373|120:381,1,99.0000030212403,12|2,0:0|0:0,0:0:0:0:
288,207,82581,2,0,P|254:173|205:165,1,99.0000030212403,8|2,0:0|0:0,0:0:0:0:
345,360,82915,2,0,L|464:339,1,99.0000030212403,12|2,0:0|0:0,0:0:0:0:
213,253,83248,2,0,L|115:270,1,99.0000030212403,8|8,0:0|0:0,0:0:0:0:
78,283,83498,1,8,0:0:0:0:
59,314,83581,6,0,P|12:274|53:150,1,180,6|8,0:0|0:0,0:0:0:0:
143,359,84081,1,2,0:0:0:0:
94,230,84248,1,0,0:0:0:0:
236,168,84415,1,2,0:0:0:0:
291,307,84581,2,0,L|384:288,1,90,8|0,0:0|0:0,0:0:0:0:
231,377,84915,6,0,L|138:358,1,90,2|2,0:0|0:0,0:0:0:0:
246,206,85248,1,8,0:0:0:0:
443,228,85415,2,0,P|465:265|461:321,1,90,6|0,0:0|0:0,0:0:0:0:
343,382,85748,1,2,0:0:0:0:
348,184,85915,1,8,0:0:0:0:
188,295,86081,1,2,0:0:0:0:
188,295,86165,1,2,0:0:0:0:
188,295,86248,5,12,0:0:0:0:
99,99,86415,1,2,0:0:0:0:
260,216,86581,1,8,0:0:0:0:
60,225,86748,1,2,0:0:0:0:
222,61,86915,1,8,0:0:0:0:
13,74,87081,1,2,0:0:0:0:
162,210,87248,1,8,0:0:0:0:
304,11,87415,6,0,P|319:64|305:111,1,99.0000030212403,6|0,0:0|0:0,0:0:0:0:
140,116,87748,1,8,0:0:0:0:
401,42,87915,1,8,0:0:0:0:
345,290,88748,6,0,B|309:318|249:321|203:304|209:264|227:250|275:275,1,188.999994232178,6|0,0:0|0:0,0:0:0:0:
