osu file format v14

[General]
AudioFilename: kirakira.mp3
AudioLeadIn: 0
PreviewTime: 56331
Countdown: 1
SampleSet: Soft
StackLeniency: 0.7
Mode: 0
LetterboxInBreaks: 0
WidescreenStoryboard: 1

[Editor]
DistanceSpacing: 0.9
BeatDivisor: 2
GridSize: 32
TimelineZoom: 1.8

[Metadata]
Title:Kira Kira datoka Yume datoka ~Sing Girls~ (TV Size)
TitleUnicode:キラキラだとか夢だとか ~Sing Girls~ (TV Size)
Artist:Poppin'Party
ArtistUnicode:Poppin'Party
Creator:Nitrous
Version:Kisses' Normal
Source:BanG Dream!
Tags:バンドリ!ガールズバンドパーティ! bandori Girls Band Party garupa Bandori ending Toyama Kasumi Hanazono Tae Ushigome Rimi Yamabuki Saaya Ichigaya Arisa Aimi Otsuka Sae Nishimoto Rimi Ohashi Ayaka Itou Ayasa 愛美 大塚紗英 牛込 りみ 山吹 沙綾 市ヶ谷 有咲 山吹 沙綾 市ヶ谷 有咲 花園 たえ 戸山 香澄 牛込 りみ Kisses scanter Gaia Kibbleru StarrStyx
BeatmapID:1316983
BeatmapSetID:614346

[Difficulty]
HPDrainRate:5
CircleSize:3.5
OverallDifficulty:5
ApproachRate:6
SliderMultiplier:1.2
SliderTickRate:1

[Events]
//Background and Video events
Video,300,"kirakira.avi"
0,0,"BG-Kisses.jpg",0,0
//Break Periods
//Storyboard Layer 0 (Background)
//Storyboard Layer 1 (Fail)
//Storyboard Layer 2 (Pass)
//Storyboard Layer 3 (Foreground)
//Storyboard Sound Samples

[TimingPoints]
-418,333.333333333333,4,2,0,70,1,0
11581,-100,4,2,0,50,0,0
15915,-100,4,2,0,60,0,0
22248,-100,4,2,0,50,0,0
26581,-100,4,2,0,60,0,0
32581,-125,4,2,0,60,0,0
33248,-125,4,2,0,50,0,0
37915,-100,4,2,0,60,0,0
43581,-125,4,2,0,50,0,0
47748,-100,4,2,0,50,0,0
48581,-100,4,2,0,60,0,0
56581,-100,4,2,0,70,0,1
66415,-100,4,2,0,60,0,0
67248,-100,4,2,0,70,0,1
77081,-100,4,2,0,60,0,0
77915,-100,4,2,0,70,0,1
87081,-100,4,2,0,70,0,1
88415,-100,4,2,0,70,0,0
88915,-100,4,2,0,5,0,0

[Colours]
Combo1 : 244,160,49
Combo2 : 239,106,160
Combo3 : 99,183,224
Combo4 : 167,127,244
Combo5 : 249,104,70

[HitObjects]
452,87,915,6,0,L|319:74,1,120,4|0,0:0|1:0,0:0:0:0:
243,136,1582,1,2,0:0:0:0:
172,53,1915,1,0,1:0:0:0:
172,53,2082,2,0,B|142:93|142:93|149:171,1,120,2|0,0:0|0:0,0:0:0:0:
181,205,2582,2,0,L|167:347,2,120,0|2|0,1:0|0:0|1:0,0:0:0:0:
234,109,3582,6,0,P|173:94|114:120,1,120,2|0,0:0|1:0,0:0:0:0:
132,221,4249,1,2,0:0:0:0:
44,284,4582,1,0,1:0:0:0:
44,284,4749,2,0,B|16:241|16:241|30:171,1,120,2|0,0:0|0:0,0:0:0:0:
45,122,5249,1,0,1:0:0:0:
151,105,5582,1,2,0:0:0:0:
190,205,5915,1,0,1:0:0:0:
189,204,6082,6,0,L|330:218,1,120,2|0,0:0|0:0,0:0:0:0:
362,221,6582,1,0,1:0:0:0:
392,117,6915,2,0,L|470:111,2,60,2|2|0,0:0|0:0|1:0,0:0:0:0:
346,87,7415,2,0,P|291:72|228:98,1,120,4|0,0:0|0:0,0:0:0:0:
189,124,7915,1,0,1:0:0:0:
134,217,8249,1,2,0:0:0:0:
26,204,8582,1,4,0:3:0:0:
26,321,8915,6,0,L|161:313,1,120,4|0,1:2|0:0,0:0:0:0:
182,274,9415,2,0,B|237:302|237:302|302:290,1,120,0|0,1:0|0:0,0:0:0:0:
337,323,9915,2,0,L|346:181,1,120,0|0,1:0|0:0,0:0:0:0:
316,157,10415,2,0,P|371:130|433:146,1,120,0|0,1:0|0:0,0:0:0:0:
446,191,10915,1,0,1:0:0:0:
490,35,11415,6,0,L|289:23,1,180,4|0,0:0|1:0,0:0:0:0:
212,71,12249,2,0,P|158:95|82:80,1,120,2|0,0:0|1:0,0:0:0:0:
8,148,12915,1,2,0:0:0:0:
28,253,13249,1,0,1:0:0:0:
134,236,13582,1,2,0:0:0:0:
140,182,13749,1,2,0:0:0:0:
232,127,14082,6,0,B|279:167|279:167|256:300,1,180,2|0,0:0|1:0,0:0:0:0:
167,329,14915,2,0,L|161:259,2,60,2|2|0,0:0|0:0|1:0,0:0:0:0:
204,368,15415,2,0,P|265:384|328:357,1,120,2|0,0:0|0:0,0:0:0:0:
352,325,15915,1,0,1:0:0:0:
320,221,16249,1,0,1:0:0:0:
373,214,16415,1,0,1:0:0:0:
426,208,16582,1,0,1:0:0:0:
479,200,16749,6,0,B|485:128|485:128|464:96|464:96|471:6,1,180,4|0,0:0|1:0,0:0:0:0:
365,57,17582,2,0,L|370:116,2,60,2|2|0,0:0|0:0|1:0,0:0:0:0:
320,25,18082,2,0,P|263:10|193:34,1,120,2|0,0:0|0:0,0:0:0:0:
165,61,18582,1,0,1:0:0:0:
132,165,18915,1,2,0:0:0:0:
80,150,19082,1,2,0:0:0:0:
28,245,19415,6,0,B|86:281|86:281|197:266,1,180,2|0,0:0|1:0,0:0:0:0:
283,208,20249,1,2,0:0:0:0:
283,208,20415,2,0,L|297:348,1,120,2|2,0:0|0:0,0:0:0:0:
320,375,20915,2,0,B|377:348|377:348|448:369,1,120,4|0,0:3|1:0,0:0:0:0:
481,344,21415,1,2,0:0:0:0:
491,236,21749,1,2,0:0:0:0:
493,128,22082,6,0,L|313:141,1,180,4|0,0:0|1:0,0:0:0:0:
240,220,22915,2,0,L|104:201,1,120,2|0,0:0|1:0,0:0:0:0:
54,112,23582,1,2,0:0:0:0:
53,112,23749,2,0,P|108:90|170:101,1,120,2|0,0:0|0:0,0:0:0:0:
219,88,24249,1,2,0:0:0:0:
225,34,24415,1,2,0:0:0:0:
328,63,24749,6,0,B|406:58|406:58|436:78|436:78|505:72,1,180,4|0,1:2|1:0,0:0:0:0:
456,170,25582,2,0,L|396:164,2,60,2|2|0,0:0|0:0|1:0,0:0:0:0:
488,212,26082,2,0,L|496:338,1,120,2|0,0:0|0:0,0:0:0:0:
502,384,26582,1,0,1:0:0:0:
398,351,26915,2,0,L|317:341,1,60,8|8,0:3|0:3,0:0:0:0:
284,337,27249,1,0,1:0:0:0:
234,359,27415,6,0,P|201:303|236:188,1,180,0|0,0:0|1:0,0:0:0:0:
288,107,28249,2,0,L|281:33,1,60,2|2,0:0|0:0,0:0:0:0:
245,7,28582,1,0,1:0:0:0:
245,7,28749,2,0,P|190:32|116:19,1,120,2|0,0:0|0:0,0:0:0:0:
78,17,29249,1,0,1:0:0:0:
0,92,29582,1,2,0:0:0:0:
8,145,29749,1,2,0:0:0:0:
108,183,30082,6,0,B|102:255|102:255|123:287|123:287|116:377,1,180,2|0,0:0|1:0,0:0:0:0:
222,382,30915,1,2,0:0:0:0:
222,382,31082,2,0,P|283:359|354:376,1,120,2|0,0:0|0:0,0:0:0:0:
387,384,31581,6,0,L|374:258,1,120,4|0,0:0|1:0,0:0:0:0:
370,212,32081,1,2,0:0:0:0:
478,206,32415,1,0,1:0:0:0:
482,152,32581,1,0,1:0:0:0:
485,97,32749,1,0,1:0:0:0:
485,43,32915,6,0,P|409:2|312:49,1,192,4|0,0:0|1:0,0:0:0:0:
224,16,33915,1,2,0:0:0:0:
165,92,34249,2,0,B|210:169|138:202|184:295,1,192,2|0,0:0|1:0,0:0:0:0:
325,189,35582,6,0,P|419:160|475:230,1,192,2|0,0:0|1:0,0:0:0:0:
505,311,36581,1,2,0:0:0:0:
437,383,36915,1,2,0:0:0:0:
437,383,37082,2,0,P|362:373|283:369,1,144,2|0,0:0|1:0,0:0:0:0:
132,240,38249,6,0,P|183:216|255:228,1,120,4|0,0:0|1:0,0:0:0:0:
279,260,38749,2,0,L|423:246,1,120,2|0,0:0|0:0,0:0:0:0:
438,147,39415,1,2,0:0:0:0:
438,147,39582,2,0,L|318:159,1,120,2|0,0:0|1:0,0:0:0:0:
271,132,40082,1,2,0:0:0:0:
182,193,40415,1,2,0:0:0:0:
81,152,40749,1,2,0:0:0:0:
81,152,40915,6,0,L|72:27,1,120,2|0,0:0|1:0,0:0:0:0:
107,0,41415,2,0,P|159:26|231:16,1,120,2|0,0:0|0:0,0:0:0:0:
268,0,41915,1,0,1:0:0:0:
357,60,42249,1,2,1:2:0:0:
357,60,42415,1,2,1:2:0:0:
455,15,42749,2,0,L|442:157,1,120,4|0,0:0|1:0,0:0:0:0:
409,175,43249,2,0,L|417:262,1,60,2|0,0:0|0:0,0:0:0:0:
454,275,43582,6,0,B|368:240|350:310|262:277,1,192,4|0,0:0|1:0,0:0:0:0:
209,356,44582,1,2,0:0:0:0:
126,306,44915,2,0,P|76:232|118:146,1,192,2|0,0:0|1:0,0:0:0:0:
179,0,46249,6,0,P|252:54|222:159,1,192,4|2,0:0|0:0,0:0:0:0:
314,201,47249,1,2,0:0:0:0:
409,189,47582,1,2,1:2:0:0:
409,189,47749,1,2,1:2:0:0:
366,288,48082,2,0,B|300:316|300:316|191:285,1,180,4|0,0:0|1:0,0:0:0:0:
169,179,48915,6,0,L|310:161,1,120,4|0,0:0|1:0,0:0:0:0:
330,197,49415,2,0,P|385:217|442:201,1,120,2|0,0:0|0:0,0:0:0:0:
469,153,49915,1,0,1:0:0:0:
443,47,50249,2,0,L|323:62,1,120,2|0,0:0|1:0,0:0:0:0:
270,70,50749,1,2,0:0:0:0:
172,23,51082,1,2,0:0:0:0:
75,72,51415,1,2,0:0:0:0:
75,72,51582,6,0,B|106:109|106:109|88:206,1,120,4|0,0:0|0:0,0:0:0:0:
60,222,52082,2,0,L|199:208,1,120,2|0,0:0|0:0,0:0:0:0:
218,172,52582,2,0,L|343:195,1,120,2|0,0:0|0:0,0:0:0:0:
377,228,53082,2,0,P|410:175|388:111,1,120,2|0,0:0|0:0,0:0:0:0:
364,79,53582,1,2,0:0:0:0:
280,10,53915,1,2,1:2:0:0:
209,91,54249,5,2,1:2:0:0:
225,197,54582,1,2,1:2:0:0:
326,247,54915,5,2,1:2:0:0:
310,354,55249,1,2,1:2:0:0:
203,370,55582,5,2,0:0:0:0:
203,370,55749,1,2,0:0:0:0:
146,277,56082,1,2,0:0:0:0:
415,261,56915,5,4,0:0:0:0:
484,343,57249,1,2,1:2:0:0:
484,343,57415,2,0,B|430:372|430:372|366:357,1,120,2|0,0:0|0:0,0:0:0:0:
322,340,57915,1,0,1:0:0:0:
298,234,58249,1,2,0:0:0:0:
201,281,58582,1,2,1:2:0:0:
201,280,58749,2,0,B|181:233|181:233|203:162,1,120,2|0,0:0|0:0,0:0:0:0:
226,118,59249,1,0,0:0:0:0:
197,13,59582,5,2,0:0:0:0:
301,39,59915,1,2,1:2:0:0:
301,39,60082,2,0,L|427:31,1,120,2|0,0:0|0:0,0:0:0:0:
474,28,60582,1,0,1:0:0:0:
511,133,60915,2,0,P|446:138|393:104,2,120,2|0|0,0:0|1:0|0:0,0:0:0:0:
467,232,61915,2,0,L|475:316,1,60,2|0,0:0|0:0,0:0:0:0:
484,344,62249,6,0,P|431:316|372:322,1,120,4|0,0:0|1:0,0:0:0:0:
288,255,62915,2,0,L|228:247,2,60,2|0|0,3:0|3:0|1:0,3:0:0:0:
326,216,63415,2,0,B|354:173|354:173|340:103,1,120,2|0,0:0|0:0,0:0:0:0:
323,54,63915,1,0,1:0:0:0:
425,19,64249,1,2,0:0:0:0:
427,73,64415,1,2,0:0:0:0:
501,150,64749,1,2,0:0:0:0:
501,150,64915,6,0,B|448:183|448:183|375:166,1,120,2|0,0:0|1:0,0:0:0:0:
346,140,65415,2,0,B|298:179|298:179|318:312,1,180,2|0,0:0|1:0,0:0:0:0:
251,382,66249,1,2,1:2:0:0:
251,382,66415,1,2,1:2:0:0:
188,293,66749,2,0,P|133:269|75:281,1,120,2|0,0:0|0:0,0:0:0:0:
31,312,67249,1,4,0:3:0:0:
0,208,67582,5,4,0:0:0:0:
101,162,67915,1,2,1:2:0:0:
101,162,68082,2,0,L|239:175,1,120,2|0,0:0|0:0,0:0:0:0:
274,180,68582,1,0,1:0:0:0:
247,74,68915,1,2,0:0:0:0:
343,25,69249,1,2,1:2:0:0:
343,25,69415,2,0,B|378:61|378:61|365:152,1,120,2|0,0:0|0:0,0:0:0:0:
356,182,69915,1,0,1:0:0:0:
432,258,70249,5,2,0:0:0:0:
347,324,70582,1,2,1:2:0:0:
347,324,70749,2,0,B|287:299|287:299|226:337,1,120,2|0,0:0|0:0,0:0:0:0:
199,365,71249,1,0,1:0:0:0:
131,280,71582,2,0,P|83:253|10:269,2,120,2|0|2,0:0|1:0|0:0,0:0:0:0:
202,198,72582,2,0,L|196:122,1,60,2|0,0:0|0:0,0:0:0:0:
170,90,72915,6,0,P|234:102|286:65,1,120,4|0,0:0|1:0,0:0:0:0:
385,90,73582,2,0,L|392:11,2,60,2|0|0,0:0|0:0|1:0,0:0:0:0:
362,138,74082,2,0,B|399:173|399:173|471:161,1,120,2|0,0:0|0:0,0:0:0:0:
512,149,74582,1,0,1:0:0:0:
512,260,74915,1,2,0:0:0:0:
458,253,75082,1,2,0:0:0:0:
384,332,75415,1,2,0:0:0:0:
384,332,75582,6,0,B|350:282|350:282|366:209,1,120,2|0,0:0|1:0,0:0:0:0:
376,171,76082,1,2,0:0:0:0:
268,185,76415,1,2,0:0:0:0:
161,201,76749,1,2,0:0:0:0:
161,201,76915,2,0,L|155:109,1,60,2|0,1:2|1:0,0:0:0:0:
93,53,77415,2,0,P|51:96|57:163,1,120,4|0,0:0|1:0,0:0:0:0:
52,206,77915,1,4,0:3:0:0:
116,292,78249,6,0,B|181:308|181:308|237:277,1,120,4|0,0:0|1:0,0:0:0:0:
267,245,78749,1,2,0:0:0:0:
238,198,78915,2,0,L|227:75,1,120,2|0,0:0|1:0,0:0:0:0:
315,16,79582,2,0,L|322:102,1,60,2|0,0:0|0:0,0:0:0:0:
340,126,79915,1,2,1:2:0:0:
340,126,80082,2,0,P|400:106|466:143,1,120,2|0,0:0|0:0,0:0:0:0:
487,165,80582,1,4,1:0:0:0:
396,211,80915,6,0,L|276:198,1,120,4|0,0:0|1:0,0:0:0:0:
232,166,81415,1,2,0:0:0:0:
184,190,81582,2,0,B|149:229|149:229|159:318,1,120,2|0,0:0|1:0,0:0:0:0:
238,369,82249,2,0,L|378:347,1,120,2|0,0:0|1:0,0:0:0:0:
315,250,82915,2,0,L|455:228,1,120,2|0,0:0|1:0,0:0:0:0:
491,140,83582,6,0,B|512:82|512:82|478:18,1,120,4|0,0:0|1:0,0:0:0:0:
438,1,84082,1,2,0:0:0:0:
390,26,84249,2,0,L|271:44,1,120,2|0,0:0|1:0,0:0:0:0:
175,93,84915,2,2,L|99:82,1,60
68,57,85249,1,2,1:2:0:0:
68,57,85415,2,0,B|74:129|74:129|53:161|53:161|60:251,1,180,2|0,0:0|1:0,0:0:0:0:
128,312,86249,5,4,0:0:0:0:
219,255,86582,1,2,1:2:0:0:
219,255,86749,2,0,B|265:280|265:280|341:264,1,120,2|0,0:0|0:0,0:0:0:0:
409,340,87415,1,4,1:2:0:0:
481,259,87749,1,0,1:0:0:0:
481,259,87915,1,0,1:0:0:0:
282,75,88749,6,0,B|371:47|364:121|457:84,1,180,4|0,0:0|0:0,0:0:0:0:
