osu file format v14

[General]
AudioFilename: kirakira.mp3
AudioLeadIn: 0
PreviewTime: 56331
Countdown: 1
SampleSet: Soft
StackLeniency: 0.7
Mode: 0
LetterboxInBreaks: 0
WidescreenStoryboard: 1

[Editor]
DistanceSpacing: 0.8
BeatDivisor: 4
GridSize: 32
TimelineZoom: 2.2

[Metadata]
Title:Kira Kira datoka Yume datoka ~Sing Girls~ (TV Size)
TitleUnicode:キラキラだとか夢だとか ~Sing Girls~ (TV Size)
Artist:Poppin'Party
ArtistUnicode:Poppin'Party
Creator:Nitrous
Version:StarR's Extra
Source:BanG Dream!
Tags:バンドリ!ガールズバンドパーティ! bandori Girls Band Party garupa Bandori ending Toyama Kasumi Hanazono Tae Ushigome Rimi Yamabuki Saaya Ichigaya Arisa Aimi Otsuka Sae Nishimoto Rimi Ohashi Ayaka Itou Ayasa 愛美 大塚紗英 牛込 りみ 山吹 沙綾 市ヶ谷 有咲 山吹 沙綾 市ヶ谷 有咲 花園 たえ 戸山 香澄 牛込 りみ Kisses scanter Gaia Kibbleru StarrStyx
BeatmapID:1301498
BeatmapSetID:614346

[Difficulty]
HPDrainRate:6
CircleSize:3.8
OverallDifficulty:8.7
ApproachRate:9.3
SliderMultiplier:1.76
SliderTickRate:1

[Events]
//Background and Video events
Video,300,"kirakira.avi"
0,0,"BG-StarR.jpg",0,0
//Break Periods
//Storyboard Layer 0 (Background)
//Storyboard Layer 1 (Fail)
//Storyboard Layer 2 (Pass)
//Storyboard Layer 3 (Foreground)
//Storyboard Sound Samples

[TimingPoints]
-418,333.333333333333,4,2,1,70,1,0
8915,-100,4,2,1,80,0,0
11415,-100,4,2,1,65,0,0
11915,-125,4,2,1,50,0,0
16248,-125,4,2,1,65,0,0
16748,-100,4,2,1,60,0,0
22581,-125,4,2,1,50,0,0
26915,-125,4,2,1,65,0,0
27415,-100,4,2,1,60,0,0
32915,-125,4,2,1,50,0,0
37581,-125,4,2,1,65,0,0
38248,-100,4,2,1,60,0,0
43581,-125,4,2,1,50,0,0
47581,-100,4,2,1,65,0,0
56581,-125,4,2,1,55,0,0
56915,-100,4,2,1,70,0,1
66248,-100,4,2,1,70,0,0
66748,-100,4,2,1,60,0,0
67581,-100,4,2,1,70,0,1
76915,-100,4,2,1,70,0,0
77415,-100,4,2,1,60,0,0
78248,-100,4,2,1,70,0,1
88748,-200,4,2,1,50,0,0
89248,-200,4,2,1,20,0,0

[Colours]
Combo1 : 244,160,49
Combo2 : 239,106,160
Combo3 : 99,183,224
Combo4 : 167,127,244
Combo5 : 249,104,70

[HitObjects]
370,56,415,5,2,0:0:0:0:
370,56,498,1,2,0:0:0:0:
370,56,581,2,0,P|387:94|377:143,1,88,8|0,0:0|0:0,0:0:0:0:
289,247,915,2,0,L|474:267,2,176,4|8|2,0:0|0:0|0:0,0:0:0:0:
150,52,1748,1,0,0:0:0:0:
300,143,1915,1,8,0:0:0:0:
130,293,2081,6,0,L|122:205,1,88,4|0,0:0|0:0,0:0:0:0:
245,40,2415,1,0,0:0:0:0:
394,231,2581,2,0,L|306:221,1,88,8|0,0:0|0:0,0:0:0:0:
120,188,2915,1,2,0:0:0:0:
328,72,3081,1,0,0:0:0:0:
165,15,3248,2,0,L|157:103,1,88,8|0,0:0|0:0,0:0:0:0:
53,286,3581,6,0,P|117:234|206:248,1,176,4|8,0:0|0:0,0:0:0:0:
356,366,4081,1,2,0:0:0:0:
356,366,4165,1,2,0:0:0:0:
356,366,4248,1,8,0:0:0:0:
145,331,4415,1,0,0:0:0:0:
334,187,4581,1,0,0:0:0:0:
135,140,4748,6,0,L|234:131,1,88,4|0,0:0|0:0,0:0:0:0:
365,20,5081,1,0,0:0:0:0:
468,160,5248,2,0,P|474:202|458:248,1,88,8|0,0:0|0:0,0:0:0:0:
209,297,5581,1,2,0:0:0:0:
389,197,5748,1,0,0:0:0:0:
212,97,5915,1,8,0:0:0:0:
337,283,6081,6,0,L|516:271,1,176,4|0,0:0|0:0,0:0:0:0:
332,157,6581,1,8,0:0:0:0:
416,358,6748,2,0,L|424:308,2,44,2|2|8,0:0|0:0|0:0,0:0:0:0:
245,226,7081,1,2,0:0:0:0:
245,226,7165,1,2,0:0:0:0:
245,226,7248,1,8,0:0:0:0:
436,112,7415,6,0,P|347:123|281:68,1,176,4|0,0:0|0:0,0:0:0:0:
143,252,7915,1,8,0:0:0:0:
367,207,8081,2,0,L|306:198,2,44,2|2|8,0:0|0:0|0:0,0:0:0:0:
194,74,8415,1,2,0:0:0:0:
194,74,8498,1,2,0:0:0:0:
194,74,8581,2,0,P|176:116|190:160,1,88,8|0,0:0|0:0,0:0:0:0:
262,320,8915,5,12,0:0:0:0:
367,207,9081,1,0,0:0:0:0:
186,155,9248,1,2,0:0:0:0:
414,312,9415,5,12,0:0:0:0:
294,75,9581,1,0,0:0:0:0:
168,351,9748,1,2,0:0:0:0:
457,121,9915,5,12,0:0:0:0:
140,27,10081,1,0,0:0:0:0:
266,285,10248,1,2,0:0:0:0:
300,5,10415,5,12,0:0:0:0:
84,317,10581,1,0,0:0:0:0:
436,241,10748,1,2,0:0:0:0:
139,133,10915,5,12,0:0:0:0:
300,350,11081,1,2,0:0:0:0:
300,350,11165,1,2,0:0:0:0:
300,350,11248,1,8,0:0:0:0:
436,241,11415,6,0,B|359:234|359:234|337:243|337:243|252:236,1,176,4|0,0:0|0:0,0:0:0:0:
154,180,11915,6,0,L|160:258,1,70.4,2|0,0:0|0:0,0:0:0:0:
79,384,12248,2,0,P|110:367|159:370,1,70.4,2|0,0:0|0:0,0:0:0:0:
300,350,12581,2,0,P|277:322|272:273,1,70.4,2|0,0:0|0:0,0:0:0:0:
360,135,12915,2,0,L|354:213,1,70.4,2|0,0:0|0:0,0:0:0:0:
235,109,13248,2,0,P|272:96|304:56,1,70.4,2|0,0:0|0:0,0:0:0:0:
449,173,13581,2,0,P|456:207|448:241,2,70.4,2|0|2,0:0|0:0|0:0,0:0:0:0:
268,205,14081,6,0,L|122:194,1,140.8,4|0,0:0|0:0,0:0:0:0:
253,305,14581,2,0,P|288:304|320:291,1,70.4,2|0,0:0|0:0,0:0:0:0:
449,173,14915,1,2,0:0:0:0:
268,205,15081,1,0,0:0:0:0:
432,340,15248,1,2,0:0:0:0:
247,190,15415,2,0,P|324:197|373:159,1,140.8,2|0,0:0|0:0,0:0:0:0:
302,42,15915,2,0,P|288:74|293:109,1,70.4,2|0,0:0|0:0,0:0:0:0:
362,308,16248,5,8,0:0:0:0:
164,215,16415,1,8,0:0:0:0:
373,85,16581,1,8,0:0:0:0:
77,188,16748,6,0,P|135:133|238:158,1,176,4|0,0:0|0:0,0:0:0:0:
373,85,17248,2,0,L|360:192,1,88,8|0,0:0|0:0,0:0:0:0:
255,41,17581,1,2,0:0:0:0:
309,250,17748,1,0,0:0:0:0:
487,140,17915,1,8,0:0:0:0:
378,292,18081,6,0,L|185:272,1,176
279,81,18581,2,0,P|303:116|308:160,1,88,8|0,0:0|0:0,0:0:0:0:
211,357,18915,1,2,0:0:0:0:
86,204,19081,2,0,L|185:194,1,88,0|8,0:0|0:0,0:0:0:0:
429,109,19415,6,0,P|347:130|278:80,1,176
124,124,19915,2,0,P|155:148|171:193,1,88,8|0,0:0|0:0,0:0:0:0:
81,331,20248,1,2,0:0:0:0:
251,150,20415,1,0,0:0:0:0:
343,352,20581,1,8,0:0:0:0:
179,277,20748,6,0,P|164:240|172:192,1,88
221,37,21081,1,2,0:0:0:0:
221,37,21165,1,2,0:0:0:0:
221,37,21248,1,8,0:0:0:0:
401,171,21415,2,0,B|373:182|373:182|313:170,1,88,8|0,0:0|0:0,0:0:0:0:
243,230,21748,2,0,P|276:255|320:264,1,88,8|0,0:0|0:0,0:0:0:0:
436,133,22081,6,0,L|450:320,1,176,4|0,0:0|0:0,0:0:0:0:
320,264,22581,6,0,P|349:244|406:238,1,70.4,2|0,0:0|0:0,0:0:0:0:
303,119,22915,2,0,P|287:150|241:184,1,70.4,2|0,0:0|0:0,0:0:0:0:
137,93,23248,2,0,L|208:91,1,70.4,2|0,0:0|0:0,0:0:0:0:
113,219,23581,2,0,L|42:214,1,70.4,2|0,0:0|0:0,0:0:0:0:
163,318,23915,2,0,P|194:299|212:264,1,70.4,2|0,0:0|0:0,0:0:0:0:
303,119,24248,1,2,0:0:0:0:
303,119,24415,2,0,P|285:150|287:190,1,70.4,0|2,0:0|0:0,0:0:0:0:
485,220,24748,6,0,P|436:172|368:171,1,140.8,4|0,0:0|0:0,0:0:0:0:
210,270,25248,2,0,L|301:280,1,70.4,2|0,0:0|0:0,0:0:0:0:
188,145,25581,1,2,0:0:0:0:
401,257,25748,1,0,0:0:0:0:
259,374,25915,1,2,0:0:0:0:
172,146,26081,2,0,P|245:157|301:123,1,140.8
437,38,26581,2,0,P|411:63|400:96,1,70.4,2|0,0:0|0:0,0:0:0:0:
478,289,26915,5,8,0:0:0:0:
261,192,27081,1,2,0:0:0:0:
261,192,27165,1,2,0:0:0:0:
261,192,27248,1,8,0:0:0:0:
483,108,27415,6,0,P|414:54|328:73,1,176,4|0,0:0|0:0,0:0:0:0:
166,181,27915,2,0,L|177:84,1,88,8|0,0:0|0:0,0:0:0:0:
51,270,28248,1,2,0:0:0:0:
246,207,28415,1,0,0:0:0:0:
91,85,28581,1,8,0:0:0:0:
284,287,28748,6,0,P|370:311|444:265,1,176
223,230,29248,2,0,P|205:272|210:333,1,88,8|0,0:0|0:0,0:0:0:0:
355,212,29581,1,2,0:0:0:0:
186,125,29748,1,0,0:0:0:0:
382,45,29915,1,8,0:0:0:0:
95,83,30081,6,0,P|159:27|243:42,1,176
406,124,30581,2,0,P|383:91|383:41,1,88,8|0,0:0|0:0,0:0:0:0:
289,252,30915,1,2,0:0:0:0:
464,63,31081,1,0,0:0:0:0:
512,245,31248,1,8,0:0:0:0:
277,160,31415,6,0,L|93:171,1,176
263,331,31915,1,8,0:0:0:0:
263,331,32081,2,0,P|288:292|288:243,1,88,0|2,0:0|0:0,0:0:0:0:
210,77,32415,1,8,0:0:0:0:
418,174,32581,1,8,0:0:0:0:
206,267,32748,1,8,0:0:0:0:
396,337,32915,6,0,L|416:183,1,140.8,4|0,0:0|0:0,0:0:0:0:
431,42,33415,1,2,0:0:0:0:
431,42,33581,2,0,B|369:66|369:66|296:48,1,140.8,8|0,0:0|0:0,0:0:0:0:
172,15,34081,1,2,0:0:0:0:
172,15,34165,1,2,0:0:0:0:
172,15,34248,2,0,P|164:50|177:97,1,70.4,8|0,0:0|0:0,0:0:0:0:
315,163,34581,2,0,P|288:138|241:126,1,70.4,2|0,0:0|0:0,0:0:0:0:
81,245,34915,2,0,P|139:213|227:234,1,140.8,8|0,0:0|0:0,0:0:0:0:
351,296,35415,1,2,0:0:0:0:
160,319,35581,6,0,L|140:165,1,140.8
79,40,36081,1,2,0:0:0:0:
79,40,36248,2,0,P|150:66|229:41,1,140.8,8|0,0:0|0:0,0:0:0:0:
378,8,36748,1,2,0:0:0:0:
378,8,36831,1,2,0:0:0:0:
378,8,36915,1,8,0:0:0:0:
325,186,37081,1,0,0:0:0:0:
451,133,37248,2,0,B|461:100|461:100|452:65,1,70.4,2|0,0:0|0:0,0:0:0:0:
259,135,37581,2,0,B|284:109|284:109|318:101,1,70.4,8|0,0:0|0:0,0:0:0:0:
466,237,37915,2,0,B|431:227|431:227|407:202,1,70.4,8|0,0:0|0:0,0:0:0:0:
240,37,38248,6,0,L|65:52,1,176,4|8,0:0|0:0,0:0:0:0:
257,217,38748,2,0,P|271:176|255:130,1,88,0|2,0:0|0:0,0:0:0:0:
143,304,39081,1,0,0:0:0:0:
361,246,39248,1,8,0:0:0:0:
176,119,39415,1,0,0:0:0:0:
345,266,39581,6,0,L|450:276,1,88
171,204,39915,1,8,0:0:0:0:
171,204,40081,2,0,L|66:214,1,88,0|2,0:0|0:0,0:0:0:0:
303,65,40415,2,0,L|408:75,1,88,0|8,0:0|0:0,0:0:0:0:
270,235,40748,1,0,0:0:0:0:
505,226,40915,6,0,P|442:169|354:187,1,176,0|8,0:0|0:0,0:0:0:0:
404,340,41415,2,0,P|422:301|417:258,1,88,0|2,0:0|0:0,0:0:0:0:
291,97,41748,1,0,0:0:0:0:
167,245,41915,2,0,B|199:258|199:258|270:251,1,88,8|0,0:0|0:0,0:0:0:0:
444,155,42248,5,8,0:0:0:0:
147,42,42415,1,12,0:0:0:0:
315,337,42748,6,0,P|356:263|318:172,1,176,4|0,0:0|0:0,0:0:0:0:
147,42,43248,2,0,P|121:77|117:120,1,88,2|0,0:0|0:0,0:0:0:0:
43,227,43581,6,0,L|191:240,1,140.8,4|2,0:0|0:0,0:0:0:0:
297,133,44081,1,2,0:0:0:0:
297,133,44248,2,0,B|289:188|289:188|302:221|302:221|294:280,1,140.8,8|0,0:0|0:0,0:0:0:0:
382,185,44748,1,2,0:0:0:0:
382,185,44831,1,2,0:0:0:0:
382,185,44915,2,0,P|409:165|422:120,1,70.4,8|0,0:0|0:0,0:0:0:0:
252,211,45248,2,0,P|221:197|175:208,1,70.4,2|0,0:0|0:0,0:0:0:0:
363,346,45581,2,0,P|396:277|376:211,1,140.8,8|0,0:0|0:0,0:0:0:0:
273,98,46081,1,2,0:0:0:0:
273,98,46248,6,0,L|427:83,1,140.8,4|0,0:0|0:0,0:0:0:0:
214,18,46748,1,2,0:0:0:0:
214,18,46915,2,0,P|176:77|193:158,1,140.8,8|0,0:0|0:0,0:0:0:0:
271,261,47415,1,2,0:0:0:0:
271,261,47498,1,2,0:0:0:0:
271,261,47581,6,0,L|334:255,1,44,8|0,0:0|0:0,0:0:0:0:
184,144,47748,2,0,L|121:138,1,44,8|0,0:0|0:0,0:0:0:0:
347,80,48081,6,0,P|416:130|501:116,1,176,4|0,0:0|0:0,0:0:0:0:
443,16,48581,1,8,0:0:0:0:
264,118,48748,1,2,0:0:0:0:
264,118,48831,1,2,0:0:0:0:
264,118,48915,6,0,P|252:76|268:34,1,88,4|0,0:0|0:0,0:0:0:0:
402,175,49248,1,8,0:0:0:0:
271,261,49415,2,0,P|233:275|175:262,1,88,0|2,0:0|0:0,0:0:0:0:
264,118,49748,1,0,0:0:0:0:
332,337,49915,1,8,0:0:0:0:
108,233,50081,1,0,0:0:0:0:
264,118,50248,6,0,B|296:112|296:112|357:123,1,88,4|0,0:0|0:0,0:0:0:0:
495,242,50581,1,8,0:0:0:0:
332,337,50748,2,0,P|315:296|333:244,1,88,0|2,0:0|0:0,0:0:0:0:
409,64,51081,1,2,0:0:0:0:
409,64,51165,1,2,0:0:0:0:
409,64,51248,1,8,0:0:0:0:
161,123,51414,1,2,0:0:0:0:
161,123,51498,1,2,0:0:0:0:
161,123,51582,5,12,0:0:0:0:
414,209,51748,1,0,0:0:0:0:
128,300,51915,1,10,0:0:0:0:
355,95,52081,5,2,0:0:0:0:
274,326,52248,1,0,0:0:0:0:
161,123,52414,1,0,0:0:0:0:
442,107,52581,5,8,0:0:0:0:
125,212,52748,1,0,0:0:0:0:
419,343,52915,1,2,0:0:0:0:
264,158,53081,5,2,0:0:0:0:
177,366,53248,1,8,0:0:0:0:
404,264,53415,1,0,0:0:0:0:
135,102,53581,6,0,P|181:106|236:87,1,88
388,266,53915,2,0,P|345:254|302:259,1,88,8|0,0:0|0:0,0:0:0:0:
51,265,54248,5,8,0:0:0:0:
85,271,54331,1,0,0:0:0:0:
120,260,54414,1,0,0:0:0:0:
145,234,54498,1,0,0:0:0:0:
173,211,54581,5,8,0:0:0:0:
206,198,54664,1,0,0:0:0:0:
243,203,54747,1,0,0:0:0:0:
272,224,54831,1,0,0:0:0:0:
292,247,54915,6,8,P|320:259|357:258,3,44
448,186,55248,2,8,P|426:189|406:199,3,44
464,301,55581,5,8,0:0:0:0:
374,66,55748,1,8,0:0:0:0:
374,66,56081,2,0,B|306:60|306:60|273:76|273:76|188:68,1,176,8|0,0:0|0:0,0:0:0:0:
103,23,56498,1,2,0:0:0:0:
103,23,56581,6,0,P|121:66|101:130,1,105.6,8|0,0:0|0:0,0:0:0:0:
51,197,56915,6,0,P|119:147|214:173,1,176,4|8,0:0|0:0,0:0:0:0:
366,297,57415,1,0,0:0:0:0:
138,229,57581,1,8,0:0:0:0:
383,84,57748,1,0,0:0:0:0:
244,328,57915,1,8,0:0:0:0:
107,121,58081,1,2,0:0:0:0:
107,121,58165,1,2,0:0:0:0:
107,121,58248,6,0,B|97:185|97:185|107:222|107:222|95:306,1,176,8|8,0:0|0:0,0:0:0:0:
212,84,58748,1,0,0:0:0:0:
8,282,58915,1,8,0:0:0:0:
250,221,59081,1,0,0:0:0:0:
37,67,59248,1,8,0:0:0:0:
209,307,59415,1,2,0:0:0:0:
209,307,59498,1,2,0:0:0:0:
209,307,59581,6,0,B|295:344|294:268|400:304,1,176,8|8,0:0|0:0,0:0:0:0:
216,169,60081,1,0,0:0:0:0:
300,358,60248,1,8,0:0:0:0:
441,122,60415,1,0,0:0:0:0:
270,278,60581,1,8,0:0:0:0:
131,118,60748,1,2,0:0:0:0:
131,118,60831,1,2,0:0:0:0:
131,118,60915,6,0,P|162:84|204:69,1,88,8|0,0:0|0:0,0:0:0:0:
387,17,61248,2,0,P|400:58|394:101,1,88,8|0,0:0|0:0,0:0:0:0:
323,282,61581,2,0,P|281:273|247:246,1,88,8|0,0:0|0:0,0:0:0:0:
200,69,61915,1,8,0:0:0:0:
58,227,62081,1,2,0:0:0:0:
58,227,62165,1,2,0:0:0:0:
58,227,62248,6,0,B|88:245|88:245|157:242,1,88,4|0,0:0|0:0,0:0:0:0:
259,151,62581,2,0,P|299:135|366:150,1,88,8|0,0:0|0:0,0:0:0:0:
506,202,62915,1,2,0:0:0:0:
346,49,63081,1,2,0:0:0:0:
234,263,63248,1,8,0:0:0:0:
136,151,63415,6,0,L|147:61,1,88,2|0,0:0|0:0,0:0:0:0:
317,232,63748,1,0,0:0:0:0:
147,304,63915,2,0,B|111:318|111:318|55:306,1,88,8|2,0:0|0:0,0:0:0:0:
151,204,64165,1,2,0:0:0:0:
151,204,64248,2,0,P|196:212|225:244,1,88,2|0,0:0|0:0,0:0:0:0:
382,309,64581,2,0,P|338:332|299:331,1,88,8|0,0:0|0:0,0:0:0:0:
278,125,64915,6,0,L|456:142,1,176,4|8,0:0|0:0,0:0:0:0:
382,309,65415,1,2,0:0:0:0:
382,309,65498,1,2,0:0:0:0:
382,309,65581,2,0,P|363:272|368:221,1,88,8|0,0:0|0:0,0:0:0:0:
353,31,65915,1,8,0:0:0:0:
251,282,66081,1,0,0:0:0:0:
470,219,66248,5,8,0:0:0:0:
82,122,66415,1,8,0:0:0:0:
82,122,66748,2,0,L|90:261,1,132,4|0,0:0|0:0,0:0:0:0:
98,287,67081,1,8,0:0:0:0:
98,287,67165,1,2,0:0:0:0:
98,287,67248,1,2,0:0:0:0:
374,144,67415,1,2,0:0:0:0:
374,144,67498,1,2,0:0:0:0:
374,144,67581,6,0,P|282:159|212:94,1,176,4|8,0:0|0:0,0:0:0:0:
371,17,68081,1,0,0:0:0:0:
203,282,68248,1,8,0:0:0:0:
466,176,68415,1,0,0:0:0:0:
220,111,68581,1,8,0:0:0:0:
410,312,68748,1,2,0:0:0:0:
410,312,68831,1,2,0:0:0:0:
410,312,68915,6,0,L|226:323,1,176,8|8,0:0|0:0,0:0:0:0:
78,192,69415,1,0,0:0:0:0:
319,122,69581,1,8,0:0:0:0:
195,327,69748,1,0,0:0:0:0:
237,69,69915,1,8,0:0:0:0:
435,224,70081,1,2,0:0:0:0:
435,224,70165,1,2,0:0:0:0:
435,224,70248,6,0,B|341:185|341:265|255:218,1,176,8|8,0:0|0:0,0:0:0:0:
409,114,70748,1,0,0:0:0:0:
192,323,70915,1,8,0:0:0:0:
147,132,71081,1,0,0:0:0:0:
399,301,71248,1,8,0:0:0:0:
292,43,71415,1,2,0:0:0:0:
292,43,71498,1,2,0:0:0:0:
292,43,71581,6,0,P|271:79|271:128,1,88,8|0,0:0|0:0,0:0:0:0:
388,305,71915,2,0,P|367:269|367:220,1,88,8|0,0:0|0:0,0:0:0:0:
480,74,72248,2,0,P|478:102|464:134,1,44,8|0,0:0|0:0,0:0:0:0:
316,116,72415,2,8,P|341:103|375:99,1,44
437,233,72581,2,8,P|408:230|376:216,1,44
240,153,72748,1,8,0:0:0:0:
240,153,72831,1,8,0:0:0:0:
240,153,72915,6,0,L|248:262,1,88,4|0,0:0|0:0,0:0:0:0:
47,330,73248,2,0,B|34:297|34:297|52:230,1,88,8|0,0:0|0:0,0:0:0:0:
156,50,73581,1,2,0:0:0:0:
245,302,73748,1,2,0:0:0:0:
41,162,73915,1,8,0:0:0:0:
262,47,74081,6,0,P|271:90|255:144,1,88,2|2,0:0|0:0,0:0:0:0:
157,299,74415,1,0,0:0:0:0:
41,162,74581,2,0,B|80:148|80:148|157:158,1,88,8|2,0:0|0:0,0:0:0:0:
260,217,74831,1,2,0:0:0:0:
260,217,74915,2,0,P|251:174|267:120,1,88,2|0,0:0|0:0,0:0:0:0:
455,27,75248,2,0,P|464:69|455:112,1,88,8|0,0:0|0:0,0:0:0:0:
359,258,75581,6,0,P|420:210|529:233,1,176,4|8,0:0|0:0,0:0:0:0:
456,322,76081,1,2,0:0:0:0:
456,322,76165,1,2,0:0:0:0:
456,322,76248,1,8,0:0:0:0:
326,152,76415,1,0,0:0:0:0:
512,221,76581,1,8,0:0:0:0:
273,312,76748,1,0,0:0:0:0:
454,131,76915,5,4,0:0:0:0:
213,42,77081,2,0,L|203:135,1,88,2|8,0:0|0:0,0:0:0:0:
349,380,77415,2,0,P|375:318|348:243,1,132,4|0,0:0|0:0,0:0:0:0:
343,230,77748,1,8,0:0:0:0:
179,160,77915,1,8,0:0:0:0:
389,61,78081,1,8,0:0:0:0:
189,241,78248,6,0,P|108:197|27:224,1,176,4|8,0:0|0:0,0:0:0:0:
271,314,78748,1,2,0:0:0:0:
271,314,78831,1,2,0:0:0:0:
271,314,78915,2,0,P|294:278|298:235,1,88,2|0,0:0|0:0,0:0:0:0:
208,29,79248,2,0,P|211:72|235:108,1,88,8|0,0:0|0:0,0:0:0:0:
388,215,79581,5,2,0:0:0:0:
195,333,79748,2,0,B|186:300|186:300|202:238,1,88,0|8,0:0|0:0,0:0:0:0:
303,134,80081,2,0,L|166:118,1,132,2|0,0:0|0:0,0:0:0:0:
141,115,80415,5,12,0:0:0:0:
296,311,80581,1,12,0:0:0:0:
296,311,80915,6,0,P|366:262|466:287,1,176,4|8,0:0|0:0,0:0:0:0:
392,376,81415,1,0,0:0:0:0:
257,194,81581,2,0,L|349:183,1,88,2|0,0:0|0:0,0:0:0:0:
213,73,81915,1,8,0:0:0:0:
107,291,82081,1,2,0:0:0:0:
107,291,82164,1,2,0:0:0:0:
107,291,82247,5,8,0:0:0:0:
364,191,82415,1,0,0:0:0:0:
107,132,82581,5,8,0:0:0:0:
402,278,82748,1,0,0:0:0:0:
38,219,82915,5,8,0:0:0:0:
377,51,83081,1,0,0:0:0:0:
83,34,83248,5,8,0:0:0:0:
374,148,83415,2,0,L|360:207,1,44,2|2,0:0|0:0,0:0:0:0:
194,351,83581,6,0,B|202:288|202:288|217:263|217:263|229:178,1,176,4|8,0:0|0:0,0:0:0:0:
118,66,84081,1,0,0:0:0:0:
21,241,84248,2,0,P|63:228|106:238,1,88,2|0,0:0|0:0,0:0:0:0:
294,347,84581,2,0,P|261:317|248:276,1,88,8|0,0:0|0:0,0:0:0:0:
309,82,84915,5,2,0:0:0:0:
173,330,85081,1,0,0:0:0:0:
388,234,85248,1,8,0:0:0:0:
154,144,85415,2,0,P|242:156|304:89,1,176,4|0,0:0|0:0,0:0:0:0:
210,62,85915,1,8,0:0:0:0:
138,312,86081,1,2,0:0:0:0:
138,312,86165,1,2,0:0:0:0:
138,312,86248,5,8,0:0:0:0:
394,196,86415,1,0,0:0:0:0:
93,137,86581,5,8,0:0:0:0:
439,275,86748,1,0,0:0:0:0:
63,257,86915,5,8,0:0:0:0:
440,131,87081,1,0,0:0:0:0:
163,48,87248,1,8,0:0:0:0:
296,351,87415,6,0,P|328:299|305:221,1,132,4|0,0:0|0:0,0:0:0:0:
297,207,87748,1,8,0:0:0:0:
68,371,87915,1,8,0:0:0:0:
68,371,88748,6,0,B|121:366|121:366|148:374|148:374|214:369,1,132,4|0,0:0|0:0,0:0:0:0:
