osu file format v14

[General]
AudioFilename: kirakira.mp3
AudioLeadIn: 0
PreviewTime: 56331
Countdown: 1
SampleSet: Soft
StackLeniency: 0.7
Mode: 0
LetterboxInBreaks: 0
WidescreenStoryboard: 1

[Editor]
DistanceSpacing: 0.5
BeatDivisor: 4
GridSize: 32
TimelineZoom: 2.2

[Metadata]
Title:Kira Kira datoka Yume datoka ~Sing Girls~ (TV Size)
TitleUnicode:キラキラだとか夢だとか ~Sing Girls~ (TV Size)
Artist:Poppin'Party
ArtistUnicode:Poppin'Party
Creator:Nitrous
Version:Kibb's Extra
Source:BanG Dream!
Tags:バンドリ!ガールズバンドパーティ! bandori Girls Band Party garupa Bandori ending Toyama Kasumi Hanazono Tae Ushigome Rimi Yamabuki Saaya Ichigaya Arisa Aimi Otsuka Sae Nishimoto Rimi Ohashi Ayaka Itou Ayasa 愛美 大塚紗英 牛込 りみ 山吹 沙綾 市ヶ谷 有咲 山吹 沙綾 市ヶ谷 有咲 花園 たえ 戸山 香澄 牛込 りみ Kisses scanter Gaia Kibbleru StarrStyx
BeatmapID:1297787
BeatmapSetID:614346

[Difficulty]
HPDrainRate:7
CircleSize:4
OverallDifficulty:8
ApproachRate:9.4
SliderMultiplier:1.74
SliderTickRate:1

[Events]
//Background and Video events
0,0,"BG-Kibbleru.jpg",0,0
Video,300,"kirakira.avi"
//Break Periods
//Storyboard Layer 0 (Background)
//Storyboard Layer 1 (Fail)
//Storyboard Layer 2 (Pass)
//Storyboard Layer 3 (Foreground)
//Storyboard Sound Samples

[TimingPoints]
-418,333.333333333333,4,2,1,60,1,0
10915,-83.3333333333333,4,2,1,60,0,0
11415,-142.857142857143,4,2,1,60,0,0
14081,-100,4,2,1,60,0,0
14581,-142.857142857143,4,2,1,60,0,0
16748,-100,4,2,1,60,0,0
22248,-142.857142857143,4,2,1,60,0,0
24748,-100,4,2,1,60,0,0
25248,-142.857142857143,4,2,1,60,0,0
27415,-100,4,2,1,60,0,0
32915,-142.857142857143,4,2,1,60,0,0
38248,-100,4,2,1,60,0,0
43581,-142.857142857143,4,2,1,60,0,0
47748,-200,4,2,1,60,0,0
48081,-100,4,2,1,60,0,0
55581,-142.857142857143,4,2,1,60,0,0
55736,-142.857142857143,4,2,1,60,0,0
55748,-142.857142857143,4,2,1,30,0,0
56069,-142.857142857143,4,2,1,30,0,0
56081,-83.3333333333333,4,2,1,60,0,0
56581,-142.857142857143,4,2,1,60,0,0
56903,-142.857142857143,4,2,1,60,0,0
56915,-90.9090909090909,4,2,1,70,0,1
66736,-90.9090909090909,4,2,1,70,0,1
66748,-142.857142857143,4,2,1,60,0,0
67569,-142.857142857143,4,2,1,60,0,0
67581,-90.9090909090909,4,2,1,70,0,1
77403,-90.9090909090909,4,2,1,70,0,1
77415,-90.9090909090909,4,2,1,60,0,0
78236,-90.9090909090909,4,2,1,60,0,0
78248,-100,4,2,1,70,0,1
80081,-90.9090909090909,4,2,1,70,0,1
80915,-100,4,2,1,70,0,1
82248,-71.4285714285714,4,2,1,70,0,1
83581,-100,4,2,1,70,0,1
85415,-90.9090909090909,4,2,1,70,0,1
88736,-90.9090909090909,4,2,1,70,0,1
88748,-142.857142857143,4,2,1,60,0,0
89236,-142.857142857143,4,2,1,60,0,0
89248,-142.857142857143,4,2,1,20,0,0

[Colours]
Combo1 : 244,160,49
Combo2 : 239,106,160
Combo3 : 99,183,224
Combo4 : 167,127,244
Combo5 : 249,104,70

[HitObjects]
82,140,415,5,2,0:0:0:0:
82,140,498,1,0,0:0:0:0:
82,140,581,2,0,L|176:128,1,87,2|0,0:0|0:0,0:0:0:0:
231,237,915,6,0,P|146:238|95:304,2,174,4|8|2,0:0|0:0|0:0,0:0:0:0:
316,298,1748,2,0,P|334:258|336:215,1,87,0|8,0:0|0:0,0:0:0:0:
422,104,2081,6,0,B|360:92|360:92|317:112|317:112|254:101,1,174,4|0,0:0|0:0,0:0:0:0:
152,65,2581,2,0,L|161:153,1,87,8|0,0:0|0:0,0:0:0:0:
245,4,2915,1,2,0:0:0:0:
83,225,3081,1,0,0:0:0:0:
359,289,3248,2,0,L|367:202,1,87,8|0,0:0|0:0,0:0:0:0:
292,147,3581,6,0,P|375:158|441:97,1,174,4|8,0:0|0:0,0:0:0:0:
193,105,4081,1,8,0:0:0:0:
188,126,4165,1,8,0:0:0:0:
188,147,4248,1,8,0:0:0:0:
282,45,4415,1,2,0:0:0:0:
88,119,4581,1,0,0:0:0:0:
278,252,4748,6,0,P|220:190|136:194,1,174,4|0,0:0|0:0,0:0:0:0:
335,133,5248,2,0,P|378:127|420:119,1,87,8|0,0:0|0:0,0:0:0:0:
182,285,5581,1,2,0:0:0:0:
238,84,5748,1,0,0:0:0:0:
381,232,5915,1,8,0:0:0:0:
253,191,6081,6,0,B|175:161|170:229|84:200,1,174,4|0,0:0|0:0,0:0:0:0:
136,22,6581,2,0,P|121:62|123:105,1,87,8|0,0:0|0:0,0:0:0:0:
218,279,6915,1,2,0:0:0:0:
350,163,7081,1,8,0:0:0:0:
351,184,7165,1,8,0:0:0:0:
352,205,7248,1,8,0:0:0:0:
412,70,7415,6,0,P|353:128|264:120,1,174,4|0,0:0|0:0,0:0:0:0:
433,279,7915,2,0,P|446:239|447:190,1,87,8|0,0:0|0:0,0:0:0:0:
318,31,8248,1,2,0:0:0:0:
178,160,8415,1,8,0:0:0:0:
171,139,8498,1,8,0:0:0:0:
171,117,8581,1,8,0:0:0:0:
447,194,8831,1,2,0:0:0:0:
449,214,8915,5,12,0:0:0:0:
171,117,9081,1,0,0:0:0:0:
431,8,9248,1,2,0:0:0:0:
63,214,9415,5,12,0:0:0:0:
341,117,9581,1,0,0:0:0:0:
81,8,9748,1,2,0:0:0:0:
395,295,9915,5,12,0:0:0:0:
179,144,10081,1,0,0:0:0:0:
431,8,10248,1,2,0:0:0:0:
117,295,10415,5,12,0:0:0:0:
333,144,10581,1,0,0:0:0:0:
81,8,10748,1,2,0:0:0:0:
250,325,10915,6,0,L|252:272,1,52.1999984069825,12|0,0:0|0:0,0:0:0:0:
333,144,11081,1,8,0:0:0:0:
311,142,11165,1,8,0:0:0:0:
290,140,11248,1,8,0:0:0:0:
161,108,11415,6,0,B|261:84|238:163|332:143,1,182.699994424439,4|2,0:0|0:0,0:0:0:0:
307,48,12081,1,0,0:0:0:0:
410,23,12248,2,0,P|404:52|400:83,1,60.8999981414796,2|0,0:0|0:0,0:0:0:0:
415,237,12581,2,0,P|420:207|424:176,1,60.8999981414796,2|0,0:0|0:0,0:0:0:0:
441,318,12915,6,0,P|396:277|337:271,1,121.799996282959,2|2,0:0|0:0,0:0:0:0:
258,313,13415,2,0,P|249:283|245:253,2,60.8999981414796,0|2|0,0:0|0:0|0:0,0:0:0:0:
341,361,13915,1,2,0:0:0:0:
172,202,14081,6,0,P|255:214|317:157,1,174,8|0,0:0|0:0,0:0:0:0:
238,62,14581,2,0,P|229:91|227:121,1,60.8999981414796,2|0,0:0|0:0,0:0:0:0:
166,0,14915,1,2,0:0:0:0:
324,116,15081,1,0,0:0:0:0:
172,202,15248,1,2,0:0:0:0:
324,116,15415,6,0,L|404:107,1,60.8999981414796,0|0,0:0|0:0,0:0:0:0:
139,99,15748,1,0,0:0:0:0:
139,99,15915,2,0,L|59:90,1,60.8999981414796,2|0,0:0|0:0,0:0:0:0:
172,202,16248,5,8,0:0:0:0:
303,27,16415,1,8,0:0:0:0:
404,228,16581,1,8,0:0:0:0:
245,116,16748,6,0,P|327:132|393:79,1,174,4|0,0:0|0:0,0:0:0:0:
131,76,17248,2,0,P|141:115|143:161,1,87,8|0,0:0|0:0,0:0:0:0:
42,128,17581,1,2,0:0:0:0:
147,264,17748,1,0,0:0:0:0:
245,116,17915,1,8,0:0:0:0:
60,289,18081,6,0,B|150:271|140:342|224:326,1,174,2|0,0:0|0:0,0:0:0:0:
215,136,18581,2,0,P|202:177|202:220,1,87,8|0,0:0|0:0,0:0:0:0:
86,379,18915,1,2,0:0:0:0:
301,189,19081,2,0,L|394:174,1,87,0|8,0:0|0:0,0:0:0:0:
108,189,19415,6,0,P|39:141|41:53,1,174,2|0,0:0|0:0,0:0:0:0:
71,293,19915,2,0,P|82:335|85:378,1,87,8|0,0:0|0:0,0:0:0:0:
129,91,20248,1,2,0:0:0:0:
208,248,20415,2,0,P|211:204|222:162,1,87,0|8,0:0|0:0,0:0:0:0:
100,191,20748,6,0,L|5:181,1,87,0|2,0:0|0:0,0:0:0:0:
315,220,21081,1,8,0:0:0:0:
336,218,21165,1,8,0:0:0:0:
357,216,21248,1,8,0:0:0:0:
203,89,21415,5,2,0:0:0:0:
208,193,21748,1,2,0:0:0:0:
213,297,22081,1,4,0:0:0:0:
124,252,22581,6,0,L|63:247,1,60.8999981414796,2|0,0:0|0:0,0:0:0:0:
292,242,22915,2,0,L|352:237,1,60.8999981414796,2|0,0:0|0:0,0:0:0:0:
148,163,23248,2,0,L|87:158,1,60.8999981414796,2|0,0:0|0:0,0:0:0:0:
247,91,23581,5,2,0:0:0:0:
247,91,23748,2,0,P|252:120|249:151,1,60.8999981414796,0|2,0:0|0:0,0:0:0:0:
201,307,24081,2,0,P|195:277|198:246,2,60.8999981414796,0|2|0,0:0|0:0|0:0,0:0:0:0:
291,274,24581,1,2,0:0:0:0:
149,56,24748,6,0,P|232:63|291:-5,1,174,8|0,0:0|0:0,0:0:0:0:
336,195,25248,2,0,P|307:185|257:186,1,60.8999981414796,2|0,0:0|0:0,0:0:0:0:
417,142,25581,1,2,0:0:0:0:
291,274,25748,1,0,0:0:0:0:
223,105,25915,1,2,0:0:0:0:
409,265,26081,6,0,L|414:354,1,60.8999981414796,0|0,0:0|0:0,0:0:0:0:
328,83,26415,1,0,0:0:0:0:
328,83,26581,2,0,L|324:22,1,60.8999981414796,2|0,0:0|0:0,0:0:0:0:
417,142,26915,1,2,0:0:0:0:
150,224,27081,1,8,0:0:0:0:
171,226,27165,1,8,0:0:0:0:
192,228,27248,1,8,0:0:0:0:
328,83,27415,6,0,P|266:68|184:141,1,174,4|0,0:0|0:0,0:0:0:0:
416,142,27915,2,0,P|428:100|425:55,1,87,8|0,0:0|0:0,0:0:0:0:
283,173,28248,1,2,0:0:0:0:
457,241,28415,1,0,0:0:0:0:
310,354,28581,1,8,0:0:0:0:
250,273,28748,6,0,P|333:260|395:317,1,174,2|0,0:0|0:0,0:0:0:0:
207,150,29248,2,0,L|120:144,1,87,8|0,0:0|0:0,0:0:0:0:
294,97,29581,1,2,0:0:0:0:
158,328,29748,2,0,P|145:286|148:233,1,87,0|8,0:0|0:0,0:0:0:0:
325,16,30081,6,0,B|315:77|315:77|334:122|334:122|324:184,1,174,2|0,0:0|0:0,0:0:0:0:
352,295,30581,2,0,P|311:280|267:278,1,87,8|0,0:0|0:0,0:0:0:0:
108,73,30915,2,0,P|148:87|192:89,1,87,2|0,0:0|0:0,0:0:0:0:
325,16,31248,1,8,0:0:0:0:
417,117,31415,1,0,3:2:0:0:
414,94,31498,1,0,3:2:0:0:
413,72,31581,5,0,0:0:0:0:
348,196,31748,1,0,0:0:0:0:
180,70,31915,1,8,0:0:0:0:
97,141,32081,1,0,3:2:0:0:
96,163,32165,1,0,3:2:0:0:
93,186,32248,1,2,0:0:0:0:
325,16,32415,5,8,0:0:0:0:
170,260,32581,1,8,0:0:0:0:
450,275,32748,1,8,0:0:0:0:
407,141,32915,6,0,B|323:115|321:189|231:162,1,182.699994424439,4|2,0:0|0:0,0:0:0:0:
130,218,33581,2,0,P|126:158|88:111,1,121.799996282959,8|0,0:0|0:0,0:0:0:0:
30,198,34081,1,0,3:2:0:0:
31,213,34165,1,0,3:2:0:0:
33,228,34248,1,8,0:0:0:0:
81,371,34415,6,0,L|87:310,1,60.8999981414796,0|2,0:0|0:0,0:0:0:0:
157,168,34748,1,0,0:0:0:0:
245,349,34915,2,0,L|234:221,1,121.799996282959,8|0,0:0|0:0,0:0:0:0:
157,168,35415,1,0,3:2:0:0:
157,168,35498,1,0,3:2:0:0:
157,168,35581,6,0,P|243:184|309:106,1,182.699994424439,2|2,0:0|0:0,0:0:0:0:
374,229,36248,2,0,P|341:279|339:339,1,121.799996282959,8|0,0:0|0:0,0:0:0:0:
440,350,36748,1,0,3:2:0:0:
438,334,36831,1,0,3:2:0:0:
436,318,36915,5,8,0:0:0:0:
500,180,37081,2,0,L|490:249,1,60.8999981414796,8|2,0:0|0:0,0:0:0:0:
339,339,37415,1,0,0:0:0:0:
240,212,37581,2,0,L|258:285,1,60.8999981414796,8|0,0:0|3:0,0:0:0:0:
365,126,37915,2,0,L|370:210,1,60.8999981414796,8|4,0:3|0:3,0:0:0:0:
280,85,38248,6,0,P|364:87|419:24,1,174,4|8,0:0|0:0,0:0:0:0:
182,130,38748,2,0,P|141:113|94:113,1,87,2|0,0:0|0:0,0:0:0:0:
56,18,39081,1,0,0:0:0:0:
127,212,39248,1,8,0:0:0:0:
267,59,39415,1,0,0:0:0:0:
122,298,39581,6,0,L|126:211,1,87,2|0,0:0|0:0,0:0:0:0:
267,59,39915,1,8,0:0:0:0:
267,59,40081,2,0,L|262:145,1,87,2|0,0:0|0:0,0:0:0:0:
345,279,40415,2,0,L|260:259,1,87,0|8,0:0|0:0,0:0:0:0:
91,96,40748,1,0,0:0:0:0:
34,177,40915,6,0,P|117:189|180:134,1,174,2|8,0:0|0:0,0:0:0:0:
160,285,41415,1,0,3:2:0:0:
158,307,41498,1,0,3:2:0:0:
162,329,41581,1,2,0:0:0:0:
284,163,41748,1,0,0:0:0:0:
91,96,41915,1,8,0:0:0:0:
175,186,42081,1,0,0:0:0:0:
406,59,42248,5,12,0:0:0:0:
66,194,42415,1,6,0:0:0:0:
396,332,42748,6,0,B|332:317|332:317|305:284|305:284|240:270,1,174,4|8,0:0|0:0,0:0:0:0:
240,270,43248,1,2,0:0:0:0:
240,270,43415,1,0,0:0:0:0:
157,303,43581,6,0,P|193:255|187:192,1,121.799996282959,4|2,0:0|0:0,0:0:0:0:
296,164,44081,1,0,0:0:0:0:
327,56,44248,2,0,P|291:104|297:167,1,121.799996282959,8|0,0:0|0:0,0:0:0:0:
389,193,44748,1,0,3:2:0:0:
392,175,44831,1,0,3:2:0:0:
395,160,44915,5,8,0:0:0:0:
189,101,45081,2,0,P|198:161|202:221,1,121.799996282959,2|0,0:0|0:0,0:0:0:0:
298,277,45581,1,8,0:0:0:0:
395,159,45748,2,0,P|390:189|386:219,1,60.8999981414796,2|0,0:0|0:0,0:0:0:0:
472,253,46081,1,0,3:2:0:0:
472,253,46165,1,0,3:2:0:0:
472,253,46248,6,0,B|390:226|384:301|296:276,1,182.699994424439,4|2,0:0|0:0,0:0:0:0:
243,151,46915,1,8,0:0:0:0:
336,118,47081,2,0,P|335:149|332:179,1,60.8999981414796,0|0,0:0|0:0,0:0:0:0:
200,299,47415,1,8,3:2:0:0:
199,282,47498,1,8,3:2:0:0:
198,266,47581,5,8,0:0:0:0:
243,151,47748,2,0,L|177:145,1,65.25,2|0,0:0|0:0,0:0:0:0:
243,151,48081,6,0,P|180:131|94:225,1,174,4|0,0:0|0:0,0:0:0:0:
285,249,48581,1,8,0:0:0:0:
391,130,48748,1,0,0:0:0:0:
385,108,48831,1,0,0:0:0:0:
380,84,48915,6,0,P|361:123|358:166,1,87,4|0,0:0|0:0,0:0:0:0:
225,121,49248,1,8,0:0:0:0:
202,308,49415,2,0,P|186:267|183:224,1,87,0|2,0:0|0:0,0:0:0:0:
225,121,49748,1,0,0:0:0:0:
83,282,49915,1,8,0:0:0:0:
304,324,50081,1,0,0:0:0:0:
90,164,50248,6,0,L|4:154,1,87,2|0,0:0|0:0,0:0:0:0:
319,211,50581,1,8,0:0:0:0:
319,211,50748,2,0,L|405:201,1,87,2|2,0:0|0:0,0:0:0:0:
209,158,51081,5,2,0:0:0:0:
205,184,51165,1,2,0:0:0:0:
202,209,51248,1,8,0:0:0:0:
439,37,51415,1,2,0:0:0:0:
443,63,51498,1,2,0:0:0:0:
446,88,51581,5,12,0:0:0:0:
296,112,51748,1,0,0:0:0:0:
398,232,51915,1,8,0:0:0:0:
278,88,52081,5,2,0:0:0:0:
377,139,52248,1,0,0:0:0:0:
274,206,52415,1,0,0:0:0:0:
125,147,52581,5,8,0:0:0:0:
286,182,52748,1,0,0:0:0:0:
172,310,52915,1,0,0:0:0:0:
136,116,53081,5,8,0:0:0:0:
187,220,53248,1,2,0:0:0:0:
68,214,53415,1,0,0:0:0:0:
251,124,53581,6,0,L|336:111,1,87,8|0,0:0|0:0,0:0:0:0:
304,345,53915,2,0,L|416:365,1,87,8|0,0:0|0:0,0:0:0:0:
475,235,54248,5,8,3:2:0:0:
440,208,54331,1,0,3:2:0:0:
398,200,54415,1,0,3:2:0:0:
356,210,54498,1,0,3:2:0:0:
324,239,54581,5,8,0:0:0:0:
291,267,54665,1,8,0:0:0:0:
249,278,54748,1,8,0:0:0:0:
207,269,54831,1,8,0:0:0:0:
173,242,54915,5,8,0:0:0:0:
202,211,54998,1,8,0:0:0:0:
211,169,55081,1,8,0:0:0:0:
197,128,55165,1,8,0:0:0:0:
164,101,55248,5,8,0:0:0:0:
122,93,55331,1,8,0:0:0:0:
82,109,55415,1,8,0:0:0:0:
56,143,55498,1,8,0:0:0:0:
50,186,55581,6,0,L|110:180,1,60.8999981414796,8|0,0:0|0:0,0:0:0:0:
50,186,56081,6,0,B|156:157|147:239|251:214,1,208.79999362793,4|2,0:0|0:0,0:0:0:0:
336,244,56498,1,2,0:0:0:0:
348,259,56581,6,0,L|352:198,1,60.8999981414796,8|0,0:0|0:0,0:0:0:0:
473,129,56915,6,0,P|401:70|311:90,1,191.400005841065,4|8,0:0|0:0,0:0:0:0:
235,229,57415,1,0,3:2:0:0:
233,210,57498,1,0,3:2:0:0:
231,191,57581,1,8,0:0:0:0:
127,73,57748,1,0,0:0:0:0:
374,189,57915,1,8,0:0:0:0:
127,330,58081,1,0,0:0:0:0:
374,189,58248,6,0,B|286:161|290:244|192:216,1,191.400005841065,8|8,0:0|0:0,0:0:0:0:
127,73,58748,1,0,3:2:0:0:
124,93,58831,1,0,3:2:0:0:
122,112,58915,1,8,0:0:0:0:
345,285,59081,1,2,0:0:0:0:
101,351,59248,1,8,0:0:0:0:
336,175,59415,1,2,0:0:0:0:
57,200,59581,6,0,P|148:217|220:150,1,191.400005841065,8|8,0:0|0:0,0:0:0:0:
249,345,60081,1,0,3:2:0:0:
248,325,60165,1,0,3:2:0:0:
251,306,60248,1,8,0:0:0:0:
122,112,60415,1,2,0:0:0:0:
338,250,60581,1,8,0:0:0:0:
100,352,60748,1,2,0:0:0:0:
263,32,60915,6,0,P|262:79|254:127,1,95.7000029205323,8|0,0:0|0:0,0:0:0:0:
21,277,61248,2,0,P|62:253|107:236,1,95.7000029205323,8|2,0:0|0:0,0:0:0:0:
342,363,61581,2,0,P|300:338|263:308,1,95.7000029205323,8|2,0:0|0:0,0:0:0:0:
161,72,61915,1,8,0:0:0:0:
416,95,62081,1,2,0:0:0:0:
416,95,62165,1,2,0:0:0:0:
416,95,62248,6,0,P|327:70|254:126,1,191.400005841065,4|8,0:0|0:0,0:0:0:0:
391,314,62748,1,0,3:2:0:0:
395,295,62831,1,0,3:2:0:0:
395,275,62915,1,2,0:0:0:0:
301,372,63081,1,2,0:0:0:0:
496,288,63248,1,8,0:0:0:0:
340,180,63415,6,0,P|387:180|435:175,1,95.7000029205323,2|0,0:0|0:0,0:0:0:0:
176,342,63748,1,2,0:0:0:0:
216,240,63915,2,0,P|168:239|120:244,1,95.7000029205323,8|0,0:0|0:0,0:0:0:0:
120,244,64165,1,0,3:2:0:0:
120,244,64248,1,2,0:0:0:0:
254,142,64415,1,2,0:0:0:0:
376,322,64581,1,8,0:0:0:0:
216,240,64748,1,0,3:2:0:0:
216,240,64831,1,0,3:2:0:0:
216,240,64915,6,0,P|293:248|368:157,1,191.400005841065,2|8,0:0|0:0,0:0:0:0:
122,185,65415,2,0,P|107:230|110:278,1,95.7000029205323,0|2,0:0|0:0,0:0:0:0:
49,108,65748,1,2,0:0:0:0:
216,240,65915,1,12,0:0:0:0:
216,240,66081,1,4,0:0:0:0:
24,339,66248,5,2,0:0:0:0:
307,245,66415,1,2,0:0:0:0:
307,245,66748,2,0,L|211:239,1,91.3499972122193,4|0,0:0|0:0,0:0:0:0:
111,228,67081,5,8,0:0:0:0:
113,249,67165,1,2,0:0:0:0:
115,270,67248,1,2,0:0:0:0:
202,59,67415,1,2,0:0:0:0:
200,80,67498,1,2,0:0:0:0:
198,101,67581,6,0,P|100:96|42:171,1,191.400005841065,4|8,0:0|0:0,0:0:0:0:
264,195,68081,1,0,3:2:0:0:
283,193,68165,1,0,3:2:0:0:
302,191,68248,1,8,0:0:0:0:
372,92,68415,1,2,0:0:0:0:
142,234,68581,1,8,0:0:0:0:
394,336,68748,1,2,0:0:0:0:
142,234,68915,6,0,B|214:221|214:221|257:241|257:241|328:228,1,191.400005841065,8|8,0:0|0:0,0:0:0:0:
376,54,69415,1,2,3:2:0:0:
374,73,69498,1,0,3:2:0:0:
372,92,69581,1,8,0:0:0:0:
195,324,69748,1,2,0:0:0:0:
438,185,69915,1,8,0:0:0:0:
192,67,70081,1,2,0:0:0:0:
296,279,70248,6,0,P|230:213|138:222,1,191.400005841065,8|8,0:0|0:0,0:0:0:0:
291,40,70748,1,0,3:2:0:0:
294,58,70831,1,0,3:2:0:0:
294,77,70915,1,8,0:0:0:0:
195,324,71081,1,2,0:0:0:0:
410,178,71248,1,8,0:0:0:0:
162,82,71415,1,2,0:0:0:0:
311,358,71581,6,0,L|316:239,1,95.7000029205323,8|2,0:0|0:0,0:0:0:0:
180,100,71831,1,2,0:0:0:0:
162,82,71915,2,0,L|157:177,1,95.7000029205323,8|0,0:0|0:0,0:0:0:0:
102,228,72248,5,8,0:0:0:0:
129,208,72331,1,0,3:2:0:0:
161,200,72415,1,8,0:0:0:0:
194,204,72498,1,8,0:0:0:0:
224,218,72581,1,8,0:0:0:0:
253,232,72665,1,8,0:0:0:0:
287,236,72748,1,8,0:0:0:0:
319,227,72831,1,8,0:0:0:0:
346,207,72915,5,4,0:0:0:0:
169,311,73081,1,2,0:0:0:0:
448,163,73248,2,0,P|379:100|287:112,1,191.400005841065,8|2,0:0|0:0,0:0:0:0:
173,167,73748,2,0,P|178:119|170:72,1,95.7000029205323,2|8,0:0|0:0,0:0:0:0:
17,329,74081,6,0,P|88:269|178:291,1,191.400005841065,2|2,0:0|0:0,0:0:0:0:
71,171,74581,1,8,0:0:0:0:
277,341,74748,1,0,3:2:0:0:
284,323,74831,1,0,3:2:0:0:
287,303,74915,1,2,0:0:0:0:
113,379,75081,1,2,0:0:0:0:
333,184,75248,2,0,P|285:191|237:194,1,95.7000029205323,8|0,0:0|0:0,0:0:0:0:
0,285,75581,6,0,P|47:278|95:275,1,95.7000029205323,8|2,0:0|0:0,0:0:0:0:
210,328,75915,1,2,0:0:0:0:
127,133,76081,1,0,3:2:0:0:
128,152,76165,1,0,3:2:0:0:
129,172,76248,1,2,0:0:0:0:
204,42,76415,1,0,0:0:0:0:
17,153,76581,1,12,0:0:0:0:
17,153,76748,1,4,0:0:0:0:
222,245,76915,5,2,0:0:0:0:
80,364,77081,2,0,P|84:316|86:268,1,95.7000029205323,2|8,0:0|0:0,0:0:0:0:
268,0,77415,2,0,P|228:59|234:129,1,143.550004380798,4|0,0:0|0:0,0:0:0:0:
324,221,77748,5,8,0:0:0:0:
259,137,77915,1,8,0:0:0:0:
116,147,78081,1,8,0:0:0:0:
39,290,78248,6,0,B|106:276|106:276|146:296|146:296|211:283,1,174,4|8,0:0|0:0,0:0:0:0:
316,179,78748,1,0,0:0:0:0:
308,377,78915,2,0,P|309:333|314:290,1,87,2|0,0:0|0:0,0:0:0:0:
209,88,79248,2,0,P|207:131|202:174,1,87,8|0,0:0|0:0,0:0:0:0:
137,13,79581,5,2,0:0:0:0:
315,134,79748,2,0,L|405:123,1,87,0|8,0:0|0:0,0:0:0:0:
226,256,80081,2,0,P|167:214|94:217,1,143.550004380798,2|0,0:0|0:0,0:0:0:0:
24,281,80415,5,12,0:0:0:0:
24,281,80581,1,12,0:0:0:0:
227,29,80915,6,0,P|214:71|212:115,1,87,2|0,0:0|0:0,0:0:0:0:
286,194,81248,1,8,0:0:0:0:
114,116,81415,1,0,0:0:0:0:
319,90,81581,2,0,L|426:77,1,87,2|0,0:0|0:0,0:0:0:0:
141,219,81915,2,0,L|34:206,1,87,8|2,0:0|0:0,0:0:0:0:
248,301,82165,1,2,0:0:0:0:
237,314,82248,6,0,B|327:296|308:368|408:355,1,182.699994424439,12|0,0:0|0:0,0:0:0:0:
485,292,82581,1,6,0:0:0:0:
485,292,82748,1,0,0:0:0:0:
283,158,82915,6,0,B|192:140|211:212|111:199,1,182.699994424439,12|0,0:0|0:0,0:0:0:0:
35,136,83248,1,6,0:0:0:0:
118,8,83415,1,2,0:0:0:0:
118,8,83498,1,2,0:0:0:0:
118,8,83581,6,0,P|129:49|132:93,1,87,4|0,0:0|0:0,0:0:0:0:
265,256,83915,1,8,0:0:0:0:
35,136,84081,1,2,0:0:0:0:
226,40,84248,2,0,L|313:33,1,87,2|0,0:0|0:0,0:0:0:0:
87,223,84581,2,0,L|0:230,1,87,8|0,0:0|0:0,0:0:0:0:
146,358,84831,1,2,3:2:0:0:
154,377,84915,6,0,P|166:335|165:292,1,87,2|0,0:0|0:0,0:0:0:0:
265,107,85248,1,8,0:0:0:0:
176,37,85415,2,0,P|152:103|172:171,1,143.550004380798,6|0,0:0|0:0,0:0:0:0:
282,209,85748,5,4,0:0:0:0:
282,209,85915,1,12,0:0:0:0:
387,117,86081,1,2,0:0:0:0:
406,115,86165,1,2,0:0:0:0:
424,113,86248,5,8,0:0:0:0:
172,171,86415,1,2,0:0:0:0:
371,290,86581,1,8,0:0:0:0:
41,62,86748,5,0,0:0:0:0:
282,209,86915,1,8,0:0:0:0:
13,245,87081,1,8,0:3:0:0:
265,107,87248,1,4,0:3:0:0:
303,377,87415,6,0,P|233:310|140:323,1,191.400005841065,4|8,0:0|0:0,0:0:0:0:
355,55,87915,2,0,P|367:102|363:149,1,95.7000029205323,8|0,0:0|0:0,0:0:0:0:
441,186,88748,6,0,B|351:158|356:236|267:210,1,182.699994424439,4|0,0:0|0:0,0:0:0:0:
