osu file format v14

[General]
AudioFilename: kirakira.mp3
AudioLeadIn: 0
PreviewTime: 56331
Countdown: 1
SampleSet: Soft
StackLeniency: 0.7
Mode: 0
LetterboxInBreaks: 0
WidescreenStoryboard: 1

[Editor]
DistanceSpacing: 1.2
BeatDivisor: 4
GridSize: 8
TimelineZoom: 1

[Metadata]
Title:Kira Kira datoka Yume datoka ~Sing Girls~ (TV Size)
TitleUnicode:キラキラだとか夢だとか ~Sing Girls~ (TV Size)
Artist:Poppin'Party
ArtistUnicode:Poppin'Party
Creator:Nitrous
Version:Insane
Source:BanG Dream!
Tags:バンドリ!ガールズバンドパーティ! bandori Girls Band Party garupa Bandori ending Toyama Kasumi Hanazono Tae Ushigome Rimi Yamabuki Saaya Ichigaya Arisa Aimi Otsuka Sae Nishimoto Rimi Ohashi Ayaka Itou Ayasa 愛美 大塚紗英 牛込 りみ 山吹 沙綾 市ヶ谷 有咲 山吹 沙綾 市ヶ谷 有咲 花園 たえ 戸山 香澄 牛込 りみ Kisses scanter Gaia Kibbleru StarrStyx
BeatmapID:1464529
BeatmapSetID:614346

[Difficulty]
HPDrainRate:5
CircleSize:4
OverallDifficulty:7
ApproachRate:9
SliderMultiplier:1.6
SliderTickRate:1

[Events]
//Background and Video events
Video,300,"kirakira.avi"
0,0,"BG-Nitrous.jpg",0,0
//Break Periods
//Storyboard Layer 0 (Background)
//Storyboard Layer 1 (Fail)
//Storyboard Layer 2 (Pass)
//Storyboard Layer 3 (Foreground)
//Storyboard Sound Samples

[TimingPoints]
-418,333.333333333333,4,2,1,70,1,0
581,-100,4,2,1,70,0,0
915,-100,4,2,1,70,0,0
11915,-100,4,2,1,50,0,0
16248,-100,4,2,1,60,0,0
17248,-76.9230769230769,4,2,1,60,0,0
17581,-100,4,2,1,60,0,0
18581,-76.9230769230769,4,2,1,60,0,0
18915,-100,4,2,1,60,0,0
21665,-100,4,2,1,5,0,0
21748,-100,4,2,1,60,0,0
21998,-100,4,2,1,5,0,0
22081,-100,4,2,1,60,0,0
22581,-100,4,2,1,50,0,0
26915,-100,4,2,1,60,0,0
32915,-125,4,2,1,60,0,0
33581,-125,4,2,1,50,0,0
38248,-100,4,2,1,60,0,0
43581,-125,4,2,1,50,0,0
47581,-100,4,2,1,50,0,0
48915,-100,4,2,1,60,0,0
56081,-100,4,2,1,80,0,0
56415,-100,4,2,1,60,0,0
56915,-100,4,2,1,70,0,1
66748,-100,4,2,1,60,0,0
67581,-100,4,2,1,70,0,1
77415,-100,4,2,1,60,0,0
78248,-100,4,2,1,70,0,1
87415,-100,4,2,1,70,0,1
88748,-125,4,2,1,70,0,0
89081,-100,4,2,1,5,0,0

[Colours]
Combo1 : 244,160,49
Combo2 : 239,106,160
Combo3 : 99,183,224
Combo4 : 167,127,244
Combo5 : 249,104,70

[HitObjects]
225,151,415,5,2,0:0:0:0:
225,151,498,1,2,0:0:0:0:
225,151,581,2,0,L|317:136,1,80,8|0,0:0|0:0,0:0:0:0:
459,158,915,6,0,B|390:142|390:142|370:150|370:150|292:135,1,160,4|8,0:0|0:0,0:0:0:0:
175,232,1415,1,0,0:0:0:0:
196,118,1581,1,2,0:0:0:0:
285,254,1748,1,0,0:0:0:0:
303,137,1915,1,8,0:0:0:0:
202,307,2081,6,0,P|117:287|95:224,1,160,4|0,0:0|0:0,0:0:0:0:
181,143,2581,2,0,P|184:189|179:237,1,80,8|0,0:0|0:0,0:0:0:0:
292,344,2915,2,0,P|289:304|292:264,1,80,2|0,0:0|0:0,0:0:0:0:
338,132,3248,1,8,0:0:0:0:
181,143,3581,6,0,B|251:133|251:133|276:141|276:141|346:130,1,160,4|8,0:0|0:0,0:0:0:0:
476,174,4081,1,8,0:0:0:0:
476,174,4165,1,8,0:0:0:0:
476,174,4248,1,8,0:0:0:0:
338,131,4415,1,2,0:0:0:0:
482,62,4581,1,8,0:0:0:0:
356,226,4748,6,0,P|439:232|475:156,1,160,4|0,0:0|0:0,0:0:0:0:
285,181,5248,2,0,B|276:220|276:220|283:265,1,80,8|0,0:0|0:0,0:0:0:0:
282,259,5498,1,0,0:0:0:0:
282,259,5581,1,2,0:0:0:0:
371,136,5748,1,0,0:0:0:0:
356,226,5915,1,8,0:0:0:0:
291,26,6081,6,0,B|280:90|280:90|294:114|294:114|282:194,1,160,4|0,0:0|0:0,0:0:0:0:
172,249,6581,2,0,L|91:245,1,80,8|0,0:0|0:0,0:0:0:0:
135,138,6915,2,0,L|216:134,1,80,2|8,0:0|0:0,0:0:0:0:
214,134,7165,1,8,0:0:0:0:
214,134,7248,1,8,0:0:0:0:
194,330,7415,6,0,P|127:322|93:237,1,160,4|0,0:0|0:0,0:0:0:0:
214,134,7915,2,0,B|220:175|220:175|211:217,1,80,8|0,0:0|0:0,0:0:0:0:
211,212,8165,1,0,0:0:0:0:
211,212,8248,1,2,0:0:0:0:
92,133,8415,1,8,0:0:0:0:
92,133,8498,1,8,0:0:0:0:
92,133,8581,2,0,B|86:92|86:92|95:50,1,80,8|0,0:0|0:0,0:0:0:0:
211,212,8915,5,12,0:0:0:0:
277,75,9081,1,2,0:0:0:0:
307,194,9248,1,0,0:0:0:0:
172,111,9415,5,12,0:0:0:0:
99,249,9581,1,2,0:0:0:0:
211,212,9748,1,0,0:0:0:0:
76,159,9915,5,12,0:0:0:0:
34,322,10081,1,2,0:0:0:0:
76,159,10248,1,0,0:0:0:0:
211,212,10415,5,12,0:0:0:0:
107,74,10581,1,2,0:0:0:0:
268,131,10748,1,0,0:0:0:0:
121,236,10915,5,12,0:0:0:0:
188,81,11081,1,8,0:0:0:0:
188,81,11165,1,8,0:0:0:0:
188,81,11248,1,8,0:0:0:0:
276,232,11415,2,0,B|316:216|356:232|356:232|396:248|436:232,1,160,4|0,0:0|0:0,0:0:0:0:
364,154,11915,6,0,P|324:147|281:152,1,80,2|0,0:0|0:0,0:0:0:0:
133,84,12248,2,0,P|173:91|216:86,1,80,2|0,0:0|0:0,0:0:0:0:
325,35,12581,1,2,0:0:0:0:
325,35,12915,6,0,P|334:75|322:127,1,80,2|0,0:0|0:0,0:0:0:0:
252,212,13248,1,2,0:0:0:0:
252,212,13415,1,0,0:0:0:0:
139,138,13581,2,0,L|53:129,2,80,2|0|2,0:0|0:0|0:0,0:0:0:0:
295,126,14081,6,0,B|232:136|232:136|204:127|204:127|126:140,1,160,8|0,0:0|0:0,0:0:0:0:
212,44,14581,2,0,P|248:43|293:51,1,80,2|0,0:0|0:0,0:0:0:0:
277,211,14915,2,0,P|241:212|196:204,1,80,2|0,0:0|0:0,0:0:0:0:
57,146,15248,2,0,P|96:138|136:139,1,80,2|0,0:0|0:0,0:0:0:0:
120,303,15581,6,0,L|119:218,1,80,2|0,0:0|0:0,0:0:0:0:
212,44,15915,2,0,L|211:123,1,80,2|0,0:0|0:0,0:0:0:0:
121,305,16248,1,8,0:0:0:0:
110,119,16415,1,8,0:0:0:0:
235,266,16581,1,8,0:0:0:0:
14,213,16748,6,0,B|79:203|79:203|111:213|111:213|184:202,1,160,4|0,0:0|0:0,0:0:0:0:
394,147,17248,2,0,P|376:108|355:180,1,155.999992858887,8|0,0:0|0:0,0:0:0:0:
327,167,17581,2,0,B|316:204|316:204|328:257,1,80,2|0,0:0|0:0,0:0:0:0:
469,185,17915,1,8,0:0:0:0:
394,39,18081,6,0,B|354:23|314:39|314:39|274:55|226:39,1,160,2|0,0:0|0:0,0:0:0:0:
67,175,18581,2,0,P|85:238|134:194,1,155.999992858887,8|0,0:0|0:0,0:0:0:0:
134,194,18915,2,0,B|172:203|172:203|220:194,1,80,2|0,0:0|0:0,0:0:0:0:
129,100,19248,1,8,0:0:0:0:
124,314,19415,6,0,P|189:271|211:188,1,160,2|0,0:0|0:0,0:0:0:0:
64,159,19915,1,8,0:0:0:0:
123,312,20081,1,0,0:0:0:0:
123,312,20248,2,0,P|123:260|127:221,1,80,2|0,0:0|0:0,0:0:0:0:
202,75,20581,1,8,0:0:0:0:
277,229,20748,1,0,0:0:0:0:
144,145,20915,5,2,0:0:0:0:
219,304,21081,1,8,0:0:0:0:
219,304,21165,1,8,0:0:0:0:
219,304,21248,1,8,0:0:0:0:
320,116,21415,2,0,B|236:95|236:95|184:102,1,120,2|0,0:0|0:0,0:0:0:0:
114,218,21748,2,0,B|147:222|147:222|231:201,1,120,2|0,0:0|0:0,0:0:0:0:
104,63,22081,6,0,B|88:103|104:135|104:135|128:175|112:223,1,160,4|0,0:0|0:0,0:0:0:0:
183,360,22581,2,0,L|181:272,1,80,2|0,0:0|0:0,0:0:0:0:
232,120,22915,2,0,L|230:199,1,80,2|0,0:0|0:0,0:0:0:0:
184,55,23248,1,2,0:0:0:0:
184,55,23415,1,0,0:0:0:0:
312,93,23581,6,0,L|394:84,1,80,2|0,0:0|0:0,0:0:0:0:
259,31,23915,1,2,0:0:0:0:
111,107,24081,1,0,0:0:0:0:
111,107,24248,2,0,L|97:20,2,80,2|0|2,0:0|0:0|0:0,0:0:0:0:
92,259,24748,6,0,B|108:192|108:192|95:170|95:170|112:99,1,160,8|0,0:0|0:0,0:0:0:0:
220,182,25248,2,0,L|234:268,1,80,2|0,0:0|0:0,0:0:0:0:
346,353,25581,1,2,0:0:0:0:
435,255,25748,1,0,0:0:0:0:
435,255,25915,2,0,L|447:176,1,80,2|0,0:0|0:0,0:0:0:0:
314,71,26248,6,0,P|361:63|400:67,1,80,2|0,0:0|0:0,0:0:0:0:
253,190,26581,2,0,P|213:192|173:184,1,80,2|0,0:0|0:0,0:0:0:0:
359,145,26915,2,0,B|369:182|369:182|366:241,1,80,2|8,0:0|0:0,0:0:0:0:
366,223,27165,1,8,0:0:0:0:
366,223,27248,1,8,0:0:0:0:
220,108,27415,6,0,P|234:50|316:78,1,160,4|0,0:0|0:0,0:0:0:0:
162,178,27915,2,0,L|77:170,1,80,8|0,0:0|0:0,0:0:0:0:
254,217,28248,1,2,0:0:0:0:
133,87,28415,1,0,0:0:0:0:
116,267,28581,1,8,0:0:0:0:
289,75,28748,6,0,B|225:86|225:86|199:76|199:76|126:88,1,160,2|0,0:0|0:0,0:0:0:0:
319,154,29248,2,0,L|406:136,1,80,8|0,0:0|0:0,0:0:0:0:
245,230,29581,1,2,0:0:0:0:
289,75,29748,1,0,0:0:0:0:
397,235,29915,1,8,0:0:0:0:
449,68,30081,6,0,L|279:55,1,160,2|0,0:0|0:0,0:0:0:0:
127,36,30581,1,8,0:0:0:0:
189,175,30748,1,0,0:0:0:0:
189,175,30915,2,0,P|200:213|191:259,2,80,2|0|8,0:0|0:0|0:0,0:0:0:0:
158,336,31415,6,0,B|201:350|233:334|233:334|265:318|313:334,1,160,2|0,0:0|0:0,0:0:0:0:
193,252,31915,2,0,L|100:245,1,80,8|0,0:0|0:0,0:0:0:0:
229,80,32248,1,2,0:0:0:0:
300,255,32415,1,8,0:0:0:0:
87,161,32581,1,8,0:0:0:0:
158,336,32748,1,8,0:0:0:0:
330,170,32915,6,0,B|298:159|266:170|266:170|233:183|202:170,1,128,4|2,0:0|0:0,0:0:0:0:
115,110,33415,1,0,0:0:0:0:
55,197,33581,2,0,P|49:261|107:294,1,128,8|2,0:0|0:0,0:0:0:0:
254,263,34081,1,0,0:0:0:0:
254,263,34165,1,0,0:0:0:0:
254,263,34248,6,0,L|171:256,1,64,8|0,0:0|0:0,0:0:0:0:
192,176,34581,2,0,L|275:169,1,64,2|0,0:0|0:0,0:0:0:0:
293,348,34915,2,0,L|150:333,1,128,8|0,0:0|0:0,0:0:0:0:
110,246,35415,1,0,0:0:0:0:
120,72,35581,6,0,P|180:122|169:184,1,128,2|2,0:0|0:0,0:0:0:0:
110,246,36081,1,0,0:0:0:0:
249,289,36248,2,0,L|106:274,1,128,8|2,0:0|0:0,0:0:0:0:
104,154,36748,1,0,0:0:0:0:
162,28,36915,6,0,L|169:104,1,64,8|0,0:0|0:0,0:0:0:0:
237,201,37248,2,0,L|242:137,1,64,2|0,0:0|0:0,0:0:0:0:
148,225,37581,1,8,0:3:0:0:
222,306,37748,1,8,0:3:0:0:
235,200,37915,1,8,0:3:0:0:
142,324,38081,1,4,0:3:0:0:
320,216,38248,6,0,P|289:130|212:118,1,160,4|8,0:0|0:0,0:0:0:0:
155,203,38748,2,0,P|203:203|244:198,1,80,0|2,0:0|0:0,0:0:0:0:
112,126,39081,2,0,P|72:122|32:122,1,80,0|8,0:0|0:0,0:0:0:0:
92,262,39415,1,0,0:0:0:0:
196,119,39581,6,0,B|191:183|191:183|202:203|202:203|195:281,1,160,2|8,0:0|0:0,0:0:0:0:
118,355,40081,2,0,L|34:351,1,80,0|2,0:0|0:0,0:0:0:0:
45,231,40415,2,0,L|124:227,1,80,0|8,0:0|0:0,0:0:0:0:
232,327,40748,1,0,0:0:0:0:
303,149,40915,6,0,P|293:111|175:81,1,160,2|8,0:0|0:0,0:0:0:0:
223,230,41415,2,0,B|229:189|229:189|221:145,1,80,0|2,0:0|0:0,0:0:0:0:
124,227,41748,2,0,B|118:268|118:268|126:312,1,80,0|8,0:0|0:0,0:0:0:0:
234,337,42081,1,0,0:0:0:0:
317,124,42248,5,8,0:0:0:0:
234,337,42415,1,2,0:0:0:0:
313,331,42748,2,0,B|219:337,1,80,4|0,0:0|0:0,0:0:0:0:
302,146,43081,1,8,0:0:0:0:
377,236,43248,1,0,0:0:0:0:
233,336,43415,1,2,0:0:0:0:
218,119,43581,6,0,P|261:68|328:62,1,128,4|2,0:0|0:0,0:0:0:0:
303,150,44081,1,0,0:0:0:0:
150,189,44248,2,0,B|64:189|64:189|25:157,1,128,8|2,0:0|0:0,0:0:0:0:
102,72,44748,1,0,0:0:0:0:
150,189,44915,5,8,0:0:0:0:
198,38,45081,2,0,L|190:117,1,64,0|2,0:0|0:0,0:0:0:0:
156,252,45415,1,0,0:0:0:0:
156,252,45581,2,0,L|149:188,1,64,8|0,0:0|0:0,0:0:0:0:
232,287,45915,1,2,0:0:0:0:
267,184,46081,1,0,0:0:0:0:
64,186,46248,6,0,P|87:131|166:105,1,128,6|2,0:0|0:0,0:0:0:0:
149,188,46748,1,0,0:0:0:0:
272,291,46915,2,0,B|184:292|184:292|152:265,1,128,8|2,0:0|0:0,0:0:0:0:
230,144,47415,1,8,0:0:0:0:
229,175,47498,1,8,0:0:0:0:
228,207,47581,5,8,0:0:0:0:
113,68,47748,1,8,0:0:0:0:
269,64,48081,2,0,B|231:48|189:64|189:64|151:80|101:64,1,160,4|0,0:0|0:0,0:0:0:0:
31,182,48581,2,0,L|75:179,1,40,8|8,0:0|0:0,0:0:0:0:
152,144,48748,2,0,L|195:146,1,40,8|8,0:0|0:0,0:0:0:0:
272,209,48915,6,0,P|204:220|195:141,1,160,4|8,0:0|0:0,0:0:0:0:
355,165,49415,1,0,0:0:0:0:
355,165,49581,2,0,B|363:205|363:205|355:254,1,80,2|0,0:0|0:0,0:0:0:0:
166,290,49915,2,0,L|254:308,1,80,8|0,0:0|0:0,0:0:0:0:
184,67,50248,6,0,P|115:129|124:192,1,160,4|8,0:0|0:0,0:0:0:0:
275,162,50748,2,0,L|193:149,1,80,0|2,0:0|0:0,0:0:0:0:
344,107,51081,1,8,0:0:0:0:
344,107,51165,1,8,0:0:0:0:
344,107,51248,1,8,0:0:0:0:
310,264,51415,1,2,0:0:0:0:
310,264,51498,1,0,0:0:0:0:
310,264,51581,5,8,0:0:0:0:
195,149,51748,1,0,0:0:0:0:
344,107,51915,1,2,0:0:0:0:
208,245,52081,5,8,0:0:0:0:
383,191,52248,1,0,0:0:0:0:
251,71,52415,1,2,0:0:0:0:
305,267,52581,5,8,0:0:0:0:
156,129,52748,1,0,0:0:0:0:
344,107,52915,1,2,0:0:0:0:
203,271,53081,5,8,0:0:0:0:
251,71,53248,1,0,0:0:0:0:
108,239,53415,1,2,0:0:0:0:
309,192,53581,6,0,L|392:187,1,80,8|0,0:0|0:0,0:0:0:0:
216,147,53915,2,0,L|133:142,1,80,8|0,0:0|0:0,0:0:0:0:
234,321,54248,2,0,L|226:233,1,80,8|8,0:0|0:0,0:0:0:0:
226,241,54498,1,8,0:0:0:0:
226,241,54581,1,8,0:0:0:0:
380,132,54748,5,8,0:0:0:0:
402,100,54831,1,8,0:0:0:0:
397,61,54914,1,8,0:0:0:0:
366,38,54998,1,8,0:0:0:0:
327,43,55081,1,8,0:0:0:0:
303,73,55164,1,8,0:0:0:0:
307,112,55248,2,0,L|300:161,1,40,8|8,0:0|0:0,0:0:0:0:
220,201,55415,2,0,L|227:247,1,40,8|8,0:0|0:0,0:0:0:0:
383,273,55581,5,8,0:0:0:0:
383,273,55748,2,0,L|467:265,1,80,2|0,0:0|0:0,0:0:0:0:
294,305,56081,2,0,P|230:316|228:238,1,160,4|8,0:0|0:0,0:0:0:0:
225,239,56498,1,8,0:0:0:0:
225,239,56581,1,8,0:0:0:0:
358,356,56748,1,2,0:0:0:0:
350,127,56915,6,0,B|310:143|270:127|270:127|230:111|182:127,1,160,4|8,0:0|0:0,0:0:0:0:
302,219,57415,2,0,P|346:216|383:205,1,80,0|8,0:0|0:0,0:0:0:0:
289,55,57748,2,0,P|252:45|198:46,1,80,0|8,0:0|0:0,0:0:0:0:
224,200,58081,1,0,0:0:0:0:
403,81,58248,6,0,P|350:144|404:216,1,160,8|8,0:0|0:0,0:0:0:0:
327,349,58748,2,0,P|331:314|323:262,1,80,0|8,0:0|0:0,0:0:0:0:
279,103,59081,2,0,P|273:142|277:182,1,80,0|8,0:0|0:0,0:0:0:0:
442,151,59415,1,0,0:0:0:0:
193,86,59581,6,0,P|235:29|332:36,1,160,8|8,0:0|0:0,0:0:0:0:
277,182,60081,2,0,L|185:171,1,80,0|8,0:0|0:0,0:0:0:0:
325,269,60415,2,0,L|417:258,1,80,0|8,0:0|0:0,0:0:0:0:
350,123,60748,1,0,0:0:0:0:
249,346,60915,6,0,P|242:298|246:253,1,80,8|0,0:0|0:0,0:0:0:0:
202,93,61248,2,0,P|203:132|196:172,1,80,8|0,0:0|0:0,0:0:0:0:
43,135,61581,2,0,L|125:127,1,80,8|0,0:0|0:0,0:0:0:0:
303,181,61915,1,8,0:0:0:0:
178,351,62081,1,0,0:0:0:0:
178,351,62165,1,0,0:0:0:0:
181,355,62248,6,0,B|173:314|173:314|182:271,1,80,4|0,0:0|0:0,0:0:0:0:
354,233,62581,2,0,P|345:291|243:307,1,160,8|2,0:0|0:0,0:0:0:0:
239,160,63081,1,0,0:0:0:0:
282,247,63248,1,8,0:0:0:0:
118,90,63415,6,0,B|166:106|198:90|198:90|238:74|286:90,1,160,0|0,0:0|0:0,0:0:0:0:
169,185,63915,2,0,P|126:182|85:169,1,80,8|0,0:0|0:0,0:0:0:0:
90,171,64165,1,0,0:0:0:0:
90,171,64248,1,2,0:0:0:0:
245,170,64415,1,0,0:0:0:0:
245,170,64581,2,0,B|252:210|252:210|243:254,1,80,8|0,0:0|0:0,0:0:0:0:
219,72,64915,6,0,P|300:85|346:161,1,160,2|8,0:0|0:0,0:0:0:0:
164,249,65415,2,0,L|253:248,1,80,0|2,0:0|0:0,0:0:0:0:
402,203,65748,1,0,0:0:0:0:
402,203,65915,1,8,0:0:0:0:
351,346,66081,1,0,0:0:0:0:
275,127,66248,5,8,0:0:0:0:
351,346,66415,1,8,0:0:0:0:
357,190,66748,2,0,B|346:256|346:256|358:281|358:281|349:357,1,160,4|8,0:0|0:0,0:0:0:0:
351,346,67165,1,8,0:0:0:0:
351,346,67248,1,8,0:0:0:0:
178,213,67415,1,8,0:0:0:0:
178,213,67498,1,8,0:0:0:0:
178,213,67581,6,0,P|182:164|282:116,1,160,4|8,0:0|0:0,0:0:0:0:
275,285,68081,2,0,L|273:191,1,80,0|8,0:0|0:0,0:0:0:0:
171,296,68415,2,0,L|169:375,1,80,0|8,0:0|0:0,0:0:0:0:
320,349,68748,1,0,0:0:0:0:
306,133,68915,6,0,B|271:114|229:136|229:136|191:154|151:138,1,160,8|8,0:0|0:0,0:0:0:0:
271,53,69415,2,0,P|316:57|359:83,1,80,0|8,0:0|0:0,0:0:0:0:
178,225,69748,2,0,P|138:217|97:196,1,80,0|8,0:0|0:0,0:0:0:0:
180,65,70081,1,0,0:0:0:0:
287,225,70248,6,0,P|362:210|397:137,1,160,8|8,0:0|0:0,0:0:0:0:
304,53,70748,2,0,P|300:100|309:146,1,80,0|8,0:0|0:0,0:0:0:0:
286,304,71081,2,0,P|291:264|286:224,1,80,0|8,0:0|0:0,0:0:0:0:
159,148,71415,1,0,0:0:0:0:
122,338,71581,6,0,L|211:334,1,80,8|0,0:0|0:0,0:0:0:0:
201,334,71831,1,0,0:0:0:0:
201,334,71915,1,8,0:0:0:0:
103,240,72081,1,0,0:0:0:0:
103,240,72248,2,0,L|14:236,1,80,8|0,0:0|0:0,0:0:0:0:
23,236,72498,1,0,0:0:0:0:
23,236,72581,1,8,0:0:0:0:
202,140,72748,1,8,0:0:0:0:
202,140,72831,1,0,0:0:0:0:
202,140,72915,6,0,B|205:180|205:180|198:224,1,80,4|0,0:0|0:0,0:0:0:0:
82,130,73248,2,0,B|79:90|79:90|86:46,1,80,8|0,0:0|0:0,0:0:0:0:
240,67,73581,1,2,0:0:0:0:
202,220,73748,1,0,0:0:0:0:
82,130,73915,1,8,0:0:0:0:
286,147,74081,6,0,P|369:82|359:45,1,160,2|0,0:0|0:0,0:0:0:0:
167,22,74581,2,0,P|158:58|163:104,1,80,8|0,0:0|0:0,0:0:0:0:
161,100,74831,1,0,0:0:0:0:
161,100,74915,1,2,0:0:0:0:
277,225,75081,1,0,0:0:0:0:
277,225,75248,2,0,P|317:229|371:224,1,80,8|0,0:0|0:0,0:0:0:0:
169,305,75581,6,0,P|132:308|106:190,1,160,2|8,0:0|0:0,0:0:0:0:
247,293,76081,2,0,P|247:338|243:374,1,80,0|2,0:0|0:0,0:0:0:0:
174,214,76415,1,0,0:0:0:0:
174,214,76581,1,8,0:0:0:0:
351,243,76748,1,0,0:0:0:0:
275,33,76915,5,8,0:0:0:0:
351,243,77081,1,2,0:0:0:0:
146,139,77248,1,2,0:0:0:0:
409,123,77415,2,0,B|345:133|345:133|315:121|315:121|237:133,1,160,4|8,0:0|0:0,0:0:0:0:
141,257,77915,1,8,0:0:0:0:
88,61,78081,1,8,0:0:0:0:
232,216,78248,6,0,P|238:307|185:354,1,160,4|8,0:0|0:0,0:0:0:0:
61,262,78748,1,0,0:0:0:0:
61,262,78915,2,0,L|147:256,1,80,2|0,0:0|0:0,0:0:0:0:
268,131,79248,1,8,0:0:0:0:
327,260,79415,1,0,0:0:0:0:
327,260,79581,6,0,L|338:345,2,80,2|0|8,0:0|0:0|0:0,0:0:0:0:
426,123,80081,2,0,L|415:208,1,80,0|2,0:0|0:0,0:0:0:0:
232,274,80415,1,8,0:0:0:0:
314,99,80581,1,8,0:0:0:0:
400,286,80748,1,2,0:0:0:0:
197,164,80915,6,0,B|149:148|117:164|117:164|85:180|29:164,1,160,4|8,0:0|0:0,0:0:0:0:
153,314,81415,1,0,0:0:0:0:
153,314,81581,2,0,P|160:275|153:232,1,80,2|0,0:0|0:0,0:0:0:0:
70,91,81915,1,8,0:0:0:0:
226,42,82081,1,8,0:0:0:0:
226,42,82165,1,8,0:0:0:0:
226,42,82248,6,0,P|283:37|322:38,1,80,12|0,0:0|0:0,0:0:0:0:
467,109,82581,2,0,P|427:108|387:104,1,80,8|0,0:0|0:0,0:0:0:0:
275,217,82915,2,0,P|275:177|279:137,1,80,12|0,0:0|0:0,0:0:0:0:
410,219,83248,2,0,P|414:258|414:298,1,80,8|0,0:0|0:0,0:0:0:0:
357,355,83498,1,0,0:0:0:0:
357,355,83581,6,0,B|292:346|292:346|259:358|259:358|190:346,1,160,4|8,0:0|0:0,0:0:0:0:
246,199,84081,1,0,0:0:0:0:
246,199,84248,2,0,L|248:288,1,80,2|0,0:0|0:0,0:0:0:0:
322,129,84581,1,8,0:0:0:0:
190,45,84748,1,0,0:0:0:0:
190,45,84915,6,0,L|107:39,2,80,2|0|8,0:0|0:0|0:0,0:0:0:0:
192,223,85415,2,0,L|112:228,1,80,4|0,0:0|0:0,0:0:0:0:
112,41,85748,1,8,0:0:0:0:
190,224,85915,1,8,0:0:0:0:
263,43,86081,1,8,0:0:0:0:
263,43,86165,1,8,0:0:0:0:
263,43,86248,5,8,0:0:0:0:
302,156,86415,1,0,0:0:0:0:
371,72,86581,1,8,0:0:0:0:
347,228,86748,1,0,0:0:0:0:
150,114,86915,2,0,L|237:122,2,80,8|0|8,0:0|0:0|0:0,0:0:0:0:
239,303,87415,6,0,P|346:248|338:201,1,160,4|8,0:0|0:0,0:0:0:0:
138,302,87915,1,8,0:0:0:0:
162,121,88748,6,0,B|162:167|143:196|143:196|158:224|158:224|134:258|138:320,1,192,4|0,0:0|0:0,0:0:0:0:
