osu file format v14

[General]
AudioFilename: kirakira.mp3
AudioLeadIn: 0
PreviewTime: 56331
Countdown: 1
SampleSet: Soft
StackLeniency: 0.7
Mode: 0
LetterboxInBreaks: 0
WidescreenStoryboard: 1

[Editor]
DistanceSpacing: 0.5
BeatDivisor: 4
GridSize: 32
TimelineZoom: 1.4

[Metadata]
Title:Kira Kira datoka Yume datoka ~Sing Girls~ (TV Size)
TitleUnicode:キラキラだとか夢だとか ~Sing Girls~ (TV Size)
Artist:Poppin'Party
ArtistUnicode:Poppin'Party
Creator:Nitrous
Version:Gaia's Expert
Source:BanG Dream!
Tags:バンドリ!ガールズバンドパーティ! bandori Girls Band Party garupa Bandori ending Toyama Kasumi Hanazono Tae Ushigome Rimi Yamabuki Saaya Ichigaya Arisa Aimi Otsuka Sae Nishimoto Rimi Ohashi Ayaka Itou Ayasa 愛美 大塚紗英 牛込 りみ 山吹 沙綾 市ヶ谷 有咲 山吹 沙綾 市ヶ谷 有咲 花園 たえ 戸山 香澄 牛込 りみ Kisses scanter Gaia Kibbleru StarrStyx
BeatmapID:1296798
BeatmapSetID:614346

[Difficulty]
HPDrainRate:6
CircleSize:4
OverallDifficulty:8
ApproachRate:9
SliderMultiplier:1.8
SliderTickRate:2

[Events]
//Background and Video events
0,0,"BG-Gaia.jpg",0,0
Video,300,"kirakira.avi"
//Break Periods
//Storyboard Layer 0 (Background)
//Storyboard Layer 1 (Fail)
//Storyboard Layer 2 (Pass)
//Storyboard Layer 3 (Foreground)
//Storyboard Sound Samples

[TimingPoints]
-418,333.333333333333,4,2,1,60,1,0
581,-142.857142857143,4,2,1,60,0,0
915,-100,4,2,1,60,0,0
8581,-142.857142857143,4,2,1,60,0,0
8915,-100,4,2,1,60,0,0
11415,-166.666666666667,4,2,1,60,0,0
12081,-125,4,2,1,60,0,0
16748,-111.111111111111,4,2,1,60,0,0
21415,-111.111111111111,4,2,1,30,0,0
21498,-111.111111111111,4,2,1,60,0,0
21748,-111.111111111111,4,2,1,30,0,0
21831,-111.111111111111,4,2,1,60,0,0
22581,-125,4,2,1,60,0,0
27415,-111.111111111111,4,2,1,60,0,0
32915,-166.666666666666,4,2,1,60,0,0
38248,-111.111111111111,4,2,1,60,0,0
42415,-166.666666666666,4,2,1,60,0,0
42748,-76.9230769230769,4,2,1,60,0,0
43581,-166.666666666667,4,2,1,60,0,0
47748,-111.111111111111,4,2,1,40,0,0
48081,-111.111111111111,4,2,1,60,0,0
54248,-100,4,2,1,60,0,0
55748,-100,4,2,2,40,0,0
56081,-133.333333333333,4,2,2,40,0,0
56415,-100,4,2,1,40,0,0
56581,-200,4,2,1,60,0,0
56915,-83.3333333333333,4,2,1,70,0,1
60915,-100,4,2,1,70,0,1
66415,-100,4,2,1,50,0,1
66748,-83.3333333333333,4,2,1,60,0,0
67581,-83.3333333333333,4,2,1,70,0,1
71581,-100,4,2,1,70,0,1
77415,-83.3333333333333,4,2,1,60,0,0
78248,-100,4,2,1,70,0,1
87415,-83.3333333333333,4,2,1,70,0,1
87748,-71.4285714285714,4,2,1,70,0,1
87831,-71.4285714285714,4,2,1,5,0,1
87915,-71.4285714285714,4,2,1,70,0,1
87998,-71.4285714285714,4,2,1,5,0,1
88748,-250,4,2,1,60,0,0
89248,-300,4,2,1,20,0,0

[Colours]
Combo1 : 164,164,255
Combo2 : 255,255,128
Combo3 : 255,111,175
Combo4 : 113,255,255

[HitObjects]
174,102,415,5,2,0:0:0:0:
174,102,498,1,0,0:0:0:0:
174,102,581,2,0,P|226:111|276:122,1,94.4999971160889,10|0,0:0|0:0,0:0:0:0:
261,140,915,6,0,L|404:126,1,135,4|0,0:0|0:0,0:0:0:0:
473,120,1248,2,0,P|498:166|475:217,1,90,8|0,0:0|0:0,0:0:0:0:
355,327,1581,1,2,0:0:0:0:
254,163,1748,1,0,0:0:0:0:
471,224,1915,1,8,0:0:0:0:
215,280,2081,6,0,B|92:259|92:259|99:295|97:333,1,180,4|0,0:0|0:0,0:0:0:0:
254,163,2581,2,0,P|287:93|197:28,1,180,8|2,0:0|0:0,0:0:0:0:
80,84,3081,1,0,0:0:0:0:
309,241,3248,2,0,P|357:257|404:270,1,90,8|0,0:0|0:0,0:0:0:0:
177,111,3581,6,0,B|48:120|48:120|12:183,1,180,4|8,0:0|0:0,0:0:0:0:
98,313,4081,1,8,0:0:0:0:
118,288,4165,1,8,0:0:0:0:
122,258,4248,1,8,0:0:0:0:
51,0,4415,2,0,P|59:44|80:83,1,90,2|8,0:0|0:0,0:0:0:0:
340,212,4748,6,0,P|293:131|200:162,1,180,4|0,0:0|0:0,0:0:0:0:
272,348,5248,2,0,B|361:368|361:314|456:345,1,180,8|2,0:0|0:0,0:0:0:0:
249,235,5748,1,0,0:0:0:0:
418,139,5915,1,8,0:0:0:0:
225,243,6081,6,0,B|156:252|97:267|97:267|79:245|43:224,1,180,4|0,0:0|0:0,0:0:0:0:
229,63,6581,2,0,B|278:56|321:45|321:45|333:61|359:76,1,135,8|0,0:0|3:2,0:0:0:0:
418,139,6915,1,2,0:0:0:0:
471,302,7081,1,8,0:0:0:0:
442,304,7165,1,8,0:0:0:0:
416,307,7248,1,8,0:0:0:0:
290,186,7415,6,0,P|297:103|305:3,1,180,4|2,0:0|0:0,0:0:0:0:
81,75,7915,2,0,P|19:103|20:177,1,135,8|0,0:0|3:2,0:0:0:0:
60,234,8248,1,2,0:0:0:0:
214,333,8415,1,8,0:0:0:0:
221,313,8498,1,8,0:0:0:0:
228,294,8581,2,0,P|222:250|214:195,1,94.499997116089,8|2,0:0|0:0,0:0:0:0:
195,115,8915,5,12,0:0:0:0:
146,266,9081,1,0,0:0:0:0:
311,204,9248,1,2,0:0:0:0:
66,167,9415,5,12,0:0:0:0:
214,333,9581,1,0,0:0:0:0:
328,185,9748,1,2,0:0:0:0:
53,282,9915,5,12,0:0:0:0:
164,51,10081,1,0,0:0:0:0:
350,162,10248,1,2,0:0:0:0:
11,169,10415,5,12,0:0:0:0:
194,25,10581,1,0,0:0:0:0:
369,145,10748,1,2,0:0:0:0:
153,126,10915,5,12,0:0:0:0:
250,237,11081,1,8,0:0:0:0:
250,237,11165,1,8,0:0:0:0:
250,237,11248,1,8,0:0:0:0:
302,96,11415,6,0,B|216:124|223:76|134:101,1,161.999995056153,4|2,0:0|0:0,0:0:0:0:
11,169,12081,1,0,0:0:0:0:
11,169,12248,2,0,P|14:214|38:241,1,72,2|0,0:0|0:0,0:0:0:0:
155,301,12581,2,0,P|194:252|291:266,1,144,2|2,0:0|0:0,0:0:0:0:
426,236,13081,5,0,0:0:0:0:
301,296,13248,2,0,P|263:306|216:317,1,72,2|0,0:0|0:0,0:0:0:0:
447,236,13581,2,0,P|494:249|533:267,1,72,2|0,0:0|0:0,0:0:0:0:
406,346,13915,1,2,0:0:0:0:
330,183,14081,6,0,P|303:124|354:43,1,144,8|0,0:0|0:0,0:0:0:0:
475,83,14581,2,0,P|484:125|463:174,1,72,2|0,0:0|0:0,0:0:0:0:
426,236,14915,1,2,0:0:0:0:
356,174,15081,1,0,0:0:0:0:
446,150,15248,1,2,0:0:0:0:
418,255,15415,6,0,L|265:273,1,144,0|0,0:0|0:0,0:0:0:0:
131,247,15915,2,0,P|145:288|160:345,1,72,2|0,0:0|0:0,0:0:0:0:
234,371,16248,5,8,0:0:0:0:
319,153,16415,1,8,0:0:0:0:
35,230,16581,1,8,0:0:0:0:
174,276,16748,6,0,P|166:205|154:90,1,161.999995056153,4|0,0:0|0:0,0:0:0:0:
317,29,17248,2,0,P|359:76|331:146,1,121.499996292114,8|0,0:0|0:0,0:0:0:0:
319,153,17581,1,2,0:0:0:0:
426,267,17748,1,0,0:0:0:0:
468,116,17915,1,8,0:0:0:0:
289,233,18081,6,0,P|212:218|117:204,1,161.999995056153,2|0,0:0|0:0,0:0:0:0:
348,129,18581,2,0,L|476:116,1,121.499996292114,8|0,0:0|0:0,0:0:0:0:
496,97,18915,1,2,0:0:0:0:
415,224,19081,1,0,0:0:0:0:
317,29,19248,1,8,0:0:0:0:
383,152,19415,6,0,P|377:236|363:339,1,161.999995056153,2|0,0:0|0:0,0:0:0:0:
161,369,19915,2,0,P|141:327|168:278,1,80.9999975280763,8|0,0:0|0:0,0:0:0:0:
291,168,20248,1,2,0:0:0:0:
242,317,20415,1,0,0:0:0:0:
122,210,20581,1,8,0:0:0:0:
335,240,20748,6,0,P|370:234|433:218,1,80.9999975280763,0|2,0:0|0:0,0:0:0:0:
197,122,21081,1,8,0:0:0:0:
179,121,21165,1,8,0:0:0:0:
159,120,21248,1,8,0:0:0:0:
331,27,21415,2,0,L|341:122,1,80.9999975280763,6|0,0:0|0:0,0:0:0:0:
250,236,21748,2,0,L|241:316,1,80.9999975280763,6|0,0:0|0:0,0:0:0:0:
122,210,22081,6,0,P|114:129|105:48,1,161.999995056153,4|0,0:0|0:0,0:0:0:0:
269,96,22581,2,0,P|304:104|340:107,1,72,2|0,0:0|0:0,0:0:0:0:
360,238,22915,2,0,P|395:235|430:227,1,72,2|0,0:0|0:0,0:0:0:0:
394,46,23248,2,0,P|382:89|377:128,1,72,2|0,0:0|0:0,0:0:0:0:
270,292,23581,5,2,0:0:0:0:
270,292,23748,2,0,L|258:210,1,72,0|2,0:0|0:0,0:0:0:0:
228,69,24081,1,0,0:0:0:0:
252,190,24248,1,2,0:0:0:0:
228,69,24415,1,0,0:0:0:0:
348,105,24581,1,2,0:0:0:0:
166,143,24748,6,0,B|70:126|70:126|67:101|61:75,1,144,8|0,0:0|0:0,0:0:0:0:
115,221,25248,2,0,P|126:293|133:377,1,144,2|2,0:0|0:0,0:0:0:0:
259,220,25748,2,0,P|270:259|276:311,1,72,0|2,0:0|0:0,0:0:0:0:
275,96,26081,6,0,P|333:70|413:134,1,144,0|0,0:0|0:0,0:0:0:0:
166,143,26581,2,0,P|114:105|129:4,1,144,2|2,0:0|0:0,0:0:0:0:
259,220,27081,1,8,0:0:0:0:
269,254,27164,1,8,0:0:0:0:
275,289,27247,1,8,0:0:0:0:
167,263,27415,6,0,P|94:250|-9:237,1,161.999995056153,4|0,0:0|0:0,0:0:0:0:
183,125,27915,2,0,P|246:117|316:101,1,121.499996292114,8|0,0:0|0:0,0:0:0:0:
318,80,28248,1,2,0:0:0:0:
269,254,28415,1,0,0:0:0:0:
223,21,28581,1,8,0:0:0:0:
269,254,28748,6,0,P|322:301|422:288,1,161.999995056153,2|0,0:0|0:0,0:0:0:0:
490,126,29248,2,0,L|479:225,1,80.9999975280763,8|0,0:0|0:0,0:0:0:0:
366,145,29581,1,2,0:0:0:0:
436,0,29748,1,0,0:0:0:0:
512,112,29915,1,8,0:0:0:0:
334,142,30081,6,0,L|163:129,1,161.999995056153,2|0,0:0|0:0,0:0:0:0:
47,89,30581,2,0,L|55:169,1,80.9999975280763,8|0,0:0|0:0,0:0:0:0:
151,308,30915,1,2,0:0:0:0:
171,142,31081,1,0,0:0:0:0:
151,308,31248,1,8,0:0:0:0:
286,216,31415,6,0,P|271:148|257:37,1,161.999995056153,0|2,0:2|0:0,0:0:0:0:
366,144,31915,1,8,0:0:0:0:
171,142,32081,2,0,P|166:97|164:53,1,80.9999975280763,0|2,0:2|0:0,0:0:0:0:
301,230,32415,5,8,0:0:0:0:
93,349,32581,1,8,0:0:0:0:
132,45,32748,1,8,0:0:0:0:
175,186,32915,6,0,P|149:228|45:213,1,161.999995056153,4|2,0:0|0:0,0:0:0:0:
99,133,33581,2,0,L|280:151,1,161.999995056153,8|2,0:0|0:2,0:0:0:0:
296,152,34165,1,2,0:2:0:0:
296,152,34248,5,8,0:0:0:0:
274,51,34415,1,8,0:0:0:0:
373,84,34581,2,0,L|442:67,1,53.9999983520508,2|0,0:0|0:0,0:0:0:0:
416,179,34915,2,0,P|387:220|410:338,1,161.999995056153,8|2,0:0|0:2,0:0:0:0:
495,358,35581,6,0,B|413:336|413:404|322:368,1,161.999995056153,2|2,0:0|0:0,0:0:0:0:
257,297,36248,2,0,B|217:321|172:315|172:315|143:286|101:283,1,161.999995056153,8|2,0:0|0:2,0:0:0:0:
7,214,36915,5,2,0:0:0:0:
34,349,37081,1,8,0:0:0:0:
7,214,37248,2,0,P|16:163|19:113,1,80.9999975280763,2|0,0:0|0:0,0:0:0:0:
29,52,37581,5,8,0:0:0:0:
123,99,37748,1,8,3:0:0:0:
105,201,37915,1,8,0:3:0:0:
3,233,38081,1,4,0:3:0:0:
122,197,38248,6,0,P|194:185|282:177,1,161.999995056153,4|8,0:0|0:0,0:0:0:0:
432,100,38748,2,0,P|351:92|271:79,1,161.999995056153,2|0,0:0|0:0,0:0:0:0:
146,22,39248,2,0,P|155:58|162:119,1,80.9999975280763,8|0,0:0|0:0,0:0:0:0:
256,312,39581,6,0,P|232:253|295:172,1,161.999995056153,2|8,0:0|0:0,0:0:0:0:
432,100,40081,2,0,P|480:160|458:235,1,161.999995056153,2|0,0:0|0:0,0:0:0:0:
380,349,40581,2,0,P|418:340|467:334,1,80.9999975280763,8|0,0:0|0:0,0:0:0:0:
314,253,40915,6,0,P|239:247|130:238,1,161.999995056153,2|8,0:0|0:0,0:0:0:0:
71,76,41415,2,0,P|90:121|91:173,1,80.9999975280763,0|2,3:2|0:0,0:0:0:0:
32,319,41748,2,0,P|33:268|73:238,1,80.9999975280763,0|8,0:0|0:0,0:0:0:0:
178,160,42081,1,0,0:0:0:0:
129,372,42248,5,12,0:0:0:0:
340,247,42415,2,0,P|333:214|326:151,1,80.9999975280763,6|0,0:0|0:0,0:0:0:0:
347,26,42748,6,0,B|345:75|329:107|329:107|358:157|358:157|334:196|341:268,1,233.999989288331,4|8,0:0|0:0,0:0:0:0:
419,351,43248,1,8,0:3:0:0:
485,259,43415,1,4,0:3:0:0:
349,264,43581,6,0,P|294:275|229:286,1,107.999996704102,4|2,0:0|0:0,0:0:0:0:
142,213,44081,1,0,0:0:0:0:
171,361,44248,1,8,0:0:0:0:
142,213,44415,2,0,P|195:204|248:192,1,107.999996704102,2|0,0:0|3:2,0:0:0:0:
266,161,44831,1,0,3:2:0:0:
266,161,44915,5,8,0:0:0:0:
190,21,45081,2,0,P|157:69|186:124,1,107.999996704102,2|0,0:0|0:0,0:0:0:0:
362,186,45581,1,8,0:0:0:0:
362,186,45748,2,0,P|375:135|343:94,1,107.999996704102,2|0,0:0|3:2,0:0:0:0:
248,192,46248,6,0,B|264:293|264:293|293:305|317:328,1,161.999995056153,4|2,0:0|0:0,0:0:0:0:
236,384,46915,2,0,P|154:373|75:361,1,161.999995056153,8|8,0:0|3:2,0:0:0:0:
48,330,47498,1,8,3:2:0:0:
48,330,47581,5,8,0:0:0:0:
271,217,47748,1,6,0:0:0:0:
123,171,48081,2,0,P|137:252|148:354,1,161.999995056153,4|0,0:0|0:0,0:0:0:0:
278,184,48581,2,0,P|282:138|293:82,1,80.9999975280763,8|8,0:0|0:0,0:0:0:0:
341,47,48831,1,8,0:0:0:0:
341,47,48915,6,0,P|306:68|177:86,1,161.999995056153,4|8,0:0|0:0,0:0:0:0:
7,174,49415,2,0,P|42:178|113:193,1,80.9999975280763,0|2,0:0|0:0,0:0:0:0:
284,225,49748,1,2,0:0:0:0:
183,108,49915,1,8,0:0:0:0:
122,296,50081,1,0,0:0:0:0:
278,184,50248,6,0,L|260:4,1,161.999995056153,6|8,0:0|0:0,0:0:0:0:
374,92,50748,1,2,0:0:0:0:
374,92,50831,1,2,0:0:0:0:
374,92,50915,1,2,0:0:0:0:
183,108,51081,1,2,0:0:0:0:
162,103,51165,1,8,0:0:0:0:
138,98,51248,1,8,0:0:0:0:
284,225,51415,1,8,0:0:0:0:
289,255,51498,1,8,0:0:0:0:
292,289,51581,6,0,B|251:328|184:325|184:325|168:304|130:281,1,161.999995056153,6|8,0:0|0:0,0:0:0:0:
42,113,52081,2,0,B|83:74|150:77|150:77|165:97|182:107,1,161.999995056153,2|0,0:0|0:0,0:0:0:0:
309,173,52581,6,0,B|307:233|293:290|293:290|316:311|334:341,1,161.999995056153,8|2,0:0|0:0,0:0:0:0:
435,196,53081,2,0,P|431:162|417:91,1,80.9999975280763,0|8,0:0|0:0,0:0:0:0:
308,54,53415,1,0,0:0:0:0:
230,192,53581,2,0,P|265:181|328:170,1,80.9999975280763,2|0,0:0|0:0,0:0:0:0:
104,71,53915,2,0,P|149:79|198:84,1,80.9999975280763,8|0,0:0|0:0,0:0:0:0:
291,314,54248,6,0,P|223:338|153:289,1,135,8|0,3:2|3:2,0:0:0:0:
101,247,54581,1,8,0:0:0:0:
96,224,54665,1,8,0:0:0:0:
92,201,54748,1,8,0:0:0:0:
88,178,54831,1,8,0:0:0:0:
84,155,54915,6,0,P|89:129|98:92,1,45,8|8,0:0|0:0,0:0:0:0:
177,26,55081,2,0,L|243:50,1,45,8|8,0:0|0:0,0:0:0:0:
269,153,55248,2,0,L|326:141,1,45,8|8,0:0|0:0,0:0:0:0:
411,49,55415,2,0,L|470:57,1,45,8|8,0:0|0:0,0:0:0:0:
512,135,55581,5,8,0:0:0:0:
331,114,55748,2,0,P|312:64|318:5,1,90,2|0,0:0|0:0,0:0:0:0:
408,240,56081,2,0,P|396:305|341:341,1,135.000005149842,2|2,0:0|0:0,0:0:0:0:
207,303,56498,1,2,0:0:0:0:
207,303,56581,6,0,P|175:294|125:295,1,67.5,8|0,0:3|0:0,0:0:0:0:
41,282,56915,6,0,L|208:262,1,161.999995056153,4|0,0:0|0:0,0:0:0:0:
289,247,57248,1,8,0:0:0:0:
162,373,57415,1,0,0:2:0:0:
100,122,57581,1,8,0:0:0:0:
201,262,57748,1,2,0:0:0:0:
377,65,57915,1,8,0:0:0:0:
179,167,58081,1,2,0:0:0:0:
370,362,58248,6,0,B|400:343|400:343|393:310|380:200,1,161.999995056153,8|0,0:0|0:0,0:0:0:0:
426,141,58581,1,8,0:0:0:0:
289,247,58748,1,0,0:2:0:0:
512,342,58915,1,8,0:0:0:0:
270,263,59081,1,2,0:0:0:0:
374,39,59248,1,8,0:0:0:0:
409,241,59415,1,2,0:0:0:0:
224,99,59581,6,0,P|133:112|55:123,1,161.999995056153,8|0,0:0|0:0,0:0:0:0:
4,70,59915,1,8,0:0:0:0:
161,197,60081,1,0,0:2:0:0:
16,347,60248,1,8,0:0:0:0:
41,150,60415,1,2,0:0:0:0:
270,263,60581,1,8,0:0:0:0:
127,210,60748,1,2,0:0:0:0:
250,45,60915,6,0,P|241:93|237:140,1,90,8|0,0:0|0:0,0:0:0:0:
145,344,61248,2,0,P|136:299|132:255,1,90,8|2,0:0|0:0,0:0:0:0:
327,104,61581,1,8,0:0:0:0:
127,210,61748,1,2,0:0:0:0:
367,295,61915,1,8,0:0:0:0:
235,77,62081,1,2,0:0:0:0:
227,107,62165,1,2,0:0:0:0:
237,133,62248,6,0,P|291:140|348:145,1,90,4|0,0:0|0:0,0:0:0:0:
218,273,62581,2,0,P|137:283|56:295,1,135,8|0,0:0|3:2,0:0:0:0:
50,308,62915,1,2,0:0:0:0:
137,183,63081,1,2,0:0:0:0:
183,371,63248,1,8,0:0:0:0:
128,155,63415,6,0,P|129:80|218:22,1,180,2|2,0:0|0:0,0:0:0:0:
350,161,63915,2,0,L|371:329,1,135,8|0,0:0|3:2,0:0:0:0:
375,329,64248,1,2,0:0:0:0:
464,186,64415,1,2,0:0:0:0:
237,133,64581,2,0,P|227:185|222:249,1,90,8|0,0:0|0:2,0:0:0:0:
375,329,64915,6,0,B|285:313|293:376|176:350,1,180,2|8,0:0|0:0,0:0:0:0:
30,167,65415,2,0,P|79:169|148:183,1,90,0|2,0:0|0:0,0:0:0:0:
234,253,65748,1,2,0:0:0:0:
178,70,65915,1,8,0:0:0:0:
76,263,66081,1,2,0:0:0:0:
168,47,66248,5,8,0:0:0:0:
150,206,66415,2,0,L|163:320,1,90,4|0,0:0|0:0,0:0:0:0:
403,203,66748,2,0,B|464:155|445:63|445:63|355:34,1,215.999993408203,4|8,0:0|0:0,0:0:0:0:
312,25,67165,1,2,0:0:0:0:
312,25,67248,1,2,0:0:0:0:
265,248,67415,1,2,0:0:0:0:
274,269,67498,1,2,0:0:0:0:
286,294,67581,6,0,L|457:275,1,161.999995056153,4|0,0:0|0:0,0:0:0:0:
505,215,67915,1,8,0:0:0:0:
385,372,68081,1,0,0:2:0:0:
251,129,68248,1,8,0:0:0:0:
403,203,68415,1,2,0:0:0:0:
119,338,68581,1,8,0:0:0:0:
254,229,68748,1,2,0:0:0:0:
100,77,68915,6,0,B|68:113|68:113|88:176|102:240,1,161.999995056153,8|0,0:0|0:0,0:0:0:0:
44,288,69248,1,8,0:0:0:0:
280,213,69415,1,2,0:2:0:0:
161,14,69581,1,8,0:0:0:0:
125,232,69748,1,2,0:0:0:0:
411,113,69915,1,8,0:0:0:0:
214,122,70081,1,2,0:0:0:0:
301,350,70248,6,0,B|304:369|327:378|327:378|379:332|340:254,1,161.999995056153,8|0,0:0|0:0,0:0:0:0:
280,213,70581,1,8,0:0:0:0:
126,303,70748,1,2,0:2:0:0:
147,60,70915,1,8,0:0:0:0:
254,229,71081,1,2,0:0:0:0:
12,134,71248,1,8,0:0:0:0:
214,122,71415,1,2,0:0:0:0:
37,275,71581,6,0,P|28:326|26:378,1,90,12|2,0:0|0:0,0:0:0:0:
126,303,71831,1,2,0:0:0:0:
126,303,71915,2,0,P|122:258|115:213,1,90,12|0,0:0|0:0,0:0:0:0:
125,20,72248,2,0,P|139:48|162:80,1,45,12|0,0:0|3:2,0:0:0:0:
214,122,72415,1,8,0:0:0:0:
239,116,72498,1,8,0:0:0:0:
265,111,72581,1,8,0:3:0:0:
291,106,72664,1,8,0:3:0:0:
316,100,72748,1,8,0:3:0:0:
342,95,72831,1,8,0:3:0:0:
368,90,72915,5,4,0:0:0:0:
236,13,73081,1,2,0:0:0:0:
319,208,73248,2,0,P|367:258|454:242,1,135,8|0,0:0|0:0,0:0:0:0:
476,183,73581,1,2,0:0:0:0:
341,343,73748,1,2,0:0:0:0:
265,111,73915,1,8,0:0:0:0:
222,251,74081,6,0,P|131:270|38:283,1,180,2|2,0:0|0:0,0:0:0:0:
154,54,74581,2,0,P|203:33|258:99,1,135,8|0,0:0|3:2,0:0:0:0:
265,111,74915,1,2,0:0:0:0:
280,323,75081,1,2,0:0:0:0:
125,171,75248,1,8,0:0:0:0:
391,120,75415,1,0,0:0:0:0:
397,146,75498,1,2,0:0:0:0:
388,175,75581,5,8,0:0:0:0:
222,251,75748,1,2,0:0:0:0:
257,82,75915,1,8,0:0:0:0:
345,283,76081,1,0,3:2:0:0:
345,283,76165,1,0,3:2:0:0:
345,283,76248,1,2,0:0:0:0:
480,149,76415,1,2,0:0:0:0:
228,219,76581,1,8,0:0:0:0:
291,99,76748,1,2,0:0:0:0:
281,364,76915,5,8,0:0:0:0:
356,253,77081,1,2,0:0:0:0:
66,188,77248,1,8,0:0:0:0:
228,219,77415,6,0,P|313:207|428:188,1,161.999995056153,4|0,0:0|0:0,0:0:0:0:
480,149,77748,1,8,0:0:0:0:
219,65,77915,1,8,0:0:0:0:
365,356,78081,1,8,0:0:0:0:
238,276,78248,6,0,P|193:229|54:225,1,180,4|8,0:0|0:0,0:0:0:0:
285,146,78748,1,0,0:0:0:0:
285,146,78915,2,0,P|325:137|392:112,1,90,2|0,0:0|0:0,0:0:0:0:
149,14,79248,2,0,P|157:67|180:117,1,90,8|0,0:0|0:0,0:0:0:0:
242,289,79581,5,2,0:0:0:0:
288,172,79748,1,0,0:0:0:0:
161,133,79915,1,8,0:0:0:0:
242,289,80081,2,0,B|303:282|358:301|358:301|363:274|389:239,1,180,2|12,0:0|0:0,0:0:0:0:
477,81,80581,2,0,P|433:93|367:105,1,90,12|0,0:0|0:0,0:0:0:0:
218,31,80915,6,0,P|285:82|272:196,1,180,6|8,0:0|0:0,0:0:0:0:
187,277,81415,1,0,0:0:0:0:
111,105,81581,2,0,P|104:56|91:-9,1,90,2|0,0:0|0:0,0:0:0:0:
184,179,81915,2,0,P|136:197|71:219,1,90,8|2,0:0|0:0,0:0:0:0:
10,178,82165,1,2,0:0:0:0:
10,178,82248,5,12,0:0:0:0:
196,296,82415,1,2,0:0:0:0:
248,32,82581,1,12,0:0:0:0:
184,179,82748,1,2,0:0:0:0:
413,184,82915,1,12,0:0:0:0:
259,55,83081,1,2,0:0:0:0:
381,290,83248,1,12,0:0:0:0:
446,84,83415,1,8,0:0:0:0:
413,73,83498,1,8,0:0:0:0:
381,88,83581,6,0,P|388:144|404:278,1,180,4|8,0:0|0:0,0:0:0:0:
240,344,84081,1,2,0:0:0:0:
240,344,84248,2,0,P|195:341|157:306,1,90,2|0,0:0|0:0,0:0:0:0:
24,166,84581,2,0,P|69:156|135:132,1,90,8|0,0:0|0:0,0:0:0:0:
165,78,84831,1,2,3:2:0:0:
165,78,84915,5,2,0:0:0:0:
162,265,85081,1,0,0:0:0:0:
342,135,85248,1,8,0:0:0:0:
218,188,85415,2,0,P|209:269|202:381,1,180,6|2,0:0|0:0,0:0:0:0:
350,224,85915,2,0,P|347:184|337:107,1,90,8|2,0:0|0:0,0:0:0:0:
334,52,86165,1,2,0:0:0:0:
334,52,86248,5,12,0:0:0:0:
181,161,86415,1,2,0:0:0:0:
377,253,86581,5,8,0:0:0:0:
85,212,86748,1,2,0:0:0:0:
446,102,86915,5,8,0:0:0:0:
111,74,87081,1,8,0:3:0:0:
509,207,87248,5,4,0:3:0:0:
211,185,87415,2,0,P|169:244|239:331,1,161.999995056153,4|0,0:0|0:0,0:0:0:0:
214,340,87748,2,0,P|244:329|286:322,1,62.9999980773926,8|0,0:0|0:0,0:0:0:0:
412,185,87915,2,0,P|451:193|493:203,1,62.9999980773926,8|0,0:0|0:0,0:0:0:0:
473,198,88748,6,0,P|424:208|352:224,1,108,4|0,0:0|0:0,0:0:0:0:
