osu file format v14

[General]
AudioFilename: audio.mp3
AudioLeadIn: 0
PreviewTime: 56315
Countdown: 0
SampleSet: Soft
StackLeniency: 0.3
Mode: 0
LetterboxInBreaks: 0
WidescreenStoryboard: 1

[Editor]
Bookmarks: 11564,22231,32898,43564,56898,67564,78231
DistanceSpacing: 1.2
BeatDivisor: 2
GridSize: 32
TimelineZoom: 2

[Metadata]
Title:Kira Kira datoka Yume datoka ~Sing Girls~ (TV Size)
TitleUnicode:キラキラだとか夢だとか ~Sing Girls~ (TV Size)
Artist:Poppin'Party
ArtistUnicode:Poppin'Party
Creator:[Crz]Sword
Version:Pata-Mon's Insane
Source:BanG Dream!
Tags:pata-mon pata mon bandori garupa バンドリ!girl band project Toyama Kasumi Hanazono Tae Ushigome Rimi Yamabuki Saaya Ichigaya Arisa Aimi Otsuka Sae Nishimoto Ohashi Ayaka Itou Ayasa 愛美 大塚紗英 牛込 りみ 山吹 沙綾 市ヶ谷 有咲 オリジナルサウンドトラック ed ending
BeatmapID:1346523
BeatmapSetID:625045

[Difficulty]
HPDrainRate:6
CircleSize:3.6
OverallDifficulty:7.2
ApproachRate:9
SliderMultiplier:1.6
SliderTickRate:1

[Events]
//Background and Video events
0,0,"bg4.jpg",0,0
Video,623,"1.mp4"
//Break Periods
//Storyboard Layer 0 (Background)
//Storyboard Layer 1 (Fail)
//Storyboard Layer 2 (Pass)
//Storyboard Layer 3 (Foreground)
//Storyboard Sound Samples

[TimingPoints]
-435,333.333333333333,4,2,1,35,1,0
564,-125,4,2,1,50,0,0
814,-125,4,2,1,5,0,0
898,-83.3333333333333,4,2,1,70,0,0
11564,-100,4,2,1,50,0,0
16231,-100,4,2,1,70,0,0
22064,-83.3333333333333,4,2,1,50,0,0
22231,-100,4,2,1,50,0,0
26898,-100,4,2,1,70,0,0
32898,-125,4,2,1,50,0,0
38231,-100,4,2,1,70,0,0
42981,-100,4,2,1,5,0,0
43064,-125,4,2,1,50,0,0
48064,-100,4,2,1,70,0,0
51564,-83.3333333333333,4,2,1,70,0,0
54231,-83.3333333333333,4,2,1,50,0,0
55564,-83.3333333333333,4,2,1,70,0,0
56398,-100,4,2,1,50,0,0
56564,-125,4,2,1,70,0,0
56814,-125,4,2,1,5,0,0
56898,-83.3333333333333,4,2,1,70,0,1
78231,-83.3333333333333,4,2,1,70,0,0
89231,-83.3333333333333,4,2,1,5,0,0

[Colours]
Combo1 : 146,36,255
Combo2 : 255,81,81
Combo3 : 119,255,119
Combo4 : 0,255,255

[HitObjects]
256,317,398,6,0,L|256:253,1,40,4|4,0:3|0:3,0:0:0:0:
214,180,564,6,0,P|261:199|308:166,1,96,0|0,1:0|0:0,0:0:0:0:
106,84,898,6,0,P|108:204|117:293,1,191.999994140625,6|0,0:0|1:0,0:0:0:0:
160,381,1398,1,2,0:0:0:0:
265,335,1564,2,0,P|323:334|388:343,1,95.9999970703126,2|0,0:0|0:0,0:0:0:0:
160,381,1898,1,0,1:0:0:0:
228,226,2064,6,0,P|323:223|419:231,1,191.999994140625,6|2,0:0|0:0,0:0:0:0:
376,123,2564,2,0,P|328:118|280:120,1,95.9999970703126,0|0,1:0|0:0,0:0:0:0:
483,149,2898,2,0,L|489:18,1,95.9999970703126,2|0,0:0|0:0,0:0:0:0:
280,120,3231,2,0,L|286:251,1,95.9999970703126,0|0,1:0|0:0,0:0:0:0:
370,26,3564,6,0,P|286:20|160:22,1,191.999994140625,6|0,0:0|1:0,0:0:0:0:
113,116,4064,1,2,0:0:0:0:
113,116,4148,1,0,1:0:0:0:
113,116,4231,1,2,0:0:0:0:
228,125,4398,1,2,0:0:0:0:
63,12,4564,1,0,1:0:0:0:
48,211,4731,6,0,P|150:308|311:306,1,191.999994140625,6|2,0:0|0:0,0:0:0:0:
356,225,5231,2,0,P|319:217|262:227,1,95.9999970703126,0|0,1:0|0:0,0:0:0:0:
426,316,5564,1,2,0:0:0:0:
471,210,5731,1,2,0:0:0:0:
311,331,5898,1,0,1:0:0:0:
286,134,6064,6,0,P|218:78|99:115,1,191.999994140625,6|2,0:0|0:0,0:0:0:0:
285,249,6564,1,0,1:0:0:0:
186,190,6731,1,2,0:0:0:0:
186,190,6814,1,2,0:0:0:0:
186,190,6898,2,0,L|103:195,1,47.9999985351563,0|0,3:0|3:0,0:0:0:0:
285,249,7064,2,0,L|368:244,1,47.9999985351563,0|0,3:0|3:0,0:0:0:0:
286,134,7231,1,0,1:0:0:0:
185,305,7398,6,0,P|316:359|391:293,1,191.999994140625,6|2,0:0|0:0,0:0:0:0:
286,134,7898,2,0,L|137:126,1,95.9999970703126,0|0,1:0|0:0,0:0:0:0:
149,143,8148,1,0,2:0:0:0:
149,143,8231,1,2,0:0:0:0:
285,249,8398,1,0,2:0:0:0:
322,240,8481,1,0,2:0:0:0:
359,231,8564,2,0,P|377:182|377:113,1,95.9999970703126,0|0,2:0|0:0,0:0:0:0:
177,90,8898,6,0,L|273:96,1,95.9999970703126,6|0,0:0|0:0,0:0:0:0:
363,24,9231,1,2,0:0:0:0:
194,205,9398,6,0,L|290:211,1,95.9999970703126,6|0,0:0|0:0,0:0:0:0:
380,139,9731,1,2,0:0:0:0:
274,0,9898,6,0,L|273:95,1,95.9999970703126,6|0,0:0|0:0,0:0:0:0:
290,211,10231,1,2,0:0:0:0:
169,48,10398,6,0,L|168:143,1,95.9999970703126,6|0,0:0|0:0,0:0:0:0:
185,259,10731,1,2,0:0:0:0:
273,96,10898,5,0,1:0:0:0:
78,216,11064,1,0,1:0:0:0:
78,216,11148,1,0,1:0:0:0:
78,216,11231,1,0,1:0:0:0:
295,287,11398,6,0,L|273:96,1,191.999994140625,6|0,0:0|0:0,0:0:0:0:
128,58,11898,6,0,P|89:61|50:70,1,80,2|0,0:0|0:0,0:0:0:0:
67,164,12231,2,0,P|105:154|145:151,1,80,2|0,0:0|0:0,0:0:0:0:
166,245,12564,2,0,P|127:248|88:257,1,80,2|0,0:0|0:0,0:0:0:0:
239,307,12898,6,0,P|277:316|317:319,1,80,2|0,0:0|0:0,0:0:0:0:
335,225,13231,2,0,P|296:215|256:212,1,80,2|0,0:0|0:0,0:0:0:0:
425,256,13564,1,2,0:0:0:0:
425,256,13731,2,0,P|430:211|428:128,1,80,2|0,0:0|0:0,0:0:0:0:
368,13,14064,1,0,1:0:0:0:
437,80,14231,6,0,P|471:100|508:115,1,80,2|0,0:0|0:0,0:0:0:0:
431,176,14564,2,0,P|394:161|360:141,1,80,2|0,0:0|0:0,0:0:0:0:
281,202,14898,2,0,P|315:222|352:237,1,80,2|0,0:0|0:0,0:0:0:0:
269,107,15231,1,2,0:0:0:0:
269,107,15398,6,0,P|228:102|189:104,1,80,2|0,0:0|0:0,0:0:0:0:
101,143,15731,1,2,0:0:0:0:
156,222,15898,2,0,P|197:227|235:224,1,80,2|0,0:0|0:0,0:0:0:0:
101,143,16231,5,0,1:0:0:0:
97,299,16398,1,0,1:0:0:0:
235,224,16564,1,0,1:0:0:0:
43,220,16731,6,0,L|46:407,1,160,6|2,0:0|0:0,0:0:0:0:
101,143,17231,2,0,P|46:124|-18:146,1,80,0|0,1:0|0:0,0:0:0:0:
139,231,17564,1,2,0:0:0:0:
197,154,17731,1,2,0:0:0:0:
43,220,17898,1,0,1:0:0:0:
177,319,18064,6,0,P|306:280|352:215,1,160,2|2,0:0|0:0,0:0:0:0:
306,95,18564,2,0,P|295:133|291:173,1,80,0|0,1:0|0:0,0:0:0:0:
384,39,18898,1,2,0:0:0:0:
245,21,19064,2,0,P|221:68|209:127,1,80,2|0,0:0|1:0,0:0:0:0:
302,252,19398,6,0,P|292:173|306:95,1,160,2|2,0:0|0:0,0:0:0:0:
477,61,19898,2,0,P|430:66|375:63,1,80,0|0,1:0|0:0,0:0:0:0:
327,0,20231,1,2,0:0:0:0:
477,61,20398,2,0,L|472:180,1,80,2|0,0:0|1:0,0:0:0:0:
411,291,20731,6,0,L|406:172,1,80,2|0,0:0|0:0,0:0:0:0:
512,238,21064,1,0,1:0:0:0:
512,238,21148,1,0,1:0:0:0:
512,238,21231,1,0,1:0:0:0:
312,266,21398,1,0,1:0:0:0:
312,266,21731,5,0,1:0:0:0:
107,76,22064,6,0,P|108:166|126:297,1,191.999994140625,6|0,0:0|0:0,0:0:0:0:
312,266,22564,6,0,P|359:258|409:235,1,80,2|0,0:0|0:0,0:0:0:0:
495,173,22898,2,0,P|448:165|398:142,1,80,2|0,0:0|0:0,0:0:0:0:
312,80,23231,2,0,P|359:72|409:49,1,80,2|0,0:0|0:0,0:0:0:0:
222,40,23564,6,0,L|215:152,1,80,2|0,0:0|0:0,0:0:0:0:
317,160,23898,2,0,L|310:48,1,80,2|0,0:0|0:0,0:0:0:0:
238,214,24231,1,2,0:0:0:0:
238,214,24398,2,0,L|245:326,1,80,2|0,0:0|0:0,0:0:0:0:
421,224,24731,1,0,1:0:0:0:
339,274,24898,6,0,L|332:386,1,80,2|0,0:0|0:0,0:0:0:0:
243,294,25231,2,0,L|236:182,1,80,2|0,0:0|0:0,0:0:0:0:
149,257,25564,2,0,L|142:369,1,80,2|0,0:0|0:0,0:0:0:0:
48,197,25898,1,2,0:0:0:0:
48,197,26064,6,0,L|55:309,1,80,2|0,0:0|0:0,0:0:0:0:
144,337,26398,1,2,0:0:0:0:
228,229,26564,2,0,P|188:233|149:241,1,80,2|0,0:0|0:0,0:0:0:0:
53,277,26898,1,2,0:0:0:0:
244,337,27064,1,0,1:0:0:0:
244,337,27148,1,0,1:0:0:0:
244,337,27231,1,0,1:0:0:0:
226,142,27398,6,0,P|142:154|59:182,1,160,6|2,0:0|0:0,0:0:0:0:
108,265,27898,2,0,P|115:308|111:364,1,80,0|0,1:0|0:0,0:0:0:0:
13,254,28231,1,2,0:0:0:0:
70,177,28398,1,2,0:0:0:0:
203,276,28564,1,0,1:0:0:0:
127,100,28731,6,0,P|271:97|347:150,1,160,2|2,0:0|0:0,0:0:0:0:
417,173,29231,2,0,L|338:180,1,80,0|0,1:0|0:0,0:0:0:0:
367,56,29564,1,2,0:0:0:0:
491,112,29731,2,0,P|513:182|493:232,1,80,2|0,0:0|1:0,0:0:0:0:
407,333,30064,6,0,P|408:252|425:127,1,160,2|2,0:0|0:0,0:0:0:0:
483,33,30564,2,0,P|491:80|491:115,1,80,0|0,1:0|0:0,0:0:0:0:
320,177,30898,1,2,0:0:0:0:
310,24,31064,2,0,P|370:33|424:62,1,80,2|0,0:0|1:0,0:0:0:0:
225,107,31398,6,0,P|187:119|132:122,1,80,2|0,0:0|0:0,0:0:0:0:
310,24,31731,1,2,0:0:0:0:
320,177,31898,1,0,1:0:0:0:
388,40,32064,2,0,P|350:28|295:25,1,80,2|0,0:0|1:0,0:0:0:0:
469,207,32398,1,0,1:0:0:0:
499,58,32564,1,0,1:0:0:0:
320,177,32731,1,0,0:0:0:0:
204,105,32898,6,0,P|144:110|76:129,1,128,6|0,0:0|0:0,0:0:0:0:
4,189,33398,1,2,0:0:0:0:
79,306,33564,2,0,P|174:296|266:271,1,192,0|0,1:0|0:0,0:0:0:0:
325,194,34231,5,2,0:0:0:0:
344,329,34398,2,0,P|392:348|455:332,1,64,0|0,1:0|0:0,0:0:0:0:
402,252,34731,1,2,0:0:0:0:
267,271,34898,2,0,P|181:259|49:195,1,192,0|0,1:0|0:0,0:0:0:0:
159,43,35564,6,0,P|175:137|114:195,1,128,2|0,0:0|0:0,0:0:0:0:
84,219,36064,1,2,0:0:0:0:
85,104,36231,2,0,L|227:101,1,128,0|0,1:0|0:0,0:0:0:0:
309,99,36731,1,2,0:0:0:0:
263,184,36898,5,2,0:0:0:0:
259,17,37064,2,0,P|332:6|374:29,1,64,0|0,1:0|0:0,0:0:0:0:
398,63,37398,1,2,0:0:0:0:
213,101,37564,2,0,P|181:99|151:87,1,64,0|0,1:0|0:0,0:0:0:0:
309,99,37898,2,0,P|320:172|297:214,1,64,2|0,0:0|0:0,0:0:0:0:
125,236,38231,6,0,P|219:251|329:240,1,160,6|0,0:0|1:0,0:0:0:0:
379,237,38731,1,2,0:0:0:0:
332,82,38898,2,0,P|324:121|322:161,1,80,2|0,0:0|0:0,0:0:0:0:
388,316,39231,2,0,P|387:276|379:237,1,80,0|0,1:0|0:0,0:0:0:0:
251,30,39564,6,0,P|235:108|231:188,1,160,2|0,0:0|1:0,0:0:0:0:
239,284,40064,1,2,0:0:0:0:
318,229,40231,2,0,P|306:128|272:101,1,80,2|0,0:0|0:0,0:0:0:0:
152,243,40564,2,0,P|164:344|198:371,1,80,0|0,1:0|0:0,0:0:0:0:
318,229,40898,6,0,P|290:366|212:376,1,160,2|0,0:0|1:0,0:0:0:0:
239,284,41398,1,2,0:0:0:0:
297,135,41564,2,0,P|330:129|403:128,1,80,2|0,0:0|0:0,0:0:0:0:
512,214,41898,2,0,P|472:212|432:205,1,80,0|0,1:0|0:0,0:0:0:0:
486,57,42231,5,0,1:0:0:0:
337,215,42398,1,0,1:0:0:0:
337,215,42731,6,0,P|406:158|445:109,1,120,6|0,0:0|0:0,0:0:0:0:
486,57,43064,6,0,P|428:76|436:148,1,128,0|0,1:0|0:0,0:0:0:0:
512,230,43564,6,0,P|468:276|417:314,1,128,6|0,0:0|0:0,0:0:0:0:
324,341,44064,1,2,0:0:0:0:
140,287,44231,2,0,P|202:227|298:248,1,192,0|0,1:0|0:0,0:0:0:0:
231,318,44898,5,2,0:0:0:0:
155,142,45064,2,0,P|185:132|258:129,1,64,0|0,1:0|0:0,0:0:0:0:
310,153,45398,1,2,0:0:0:0:
231,318,45564,1,0,1:0:0:0:
298,248,45731,2,0,P|355:243|415:256,1,64,2|0,0:0|0:0,0:0:0:0:
455,263,46064,1,2,0:0:0:0:
384,111,46231,6,0,P|320:110|256:120,1,128,6|0,0:0|0:0,0:0:0:0:
163,142,46731,1,2,0:0:0:0:
298,248,46898,2,0,P|362:249|426:239,1,128,0|0,1:0|0:0,0:0:0:0:
349,121,47398,1,0,1:0:0:0:
349,121,47481,1,0,1:0:0:0:
349,121,47564,6,0,L|351:152,1,32,0|0,1:0|0:0,0:0:0:0:
425,239,47731,1,2,0:0:0:0:
342,14,48064,6,0,P|267:13|147:29,1,160,6|2,0:0|0:0,0:0:0:0:
65,49,48564,1,0,1:0:0:0:
70,81,48648,1,0,1:0:0:0:
75,113,48731,1,0,1:0:0:0:
80,145,48814,1,0,1:0:0:0:
85,177,48898,6,0,P|164:185|244:184,1,160,6|0,0:0|1:0,0:0:0:0:
340,180,49398,1,2,0:0:0:0:
300,20,49564,2,0,P|291:59|290:99,1,80,2|0,0:0|0:0,0:0:0:0:
350,259,49898,2,0,P|348:219|340:181,1,80,0|0,1:0|0:0,0:0:0:0:
162,239,50231,5,2,0:0:0:0:
257,231,50398,1,2,0:0:0:0:
108,160,50564,1,0,1:0:0:0:
67,247,50731,2,0,L|33:270,2,40,2|2|2,0:0|0:0|0:0,0:0:0:0:
203,152,51064,1,0,1:0:0:0:
231,138,51148,1,0,1:0:0:0:
263,135,51231,1,0,1:0:0:0:
294,142,51314,1,0,1:0:0:0:
321,159,51398,1,0,1:0:0:0:
341,184,51481,1,0,1:0:0:0:
351,214,51564,6,0,L|353:336,1,95.9999970703126,6|0,0:0|0:0,0:0:0:0:
203,152,51898,1,0,1:0:0:0:
359,206,52064,6,0,L|361:328,1,95.9999970703126,2|0,0:0|0:0,0:0:0:0:
211,144,52398,1,2,0:0:0:0:
367,198,52564,6,0,L|369:320,1,95.9999970703126,0|0,1:0|0:0,0:0:0:0:
219,136,52898,1,2,0:0:0:0:
375,190,53064,6,0,L|377:312,1,95.9999970703126,2|0,0:0|0:0,0:0:0:0:
227,128,53398,1,2,0:0:0:0:
248,288,53564,6,0,P|156:273|97:224,1,95.9999970703126,2|0,0:0|0:0,0:0:0:0:
375,190,53898,2,0,P|403:245|400:340,1,95.9999970703126,0|0,1:0|0:0,0:0:0:0:
227,128,54231,5,0,1:0:0:0:
245,94,54314,1,0,1:0:0:0:
272,66,54397,1,0,1:0:0:0:
304,45,54481,1,0,1:0:0:0:
340,33,54564,2,0,L|347:113,3,47.9999985351563,0|0|0|0,1:0|1:0|1:0|1:0,0:0:0:0:
367,123,54898,5,0,1:0:0:0:
399,103,54981,1,0,1:0:0:0:
437,92,55064,1,0,1:0:0:0:
475,90,55148,1,0,1:0:0:0:
512,98,55231,2,0,L|478:170,3,47.9999985351563,0|0|0|0,1:0|1:0|1:0|1:0,0:0:0:0:
490,189,55564,5,0,1:0:0:0:
274,113,56398,6,0,L|274:177,1,40,4|4,0:3|0:3,0:0:0:0:
232,250,56564,6,0,P|279:231|326:264,1,96,0|0,1:0|0:0,0:0:0:0:
124,346,56898,6,0,P|126:226|137:115,1,191.999994140625,4|0,1:2|1:0,0:0:0:0:
168,45,57398,1,2,0:0:0:0:
225,222,57564,1,0,1:0:0:0:
132,154,57731,1,2,0:0:0:0:
282,45,57898,1,0,1:0:0:0:
318,154,58064,1,2,0:0:0:0:
168,45,58231,6,0,P|31:98|33:212,1,191.999994140625,0|0,1:0|1:0,0:0:0:0:
54,239,58731,1,2,0:0:0:0:
236,201,58898,1,0,1:0:0:0:
132,154,59064,1,2,0:0:0:0:
111,340,59231,1,0,1:0:0:0:
223,315,59398,1,2,0:0:0:0:
54,239,59564,6,0,P|-2:320|-1:368,1,95.9999970703126,0|0,1:0|0:0,0:0:0:0:
223,315,59898,2,0,P|300:297|349:223,1,95.9999970703126,0|0,1:0|0:0,0:0:0:0:
296,102,60231,1,0,1:0:0:0:
236,201,60398,1,2,0:0:0:0:
417,242,60564,1,0,1:0:0:0:
409,127,60731,1,2,0:0:0:0:
312,288,60898,6,0,P|270:310|223:315,1,95.9999970703126,0|0,1:0|0:0,0:0:0:0:
168,137,61231,2,0,P|208:161|236:201,1,95.9999970703126,0|0,1:0|0:0,0:0:0:0:
109,337,61564,2,0,P|108:300|130:246,1,95.9999970703126,0|0,1:0|0:0,0:0:0:0:
322,124,61898,1,0,1:0:0:0:
236,201,62064,1,0,1:0:0:0:
236,201,62148,1,0,1:0:0:0:
236,201,62231,6,0,P|207:123|238:45,1,95.9999970703126,6|0,0:0|0:0,0:0:0:0:
464,103,62564,2,0,P|394:118|323:124,1,143.999995605469,0|0,1:0|0:0,0:0:0:0:
322,124,62898,1,2,0:0:0:0:
479,3,63064,1,2,0:0:0:0:
507,200,63231,1,0,1:0:0:0:
365,18,63398,6,0,P|228:58|217:171,1,191.999994140625,2|2,0:0|0:0,0:0:0:0:
328,258,63898,2,0,P|334:206|337:125,1,95.9999970703126,0|0,1:0|0:0,0:0:0:0:
322,124,64148,1,0,1:0:0:0:
322,124,64231,1,2,0:0:0:0:
238,203,64398,1,2,0:0:0:0:
437,146,64564,2,0,P|434:98|427:50,1,95.9999970703126,0|0,1:0|0:0,0:0:0:0:
220,12,64898,6,0,P|225:107|238:202,1,191.999994140625,2|0,0:0|1:0,0:0:0:0:
321,283,65398,2,0,P|315:346|305:395,1,95.9999970703126,2|0,0:0|0:0,0:0:0:0:
238,203,65731,1,2,0:0:0:0:
432,252,65898,1,0,1:0:0:0:
321,283,66064,1,2,0:0:0:0:
460,141,66231,5,0,1:0:0:0:
404,363,66398,1,0,1:0:0:0:
460,141,66731,6,0,P|372:127|219:131,1,191.999994140625,6|0,0:0|0:0,0:0:0:0:
227,137,67148,1,0,1:0:0:0:
227,137,67231,1,0,1:0:0:0:
116,234,67398,2,0,L|164:234,1,47.9999985351563,0|0,1:0|1:0,0:0:0:0:
38,149,67564,6,0,P|0:234|66:338,1,191.999994140625,4|0,1:2|1:0,0:0:0:0:
116,234,68064,1,2,0:0:0:0:
95,49,68231,1,0,1:0:0:0:
38,149,68398,1,2,0:0:0:0:
221,186,68564,1,0,1:0:0:0:
208,71,68731,1,2,0:0:0:0:
116,234,68898,6,0,P|212:301|335:206,1,191.999994140625,0|0,1:0|1:0,0:0:0:0:
337,186,69398,1,2,0:0:0:0:
185,76,69564,1,0,1:0:0:0:
221,186,69731,1,2,0:0:0:0:
373,76,69897,1,0,1:0:0:0:
279,7,70064,1,2,0:0:0:0:
337,186,70231,6,0,P|303:267|255:297,1,95.9999970703126,0|0,1:0|0:0,0:0:0:0:
151,125,70564,2,0,P|179:138|221:186,1,95.9999970703126,0|0,1:0|0:0,0:0:0:0:
129,349,70898,1,0,1:0:0:0:
116,234,71065,1,2,0:0:0:0:
299,271,71231,1,0,1:0:0:0:
242,371,71398,1,2,0:0:0:0:
221,186,71564,6,0,P|328:160|379:189,1,95.9999970703126,0|0,1:0|0:0,0:0:0:0:
368,334,71898,2,0,P|339:320|299:271,1,95.9999970703126,0|0,1:0|0:0,0:0:0:0:
423,133,72231,2,0,P|425:170|404:224,1,95.9999970703126,0|0,1:0|0:0,0:0:0:0:
431,267,72481,1,2,0:0:0:0:
431,267,72564,2,0,P|470:300|524:320,1,95.9999970703126,0|0,1:0|0:0,0:0:0:0:
309,156,72898,6,0,P|262:161|221:186,1,95.9999970703126,6|0,0:0|0:0,0:0:0:0:
43,281,73231,2,0,P|114:292|186:296,1,143.999995605469,0|0,1:0|0:0,0:0:0:0:
186,296,73564,1,2,0:0:0:0:
22,180,73731,1,2,0:0:0:0:
5,379,73898,1,0,1:0:0:0:
137,191,74064,6,0,P|283:233|293:337,1,191.999994140625,2|2,0:0|0:0,0:0:0:0:
52,268,74564,2,0,P|32:238|22:180,1,95.9999970703126,0|0,1:0|0:0,0:0:0:0:
34,138,74814,1,0,1:0:0:0:
34,138,74898,2,0,P|28:90|4:49,1,95.9999970703126,2|0,0:0|0:0,0:0:0:0:
137,191,75231,2,0,P|184:185|225:161,1,95.9999970703126,0|0,1:0|0:0,0:0:0:0:
326,1,75564,6,0,L|321:97,1,95.9999970703126,2|0,0:0|0:0,0:0:0:0:
431,263,75898,1,0,1:0:0:0:
328,212,76064,2,0,L|280:244,2,47.9999985351563,2|2|2,0:0|0:0|0:0,0:0:0:0:
424,148,76398,1,2,0:0:0:0:
225,161,76564,1,0,1:0:0:0:
335,327,76731,1,2,0:0:0:0:
321,97,76898,6,0,P|223:46|161:65,1,95.9999970703126,2|0,0:0|0:0,0:0:0:0:
129,225,77231,1,0,1:0:0:0:
387,263,77398,2,0,L|225:161,1,191.999994140625,2|0,0:0|0:0,0:0:0:0:
333,365,77898,1,0,1:0:0:0:
455,171,78064,1,0,1:0:0:0:
225,161,78231,6,0,P|117:284|103:388,1,191.999994140625,6|0,0:0|1:0,0:0:0:0:
340,166,78731,1,2,0:0:0:0:
286,64,78898,2,0,P|162:64|128:98,1,95.9999970703126,2|0,0:0|0:0,0:0:0:0:
279,263,79231,1,0,1:0:0:0:
340,166,79398,1,2,0:0:0:0:
164,258,79564,6,0,P|191:336|246:373,1,95.9999970703126,2|0,0:0|0:0,0:0:0:0:
340,166,79898,1,0,1:0:0:0:
279,263,80064,2,0,P|387:271|429:238,1,95.9999970703126,2|0,0:0|0:0,0:0:0:0:
286,64,80398,1,0,1:0:0:0:
164,258,80564,1,0,1:0:0:0:
340,166,80731,1,2,0:0:0:0:
110,156,80898,6,0,P|59:87|66:10,1,95.9999970703126,6|0,0:0|0:0,0:0:0:0:
225,161,81231,1,0,1:0:0:0:
164,258,81398,1,2,0:0:0:0:
171,59,81564,2,0,P|300:74|329:113,1,95.9999970703126,2|0,0:0|0:0,0:0:0:0:
110,156,81898,1,0,1:0:0:0:
279,263,82064,1,0,1:0:0:0:
316,251,82148,1,0,1:0:0:0:
353,239,82231,6,0,L|448:232,1,95.9999970703126,0|0,1:0|0:0,0:0:0:0:
205,149,82564,2,0,L|110:156,1,95.9999970703126,0|0,1:0|0:0,0:0:0:0:
324,120,82898,2,0,L|317:25,1,95.9999970703126,0|0,1:0|0:0,0:0:0:0:
234,268,83231,2,0,L|241:363,1,95.9999970703126,0|0,1:0|0:0,0:0:0:0:
284,384,83481,1,0,1:0:0:0:
284,384,83564,6,0,P|434:345|526:216,1,191.999994140625,2|0,0:0|1:0,0:0:0:0:
304,154,84064,1,2,0:0:0:0:
294,269,84231,2,0,P|374:246|419:166,1,95.9999970703126,2|0,0:0|0:0,0:0:0:0:
199,203,84564,1,0,1:0:0:0:
189,318,84731,1,2,0:0:0:0:
304,154,84898,6,0,P|228:91|176:90,1,95.9999970703126,2|0,0:0|0:0,0:0:0:0:
189,318,85231,1,0,1:0:0:0:
389,335,85398,2,0,P|482:300|513:240,1,95.9999970703126,2|0,0:0|0:0,0:0:0:0:
304,154,85731,1,2,0:0:0:0:
284,384,85898,1,0,1:0:0:0:
399,220,86064,1,0,1:0:0:0:
399,220,86148,1,0,1:0:0:0:
399,220,86231,5,0,1:0:0:0:
304,154,86398,1,2,0:0:0:0:
189,318,86564,1,0,1:0:0:0:
294,269,86731,1,2,0:0:0:0:
209,88,86898,1,0,1:0:0:0:
199,203,87064,1,2,0:0:0:0:
314,39,87231,1,0,1:0:0:0:
104,137,87398,6,0,P|106:271|235:313,1,191.999994140625,6|2,0:0|0:0,0:0:0:0:
314,39,87898,1,2,0:0:0:0:
199,203,88731,6,0,P|249:306|313:203,1,287.999991210938,2|0,0:0|0:0,0:0:0:0:
