osu file format v14

[General]
AudioFilename: audio.mp3
AudioLeadIn: 0
PreviewTime: 56315
Countdown: 0
SampleSet: Soft
StackLeniency: 0.7
Mode: 0
LetterboxInBreaks: 0
WidescreenStoryboard: 0

[Editor]
DistanceSpacing: 1
BeatDivisor: 2
GridSize: 16
TimelineZoom: 2.3

[Metadata]
Title:Kira Kira datoka Yume datoka ~Sing Girls~ (TV Size)
TitleUnicode:キラキラだとか夢だとか ~Sing Girls~ (TV Size)
Artist:Poppin'Party
ArtistUnicode:Poppin'Party
Creator:[Crz]Sword
Version:Normal
Source:BanG Dream!
Tags:pata-mon pata mon bandori garupa バンドリ!girl band project Toyama Kasumi Hanazono Tae Ushigome Rimi Yamabuki Saaya Ichigaya Arisa Aimi Otsuka Sae Nishimoto Ohashi Ayaka Itou Ayasa 愛美 大塚紗英 牛込 りみ 山吹 沙綾 市ヶ谷 有咲 オリジナルサウンドトラック ed ending
BeatmapID:1321855
BeatmapSetID:625045

[Difficulty]
HPDrainRate:4
CircleSize:3.5
OverallDifficulty:4
ApproachRate:5
SliderMultiplier:1.1
SliderTickRate:1

[Events]
//Background and Video events
0,0,"bg4.jpg",0,0
Video,623,"1.mp4"
//Break Periods
//Storyboard Layer 0 (Background)
//Storyboard Layer 1 (Fail)
//Storyboard Layer 2 (Pass)
//Storyboard Layer 3 (Foreground)
//Storyboard Sound Samples

[TimingPoints]
-435,333.333333333333,4,2,1,75,1,0
32898,-100,4,2,1,55,0,0
38231,-100,4,2,1,75,0,0
43564,-100,4,2,1,55,0,0
48898,-100,4,2,1,75,0,0
56898,-100,4,2,1,85,0,1
78231,-100,4,2,1,75,0,0
88731,-133.333333333333,4,2,1,75,0,0
88898,-133.333333333333,4,2,1,45,0,0
89065,-133.333333333333,4,2,1,25,0,0
89231,-133.333333333333,4,2,1,5,0,0

[Colours]
Combo1 : 146,36,255
Combo2 : 255,81,81
Combo3 : 119,255,119
Combo4 : 0,255,255

[HitObjects]
21,52,898,6,0,L|133:49,1,110,6|8,0:0|0:0,0:0:0:0:
144,158,1565,1,2,0:0:0:0:
226,85,1898,1,8,0:0:0:0:
226,85,2065,2,0,L|337:82,1,110,6|0,0:0|0:0,0:0:0:0:
373,122,2565,2,0,B|378:159|378:159|368:244,2,110,8|2|8,0:0|0:0|0:0,0:0:0:0:
455,48,3565,6,0,L|459:184,1,110,6|8,0:0|0:0,0:0:0:0:
496,261,4232,1,10,0:0:0:0:
407,325,4565,1,8,0:0:0:0:
407,325,4732,2,0,L|274:339,1,110,6|0,0:0|0:0,0:0:0:0:
254,301,5232,2,0,P|247:230|249:187,2,110,8|4|8,0:0|0:0|0:0,0:0:0:0:
204,325,6065,6,0,P|91:312|56:276,1,165,6|8,0:0|0:0,0:0:0:0:
115,185,6898,1,10,0:0:0:0:
45,35,7398,6,0,B|177:26|177:26|206:54,1,165,6|8,0:0|0:0,0:0:0:0:
259,141,8232,1,2,0:0:0:0:
456,45,8898,6,0,B|434:169|434:169|448:215,2,165,6|6|14,0:0|0:0|0:0,0:0:0:0:
348,70,10231,2,0,L|341:137,1,55,0|6,0:0|0:0,0:0:0:0:
361,176,10564,2,0,L|363:239,1,55,8|0,0:0|0:0,0:0:0:0:
394,276,10898,2,0,P|330:299|243:258,1,165,6|6,0:0|0:0,0:0:0:0:
124,373,11898,6,0,B|139:292|139:292|132:249,1,110,8|2,0:0|0:0,0:0:0:0:
228,207,12565,1,8,0:0:0:0:
127,162,12898,2,0,L|6:170,2,110,2|8|2,0:0|0:0|0:0,0:0:0:0:
205,86,13898,2,0,L|203:148,1,55,0|0,0:0|0:0,0:0:0:0:
232,189,14232,6,0,B|225:214|225:214|236:305,1,110,2|8,0:0|0:0,0:0:0:0:
336,255,14898,2,0,B|343:230|343:230|332:139,1,110,2|8,0:0|0:0,0:0:0:0:
378,46,15565,2,0,P|445:45|469:89,1,110,0|10,0:0|0:0,0:0:0:0:
476,185,16232,2,0,L|483:246,2,55,14|8|8,0:0|0:0|0:0,0:0:0:0:
436,147,16732,6,0,P|368:140|270:178,1,165,6|8,0:0|0:0,0:0:0:0:
215,262,17565,2,0,L|224:341,2,55,6|0|8,0:0|0:0|0:0,0:0:0:0:
193,211,18065,2,0,P|168:148|198:37,1,165,6|8,0:0|0:0,0:0:0:0:
82,16,18898,2,0,P|84:90|54:125,1,110,6|8,0:0|0:0,0:0:0:0:
29,159,19398,6,0,L|41:297,1,110,6|0,0:0|0:0,0:0:0:0:
76,308,19898,1,8,0:0:0:0:
180,343,20232,2,0,L|191:231,1,110,2|8,0:0|0:0,0:0:0:0:
155,191,20731,2,8,P|165:132|169:77,1,110,6|0,0:0|0:0,0:0:0:0:
225,103,21231,1,0,0:0:0:0:
225,103,21398,2,0,P|282:129|273:202,2,110,6|6|6,0:0|0:0|0:0,0:0:0:0:
370,36,22565,6,0,P|362:98|373:151,1,110,8|2,0:0|0:0,0:0:0:0:
452,217,23232,2,0,B|472:234|472:234|466:343,1,110,8|2,0:0|0:0,0:0:0:0:
372,262,23898,1,8,0:0:0:0:
287,333,24232,2,0,L|214:357,2,55,2|0|8,0:0|0:0|0:0,0:0:0:0:
288,277,24732,6,0,P|294:182|281:90,1,165,2|8,0:0|0:0,0:0:0:0:
194,51,25565,2,0,L|115:43,2,55,2|0|8,0:0|0:0|0:0,0:0:0:0:
195,106,26065,2,0,P|193:150|203:237,1,110,0|0,0:0|0:0,0:0:0:0:
217,267,26565,1,8,0:0:0:0:
124,325,26898,6,0,L|140:382,2,55,14|8|8,0:0|0:0|0:0,0:0:0:0:
88,282,27398,2,0,B|67:255|67:255|84:124,1,165,6|8,0:0|0:0,0:0:0:0:
177,66,28232,2,0,L|171:12,2,55,6|0|8,0:0|0:0|0:0,0:0:0:0:
222,97,28732,2,0,B|243:134|243:134|217:259,1,165,6|8,0:0|0:0,0:0:0:0:
181,357,29565,6,0,P|248:359|289:337,1,110,6|8,0:0|0:0,0:0:0:0:
319,296,30065,2,0,L|433:303,1,110,6|0,0:0|0:0,0:0:0:0:
470,338,30565,1,8,0:0:0:0:
505,233,30898,6,0,B|518:141|518:141|498:112,1,110,2|8,0:0|0:0,0:0:0:0:
462,96,31398,1,0,0:0:0:0:
462,96,31564,2,0,L|336:101,1,110,2|8,0:0|0:0,0:0:0:0:
308,65,32065,2,0,P|317:131|297:185,1,110,0|8,0:0|0:0,0:0:0:0:
250,163,32564,2,0,L|236:110,1,55,8|8,0:0|0:0,0:0:0:0:
205,63,32898,6,2,P|82:82|57:193,1,220,4|0,0:0|0:0,0:0:0:0:
98,260,33898,1,0,0:0:0:0:
43,355,34231,2,2,B|103:381|158:345|158:345|203:314|264:346,1,220,2|0,0:0|0:0,0:0:0:0:
353,383,35232,1,0,0:0:0:0:
452,339,35565,6,2,B|494:169|494:169|456:121,1,220,4|0,0:0|0:0,0:0:0:0:
397,47,36565,1,0,0:0:0:0:
350,146,36898,2,2,P|280:171|151:107,1,220
113,74,37732,2,0,P|107:13|107:13,2,55,0|0|0,0:0|0:0|0:0,0:0:0:0:
63,97,38232,6,0,B|50:121|50:121|56:216,1,110,6|8,0:0|0:0,0:0:0:0:
110,207,38732,2,0,B|115:289|115:289|102:313,1,110,0|0,0:0|0:0,0:0:0:0:
49,328,39232,1,8,0:0:0:0:
147,376,39565,6,0,P|202:382|262:358,1,110,6|8,0:0|0:0,0:0:0:0:
269,311,40065,2,0,P|320:293|374:299,1,110,0|0,0:0|0:0,0:0:0:0:
400,348,40565,1,8,0:0:0:0:
490,286,40898,6,0,P|514:196|480:130,2,165,6|14|14,0:0|0:0|0:0,0:0:0:0:
406,213,42232,2,0,L|330:198,1,55,6|6,0:0|0:0,0:0:0:0:
292,110,42731,2,0,B|353:94|353:94|415:105,2,110,6|0|0,0:0|0:0|0:0,0:0:0:0:
253,70,43565,6,2,P|148:104|56:34,1,220,4|0,0:0|0:0,0:0:0:0:
26,150,44565,1,0,0:0:0:0:
121,205,44898,2,2,B|171:223|231:200|231:200|296:174|351:199,1,220
386,291,45898,1,10,0:0:0:0:
419,185,46232,6,2,B|442:19|442:19|464:93,1,220,4|0,0:0|0:0,0:0:0:0:
500,228,47398,1,0,0:0:0:0:
500,228,47564,2,0,L|511:317,1,55,6|6,0:0|0:0,0:0:0:0:
415,344,48064,6,2,P|335:340|281:350,1,110,6|2,0:0|0:0,0:0:0:0:
258,315,48564,2,0,L|198:323,1,55,8|8,0:0|0:0,0:0:0:0:
173,275,48898,6,0,L|166:155,2,110,12|8|0,0:0|0:0|0:0,0:0:0:0:
94,354,49898,2,0,L|28:349,1,55,8|0,0:0|0:0,0:0:0:0:
19,297,50232,2,0,L|10:182,1,110,4|8,0:0|0:0,0:0:0:0:
65,183,50732,2,0,L|63:66,1,110,4|8,0:0|0:0,0:0:0:0:
25,33,51232,1,12,0:0:0:0:
134,26,51565,6,0,P|209:56|261:44,1,110,6|8,0:0|0:0,0:0:0:0:
285,29,52064,1,6,0:0:0:0:
453,24,52564,2,0,P|466:90|446:152,1,110,14|0,0:0|0:0,0:0:0:0:
422,173,53064,1,6,0:0:0:0:
293,276,53565,2,0,P|220:281|180:322,1,110,6|14,0:0|0:0,0:0:0:0:
256,192,54232,12,14,55565,0:0:0:0:
50,58,56898,6,0,P|98:52|161:52,1,110,6|10,0:0|0:0,0:0:0:0:
182,102,57398,2,0,P|247:104|292:96,1,110,0|0,0:0|0:0,0:0:0:0:
323,52,57898,1,10,0:0:0:0:
425,91,58232,6,0,B|417:120|417:120|424:210,1,110,14|10,0:0|0:0,0:0:0:0:
461,239,58732,2,0,B|467:318|467:318|459:347,1,110,0|0,0:0|0:0,0:0:0:0:
413,378,59232,1,10,0:0:0:0:
332,303,59565,6,0,P|242:299|216:301,1,110,14|10,0:0|0:0,0:0:0:0:
190,345,60065,2,0,P|135:346|80:342,1,110,0|0,0:0|0:0,0:0:0:0:
38,306,60565,1,10,0:0:0:0:
90,209,60898,6,0,B|75:112|75:112|79:86,2,110,6|10|2,0:0|0:0|0:0,0:0:0:0:
195,177,61898,2,0,L|203:111|203:111,1,55,10|8,0:0|0:0,0:0:0:0:
233,76,62232,6,0,P|297:88|354:72,1,110,14|10,0:0|0:0,0:0:0:0:
386,48,62732,1,0,0:0:0:0:
386,48,62898,2,0,P|382:99|389:176,1,110,0|10,0:0|0:0,0:0:0:0:
422,201,63398,2,0,P|427:242|424:315,1,110,8|0,0:0|0:0,0:0:0:0:
391,354,63898,1,10,0:0:0:0:
286,318,64232,6,0,B|187:311|187:311|167:314,1,110,8|10,0:0|0:0,0:0:0:0:
135,349,64732,1,0,0:0:0:0:
135,349,64898,2,0,L|122:202,1,110,6|10,0:0|0:0,0:0:0:0:
74,217,65398,2,0,L|74:92,1,110,0|0,0:0|0:0,0:0:0:0:
29,74,65898,2,0,L|87:67,1,55,14|0,0:0|0:0,0:0:0:0:
113,20,66231,2,0,L|182:20,1,55,6|6,0:0|0:0,0:0:0:0:
277,37,66732,6,0,P|369:70|457:44,1,165,6|8,0:0|0:0,0:0:0:0:
480,30,67398,1,8,0:0:0:0:
480,30,67565,6,0,B|485:128|485:128|481:144,1,110,14|10,0:0|0:0,0:0:0:0:
440,175,68065,2,0,B|437:186|437:186|442:284,1,110,0|0,0:0|0:0,0:0:0:0:
474,329,68565,1,10,0:0:0:0:
371,367,68898,6,0,P|284:373|251:369,1,110,6|10,0:0|0:0,0:0:0:0:
244,318,69398,2,0,P|189:315|134:321,1,110,0|0,0:0|0:0,0:0:0:0:
112,371,69898,1,10,0:0:0:0:
29,297,70232,6,0,B|20:208|20:208|34:158,1,110,6|10,0:0|0:0,0:0:0:0:
65,150,70732,2,0,B|70:130|70:130|61:41,1,110,0|0,0:0|0:0,0:0:0:0:
109,13,71232,1,10,0:0:0:0:
176,100,71565,6,0,L|169:235,2,110,6|10|10,0:0|0:0|0:0,0:0:0:0:
263,33,72565,2,0,L|268:101,1,55,10|8,0:0|0:0,0:0:0:0:
302,130,72898,6,0,P|371:126|409:102,1,110,14|10,0:0|0:0,0:0:0:0:
450,75,73398,1,0,0:0:0:0:
450,75,73565,2,0,P|451:117|459:199,1,110,0|10,0:0|0:0,0:0:0:0:
497,222,74065,2,8,P|499:254|494:334,1,110,0|0,0:0|0:0,0:0:0:0:
447,360,74565,1,10,0:0:0:0:
351,305,74898,6,0,L|240:300,1,110,0|10,0:0|0:0,0:0:0:0:
203,260,75398,1,0,0:0:0:0:
203,260,75565,2,0,L|93:266,1,110,12|10,0:0|0:0,0:0:0:0:
45,237,76065,2,0,P|36:167|48:111,1,110,4|0,0:0|0:0,0:0:0:0:
76,85,76565,1,10,0:0:0:0:
175,35,76898,6,0,L|248:19,2,55,14|8|8,0:0|0:0|0:0,0:0:0:0:
159,87,77398,2,0,B|153:122|153:122|163:257,1,165,6|8,0:0|0:0,0:0:0:0:
204,286,78065,1,0,0:0:0:0:
204,286,78232,6,0,P|258:288|320:284,1,110,6|10,0:0|0:0,0:0:0:0:
305,175,78898,2,0,P|302:89|324:46,1,110,2|10,0:0|0:0,0:0:0:0:
414,32,79565,2,0,L|420:152,1,110,6|8,0:0|0:0,0:0:0:0:
470,163,80065,2,0,L|473:278,1,110,6|0,0:0|0:0,0:0:0:0:
435,313,80565,1,8,0:0:0:0:
333,356,80898,6,0,P|234:348|192:361,1,110,2|10,0:0|0:0,0:0:0:0:
115,365,81565,2,0,P|102:295|111:243,1,110,2|10,0:0|0:0,0:0:0:0:
149,222,82065,1,8,0:0:0:0:
149,222,82232,6,0,L|264:227,1,110,14|8,0:0|0:0,0:0:0:0:
325,314,82898,2,0,L|447:312,1,110,14|8,0:0|0:0,0:0:0:0:
471,270,83398,1,8,0:0:0:0:
471,270,83565,6,0,P|477:185|470:148,1,110,14|10,0:0|0:0,0:0:0:0:
462,51,84232,2,0,P|411:62|325:47,1,110,2|10,0:0|0:0,0:0:0:0:
299,152,84898,2,0,L|188:160,1,110,6|8,0:0|0:0,0:0:0:0:
161,112,85398,2,0,L|52:114,1,110,6|0,0:0|0:0,0:0:0:0:
20,159,85898,1,8,0:0:0:0:
42,266,86232,6,0,P|106:280|169:267,1,110,12|8,0:0|0:0,0:0:0:0:
190,236,86732,2,0,P|244:230|297:244,1,110,8|8,0:0|0:0,0:0:0:0:
325,291,87232,2,0,L|330:348,1,55,8|8,0:0|0:0,0:0:0:0:
420,282,87732,2,0,L|415:225,1,55,14|14,0:0|0:0,0:0:0:0:
202,52,88731,6,6,L|73:52,1,123.750004720688,6|0,0:0|0:0,0:0:0:0:
