osu file format v14

[General]
AudioFilename: audio.mp3
AudioLeadIn: 0
PreviewTime: 56315
Countdown: 0
SampleSet: Soft
StackLeniency: 0.7
Mode: 0
LetterboxInBreaks: 0
WidescreenStoryboard: 0

[Editor]
DistanceSpacing: 1.3
BeatDivisor: 4
GridSize: 16
TimelineZoom: 2.3

[Metadata]
Title:Kira Kira datoka Yume datoka ~Sing Girls~ (TV Size)
TitleUnicode:キラキラだとか夢だとか ~Sing Girls~ (TV Size)
Artist:Poppin'Party
ArtistUnicode:Poppin'Party
Creator:[Crz]Sword
Version:Hard
Source:BanG Dream!
Tags:pata-mon pata mon bandori garupa バンドリ!girl band project Toyama Kasumi Hanazono Tae Ushigome Rimi Yamabuki Saaya Ichigaya Arisa Aimi Otsuka Sae Nishimoto Ohashi Ayaka Itou Ayasa 愛美 大塚紗英 牛込 りみ 山吹 沙綾 市ヶ谷 有咲 オリジナルサウンドトラック ed ending
BeatmapID:1322581
BeatmapSetID:625045

[Difficulty]
HPDrainRate:5
CircleSize:3.8
OverallDifficulty:6
ApproachRate:7.5
SliderMultiplier:1.3
SliderTickRate:1

[Events]
//Background and Video events
0,0,"bg4.jpg",0,0
Video,623,"1.mp4"
//Break Periods
//Storyboard Layer 0 (Background)
//Storyboard Layer 1 (Fail)
//Storyboard Layer 2 (Pass)
//Storyboard Layer 3 (Foreground)
//Storyboard Sound Samples

[TimingPoints]
-435,333.333333333333,4,2,1,65,1,0
32898,-125,4,2,1,45,0,0
38231,-100,4,2,1,65,0,0
43564,-125,4,2,1,45,0,0
48898,-100,4,2,1,65,0,0
56898,-90.9090909090909,4,2,1,75,0,1
78231,-100,4,2,1,65,0,0
88731,-200,4,2,1,65,0,0
88898,-100,4,2,1,45,0,0
89065,-100,4,2,1,25,0,0
89231,-100,4,2,1,5,0,0

[Colours]
Combo1 : 146,36,255
Combo2 : 255,81,81
Combo3 : 119,255,119
Combo4 : 0,255,255

[HitObjects]
84,89,399,6,0,L|78:41,2,32.5,2|2|8,0:0|0:0|0:0,0:0:0:0:
32,203,898,6,0,P|99:225|154:189,1,130,6|8,0:0|0:0,0:0:0:0:
224,143,1398,1,0,0:0:0:0:
224,143,1565,2,0,L|230:228,1,65,2|0,0:0|0:0,0:0:0:0:
260,293,1898,1,8,0:0:0:0:
329,234,2065,2,0,L|345:79,1,130,6|0,0:0|0:0,0:0:0:0:
367,17,2564,5,8,0:0:0:0:
447,64,2732,2,0,L|497:19,2,65,0|2|0,0:0|0:0|0:0,0:0:0:0:
415,148,3231,2,0,P|418:185|415:212,1,65,8|0,0:0|0:0,0:0:0:0:
480,279,3564,6,0,P|446:336|382:319,1,130,6|8,0:0|0:0,0:0:0:0:
322,275,4065,1,8,0:0:0:0:
322,275,4148,1,8,0:0:0:0:
322,275,4232,2,0,L|250:289,1,65,10|8,0:0|0:0,0:0:0:0:
176,262,4565,1,8,0:0:0:0:
172,353,4732,2,0,P|119:331|85:270,1,130,6|0,0:0|0:0,0:0:0:0:
28,197,5232,6,0,L|28:131,1,65,8|0,0:0|0:0,0:0:0:0:
85,59,5565,2,0,P|133:53|167:61,1,65,4|8,0:0|0:0,0:0:0:0:
229,29,5898,1,8,0:0:0:0:
219,113,6065,6,0,L|231:242,1,130,6|0,0:0|0:0,0:0:0:0:
308,194,6565,2,0,L|302:125,1,65,8|0,0:0|0:0,0:0:0:0:
352,52,6898,1,10,0:0:0:0:
352,52,6982,1,8,0:0:0:0:
352,52,7065,2,0,L|348:19,2,32.5,8|8|8,0:0|0:0|0:0,0:0:0:0:
443,54,7398,6,0,B|456:90|456:90|446:199,1,130,6|0,0:0|0:0,0:0:0:0:
467,270,7898,2,0,P|470:301|470:341,1,65,8|0,0:0|0:0,0:0:0:0:
381,311,8232,1,2,0:0:0:0:
319,245,8398,2,0,L|312:206,2,32.5,8|8|8,0:0|0:0|0:0,0:0:0:0:
281,328,8732,1,0,0:0:0:0:
196,294,8898,6,0,L|109:311,2,65,6|0|8,0:0|0:0|0:0,0:0:0:0:
141,221,9398,2,0,L|67:172,2,65,6|0|0,0:0|0:0|0:0,0:0:0:0:
153,132,9898,2,0,L|136:45,2,65,14|0|0,0:0|0:0|0:0,0:0:0:0:
226,77,10398,2,0,L|275:3,2,65,6|8|0,0:0|0:0|0:0,0:0:0:0:
307,119,10898,1,6,0:0:0:0:
383,69,11065,2,0,L|397:21,2,32.5,8|8|8,0:0|0:0|0:0,0:0:0:0:
390,159,11398,1,6,0:0:0:0:
484,23,11898,6,0,P|479:65|480:115,1,65,8|0,0:0|0:0,0:0:0:0:
497,177,12232,2,0,P|500:201|494:247,1,65,2|0,0:0|0:0,0:0:0:0:
407,264,12565,2,0,P|358:268|327:261,1,65,8|0,0:0|0:0,0:0:0:0:
278,200,12898,6,0,P|270:104|276:56,2,130,2|8|2,0:0|0:0|0:0,0:0:0:0:
220,271,13732,1,0,0:0:0:0:
154,208,13898,2,0,P|149:168|155:134,1,65,0|0,0:0|0:0,0:0:0:0:
159,52,14232,6,0,P|98:73|23:49,1,130,2|8,0:0|0:0,0:0:0:0:
5,143,14732,1,0,0:0:0:0:
24,231,14898,2,0,L|18:296,2,65,2|0|8,0:0|0:0|0:0,0:0:0:0:
98,174,15398,2,0,P|129:198|159:211,1,65,0|0,0:0|0:0,0:0:0:0:
191,291,15731,1,0,0:0:0:0:
191,291,15898,2,0,P|187:333|198:369,1,65,10|0,0:0|0:0,0:0:0:0:
282,265,16231,2,0,L|275:176,2,65,14|8|8,0:0|0:0|0:0,0:0:0:0:
340,342,16731,6,0,P|412:358|482:331,1,130,6|0,0:0|0:0,0:0:0:0:
483,253,17231,2,0,P|482:216|478:177,1,65,8|0,0:0|0:0,0:0:0:0:
435,107,17564,2,0,L|453:44,2,65,6|0|8,0:0|0:0|0:0,0:0:0:0:
370,171,18064,2,0,P|309:181|249:132,1,130,6|0,0:0|0:0,0:0:0:0:
208,65,18564,2,0,P|187:37|144:21,1,65,8|0,0:0|0:0,0:0:0:0:
113,102,18898,2,0,P|131:148|124:185,2,65,6|0|8,0:0|0:0|0:0,0:0:0:0:
47,38,19398,6,0,P|25:88|68:179,1,130,6|0,0:0|0:0,0:0:0:0:
69,245,19898,2,0,L|74:378,1,130,8|2,0:0|0:0,0:0:0:0:
151,326,20398,1,0,0:0:0:0:
201,250,20564,1,8,0:0:0:0:
134,187,20731,2,0,P|131:132|139:106,1,65,6|0,0:0|0:0,0:0:0:0:
200,61,21064,2,8,L|196:21,2,32.5,0|0|0,0:0|0:0|0:0,0:0:0:0:
273,115,21398,2,0,L|286:251,2,130,6|6|6,0:0|0:0|0:0,0:0:0:0:
478,23,22564,6,0,P|484:75|478:109,1,65,8|0,0:0|0:0,0:0:0:0:
401,129,22898,2,0,P|395:181|401:215,1,65,2|0,0:0|0:0,0:0:0:0:
473,241,23231,2,0,P|479:293|473:327,1,65,8|0,0:0|0:0,0:0:0:0:
395,345,23564,2,0,P|320:352|256:352,2,130,2|8|2,0:0|0:0|0:0,0:0:0:0:
362,259,24398,1,0,0:0:0:0:
362,259,24564,2,0,L|353:189,1,65,8|2,0:0|0:0,0:0:0:0:
333,105,24898,6,0,P|268:144|210:137,1,130,0|8,0:0|0:0,0:0:0:0:
180,55,25398,1,0,0:0:0:0:
120,123,25564,2,0,P|91:102|81:72,1,65,2|0,0:0|0:0,0:0:0:0:
17,9,25898,1,8,0:0:0:0:
5,98,26064,1,0,0:0:0:0:
45,179,26231,6,0,P|44:225|44:273,1,65,2|0,0:0|0:0,0:0:0:0:
84,325,26564,2,0,P|124:328|153:326,1,65,8|0,0:0|0:0,0:0:0:0:
216,264,26898,1,14,0:0:0:0:
216,264,26981,1,8,0:0:0:0:
216,264,27064,2,0,L|210:217,2,32.5,8|8|8,0:0|0:0|0:0,0:0:0:0:
277,331,27398,6,0,P|344:352|412:329,1,130,6|0,0:0|0:0,0:0:0:0:
481,295,27898,2,0,P|479:255|481:211,1,65,8|0,0:0|0:0,0:0:0:0:
468,139,28231,2,0,L|464:65,2,65,6|0|8,0:0|0:0|0:0,0:0:0:0:
381,166,28731,2,0,P|311:177|249:158,1,130,6|0,0:0|0:0,0:0:0:0:
216,78,29231,2,0,P|162:72|128:77,1,65,8|0,0:0|0:0,0:0:0:0:
104,151,29564,2,0,L|109:221,2,65,6|0|8,0:0|0:0|0:0,0:0:0:0:
36,32,30064,6,0,P|19:80|21:164,1,130,6|0,0:0|0:0,0:0:0:0:
29,248,30564,2,0,P|25:307|95:356,1,130,8|2,0:0|0:0,0:0:0:0:
153,309,31064,2,0,L|221:307,1,65,0|8,0:0|0:0,0:0:0:0:
294,358,31398,1,0,0:0:0:0:
308,268,31564,6,0,P|306:192|308:134,2,130,2|8|6,0:0|0:0|0:0,0:0:0:0:
384,318,32398,1,8,0:0:0:0:
424,236,32564,1,8,0:0:0:0:
421,144,32731,1,8,0:0:0:0:
391,57,32898,6,2,L|280:46,1,104,4|2,0:0|0:0,0:0:0:0:
216,29,33398,1,0,0:0:0:0:
216,29,33564,2,2,P|157:27|100:39,1,104,0|0,0:0|0:0,0:0:0:0:
15,124,34231,6,2,L|19:233,1,104
95,260,34731,1,0,0:0:0:0:
95,260,34898,2,2,L|98:385,1,104,0|0,0:0|0:0,0:0:0:0:
251,338,35564,6,2,P|229:271|243:226,1,104,4|2,0:0|0:0,0:0:0:0:
259,165,36064,1,0,0:0:0:0:
259,165,36231,2,2,L|363:158,1,104,0|0,0:0|0:0,0:0:0:0:
344,313,36898,6,0,L|359:380,1,52,0|0,0:0|0:0,0:0:0:0:
422,323,37231,2,2,P|473:265|475:228,1,104
469,163,37731,2,0,L|491:103,2,52,0|0|0,0:0|0:0|0:0,0:0:0:0:
378,166,38231,6,0,P|293:166|246:171,2,130,6|8|0,0:0|0:0|0:0,0:0:0:0:
369,75,39064,1,0,0:0:0:0:
369,75,39231,2,0,L|289:79,1,65,8|0,0:0|0:0,0:0:0:0:
226,31,39564,2,0,L|91:37,1,130,6|8,0:0|0:0,0:0:0:0:
17,83,40064,2,0,P|9:165|20:227,1,130,0|0,0:0|0:0,0:0:0:0:
85,270,40564,2,0,L|83:346,1,65,8|0,0:0|0:0,0:0:0:0:
171,360,40898,6,0,P|244:357|309:359,2,130,6|8|8,0:0|0:0|0:0,0:0:0:0:
169,268,41731,1,0,0:0:0:0:
169,268,41898,2,0,L|173:190,1,65,8|0,0:0|0:0,0:0:0:0:
187,81,42231,5,6,0:0:0:0:
302,112,42398,1,6,0:0:0:0:
467,31,42731,6,0,P|477:113|465:183,1,130,6|0,0:0|0:0,0:0:0:0:
387,194,43231,2,0,L|305:196,1,65,8|0,0:0|0:0,0:0:0:0:
254,234,43564,6,2,P|258:303|250:343,1,104,4|0,0:0|0:0,0:0:0:0:
176,358,44064,1,0,0:0:0:0:
176,358,44231,2,2,P|107:361|67:359,1,104,0|0,0:0|0:0,0:0:0:0:
38,206,44898,6,2,P|36:117|43:87,1,104
99,53,45398,1,0,0:0:0:0:
99,53,45564,2,2,L|207:49,1,104,2|10,0:0|0:0,0:0:0:0:
344,114,46231,6,2,P|349:173|349:234,1,104,4|2,0:0|0:0,0:0:0:0:
271,212,46731,1,0,0:0:0:0:
271,212,46898,2,2,L|277:326,1,104,0|0,0:0|0:0,0:0:0:0:
426,357,47564,6,0,L|485:352,1,52,6|6,0:0|0:0,0:0:0:0:
491,199,48064,2,2,P|498:138|494:93,1,104,6|2,0:0|0:0,0:0:0:0:
444,35,48564,1,8,0:0:0:0:
400,109,48731,1,8,0:0:0:0:
400,109,48814,1,8,0:0:0:0:
400,109,48898,6,0,L|269:115,2,130,12|8|0,0:0|0:0|0:0,0:0:0:0:
393,194,49731,1,0,0:0:0:0:
393,194,49898,2,0,L|309:199,1,65,8|0,0:0|0:0,0:0:0:0:
246,237,50231,6,0,P|253:288|242:373,1,130,4|8,0:0|0:0,0:0:0:0:
152,272,50731,2,0,P|145:235|155:191,1,65,4|0,0:0|0:0,0:0:0:0:
200,133,51064,2,0,L|212:92,2,32.5,8|8|12,0:0|0:0|0:0,0:0:0:0:
130,73,51398,1,8,0:0:0:0:
130,73,51481,1,8,0:0:0:0:
130,73,51564,6,0,P|52:77|44:132,1,130,6|8,0:0|0:0,0:0:0:0:
40,207,52064,2,0,P|38:276|44:341,1,130,6|0,0:0|0:0,0:0:0:0:
134,334,52564,2,0,B|182:355|224:310|273:334,1,130,14|0,0:0|0:0,0:0:0:0:
350,351,53064,2,0,P|402:300|469:299,1,130,6|0,0:0|0:0,0:0:0:0:
468,205,53564,6,0,L|458:122,1,65,6|0,0:0|0:0,0:0:0:0:
360,81,53898,2,0,L|370:164,1,65,14|0,0:0|0:0,0:0:0:0:
320,223,54231,1,14,0:0:0:0:
256,192,54314,12,14,55564,0:0:0:0:
76,86,56398,6,0,L|70:34,2,32.5,8|8|14,0:0|0:0|0:0,0:0:0:0:
27,162,56731,1,0,0:0:0:0:
94,223,56898,6,0,P|158:202|232:216,1,143.000004364014,6|10,0:0|0:0,0:0:0:0:
296,281,57398,2,0,L|300:352,1,71.5000021820069,0|8,0:0|0:0,0:0:0:0:
390,331,57731,2,0,L|468:326,1,71.5000021820069,0|10,0:0|0:0,0:0:0:0:
472,233,58064,1,0,0:0:0:0:
472,233,58231,6,0,P|478:151|472:90,1,143.000004364014,14|10,0:0|0:0,0:0:0:0:
390,45,58731,2,0,L|306:47,1,71.5000021820069,0|8,0:0|0:0,0:0:0:0:
299,137,59064,2,0,L|216:137,1,71.5000021820069,0|10,0:0|0:0,0:0:0:0:
191,50,59398,1,0,0:0:0:0:
191,50,59564,6,0,P|79:60|67:94,1,143.000004364014,14|10,0:0|0:0,0:0:0:0:
13,145,60064,2,0,L|17:232,1,71.5000021820069,0|8,0:0|0:0,0:0:0:0:
95,265,60398,2,0,L|99:355,1,71.5000021820069,0|10,0:0|0:0,0:0:0:0:
189,356,60731,1,0,0:0:0:0:
189,356,60898,6,0,P|261:352|339:355,2,143.000004364014,6|10|2,0:0|0:0|0:0,0:0:0:0:
198,263,61731,2,0,P|202:219|207:185,1,71.5000021820069,0|10,0:0|0:0,0:0:0:0:
284,142,62064,1,8,0:0:0:0:
284,142,62148,1,8,0:0:0:0:
284,142,62231,6,0,P|307:210|373:249,1,143.000004364014,14|10,0:0|0:0,0:0:0:0:
445,201,62731,2,0,L|451:125,1,71.5000021820069,0|0,0:0|0:0,0:0:0:0:
454,36,63064,1,0,0:0:0:0:
362,27,63231,2,0,L|278:30,1,71.5000021820069,10|8,0:0|0:0,0:0:0:0:
218,88,63564,6,0,P|129:92|75:59,1,143.000004364014,12|10,0:0|0:0,0:0:0:0:
21,135,64064,2,0,L|22:222,1,71.5000021820069,8|8,0:0|0:0,0:0:0:0:
10,299,64398,1,0,0:0:0:0:
92,341,64564,2,0,L|164:343,1,71.5000021820069,10|0,0:0|0:0,0:0:0:0:
228,275,64898,6,0,P|221:194|231:134,2,143.000004364014,6|10|0,0:0|0:0|0:0,0:0:0:0:
291,343,65731,2,0,L|364:347,1,71.5000021820069,0|14,0:0|0:0,0:0:0:0:
435,289,66064,1,0,0:0:0:0:
400,202,66231,2,0,L|400:125,1,71.5000021820069,6|6,0:0|0:0,0:0:0:0:
240,34,66731,6,0,P|192:52|96:25,1,143.000004364014,6|8,0:0|0:0,0:0:0:0:
37,96,67231,1,8,0:0:0:0:
20,187,67398,1,8,0:0:0:0:
46,275,67564,6,0,P|92:332|176:327,1,143.000004364014,14|10,0:0|0:0,0:0:0:0:
241,296,68064,2,0,L|240:218,1,71.5000021820069,0|8,0:0|0:0,0:0:0:0:
146,214,68398,2,0,L|152:123,1,71.5000021820069,0|10,0:0|0:0,0:0:0:0:
228,91,68731,1,0,0:0:0:0:
228,91,68898,6,0,P|309:100|371:56,1,143.000004364014,6|10,0:0|0:0,0:0:0:0:
447,40,69398,2,0,L|449:116,1,71.5000021820069,0|8,0:0|0:0,0:0:0:0:
373,165,69731,2,0,L|381:245,1,71.5000021820069,0|10,0:0|0:0,0:0:0:0:
449,305,70064,1,0,0:0:0:0:
449,305,70231,6,0,P|397:333|318:312,1,143.000004364014,6|10,0:0|0:0,0:0:0:0:
248,252,70731,2,0,L|168:257,1,71.5000021820069,0|8,0:0|0:0,0:0:0:0:
135,340,71064,2,0,L|51:336,1,71.5000021820069,0|10,0:0|0:0,0:0:0:0:
38,246,71398,1,0,0:0:0:0:
38,246,71564,6,0,P|27:156|33:96,1,143.000004364014,6|10,0:0|0:0,0:0:0:0:
98,39,72064,1,0,0:0:0:0:
165,103,72231,2,0,L|219:94,3,35.7500010910034,10|8|8|8,0:0|0:0|0:0|0:0,0:0:0:0:
240,122,72564,2,0,L|276:122,3,35.7500010910034,10|8|8|8,0:0|0:0|0:0|0:0,0:0:0:0:
320,107,72898,6,0,L|328:33,1,71.5000021820069,14|0,0:0|0:0,0:0:0:0:
453,14,73231,2,0,L|445:88,1,71.5000021820069,10|0,0:0|0:0,0:0:0:0:
399,166,73564,1,0,0:0:0:0:
399,166,73731,2,0,P|398:205|402:243,1,71.5000021820069,0|10,0:0|0:0,0:0:0:0:
463,306,74064,1,0,0:0:0:0:
374,333,74231,6,0,P|300:320|224:343,1,143.000004364014,12|10,0:0|0:0,0:0:0:0:
147,305,74731,2,8,L|150:230,1,71.5000021820069,0|0,0:0|0:0,0:0:0:0:
151,140,75064,1,0,0:0:0:0:
242,119,75231,2,0,L|239:39,1,71.5000021820069,10|0,0:0|0:0,0:0:0:0:
150,20,75564,5,12,0:0:0:0:
150,20,75731,2,0,L|46:25,1,71.5000021820069,0|10,0:0|0:0,0:0:0:0:
34,105,76064,2,0,P|29:173|41:262,2,143.000004364014,4|0|0,0:0|0:0|0:0,0:0:0:0:
110,159,76898,1,14,0:0:0:0:
133,248,77064,1,8,0:0:0:0:
100,335,77231,1,8,0:0:0:0:
191,319,77398,6,0,P|275:303|339:332,1,143.000004364014,6|0,0:0|0:0,0:0:0:0:
406,370,77898,2,0,L|415:295,1,71.5000021820069,8|0,0:0|0:0,0:0:0:0:
475,240,78231,6,0,P|472:160|477:97,2,130,6|10|2,0:0|0:0|0:0,0:0:0:0:
384,203,79064,1,0,0:0:0:0:
384,203,79231,2,0,L|307:205,1,65,10|0,0:0|0:0,0:0:0:0:
257,137,79564,6,0,P|158:129|133:99,1,130,6|8,0:0|0:0,0:0:0:0:
73,49,80064,2,0,B|47:67|47:67|52:188,1,130,6|0,0:0|0:0,0:0:0:0:
109,234,80564,2,0,L|109:303,1,65,8|0,0:0|0:0,0:0:0:0:
52,371,80898,6,0,P|129:386|184:353,1,130,2|10,0:0|0:0,0:0:0:0:
226,290,81398,2,0,L|359:292,1,130,0|0,0:0|0:0,0:0:0:0:
401,370,81898,2,0,P|438:374|478:372,1,65,10|8,0:0|0:0,0:0:0:0:
493,286,82231,6,0,L|489:212,1,65,14|0,0:0|0:0,0:0:0:0:
404,220,82564,2,8,L|401:156,1,65,8|0,0:0|0:0,0:0:0:0:
441,80,82898,2,0,L|370:77,1,65,14|0,0:0|0:0,0:0:0:0:
302,118,83231,2,0,L|233:115,1,65,8|8,0:0|0:0,0:0:0:0:
187,48,83564,6,0,P|62:54|38:50,2,130,14|10|2,0:0|0:0|0:0,0:0:0:0:
191,145,84398,1,0,0:0:0:0:
191,145,84564,2,0,L|189:239,1,65,10|0,0:0|0:0,0:0:0:0:
281,209,84898,6,0,P|364:204|434:211,1,130,6|8,0:0|0:0,0:0:0:0:
459,298,85398,2,0,P|376:303|306:296,1,130,6|0,0:0|0:0,0:0:0:0:
233,294,85898,2,0,L|149:301,1,65,8|8,0:0|0:0,0:0:0:0:
84,335,86231,6,0,L|77:261,1,65,12|8,0:0|0:0,0:0:0:0:
148,212,86564,2,0,L|142:145,1,65,8|8,0:0|0:0,0:0:0:0:
79,60,86898,2,0,L|160:48,1,65,14|8,0:0|0:0,0:0:0:0:
222,104,87231,1,8,0:0:0:0:
222,104,87398,6,0,P|292:134|349:96,1,130,8|14,0:0|0:0,0:0:0:0:
433,19,87898,1,14,0:0:0:0:
396,280,88731,6,6,L|291:292,1,97.5,6|0,0:0|0:0,0:0:0:0:
