osu file format v14

[General]
AudioFilename: audio.mp3
AudioLeadIn: 0
PreviewTime: 56315
Countdown: 0
SampleSet: Soft
StackLeniency: 0.3
Mode: 0
LetterboxInBreaks: 0
WidescreenStoryboard: 0

[Editor]
Bookmarks: 89482
DistanceSpacing: 0.5
BeatDivisor: 4
GridSize: 32
TimelineZoom: 2.3

[Metadata]
Title:Kira Kira datoka Yume datoka ~Sing Girls~ (TV Size)
TitleUnicode:キラキラだとか夢だとか ~Sing Girls~ (TV Size)
Artist:Poppin'Party
ArtistUnicode:Poppin'Party
Creator:[Crz]Sword
Version:Expert
Source:BanG Dream!
Tags:pata-mon pata mon bandori garupa バンドリ!girl band project Toyama Kasumi Hanazono Tae Ushigome Rimi Yamabuki Saaya Ichigaya Arisa Aimi Otsuka Sae Nishimoto Ohashi Ayaka Itou Ayasa 愛美 大塚紗英 牛込 りみ 山吹 沙綾 市ヶ谷 有咲 オリジナルサウンドトラック ed ending
BeatmapID:1317258
BeatmapSetID:625045

[Difficulty]
HPDrainRate:6.5
CircleSize:4
OverallDifficulty:9
ApproachRate:9.3
SliderMultiplier:1.8
SliderTickRate:1

[Events]
//Background and Video events
0,0,"bg4.jpg",0,0
Video,623,"1.mp4"
//Break Periods
//Storyboard Layer 0 (Background)
//Storyboard Layer 1 (Fail)
//Storyboard Layer 2 (Pass)
//Storyboard Layer 3 (Foreground)
//Storyboard Sound Samples

[TimingPoints]
-435,333.333333333333,4,2,1,65,1,0
32898,-125,4,2,1,45,0,0
38232,-100,4,2,1,65,0,0
43565,-125,4,2,1,45,0,0
48898,-100,4,2,1,65,0,0
56898,-90.9090909090909,4,2,1,75,0,1
78231,-100,4,2,1,65,0,0
88731,-200,4,2,1,65,0,0
88898,-200,4,2,1,45,0,0
89065,-200,4,2,1,25,0,0
89231,-200,4,2,1,5,0,0

[Colours]
Combo1 : 146,36,255
Combo2 : 255,81,81
Combo3 : 119,255,119
Combo4 : 0,255,255

[HitObjects]
124,119,399,5,2,0:0:0:0:
124,119,482,1,2,0:0:0:0:
124,119,564,2,0,L|230:106,1,90,8|0,0:0|0:0,0:0:0:0:
433,136,898,6,0,P|412:35|347:78,1,180,6|8,0:0|0:0,0:0:0:0:
188,195,1399,1,0,0:0:0:0:
411,304,1565,2,0,P|441:256|454:224,1,90,2|0,0:0|0:0,0:0:0:0:
265,144,1899,1,8,0:0:0:0:
97,323,2065,6,0,B|76:357|76:357|79:314|88:274|71:197,1,180,6|0,0:0|0:0,0:0:0:0:
57,60,2565,2,0,L|161:50,1,90,8|0,0:0|0:0,0:0:0:0:
300,178,2898,2,0,L|211:170,1,90,2|0,0:0|0:0,0:0:0:0:
351,51,3232,2,0,L|455:41,1,90,8|0,0:0|0:0,0:0:0:0:
473,139,3482,1,0,0:0:0:0:
473,139,3565,6,0,P|480:234|450:316,1,180,6|8,0:0|0:0,0:0:0:0:
311,188,4064,1,8,0:0:0:0:
311,188,4148,1,8,0:0:0:0:
311,188,4231,1,10,0:0:0:0:
256,352,4398,1,8,0:0:0:0:
146,201,4565,1,8,0:0:0:0:
258,44,4732,6,0,B|296:66|353:50|353:50|409:39|444:59,1,180,6|0,0:0|0:0,0:0:0:0:
391,170,5232,1,8,0:0:0:0:
479,278,5398,2,0,P|440:315|387:311,1,90,0|4,0:0|0:0,0:0:0:0:
297,268,5648,1,8,0:0:0:0:
297,268,5731,2,0,L|280:179,1,90,8|8,0:0|0:0,0:0:0:0:
171,49,6065,6,0,P|86:47|69:129,1,180,6|0,0:0|0:0,0:0:0:0:
47,315,6565,2,0,L|150:332,1,90,8|0,0:0|0:0,0:0:0:0:
263,185,6898,1,10,0:0:0:0:
241,189,6981,1,8,0:0:0:0:
219,192,7064,1,8,0:0:0:0:
197,196,7147,1,8,0:0:0:0:
175,200,7231,1,8,0:0:0:0:
341,335,7398,6,0,P|426:337|443:255,1,180,6|0,0:0|0:0,0:0:0:0:
340,47,7898,1,8,0:0:0:0:
350,221,8065,1,0,0:0:0:0:
473,106,8231,1,2,0:0:0:0:
219,143,8398,1,8,0:0:0:0:
196,147,8481,1,8,0:0:0:0:
174,151,8564,1,8,0:0:0:0:
133,301,8732,1,0,0:0:0:0:
319,206,8898,5,6,0:0:0:0:
174,41,9064,1,0,0:0:0:0:
93,256,9232,1,8,0:0:0:0:
265,165,9398,5,6,0:0:0:0:
68,306,9565,1,0,0:0:0:0:
35,56,9732,1,0,0:0:0:0:
295,301,9898,5,14,0:0:0:0:
215,57,10065,1,0,0:0:0:0:
49,219,10232,1,0,0:0:0:0:
428,91,10398,5,6,0:0:0:0:
402,347,10565,1,8,0:0:0:0:
209,221,10732,1,0,0:0:0:0:
495,196,10898,5,6,0:0:0:0:
300,41,11065,1,8,0:0:0:0:
300,41,11148,1,8,0:0:0:0:
300,41,11232,1,8,0:0:0:0:
253,340,11398,1,6,0:0:0:0:
7,140,11898,6,0,L|97:124,1,90,8|0,0:0|0:0,0:0:0:0:
228,247,12232,2,0,L|139:231,1,90,2|0,0:0|0:0,0:0:0:0:
22,368,12565,2,0,L|112:352,1,90,8|0,0:0|0:0,0:0:0:0:
317,262,12898,5,2,0:0:0:0:
297,360,13065,1,0,0:0:0:0:
427,209,13232,1,8,0:0:0:0:
484,316,13398,1,0,0:0:0:0:
317,262,13565,1,2,0:0:0:0:
462,88,13732,2,0,B|436:54|378:81|378:81|312:107|280:71,1,180
58,26,14232,6,0,L|44:136,1,90,2|0,0:0|0:0,0:0:0:0:
183,211,14565,2,0,L|172:122,1,90,8|0,0:0|0:0,0:0:0:0:
58,317,14898,1,2,0:0:0:0:
245,278,15065,1,0,0:0:0:0:
97,181,15232,1,8,0:0:0:0:
186,356,15398,2,0,P|294:362|336:307,1,180
402,109,15898,1,10,0:0:0:0:
253,173,16065,1,0,0:0:0:0:
454,300,16232,5,14,0:0:0:0:
272,57,16398,1,8,0:0:0:0:
245,278,16565,1,8,0:0:0:0:
490,123,16732,2,0,P|469:51|365:27,1,180,6|0,0:0|0:0,0:0:0:0:
151,174,17231,1,8,0:0:0:0:
292,136,17398,1,0,0:0:0:0:
72,20,17565,6,0,L|62:123,1,90,6|0,0:0|0:0,0:0:0:0:
6,235,17898,1,8,0:0:0:0:
115,340,18065,2,0,P|208:327|295:326,1,180,6|0,0:0|0:0,0:0:0:0:
491,205,18565,1,8,0:0:0:0:
429,378,18732,1,0,0:0:0:0:
320,193,18898,2,0,L|303:89,1,90,6|0,0:0|0:0,0:0:0:0:
182,22,19232,1,8,0:0:0:0:
56,144,19398,6,0,P|41:232|100:297,1,180,6|0,0:0|0:0,0:0:0:0:
325,169,19898,1,8,0:0:0:0:
144,203,20065,1,0,0:0:0:0:
259,329,20231,2,0,L|359:332,1,90,2|0,0:0|0:0,0:0:0:0:
500,383,20565,1,8,0:0:0:0:
483,241,20732,6,0,L|477:134,1,90,6|0,0:0|0:0,0:0:0:0:
357,49,21065,2,8,L|348:1,2,45
313,204,21398,5,6,0:0:0:0:
293,193,21731,5,6,0:0:0:0:
273,182,22064,5,6,0:0:0:0:
61,72,22565,6,0,L|150:58,1,90,8|0,0:0|0:0,0:0:0:0:
104,198,22898,2,0,L|16:184,1,90,2|0,0:0|0:0,0:0:0:0:
73,324,23231,2,0,L|162:310,1,90,8|0,0:0|0:0,0:0:0:0:
429,279,23565,5,2,0:0:0:0:
228,240,23732,1,0,0:0:0:0:
413,153,23898,1,8,0:0:0:0:
314,332,24065,1,0,0:0:0:0:
289,129,24232,2,0,L|278:37,1,90,2|0,0:0|0:0,0:0:0:0:
421,6,24565,1,8,0:0:0:0:
496,157,24732,6,0,P|495:243|503:342,1,180,2|0,0:0|0:0,0:0:0:0:
383,268,25232,2,0,L|294:252,1,90,8|0,0:0|0:0,0:0:0:0:
129,364,25565,2,0,L|218:349,1,90,2|0,0:0|0:0,0:0:0:0:
48,274,25898,2,0,L|36:176,1,90,8|0,0:0|0:0,0:0:0:0:
237,42,26232,5,2,0:0:0:0:
176,188,26398,1,0,0:0:0:0:
83,68,26565,1,8,0:0:0:0:
311,83,26732,1,0,0:0:0:0:
253,254,26898,5,14,0:0:0:0:
232,280,26981,1,8,0:0:0:0:
202,296,27064,1,8,0:0:0:0:
169,299,27147,1,8,0:0:0:0:
137,290,27231,1,8,0:0:0:0:
367,157,27398,6,0,B|408:95|382:38|382:38|431:100,1,180,6|0,0:0|0:0,0:0:0:0:
313,357,27898,1,8,0:0:0:0:
441,273,28065,1,0,0:0:0:0:
311,83,28231,5,6,0:0:0:0:
236,310,28398,1,0,0:0:0:0:
165,101,28564,1,8,0:0:0:0:
131,343,28732,2,0,P|46:309|45:228,1,180,6|0,0:0|0:0,0:0:0:0:
165,101,29232,1,8,0:0:0:0:
129,255,29398,1,0,0:0:0:0:
44,132,29565,2,0,L|26:38,1,90,6|0,0:0|0:0,0:0:0:0:
217,11,29898,1,8,0:0:0:0:
221,196,30065,6,0,P|218:260|227:379,1,180,6|0,0:0|0:0,0:0:0:0:
369,328,30564,2,0,L|463:315,1,90,8|0,0:0|0:0,0:0:0:0:
359,97,30898,1,2,0:0:0:0:
319,221,31065,1,0,0:0:0:0:
469,173,31232,2,0,L|450:70,1,90,8|0,0:0|0:0,0:0:0:0:
262,39,31565,5,2,0:0:0:0:
154,120,31731,1,0,0:0:0:0:
29,63,31898,2,0,P|24:172|71:232,1,180,8|6,0:0|0:0,0:0:0:0:
284,250,32398,1,8,0:0:0:0:
104,356,32565,1,8,0:0:0:0:
191,89,32732,1,8,0:0:0:0:
362,200,32898,6,2,L|389:359,1,144,4|2,0:0|0:0,0:0:0:0:
471,243,33398,1,0,0:0:0:0:
483,120,33565,2,2,P|425:67|336:77,1,144
251,138,34065,1,0,0:0:0:0:
251,138,34148,1,0,0:0:0:0:
251,138,34232,5,2,0:0:0:0:
206,31,34398,1,2,0:0:0:0:
206,31,34564,2,0,L|115:35,1,72
9,60,34898,2,2,P|8:134|12:220,1,144
34,315,35398,2,0,L|80:297,1,36
134,254,35565,6,2,P|201:306|248:280,1,144,4|2,0:0|0:0,0:0:0:0:
316,208,36065,1,0,0:0:0:0:
358,352,36231,2,2,B|385:296|391:247|391:247|408:295,1,144
498,351,36732,1,0,0:0:0:0:
485,214,36898,6,0,L|478:134,1,72
442,43,37232,2,2,P|387:95|322:58,1,144
90,193,37731,5,0,0:0:0:0:
147,20,37898,1,0,0:0:0:0:
228,144,38065,1,0,0:0:0:0:
28,125,38232,6,0,P|0:194|63:281,1,180,6|8,0:0|0:0,0:0:0:0:
167,205,38732,1,0,0:0:0:0:
248,356,38898,2,0,P|304:363|358:357,1,90
469,283,39232,2,0,P|474:229|469:187,1,90,8|0,0:0|0:0,0:0:0:0:
444,38,39565,6,0,P|392:116|294:102,1,180,6|8,0:0|0:0,0:0:0:0:
206,21,40065,1,0,0:0:0:0:
156,134,40232,2,0,P|168:188|172:222,1,90
63,134,40565,1,8,0:0:0:0:
253,175,40732,1,0,0:0:0:0:
67,317,40898,6,0,L|168:329,1,90,6|0,0:0|0:0,0:0:0:0:
251,271,41232,1,8,0:0:0:0:
339,372,41398,1,14,0:0:0:0:
339,372,41482,1,8,0:0:0:0:
339,372,41565,1,8,0:0:0:0:
441,297,41732,2,0,L|427:202,1,90,0|8,0:0|0:0,0:0:0:0:
495,95,42065,1,0,0:0:0:0:
353,285,42232,5,6,0:0:0:0:
289,9,42398,1,6,0:0:0:0:
137,64,42732,6,0,P|64:46|66:150,1,180,6|0,0:0|0:0,0:0:0:0:
125,201,43232,1,8,0:0:0:0:
13,246,43398,1,0,0:0:0:0:
97,322,43565,6,2,B|137:341|171:324|171:324|211:305|248:329,1,144,4|0,0:0|0:0,0:0:0:0:
334,266,44065,1,0,0:0:0:0:
399,362,44232,2,2,P|447:280|434:225,1,144
495,154,44732,1,0,0:0:0:0:
495,154,44815,1,0,0:0:0:0:
495,154,44898,5,2,0:0:0:0:
471,39,45065,2,2,P|401:64|329:34,1,144
252,32,45565,2,0,L|179:41,1,72,2|0,0:0|0:0,0:0:0:0:
105,135,45898,2,0,L|177:144,1,72,10|0,0:0|0:0,0:0:0:0:
12,46,46232,6,2,P|20:128|22:193,1,144,4|2,0:0|0:0,0:0:0:0:
33,309,46732,1,0,0:0:0:0:
122,250,46898,2,2,P|187:274|214:353,1,144
122,358,47398,1,0,0:0:0:0:
122,358,47481,1,0,0:0:0:0:
122,358,47564,5,6,0:0:0:0:
357,195,47731,1,6,0:0:0:0:
357,195,48064,6,2,L|511:191,1,144,6|2,0:0|0:0,0:0:0:0:
367,14,48565,1,8,0:0:0:0:
170,193,48731,1,8,0:0:0:0:
170,193,48815,1,8,0:0:0:0:
170,193,48898,6,0,P|181:298|180:372,2,180,12|8|0,0:0|0:0|0:0,0:0:0:0:
117,39,49732,1,0,0:0:0:0:
76,234,49898,1,8,0:0:0:0:
264,131,50065,1,0,0:0:0:0:
16,79,50232,6,0,L|9:186,1,90,4|0,0:0|0:0,0:0:0:0:
171,234,50565,1,8,0:0:0:0:
231,43,50732,2,0,L|354:33,1,90,4|0,0:0|0:0,0:0:0:0:
477,152,51065,1,8,0:0:0:0:
480,174,51148,1,8,0:0:0:0:
483,196,51231,1,12,0:0:0:0:
355,344,51398,1,8,0:0:0:0:
352,323,51481,1,8,0:0:0:0:
349,301,51565,6,0,L|333:192,1,90,6|0,0:0|0:0,0:0:0:0:
343,61,51898,1,8,0:0:0:0:
254,280,52065,6,0,L|238:171,1,90,6|0,0:0|0:0,0:0:0:0:
242,66,52398,1,0,0:0:0:0:
159,269,52564,6,0,L|143:160,1,90,14|0,0:0|0:0,0:0:0:0:
150,39,52898,1,0,0:0:0:0:
68,259,53064,6,0,L|52:150,1,90,6|8,0:0|0:0,0:0:0:0:
68,0,53398,1,0,0:0:0:0:
315,146,53565,2,0,P|269:153|208:172,1,90,6|0,0:0|0:0,0:0:0:0:
74,369,53898,2,0,P|120:362|181:343,1,90,14|0,0:0|0:0,0:0:0:0:
79,78,54231,6,8,L|76:29,3,45,14|8|8|8,0:0|0:0|0:0|0:0,0:0:0:0:
146,169,54564,2,8,L|149:218,3,45,10|8|8|8,0:0|0:0|0:0|0:0,0:0:0:0:
186,60,54898,5,10,0:0:0:0:
223,36,54981,1,8,0:0:0:0:
267,30,55064,1,8,0:0:0:0:
311,42,55148,1,8,0:0:0:0:
349,65,55231,1,10,0:0:0:0:
389,85,55314,1,8,0:0:0:0:
434,89,55398,1,8,0:0:0:0:
476,75,55481,1,8,0:0:0:0:
512,50,55564,1,14,0:0:0:0:
73,326,56398,5,8,0:0:0:0:
73,326,56482,1,8,0:0:0:0:
73,326,56564,2,0,P|63:283|56:230,1,90,14|0,0:0|0:0,0:0:0:0:
58,35,56898,6,0,P|134:93|227:73,1,198.000006042481,6|10,0:0|0:0,0:0:0:0:
397,122,57398,1,0,0:0:0:0:
198,184,57565,1,8,0:0:0:0:
439,46,57732,1,0,0:0:0:0:
355,274,57898,1,10,0:0:0:0:
291,7,58065,1,0,0:0:0:0:
444,299,58232,6,0,P|395:357|281:334,1,198.000006042481,14|10,0:0|0:0,0:0:0:0:
273,93,58732,1,0,0:0:0:0:
171,245,58898,1,8,0:0:0:0:
420,206,59065,1,0,0:0:0:0:
134,124,59232,1,10,0:0:0:0:
405,43,59398,1,0,0:0:0:0:
41,32,59565,6,0,P|40:141|53:235,1,198.000006042481,14|10,0:0|0:0,0:0:0:0:
98,354,60065,1,0,0:0:0:0:
155,133,60232,1,8,0:0:0:0:
203,319,60398,1,0,0:0:0:0:
274,36,60565,1,10,0:0:0:0:
307,335,60732,1,0,0:0:0:0:
476,170,60898,6,0,B|434:191|384:170|384:170|327:145|287:174,1,198.000006042481,6|10,0:0|0:0,0:0:0:0:
429,78,61398,1,0,0:0:0:0:
334,258,61565,1,2,0:0:0:0:
245,22,61732,1,0,0:0:0:0:
121,159,61898,1,10,0:0:0:0:
420,188,62065,1,8,0:0:0:0:
420,188,62148,1,8,0:0:0:0:
420,188,62232,6,0,P|471:185|520:109,1,148.50000453186,14|0,0:0|0:0,0:0:0:0:
425,33,62565,2,0,P|374:36|340:75,1,99.0000030212403,10|0,0:0|0:0,0:0:0:0:
302,327,62898,1,0,0:0:0:0:
329,142,63065,1,0,0:0:0:0:
202,219,63232,1,10,0:0:0:0:
419,266,63398,1,8,0:0:0:0:
419,266,63482,1,8,0:0:0:0:
419,266,63565,5,12,0:0:0:0:
257,165,63732,1,0,0:0:0:0:
211,338,63898,1,10,0:0:0:0:
144,139,64065,1,8,0:0:0:0:
144,139,64148,1,8,0:0:0:0:
144,139,64232,2,0,P|141:86|130:33,1,99.0000030212403,8|0,0:0|0:0,0:0:0:0:
15,239,64565,2,0,P|18:292|29:345,1,99.0000030212403,10|0,0:0|0:0,0:0:0:0:
202,256,64898,6,0,B|252:230|304:257|304:257|356:283|398:255,1,198.000006042481,6|10,0:0|0:0,0:0:0:0:
445,126,65398,1,0,0:0:0:0:
284,39,65565,2,0,P|273:126|291:166,1,99.0000030212403
421,347,65898,2,0,P|432:260|414:220,1,99.0000030212403,14|0,0:0|0:0,0:0:0:0:
121,338,66232,5,6,0:0:0:0:
391,46,66398,1,6,0:0:0:0:
75,133,66732,6,0,P|85:44|159:103,1,198.000006042481,6|8,0:0|0:0,0:0:0:0:
156,102,67148,1,8,0:0:0:0:
153,126,67232,1,8,0:0:0:0:
271,341,67398,1,8,0:0:0:0:
266,318,67481,1,8,0:0:0:0:
261,292,67565,6,0,P|256:230|380:218,1,198.000006042481,14|10,0:0|0:0,0:0:0:0:
385,361,68065,1,0,0:0:0:0:
153,297,68232,1,8,0:0:0:0:
367,203,68398,1,0,0:0:0:0:
94,124,68565,1,10,0:0:0:0:
391,60,68731,1,0,0:0:0:0:
14,70,68898,6,0,P|5:143|18:274,1,198.000006042481,6|10,0:0|0:0,0:0:0:0:
206,230,69398,1,0,0:0:0:0:
86,134,69565,1,8,0:0:0:0:
111,344,69732,1,0,0:0:0:0:
277,92,69898,1,10,0:0:0:0:
250,360,70065,1,0,0:0:0:0:
222,27,70232,6,0,B|282:-6|327:27|327:27|370:57|422:15,1,198.000006042481,6|10,0:0|0:0,0:0:0:0:
445,216,70732,1,0,0:0:0:0:
263,184,70898,1,8,0:0:0:0:
487,107,71065,1,0,0:0:0:0:
388,343,71232,1,10,0:0:0:0:
348,38,71398,1,0,0:0:0:0:
236,361,71565,5,6,0:0:0:0:
53,251,71732,1,8,0:0:0:0:
32,238,71815,1,8,0:0:0:0:
10,226,71898,1,10,0:0:0:0:
230,104,72065,1,0,0:0:0:0:
114,23,72232,5,10,0:0:0:0:
117,59,72315,1,8,0:0:0:0:
121,96,72398,1,8,0:0:0:0:
125,133,72481,1,8,0:0:0:0:
128,170,72565,1,10,0:0:0:0:
132,207,72648,1,8,0:0:0:0:
136,244,72731,1,8,0:0:0:0:
140,281,72815,1,8,0:0:0:0:
143,318,72898,5,14,0:0:0:0:
259,207,73065,1,0,0:0:0:0:
325,340,73232,2,0,P|414:355|438:268,1,198.000006042481,10|0,0:0|0:0,0:0:0:0:
259,207,73732,1,0,0:0:0:0:
425,132,73898,1,10,0:0:0:0:
313,51,74065,2,8,L|246:50,1,49.5000015106202
166,20,74232,6,0,P|114:78|15:9,1,198.000006042481,12|10,0:0|0:0,0:0:0:0:
7,207,74732,2,8,L|-3:280,2,49.5000015106202
223,159,75065,2,0,P|224:216|204:259,1,99.0000030212403,0|10,0:0|0:0,0:0:0:0:
101,182,75398,1,0,0:0:0:0:
32,339,75565,6,0,B|89:312|132:334|132:334|174:353|229:324,1,198.000006042481,12|10,0:0|0:0,0:0:0:0:
452,231,76065,1,4,0:0:0:0:
452,231,76148,1,0,0:0:0:0:
452,231,76232,1,0,0:0:0:0:
347,356,76398,1,0,0:0:0:0:
287,126,76565,1,10,0:0:0:0:
452,231,76732,1,0,0:0:0:0:
179,269,76898,5,14,0:0:0:0:
98,204,77065,1,8,0:0:0:0:
49,303,77232,1,8,0:0:0:0:
14,84,77398,6,0,P|110:88|221:80,1,198.000006042481,6|0,0:0|0:0,0:0:0:0:
465,163,77898,1,8,0:0:0:0:
259,275,78065,1,0,0:0:0:0:
347,28,78232,6,0,L|359:130,1,90,6|0,0:0|0:0,0:0:0:0:
433,354,78565,2,0,L|421:252,1,90,10|0,0:0|0:0,0:0:0:0:
234,283,78898,1,2,0:0:0:0:
118,124,79064,1,0,0:0:0:0:
305,184,79231,1,10,0:0:0:0:
118,245,79398,1,0,0:0:0:0:
234,86,79564,6,0,L|325:92,1,90,6|0,0:0|0:0,0:0:0:0:
373,259,79898,1,8,0:0:0:0:
447,65,80065,2,0,B|466:25|466:25|483:180,1,180,6|0,0:0|0:0,0:0:0:0:
405,345,80565,1,8,0:0:0:0:
305,184,80732,1,0,0:0:0:0:
196,338,80898,6,0,P|126:349|94:328,1,90,2|0,0:0|0:0,0:0:0:0:
109,145,81232,1,10,0:0:0:0:
193,234,81398,1,0,0:0:0:0:
16,250,81564,2,0,P|11:203|11:154,1,90,2|0,0:0|0:0,0:0:0:0:
108,42,81898,1,10,0:0:0:0:
262,204,82065,1,8,0:0:0:0:
262,204,82148,1,8,0:0:0:0:
262,204,82232,5,14,0:0:0:0:
386,39,82398,1,0,0:0:0:0:
433,197,82565,1,8,0:0:0:0:
215,78,82732,2,8,L|217:128,1,45
319,316,82898,5,14,0:0:0:0:
110,347,83065,1,0,0:0:0:0:
337,159,83232,1,8,0:0:0:0:
56,145,83398,1,8,0:0:0:0:
56,145,83482,1,8,0:0:0:0:
56,145,83565,6,0,P|51:196|63:261,1,90,14|0,0:0|0:0,0:0:0:0:
259,131,83898,2,0,P|264:80|252:15,1,90,10|0,0:0|0:0,0:0:0:0:
141,111,84232,1,2,0:0:0:0:
219,211,84398,1,0,0:0:0:0:
119,299,84565,1,10,0:0:0:0:
250,366,84732,1,0,0:0:0:0:
393,305,84898,6,0,P|405:243|396:207,1,90,6|0,0:0|0:0,0:0:0:0:
512,132,85232,1,8,0:0:0:0:
443,31,85398,2,0,P|386:70|276:34,1,180,6|0,0:0|0:0,0:0:0:0:
147,212,85898,1,8,0:0:0:0:
114,38,86065,1,8,0:0:0:0:
114,38,86148,1,8,0:0:0:0:
114,38,86232,5,12,0:0:0:0:
250,226,86398,1,8,0:0:0:0:
227,10,86565,1,8,0:0:0:0:
118,306,86732,1,8,0:0:0:0:
398,153,86898,5,14,0:0:0:0:
74,103,87065,1,8,0:0:0:0:
242,336,87232,1,8,0:0:0:0:
338,16,87398,1,8,0:0:0:0:
471,331,87732,5,14,0:0:0:0:
67,266,87898,1,14,0:0:0:0:
396,32,88731,6,6,L|410:177,1,135,6|0,0:0|0:0,0:0:0:0:
