osu file format v14

[General]
AudioFilename: audio.mp3
AudioLeadIn: 0
PreviewTime: 56315
Countdown: 0
SampleSet: Soft
StackLeniency: 0.7
Mode: 0
LetterboxInBreaks: 0
WidescreenStoryboard: 0

[Editor]
DistanceSpacing: 1
BeatDivisor: 2
GridSize: 32
TimelineZoom: 2.3

[Metadata]
Title:Kira Kira datoka Yume datoka ~Sing Girls~ (TV Size)
TitleUnicode:キラキラだとか夢だとか ~Sing Girls~ (TV Size)
Artist:Poppin'Party
ArtistUnicode:Poppin'Party
Creator:[Crz]Sword
Version:Easy
Source:BanG Dream!
Tags:pata-mon pata mon bandori garupa バンドリ!girl band project Toyama Kasumi Hanazono Tae Ushigome Rimi Yamabuki Saaya Ichigaya Arisa Aimi Otsuka Sae Nishimoto Ohashi Ayaka Itou Ayasa 愛美 大塚紗英 牛込 りみ 山吹 沙綾 市ヶ谷 有咲 オリジナルサウンドトラック ed ending
BeatmapID:1317296
BeatmapSetID:625045

[Difficulty]
HPDrainRate:3
CircleSize:3
OverallDifficulty:3
ApproachRate:3
SliderMultiplier:0.899999999999999
SliderTickRate:1

[Events]
//Background and Video events
0,0,"bg4.jpg",0,0
Video,623,"1.mp4"
//Break Periods
//Storyboard Layer 0 (Background)
//Storyboard Layer 1 (Fail)
//Storyboard Layer 2 (Pass)
//Storyboard Layer 3 (Foreground)
//Storyboard Sound Samples

[TimingPoints]
-435,333.333333333333,4,2,1,75,1,0
32898,-100,4,2,1,55,0,0
38231,-100,4,2,1,75,0,0
43564,-100,4,2,1,55,0,0
48898,-100,4,2,1,75,0,0
56898,-100,4,2,1,85,0,1
78231,-100,4,2,1,75,0,0
88898,-100,4,2,1,50,0,0
89064,-100,4,2,1,25,0,0
89231,-100,4,2,1,5,0,0

[Colours]
Combo1 : 146,36,255
Combo2 : 255,81,81
Combo3 : 119,255,119
Combo4 : 0,255,255

[HitObjects]
73,44,898,6,0,P|127:52|183:51,1,89.9999999999999,6|8,0:0|0:0,0:0:0:0:
225,116,1565,1,2,0:0:0:0:
270,38,1898,2,0,L|364:40,1,89.9999999999999,8|0,0:0|0:0,0:0:0:0:
387,126,2565,2,0,P|384:168|390:230,2,89.9999999999999,8|2|8,0:0|0:0|0:0,0:0:0:0:
460,73,3565,6,0,P|477:129|482:268,1,180,6|10,0:0|0:0,0:0:0:0:
431,322,4565,2,0,B|413:291|413:291|364:335|268:324,1,180,8|8,0:0|0:0,0:0:0:0:
204,274,5565,1,4,0:0:0:0:
88,343,6065,6,0,B|76:241|76:241|91:188,1,135,6|8,0:0|0:0,0:0:0:0:
46,128,6898,1,10,0:0:0:0:
149,40,7398,2,0,B|253:27|253:27|309:59,1,135,6|8,0:0|0:0,0:0:0:0:
327,118,8232,1,2,0:0:0:0:
498,62,8898,6,0,L|510:219,2,135,6|6|14,0:0|0:0|0:0,0:0:0:0:
413,31,10231,1,0,0:0:0:0:
407,120,10564,1,8,0:0:0:0:
426,207,10898,2,0,P|359:196|322:134,1,135,6|6,0:0|0:0,0:0:0:0:
234,41,11898,5,8,0:0:0:0:
146,20,12232,2,0,L|53:45,2,89.9999999999999,2|8|2,0:0|0:0|0:0,0:0:0:0:
169,106,13232,1,8,0:0:0:0:
82,129,13565,2,0,B|71:185|71:185|84:242,1,89.9999999999999,2|0,0:0|0:0,0:0:0:0:
78,307,14232,6,0,P|149:297|275:356,1,180,2|2,0:0|0:0,0:0:0:0:
321,279,15232,1,8,0:0:0:0:
374,351,15565,2,0,P|425:363|473:348,1,89.9999999999999,0|10,0:0|0:0,0:0:0:0:
499,269,16232,1,14,0:0:0:0:
428,153,16732,6,0,B|416:53|416:53|433:20,1,135,6|8,0:0|0:0,0:0:0:0:
341,17,17565,1,6,0:0:0:0:
243,110,18065,2,0,B|255:210|255:210|238:243,1,135,6|8,0:0|0:0,0:0:0:0:
162,192,18898,1,6,0:0:0:0:
92,76,19398,6,0,P|16:175|56:275,1,225,6|2,0:0|0:0,0:0:0:0:
45,351,20564,1,8,0:0:0:0:
125,309,20898,2,0,P|191:317|263:310,1,135,0|6,0:0|0:0,0:0:0:0:
347,327,21731,1,6,0:0:0:0:
316,242,22064,1,6,0:0:0:0:
184,224,22565,6,0,L|203:106,1,89.9999999999999,8|2,0:0|0:0,0:0:0:0:
271,82,23232,1,8,0:0:0:0:
329,150,23565,2,0,B|376:158|376:158|426:150,2,89.9999999999999,2|8|2,0:0|0:0|0:0,0:0:0:0:
281,226,24565,1,8,0:0:0:0:
315,308,24898,6,0,P|384:314|477:379,1,180,0|2,0:0|0:0,0:0:0:0:
506,287,25898,1,8,0:0:0:0:
468,205,26232,2,0,L|456:93,1,89.9999999999999,2|8,0:0|0:0,0:0:0:0:
496,33,26898,1,14,0:0:0:0:
362,12,27398,6,0,B|294:8|294:8|203:15,1,135,6|8,0:0|0:0,0:0:0:0:
166,79,28232,1,6,0:0:0:0:
185,212,28732,2,0,B|253:216|253:216|344:209,1,135,6|8,0:0|0:0,0:0:0:0:
381,145,29564,1,6,0:0:0:0:
298,38,30065,6,0,P|192:87|78:61,1,225,6|2,0:0|0:0,0:0:0:0:
14,16,31232,1,8,0:0:0:0:
0,104,31565,1,2,0:0:0:0:
59,225,32065,6,0,L|49:364,1,135,0|8,0:0|0:0,0:0:0:0:
137,339,32898,6,2,P|268:348|308:305,1,180,4|0,0:0|0:0,0:0:0:0:
132,248,34232,2,2,B|154:176|154:176|145:125|145:125|167:76,1,180,2|0,0:0|0:0,0:0:0:0:
235,138,35232,1,0,0:0:0:0:
274,57,35565,6,2,B|373:69|373:69|417:56,2,135,4|0|0,0:0|0:0|0:0,0:0:0:0:
235,138,36898,2,2,P|234:203|244:340,1,180
324,282,37898,1,0,0:0:0:0:
370,358,38232,6,0,L|473:345,1,89.9999999999999,6|8,0:0|0:0,0:0:0:0:
496,264,38898,1,0,0:0:0:0:
454,184,39232,2,0,L|449:81,2,89.9999999999999,8|6|8,0:0|0:0|0:0,0:0:0:0:
402,258,40232,2,0,P|353:262|285:250,1,89.9999999999999,0|8,0:0|0:0,0:0:0:0:
253,190,40898,6,0,P|158:225|131:312,1,180,6|8,0:0|0:0,0:0:0:0:
75,364,41898,1,8,0:0:0:0:
37,281,42232,2,0,L|22:123,1,135,6|6,0:0|0:0,0:0:0:0:
57,62,43065,1,0,0:0:0:0:
129,175,43564,6,2,P|204:224|306:180,1,180,4|0,0:0|0:0,0:0:0:0:
179,56,44898,2,2,L|369:52,1,180
418,120,45898,1,10,0:0:0:0:
373,198,46232,6,2,B|276:212|276:212|237:201,2,135,4|0|0,0:0|0:0|0:0,0:0:0:0:
459,221,47565,2,0,P|462:292|462:365,1,135,6|6,0:0|0:0,0:0:0:0:
338,301,48565,5,8,0:0:0:0:
264,352,48898,2,0,P|222:354|152:347,2,89.9999999999999,12|8|0,0:0|0:0|0:0,0:0:0:0:
264,261,49898,1,8,0:0:0:0:
206,191,50232,2,0,P|198:145|199:90,2,89.9999999999999,4|8|0,0:0|0:0|0:0,0:0:0:0:
169,273,51232,1,12,0:0:0:0:
93,224,51565,6,0,L|74:376,1,135,6|6,0:0|0:0,0:0:0:0:
2,245,52565,2,0,L|21:93,1,135,14|6,0:0|0:0,0:0:0:0:
120,22,53564,2,0,P|171:27|230:31,1,89.9999999999999,6|14,0:0|0:0,0:0:0:0:
256,192,54232,12,14,55565,0:0:0:0:
65,146,56898,6,0,P|108:136|152:144,1,89.9999999999999,6|10,0:0|0:0,0:0:0:0:
169,233,57564,2,0,P|224:240|275:221,1,89.9999999999999,8|10,0:0|0:0,0:0:0:0:
310,159,58232,1,14,0:0:0:0:
360,233,58565,2,0,L|355:336,2,89.9999999999999,10|8|10,0:0|0:0|0:0,0:0:0:0:
442,196,59565,6,0,B|448:128|448:128|440:94,1,89.9999999999999,14|10,0:0|0:0,0:0:0:0:
371,52,60232,2,0,L|269:59,1,89.9999999999999,8|10,0:0|0:0,0:0:0:0:
213,116,60898,2,0,P|208:168|218:247,2,89.9999999999999,6|10|2,0:0|0:0|0:0,0:0:0:0:
145,55,61898,1,10,0:0:0:0:
70,106,62232,6,0,L|78:295,1,180,14|0,0:0|0:0,0:0:0:0:
163,258,63232,1,10,0:0:0:0:
198,340,63565,2,0,P|292:350|340:275,1,180,12|8,0:0|0:0,0:0:0:0:
373,205,64565,1,10,0:0:0:0:
458,232,64898,6,0,B|471:261|471:261|453:365,2,135,6|0|14,0:0|0:0|0:0,0:0:0:0:
436,144,66232,1,6,0:0:0:0:
332,57,66732,6,0,L|195:68,1,135,6|8,0:0|0:0,0:0:0:0:
122,16,67565,6,0,P|112:70|118:116,1,89.9999999999999,14|10,0:0|0:0,0:0:0:0:
117,194,68231,2,0,P|124:252|111:299,1,89.9999999999999,8|10,0:0|0:0,0:0:0:0:
31,309,68898,1,6,0:0:0:0:
96,370,69232,2,0,P|146:382|203:380,2,89.9999999999999,10|8|10,0:0|0:0|0:0,0:0:0:0:
117,282,70232,6,0,P|128:228|132:185,1,89.9999999999999,6|10,0:0|0:0,0:0:0:0:
190,125,70898,2,0,P|243:128|296:122,1,89.9999999999999,8|10,0:0|0:0,0:0:0:0:
336,55,71565,1,6,0:0:0:0:
383,131,71898,2,0,B|373:150|373:150|377:239,2,89.9999999999999,10|10|10,0:0|0:0|0:0,0:0:0:0:
461,86,72898,6,0,P|477:190|460:280,1,180,14|0,0:0|0:0,0:0:0:0:
491,349,73898,1,10,0:0:0:0:
404,324,74232,2,0,P|303:316|204:359,1,180,12|0,0:0|0:0,0:0:0:0:
147,377,75232,1,10,0:0:0:0:
126,289,75565,6,0,B|106:179|106:179|116:142,2,135,12|4|10,0:0|0:0|0:0,0:0:0:0:
60,351,76898,1,14,0:0:0:0:
16,223,77398,6,0,L|8:85,1,135,6|8,0:0|0:0,0:0:0:0:
82,37,78232,6,0,P|131:45|191:45,1,89.9999999999999,6|10,0:0|0:0,0:0:0:0:
210,127,78898,2,0,P|204:209|211:232,1,89.9999999999999,2|10,0:0|0:0,0:0:0:0:
260,286,79565,1,6,0:0:0:0:
335,236,79898,2,0,L|444:250,2,89.9999999999999,8|0|8,0:0|0:0|0:0,0:0:0:0:
305,150,80898,6,0,P|315:93|332:56,1,89.9999999999999,2|10,0:0|0:0,0:0:0:0:
412,33,81564,2,0,B|445:78|456:129,1,89.9999999999999,2|10,0:0|0:0,0:0:0:0:
487,196,82232,2,0,L|478:304,1,89.9999999999999,14|8,0:0|0:0,0:0:0:0:
407,339,82898,2,0,L|301:345,1,89.9999999999999,14|8,0:0|0:0,0:0:0:0:
254,281,83565,5,14,0:0:0:0:
185,339,83898,2,0,P|145:353|94:358,2,89.9999999999999,10|2|10,0:0|0:0|0:0,0:0:0:0:
254,281,84898,2,0,P|257:233|250:189,1,89.9999999999999,6|8,0:0|0:0,0:0:0:0:
203,114,85565,2,0,P|157:124|110:140,1,89.9999999999999,0|8,0:0|0:0,0:0:0:0:
56,204,86232,5,12,0:0:0:0:
32,118,86565,2,0,L|22:25,2,89.9999999999999,8|14|8,0:0|0:0|0:0,0:0:0:0:
56,204,87564,2,0,L|49:263,2,45,14|14|14,0:0|0:0|0:0,0:0:0:0:
255,307,88731,6,0,L|256:161,1,135,6|0,0:0|0:0,0:0:0:0:
