osu file format v14

[General]
AudioFilename: audio.mp3
AudioLeadIn: 0
PreviewTime: 244610
Countdown: 0
SampleSet: Soft
StackLeniency: 0.5
Mode: 0
LetterboxInBreaks: 0
WidescreenStoryboard: 1

[Editor]
Bookmarks: 5642,20880,42467,66594,85642,91991,97070,107229,117388,122467,127547,132626,152943,170721,171991,173102,175007,188499,193578,198658,213737,218975,239293,255801,268499,278975,291356,298975,304689,310721
DistanceSpacing: 1.4
BeatDivisor: 4
GridSize: 16
TimelineZoom: 2.5

[Metadata]
Title:KIZUNA MUSIC
TitleUnicode:キズナミュージック♪
Artist:Poppin'Party
ArtistUnicode:Poppin'Party
Creator:kxlman
Version:A SONG OF ETERNITY
Source:BanG Dream! 2nd Season
Tags:midorijeon koldnoodl バンドリ! ガールズバンドパーティ!BanG Dream! Girls Band Party bandori garupa ガルパ popipa ポピパ ポッピンパーティ toyama kasumi 戸山香澄 terakawa aimi 寺川愛美 hanazono tae 花園たえ otsuka sae 大塚紗英 ushigome rimi 牛込りみ nishimoto rimi 西本りみ yamabuki saya saaya 山吹沙綾 ohashi ayaka 大橋彩香 ichigaya arisa 市ヶ谷有咲 itou ayasa 伊藤彩沙 anime video game videogame japanese jpop j-pop pop female vocals op opening full ver version
BeatmapID:3586535
BeatmapSetID:1696521

[Difficulty]
HPDrainRate:5.6
CircleSize:3.8
OverallDifficulty:9.2
ApproachRate:9.3
SliderMultiplier:1.9
SliderTickRate:1

[Events]
//Background and Video events
0,0,"Reflected_on_The_Face (1)_digital_art_x4.jpg",0,0
//Break Periods
2,122672,126521
//Storyboard Layer 0 (Background)
//Storyboard Layer 1 (Fail)
//Storyboard Layer 2 (Pass)
//Storyboard Layer 3 (Foreground)
//Storyboard Layer 4 (Overlay)
//Storyboard Sound Samples

[TimingPoints]
568,317.460317460317,4,2,1,65,1,0
568,-125,4,2,1,65,0,0
1679,-125,4,2,2,65,0,0
2314,-125,4,2,1,65,0,0
2393,-125,4,2,3,65,0,0
2472,-125,4,2,4,65,0,0
2631,-125,4,2,2,65,0,0
2790,-125,4,2,3,65,0,0
2948,-125,4,2,5,65,0,0
3107,-125,4,2,3,65,0,0
3583,-125,4,2,6,65,0,0
4218,-125,4,2,7,65,0,0
4377,-125,4,2,4,65,0,0
4933,-125,4,2,3,65,0,0
5012,-125,4,2,8,65,0,0
5171,-125,4,2,1,65,0,0
5647,-125,4,2,9,75,0,0
5806,-125,4,2,5,75,0,0
6123,-125,4,2,10,75,0,0
6282,-125,4,2,6,75,0,0
6599,-125,4,2,11,75,0,0
6758,-125,4,2,7,75,0,0
7075,-125,4,2,9,75,0,0
7234,-125,4,2,5,75,0,0
7552,-125,4,2,11,75,0,0
7711,-125,4,2,2,75,0,0
7869,-125,4,2,10,75,0,0
8028,-125,4,2,6,75,0,0
8187,-100,4,2,9,75,0,0
8504,-100,4,2,9,50,0,0
8663,-100,4,2,9,55,0,0
8821,-100,4,2,9,60,0,0
8980,-100,4,2,9,65,0,0
9139,-100,4,2,9,70,0,0
9298,-100,4,2,7,75,0,0
9615,-100,4,2,11,75,0,0
9774,-100,4,2,2,75,0,0
9933,-100,4,2,5,75,0,0
10012,-100,4,2,6,75,0,0
10091,-100,4,2,3,75,0,0
10250,-100,4,2,5,75,0,0
10409,-100,4,2,9,75,0,0
10726,-125,4,2,5,60,0,0
11044,-125,4,2,8,60,0,0
11202,-125,4,2,11,60,0,0
11361,-125,4,2,8,60,0,0
11520,-125,4,2,11,60,0,0
11679,-125,4,2,8,60,0,0
11837,-125,4,2,11,60,0,0
11996,-125,4,2,8,60,0,0
13187,-125,4,2,8,5,0,0
13266,-125,4,2,8,60,0,0
13742,-125,4,2,11,60,0,0
13901,-125,4,2,8,60,0,0
14060,-125,4,2,11,60,0,0
14218,-125,4,2,8,60,0,0
14377,-125,4,2,11,60,0,0
14536,-125,4,2,8,60,0,0
15647,-125,4,2,7,60,0,0
15726,-125,4,2,8,60,0,0
16282,-125,4,2,11,60,0,0
16441,-125,4,2,8,60,0,0
16599,-125,4,2,11,60,0,0
16758,-125,4,2,8,60,0,0
16917,-125,4,2,11,60,0,0
17075,-125,4,2,8,60,0,0
18821,-125,4,2,11,60,0,0
18980,-125,4,2,8,60,0,0
19139,-125,4,2,11,60,0,0
19298,-125,4,2,8,60,0,0
19456,-125,4,2,11,60,0,0
19615,-125,4,2,8,60,0,0
20091,-125,4,2,11,60,0,0
20250,-125,4,2,9,60,0,0
20409,-125,4,2,11,60,0,0
20567,-125,4,2,10,60,0,0
20726,-125,4,2,11,60,0,0
20885,-117.647058823529,4,2,7,65,0,0
21202,-117.647058823529,4,2,8,65,0,0
21361,-117.647058823529,4,2,11,65,0,0
21520,-117.647058823529,4,2,8,65,0,0
21679,-117.647058823529,4,2,11,65,0,0
21837,-117.647058823529,4,2,8,65,0,0
21996,-117.647058823529,4,2,12,65,0,0
22155,-117.647058823529,4,2,8,65,0,0
22790,-117.647058823529,4,2,11,65,0,0
23028,-117.647058823529,4,2,2,65,0,0
23107,-117.647058823529,4,2,8,65,0,0
23266,-117.647058823529,4,2,2,65,0,0
23425,-117.647058823529,4,2,8,65,0,0
23663,-117.647058823529,4,2,8,5,0,0
23742,-117.647058823529,4,2,8,65,0,0
23901,-117.647058823529,4,2,11,65,0,0
24060,-117.647058823529,4,2,8,65,0,0
24218,-117.647058823529,4,2,11,65,0,0
24377,-117.647058823529,4,2,8,65,0,0
24536,-117.647058823529,4,2,12,65,0,0
24694,-117.647058823529,4,2,8,65,0,0
24853,-117.647058823529,4,2,2,65,0,0
25012,-117.647058823529,4,2,8,65,0,0
25329,-117.647058823529,4,2,11,65,0,0
25567,-117.647058823529,4,2,2,65,0,0
25647,-117.647058823529,4,2,8,65,0,0
25806,-117.647058823529,4,2,12,65,0,0
25964,-117.647058823529,4,2,8,65,0,0
26758,-117.647058823529,4,2,11,65,0,0
26917,-117.647058823529,4,2,8,65,0,0
27075,-117.647058823529,4,2,11,65,0,0
27234,-117.647058823529,4,2,8,65,0,0
27393,-117.647058823529,4,2,2,65,0,0
27552,-117.647058823529,4,2,8,65,0,0
27710,-117.647058823529,4,2,11,65,0,0
28187,-117.647058823529,4,2,8,65,0,0
28345,-117.647058823529,4,2,12,65,0,0
28504,-117.647058823529,4,2,8,65,0,0
29298,-117.647058823529,4,2,2,65,0,0
29456,-117.647058823529,4,2,8,65,0,0
30726,-117.647058823529,4,2,10,65,0,0
31044,-100,4,2,11,70,0,0
31520,-100,4,2,9,70,0,0
31996,-133.333333333333,4,2,11,70,0,0
32314,-133.333333333333,4,2,9,70,0,0
32472,-133.333333333333,4,2,20,70,0,0
32631,-111.111111111111,4,2,20,70,0,0
32790,-111.111111111111,4,2,1,70,0,0
33266,-111.111111111111,4,2,6,70,0,0
33425,-111.111111111111,4,2,11,70,0,0
33583,-133.333333333333,4,2,11,55,0,0
34536,-166.666666666667,4,2,11,55,0,0
35647,-166.666666666667,4,2,2,55,0,0
35806,-133.333333333333,4,2,11,65,0,0
36044,-133.333333333333,4,2,11,5,0,0
36123,-111.111111111111,4,2,12,70,0,0
36441,-111.111111111111,4,2,17,70,0,0
36917,-111.111111111111,4,2,2,70,0,0
37234,-111.111111111111,4,2,3,70,0,0
37393,-111.111111111111,4,2,2,70,0,0
37710,-111.111111111111,4,2,13,70,0,0
37869,-111.111111111111,4,2,11,70,0,0
38028,-111.111111111111,4,2,10,70,0,0
38187,-111.111111111111,4,2,2,70,0,0
38345,-111.111111111111,4,2,13,70,0,0
38504,-111.111111111111,4,2,11,70,0,0
38663,-111.111111111111,4,2,17,70,0,0
39615,-111.111111111111,4,2,2,70,0,0
39774,-111.111111111111,4,2,3,70,0,0
39933,-111.111111111111,4,2,2,70,0,0
40250,-111.111111111111,4,2,13,70,0,0
40409,-111.111111111111,4,2,11,70,0,0
40567,-111.111111111111,4,2,10,70,0,0
40726,-111.111111111111,4,2,2,70,0,0
40885,-111.111111111111,4,2,13,70,0,0
41044,-111.111111111111,4,2,11,70,0,0
41202,-111.111111111111,4,2,9,70,0,0
41441,-111.111111111111,4,2,9,5,0,0
41520,-111.111111111111,4,2,13,47,0,0
41599,-111.111111111111,4,2,5,47,0,0
41679,-111.111111111111,4,2,5,49,0,0
41837,-111.111111111111,4,2,13,51,0,0
41916,-111.111111111111,4,2,5,51,0,0
41996,-111.111111111111,4,2,5,53,0,0
42155,-111.111111111111,4,2,13,55,0,0
42234,-111.111111111111,4,2,5,55,0,0
42314,-111.111111111111,4,2,5,57,0,0
42472,-100,4,2,13,59,0,0
42551,-100,4,2,5,59,0,0
42631,-100,4,2,5,61,0,0
42790,-100,4,2,14,63,0,0
42869,-100,4,2,5,63,0,0
42949,-100,4,2,5,65,0,0
43107,-100,4,2,14,67,0,0
43186,-100,4,2,5,67,0,0
43266,-100,4,2,5,69,0,0
43425,-100,4,2,3,71,0,0
43504,-100,4,2,1,71,0,0
43583,-100,4,2,2,73,0,0
43742,-100,4,2,9,75,0,0
43901,-100,4,2,3,75,0,0
44218,-100,4,2,11,75,0,0
44377,-100,4,2,2,75,0,0
44694,-100,4,2,11,75,0,0
44853,-100,4,2,7,75,0,0
45329,-133.333333333333,4,2,14,60,0,0
45567,-133.333333333333,4,2,14,5,0,0
45647,-133.333333333333,4,2,15,60,0,0
45885,-133.333333333333,4,2,15,5,0,0
45964,-133.333333333333,4,2,16,65,0,0
46202,-133.333333333333,4,2,16,5,0,0
46282,-100,4,2,15,80,0,1
46599,-100,4,2,4,80,0,1
46917,-100,4,2,16,80,0,1
47234,-100,4,2,17,80,0,1
47393,-100,4,2,16,80,0,1
47869,-100,4,2,17,80,0,1
48504,-100,4,2,18,80,0,1
49139,-100,4,2,19,80,0,1
49298,-100,4,2,20,80,0,1
49456,-100,4,2,21,80,0,1
49774,-100,4,2,4,80,0,1
49933,-100,4,2,21,80,0,1
50409,-100,4,2,22,80,0,1
50726,-100,4,2,18,80,0,1
51202,-100,4,2,19,80,0,1
51996,-100,4,2,16,80,0,1
52314,-100,4,2,17,80,0,1
52472,-100,4,2,16,80,0,1
52948,-100,4,2,17,80,0,1
53583,-100,4,2,23,80,0,1
53901,-100,4,2,20,80,0,1
54218,-100,4,2,4,80,0,1
54377,-100,4,2,24,80,0,1
54536,-100,4,2,21,80,0,1
54853,-100,4,2,4,80,0,1
55012,-100,4,2,20,80,0,1
55171,-100,4,2,22,80,0,1
55647,-100,4,2,21,80,0,1
55806,-100,4,2,23,80,0,1
55885,-100,4,2,6,80,0,1
56441,-100,4,2,7,80,0,1
56758,-100,4,2,16,80,0,1
56917,-100,4,2,10,80,0,1
57075,-100,4,2,24,80,0,1
57234,-100,4,2,10,80,0,1
57393,-100,4,2,15,80,0,1
57552,-100,4,2,10,80,0,1
57710,-100,4,2,2,80,0,1
57869,-100,4,2,9,80,0,1
58028,-100,4,2,16,80,0,1
58187,-100,4,2,9,80,0,1
58345,-100,4,2,24,80,0,1
58504,-100,4,2,10,80,0,1
58663,-100,4,2,15,80,0,1
58821,-100,4,2,10,80,0,1
58980,-100,4,2,2,80,0,1
59298,-100,4,2,14,80,0,1
59456,-100,4,2,11,80,0,1
59615,-100,4,2,25,80,0,1
59774,-100,4,2,16,80,0,1
60091,-100,4,2,12,80,0,1
60250,-100,4,2,2,80,0,1
60409,-100,4,2,9,80,0,1
60567,-100,4,2,20,80,0,1
60726,-100,4,2,10,80,0,1
60885,-100,4,2,2,80,0,1
61044,-100,4,2,16,80,0,1
61361,-100,4,2,21,80,0,1
61441,-100,4,2,11,80,0,1
61520,-100,4,2,26,80,0,1
61837,-100,4,2,21,80,0,1
61996,-100,4,2,12,80,0,1
62155,-100,4,2,2,80,0,1
62314,-100,4,2,17,80,0,1
62472,-100,4,2,21,80,0,1
62631,-100,4,2,9,80,0,1
62790,-100,4,2,2,80,0,1
62948,-100,4,2,9,80,0,1
63107,-100,4,2,25,80,0,1
63266,-100,4,2,9,80,0,1
63425,-100,4,2,24,80,0,1
63583,-100,4,2,21,80,0,1
63901,-100,4,2,9,80,0,1
64060,-100,4,2,26,80,0,1
64377,-100,4,2,21,80,0,1
64536,-100,4,2,13,80,0,1
64694,-100,4,2,2,80,0,1
64853,-100,4,2,21,80,0,1
65171,-100,4,2,18,80,0,1
65488,-100,4,2,5,70,0,1
65647,-100,4,2,14,80,0,1
65726,-100,4,2,5,70,0,1
65964,-100,4,2,27,80,0,1
66044,-100,4,2,5,70,0,1
66282,-100,4,2,28,80,0,1
66361,-100,4,2,3,80,0,1
66599,-100,4,2,29,80,0,1
66917,-100,4,2,14,80,0,1
67234,-100,4,2,29,80,0,1
67393,-100,4,2,14,80,0,1
67552,-100,4,2,16,80,0,1
67710,-100,4,2,15,80,0,1
67869,-100,4,2,2,80,0,1
68028,-100,4,2,14,80,0,1
68504,-100,4,2,25,80,0,1
68663,-100,4,2,14,80,0,1
68821,-100,4,2,21,80,0,1
68980,-100,4,2,14,80,0,1
69139,-100,4,2,26,80,0,1
69298,-100,4,2,14,80,0,1
69456,-100,4,2,24,80,0,1
69615,-100,4,2,16,80,0,1
69774,-100,4,2,2,80,0,1
69933,-100,4,2,17,80,0,1
70091,-100,4,2,3,80,0,1
70250,-100,4,2,17,80,0,1
70409,-100,4,2,2,80,0,1
70567,-100,4,2,14,80,0,1
70726,-100,4,2,15,80,0,1
70885,-100,4,2,14,80,0,1
71044,-100,4,2,26,80,0,1
71202,-100,4,2,14,80,0,1
71361,-100,4,2,21,80,0,1
71520,-100,4,2,14,80,0,1
71679,-100,4,2,29,80,0,1
71996,-100,4,2,14,80,0,1
72314,-100,4,2,29,80,0,1
72472,-100,4,2,14,80,0,1
72631,-100,4,2,16,80,0,1
72790,-100,4,2,15,80,0,1
72948,-100,4,2,2,80,0,1
73106,-100,4,2,14,80,0,1
73583,-100,4,2,24,80,0,1
73741,-100,4,2,14,80,0,1
73900,-100,4,2,26,80,0,1
74059,-100,4,2,14,80,0,1
74218,-100,4,2,30,80,0,1
74535,-100,4,2,20,80,0,1
74694,-100,4,2,17,80,0,1
74853,-100,4,2,2,80,0,1
75011,-100,4,2,15,80,0,1
75329,-100,4,2,16,80,0,1
75488,-100,4,2,2,80,0,1
75646,-100,4,2,14,80,0,1
76123,-100,4,2,26,80,0,1
76361,-100,4,2,24,80,0,1
76599,-100,4,2,26,80,0,1
76758,-100,4,2,20,60,0,1
77075,-100,4,2,9,80,0,1
77393,-100,4,2,10,80,0,1
77552,-100,4,2,2,80,0,1
77710,-100,4,2,19,80,0,1
77869,-100,4,2,20,80,0,1
78028,-100,4,2,18,80,0,1
78663,-100,4,2,21,80,0,1
78821,-100,4,2,2,80,0,1
78980,-100,4,2,27,80,0,1
79298,-100,4,2,18,80,0,1
79615,-100,4,2,19,80,0,1
79774,-100,4,2,20,80,0,1
79933,-100,4,2,10,80,0,1
80091,-100,4,2,29,80,0,1
80409,-100,4,2,16,80,0,1
80726,-100,4,2,25,80,0,1
81202,-100,4,2,20,80,0,1
81520,-100,4,2,21,80,0,1
81837,-100,4,2,5,80,0,1
82155,-100,4,2,28,80,0,1
82472,-100,4,2,18,80,0,1
83345,-100,4,2,18,5,0,1
83425,-100,4,2,28,80,0,1
83742,-100,4,2,18,80,0,1
83821,-100,4,2,16,80,0,1
83901,-100,4,2,24,80,0,1
84377,-181.818181818182,4,2,7,70,0,0
85329,-181.818181818182,4,2,11,70,0,0
86441,-111.111111111111,4,2,2,70,0,0
86599,-111.111111111111,4,2,11,70,0,0
86837,-111.111111111111,4,2,11,5,0,0
86917,-111.111111111111,4,2,31,75,0,0
87234,-111.111111111111,4,2,29,75,0,0
87552,-111.111111111111,4,2,32,75,0,0
87869,-111.111111111111,4,2,30,75,0,0
88187,-111.111111111111,4,2,33,75,0,0
88425,-111.111111111111,4,2,33,5,0,0
88504,-111.111111111111,4,2,31,75,0,0
88821,-111.111111111111,4,2,34,75,0,0
89060,-111.111111111111,4,2,34,5,0,0
89139,-111.111111111111,4,2,32,75,0,0
89615,-111.111111111111,4,2,11,75,0,0
89774,-111.111111111111,4,2,31,75,0,0
89933,-111.111111111111,4,2,33,75,0,0
90091,-111.111111111111,4,2,35,75,0,0
90409,-111.111111111111,4,2,34,75,0,0
90567,-111.111111111111,4,2,35,75,0,0
90726,-111.111111111111,4,2,36,75,0,0
90964,-111.111111111111,4,2,36,5,0,0
91044,-111.111111111111,4,2,31,75,0,0
91361,-111.111111111111,4,2,33,75,0,0
91520,-111.111111111111,4,2,2,75,0,0
91679,-111.111111111111,4,2,36,75,0,0
91837,-111.111111111111,4,2,2,75,0,0
91996,-111.111111111111,4,2,9,75,0,0
92155,-111.111111111111,4,2,5,75,0,0
92472,-111.111111111111,4,2,11,75,0,0
92631,-111.111111111111,4,2,7,75,0,0
92948,-111.111111111111,4,2,9,75,0,0
93107,-111.111111111111,4,2,5,75,0,0
93425,-111.111111111111,4,2,11,75,0,0
93584,-111.111111111111,4,2,7,75,0,0
93901,-111.111111111111,4,2,11,75,0,0
94060,-111.111111111111,4,2,7,75,0,0
94218,-111.111111111111,4,2,11,75,0,0
94298,-111.111111111111,4,2,1,75,0,0
94377,-111.111111111111,4,2,2,75,0,0
94456,-111.111111111111,4,2,3,75,0,0
94536,-100,4,2,9,75,0,0
94695,-100,4,2,3,75,0,0
95012,-100,4,2,1,75,0,0
95171,-100,4,2,6,75,0,0
95329,-100,4,2,18,75,0,0
95647,-100,4,2,5,75,0,0
96123,-100,4,2,10,75,0,0
96441,-100,4,2,6,75,0,0
96599,-100,4,2,10,75,0,0
97075,-125,4,2,7,65,0,0
97393,-125,4,2,37,65,0,0
97552,-125,4,2,11,65,0,0
97710,-125,4,2,8,65,0,0
97869,-125,4,2,7,65,0,0
98028,-125,4,2,8,65,0,0
98187,-125,4,2,38,65,0,0
98663,-125,4,2,37,65,0,0
98980,-125,4,2,8,65,0,0
99139,-125,4,2,2,65,0,0
99298,-125,4,2,37,65,0,0
99456,-125,4,2,8,65,0,0
99933,-125,4,2,37,65,0,0
100091,-125,4,2,11,65,0,0
100250,-125,4,2,8,65,0,0
100409,-125,4,2,7,65,0,0
100567,-125,4,2,8,65,0,0
100726,-125,4,2,11,65,0,0
100885,-125,4,2,8,65,0,0
101044,-125,4,2,7,65,0,0
101520,-125,4,2,8,65,0,0
101679,-125,4,2,2,65,0,0
101837,-125,4,2,37,65,0,0
101996,-125,4,2,11,65,0,0
102155,-125,4,2,8,65,0,0
102472,-125,4,2,37,65,0,0
102631,-125,4,2,11,65,0,0
102790,-125,4,2,8,65,0,0
102948,-125,4,2,9,65,0,0
103266,-125,4,2,11,65,0,0
103425,-125,4,2,8,65,0,0
103583,-125,4,2,2,65,0,0
103742,-125,4,2,37,65,0,0
104060,-125,4,2,8,65,0,0
104218,-125,4,2,2,65,0,0
104377,-125,4,2,37,65,0,0
104694,-125,4,2,8,65,0,0
105012,-125,4,2,37,65,0,0
105171,-125,4,2,11,65,0,0
105329,-125,4,2,8,65,0,0
105488,-125,4,2,9,65,0,0
105806,-125,4,2,11,65,0,0
105964,-125,4,2,8,65,0,0
106123,-125,4,2,7,65,0,0
106441,-125,4,2,3,65,0,0
106599,-125,4,2,7,65,0,0
106679,-125,4,2,11,65,0,0
107234,-111.111111111111,4,2,7,70,0,0
107552,-111.111111111111,4,2,13,70,0,0
107710,-111.111111111111,4,2,11,70,0,0
107869,-111.111111111111,4,2,10,70,0,0
108028,-111.111111111111,4,2,11,70,0,0
108187,-111.111111111111,4,2,4,70,0,0
108345,-111.111111111111,4,2,11,70,0,0
108504,-111.111111111111,4,2,10,70,0,0
108821,-111.111111111111,4,2,13,70,0,0
109139,-111.111111111111,4,2,10,70,0,0
109456,-111.111111111111,4,2,13,70,0,0
109774,-111.111111111111,4,2,10,70,0,0
110091,-111.111111111111,4,2,13,70,0,0
110250,-111.111111111111,4,2,11,70,0,0
110409,-111.111111111111,4,2,10,70,0,0
110567,-111.111111111111,4,2,11,70,0,0
110726,-111.111111111111,4,2,4,70,0,0
110885,-111.111111111111,4,2,11,70,0,0
111044,-111.111111111111,4,2,17,70,0,0
111996,-111.111111111111,4,2,13,70,0,0
112155,-111.111111111111,4,2,11,70,0,0
112314,-111.111111111111,4,2,5,70,0,0
112631,-111.111111111111,4,2,4,70,0,0
112948,-111.111111111111,4,2,10,70,0,0
113107,-111.111111111111,4,2,11,70,0,0
113266,-111.111111111111,4,2,13,70,0,0
113425,-111.111111111111,4,2,11,70,0,0
113583,-111.111111111111,4,2,10,70,0,0
113901,-111.111111111111,4,2,13,70,0,0
114060,-111.111111111111,4,2,11,70,0,0
114218,-111.111111111111,4,2,10,70,0,0
114536,-111.111111111111,4,2,13,70,0,0
114694,-111.111111111111,4,2,11,70,0,0
114853,-111.111111111111,4,2,7,70,0,0
115171,-111.111111111111,4,2,17,70,0,0
115647,-111.111111111111,4,2,3,70,0,0
115806,-111.111111111111,4,2,10,70,0,0
115964,-111.111111111111,4,2,2,70,0,0
116123,-111.111111111111,4,2,13,70,0,0
116282,-111.111111111111,4,2,24,70,0,0
116758,-111.111111111111,4,2,5,70,0,0
117075,-111.111111111111,4,2,1,70,0,0
117234,-111.111111111111,4,2,6,70,0,0
117393,-111.111111111111,4,2,9,70,0,0
117552,-111.111111111111,4,2,3,70,0,0
117869,-111.111111111111,4,2,11,70,0,0
118028,-111.111111111111,4,2,2,70,0,0
118345,-111.111111111111,4,2,9,70,0,0
118504,-111.111111111111,4,2,3,70,0,0
118821,-111.111111111111,4,2,11,70,0,0
118980,-111.111111111111,4,2,2,70,0,0
119298,-111.111111111111,4,2,9,70,0,0
119457,-111.111111111111,4,2,3,70,0,0
119615,-100,4,2,10,70,0,0
119774,-100,4,2,6,70,0,0
119933,-100,4,2,9,70,0,0
120092,-100,4,2,5,70,0,0
120409,-100,4,2,10,70,0,0
120568,-100,4,2,6,70,0,0
120885,-100,4,2,11,70,0,0
121044,-100,4,2,2,70,0,0
121361,-100,4,2,11,70,0,0
121520,-100,4,2,2,70,0,0
121837,-100,4,2,11,70,0,0
121996,-100,4,2,2,70,0,0
122155,-100,4,2,11,70,0,0
122314,-100,4,2,7,70,0,0
122472,-100,4,2,11,55,0,0
127075,-111.111111111111,4,2,8,55,0,0
127234,-111.111111111111,4,2,2,55,0,0
127393,-111.111111111111,4,2,11,55,0,0
127472,-111.111111111111,4,2,11,5,0,0
127552,-111.111111111111,4,2,11,55,0,0
127869,-111.111111111111,4,2,11,47,0,0
128028,-111.111111111111,4,2,11,49,0,0
128187,-111.111111111111,4,2,11,51,0,0
128345,-111.111111111111,4,2,11,53,0,0
128504,-111.111111111111,4,2,11,55,0,0
128663,-111.111111111111,4,2,11,57,0,0
128821,-111.111111111111,4,2,11,59,0,0
128980,-111.111111111111,4,2,11,61,0,0
129139,-111.111111111111,4,2,11,63,0,0
129298,-111.111111111111,4,2,11,65,0,0
129456,-111.111111111111,4,2,11,67,0,0
129615,-111.111111111111,4,2,11,69,0,0
129774,-111.111111111111,4,2,11,71,0,0
129933,-111.111111111111,4,2,11,73,0,0
130091,-111.111111111111,4,2,9,75,0,0
130250,-111.111111111111,4,2,3,75,0,0
130567,-111.111111111111,4,2,10,75,0,0
130726,-111.111111111111,4,2,6,75,0,0
131044,-111.111111111111,4,2,10,75,0,0
131202,-100,4,2,7,75,0,0
131679,-100,4,2,14,75,0,0
131837,-100,4,2,2,75,0,0
131996,-100,4,2,19,75,0,0
132155,-100,4,2,2,75,0,0
132314,-100,4,2,16,75,0,0
132552,-100,4,2,16,5,0,0
132631,-100,4,2,15,80,0,1
132948,-100,4,2,4,80,0,1
133266,-100,4,2,16,80,0,1
133583,-100,4,2,17,80,0,1
133742,-100,4,2,16,80,0,1
134218,-100,4,2,17,80,0,1
134853,-100,4,2,18,80,0,1
135488,-100,4,2,19,80,0,1
135647,-100,4,2,20,80,0,1
135805,-100,4,2,21,80,0,1
136123,-100,4,2,4,80,0,1
136282,-100,4,2,21,80,0,1
136758,-100,4,2,22,80,0,1
137075,-100,4,2,18,80,0,1
137551,-100,4,2,19,80,0,1
138345,-100,4,2,16,80,0,1
138663,-100,4,2,17,80,0,1
138821,-100,4,2,16,80,0,1
139297,-100,4,2,17,80,0,1
139932,-100,4,2,23,80,0,1
140250,-100,4,2,20,80,0,1
140567,-100,4,2,4,80,0,1
140726,-100,4,2,24,80,0,1
140885,-100,4,2,21,80,0,1
141202,-100,4,2,4,80,0,1
141361,-100,4,2,20,80,0,1
141520,-100,4,2,18,80,0,1
141679,-100,4,2,39,80,0,1
141996,-100,4,2,19,80,0,1
142155,-100,4,2,17,80,0,1
142234,-100,4,2,3,80,0,1
142790,-100,4,2,7,80,0,1
143107,-100,4,2,16,80,0,1
143266,-100,4,2,10,80,0,1
143424,-100,4,2,24,80,0,1
143583,-100,4,2,10,80,0,1
143742,-100,4,2,15,80,0,1
143901,-100,4,2,10,80,0,1
144059,-100,4,2,2,80,0,1
144218,-100,4,2,9,80,0,1
144377,-100,4,2,16,80,0,1
144536,-100,4,2,9,80,0,1
144694,-100,4,2,24,80,0,1
144853,-100,4,2,10,80,0,1
145012,-100,4,2,15,80,0,1
145170,-100,4,2,10,80,0,1
145329,-100,4,2,2,80,0,1
145647,-100,4,2,14,80,0,1
145805,-100,4,2,20,80,0,1
145964,-100,4,2,25,80,0,1
146123,-100,4,2,16,80,0,1
146440,-100,4,2,12,80,0,1
146599,-100,4,2,2,80,0,1
146758,-100,4,2,9,80,0,1
146916,-100,4,2,20,80,0,1
147075,-100,4,2,10,80,0,1
147234,-100,4,2,2,80,0,1
147393,-100,4,2,16,80,0,1
147710,-100,4,2,21,80,0,1
147790,-100,4,2,11,80,0,1
147869,-100,4,2,26,80,0,1
148186,-100,4,2,21,80,0,1
148345,-100,4,2,12,80,0,1
148504,-100,4,2,2,80,0,1
148663,-100,4,2,17,80,0,1
148821,-100,4,2,21,80,0,1
148980,-100,4,2,9,80,0,1
149139,-100,4,2,2,80,0,1
149297,-100,4,2,9,80,0,1
149456,-100,4,2,25,80,0,1
149615,-100,4,2,10,80,0,1
149694,-100,4,2,24,80,0,1
149932,-100,4,2,21,80,0,1
150250,-100,4,2,9,80,0,1
150409,-100,4,2,26,80,0,1
150726,-100,4,2,18,80,0,1
150885,-100,4,2,21,80,0,1
151202,-100,4,2,30,80,0,1
151520,-100,4,2,39,80,0,1
151837,-100,4,2,5,70,0,1
151996,-100,4,2,14,80,0,1
152075,-100,4,2,5,70,0,1
152313,-100,4,2,27,80,0,1
152393,-100,4,2,5,70,0,1
152631,-100,4,2,28,80,0,1
152710,-100,4,2,3,80,0,1
152948,-100,4,2,29,80,0,1
153266,-100,4,2,14,80,0,1
153583,-100,4,2,29,80,0,1
153742,-100,4,2,14,80,0,1
153901,-100,4,2,16,80,0,1
154059,-100,4,2,15,80,0,1
154218,-100,4,2,2,80,0,1
154377,-100,4,2,14,80,0,1
154853,-100,4,2,25,80,0,1
155012,-100,4,2,14,80,0,1
155170,-100,4,2,21,80,0,1
155329,-100,4,2,14,80,0,1
155488,-100,4,2,26,80,0,1
155647,-100,4,2,14,80,0,1
155805,-100,4,2,24,80,0,1
155964,-100,4,2,16,80,0,1
156123,-100,4,2,2,80,0,1
156282,-100,4,2,17,80,0,1
156440,-100,4,2,3,80,0,1
156599,-100,4,2,17,80,0,1
156758,-100,4,2,2,80,0,1
156916,-100,4,2,14,80,0,1
157075,-100,4,2,15,80,0,1
157234,-100,4,2,14,80,0,1
157393,-100,4,2,26,80,0,1
157551,-100,4,2,14,80,0,1
157710,-100,4,2,21,80,0,1
157869,-100,4,2,40,80,0,1
157948,-100,4,2,3,80,0,1
158028,-100,4,2,29,80,0,1
158345,-100,4,2,14,80,0,1
158663,-100,4,2,29,80,0,1
158821,-100,4,2,14,80,0,1
158980,-100,4,2,16,80,0,1
159139,-100,4,2,15,80,0,1
159297,-100,4,2,2,80,0,1
159455,-100,4,2,14,80,0,1
159932,-100,4,2,24,80,0,1
160090,-100,4,2,14,80,0,1
160249,-100,4,2,26,80,0,1
160408,-100,4,2,14,80,0,1
160567,-100,4,2,30,80,0,1
160884,-100,4,2,20,80,0,1
161043,-100,4,2,17,80,0,1
161202,-100,4,2,2,80,0,1
161360,-100,4,2,15,80,0,1
161678,-100,4,2,16,80,0,1
161837,-100,4,2,2,80,0,1
161995,-100,4,2,37,80,0,1
162155,-100,4,2,8,80,0,1
162472,-100,4,2,26,80,0,1
162710,-100,4,2,24,80,0,1
162948,-100,4,2,26,80,0,1
163107,-100,4,2,20,60,0,1
163424,-100,4,2,9,80,0,1
163742,-100,4,2,10,80,0,1
163901,-100,4,2,2,80,0,1
164059,-100,4,2,19,80,0,1
164218,-100,4,2,20,80,0,1
164377,-100,4,2,10,80,0,1
164536,-100,4,2,2,80,0,1
164694,-100,4,2,18,80,0,1
164853,-100,4,2,20,80,0,1
165012,-100,4,2,21,80,0,1
165170,-100,4,2,2,80,0,1
165329,-100,4,2,27,80,0,1
165647,-100,4,2,18,80,0,1
165964,-100,4,2,19,80,0,1
166044,-100,4,2,13,80,0,1
166123,-100,4,2,20,80,0,1
166282,-100,4,2,10,80,0,1
166440,-100,4,2,29,80,0,1
166758,-100,4,2,16,80,0,1
167075,-100,4,2,25,80,0,1
167551,-100,4,2,20,80,0,1
167869,-100,4,2,39,80,0,1
168186,-100,4,2,7,80,0,1
168504,-100,4,2,28,80,0,1
168821,-100,4,2,18,80,0,1
169694,-100,4,2,18,5,0,1
169774,-100,4,2,28,80,0,1
170091,-100,4,2,18,80,0,1
170250,-100,4,2,1,80,0,1
170409,-100,4,2,22,80,0,1
170567,-100,4,2,3,80,0,1
170726,-208.333333333333,4,2,5,70,0,0
171679,-208.333333333333,4,2,9,70,0,0
173107,-208.333333333333,4,2,6,80,0,0
173266,-200,4,2,31,65,0,0
173584,-200,4,2,32,65,0,0
173901,-200,4,2,41,65,0,0
174219,-200,4,2,42,65,0,0
174536,-200,4,2,32,65,0,0
174854,-200,4,2,41,65,0,0
175012,-200,4,2,1,65,0,0
175171,-200,4,2,42,65,0,0
175329,-200,4,2,2,65,0,0
175488,-166.666666666667,4,2,23,65,0,0
175806,-200,4,2,31,65,0,0
176123,-200,4,2,32,65,0,0
176441,-200,4,2,41,65,0,0
176758,-200,4,2,42,65,0,0
176917,-200,4,2,1,65,0,0
177075,-166.666666666667,4,2,43,65,0,0
177393,-166.666666666667,4,2,38,65,0,0
177552,-166.666666666667,4,2,1,65,0,0
177711,-166.666666666667,4,2,44,65,0,0
177869,-166.666666666667,4,2,2,65,0,0
178028,-166.666666666667,4,2,24,65,0,0
178187,-166.666666666667,4,2,3,65,0,0
178345,-166.666666666667,4,2,31,65,0,0
178663,-166.666666666667,4,2,32,65,0,0
178981,-166.666666666667,4,2,41,65,0,0
179139,-166.666666666667,4,2,6,65,0,0
179298,-166.666666666667,4,2,25,65,0,0
179615,-166.666666666667,4,2,43,65,0,0
179933,-166.666666666667,4,2,39,65,0,0
180144,-166.666666666667,4,2,36,65,0,0
180409,-166.666666666667,4,2,1,65,0,0
180567,-166.666666666667,4,2,26,65,0,0
180647,-166.666666666667,4,2,3,65,0,0
180726,-166.666666666667,4,2,7,65,0,0
180885,-166.666666666667,4,2,40,65,0,0
181202,-166.666666666667,4,2,27,65,0,0
181361,-166.666666666667,4,2,45,65,0,0
181837,-166.666666666667,4,2,36,65,0,0
181996,-166.666666666667,4,2,2,65,0,0
182155,-166.666666666667,4,2,43,65,0,0
182472,-166.666666666667,4,2,28,65,0,0
182631,-166.666666666667,4,2,42,65,0,0
183107,-166.666666666667,4,2,46,65,0,0
183425,-142.857142857143,4,2,40,65,0,0
183742,-142.857142857143,4,2,27,65,0,0
183901,-142.857142857143,4,2,2,65,0,0
184060,-142.857142857143,4,2,41,65,0,0
184377,-142.857142857143,4,2,29,65,0,0
184694,-142.857142857143,4,2,27,65,0,0
184853,-142.857142857143,4,2,2,65,0,0
185012,-142.857142857143,4,2,28,65,0,0
185171,-142.857142857143,4,2,30,65,0,0
185647,-142.857142857143,4,2,27,65,0,0
185806,-142.857142857143,4,2,40,65,0,0
186282,-142.857142857143,4,2,27,65,0,0
186441,-142.857142857143,4,2,2,65,0,0
186599,-142.857142857143,4,2,31,65,0,0
186917,-142.857142857143,4,2,30,65,0,0
187234,-142.857142857143,4,2,27,65,0,0
187393,-142.857142857143,4,2,3,65,0,0
187552,-142.857142857143,4,2,28,65,0,0
187710,-142.857142857143,4,2,30,65,0,0
188187,-142.857142857143,4,2,26,65,0,0
188345,-142.857142857143,4,2,3,65,0,0
188504,-100,4,2,47,65,0,0
188663,-100,4,2,5,45,0,0
188821,-100,4,2,13,47,0,0
188901,-100,4,2,5,47,0,0
188980,-100,4,2,5,49,0,0
189139,-100,4,2,41,51,0,0
189219,-100,4,2,5,51,0,0
189298,-100,4,2,5,53,0,0
189456,-100,4,2,42,55,0,0
189536,-100,4,2,5,55,0,0
189615,-100,4,2,5,57,0,0
189774,-100,4,2,13,59,0,0
189854,-100,4,2,5,59,0,0
189933,-100,4,2,6,61,0,0
190013,-100,4,2,5,61,0,0
190091,-100,4,2,41,63,0,0
190171,-100,4,2,5,63,0,0
190250,-100,4,2,5,65,0,0
190409,-100,4,2,43,67,0,0
190489,-100,4,2,5,67,0,0
190568,-100,4,2,5,69,0,0
190648,-100,4,2,6,69,0,0
190726,-100,4,2,44,71,0,0
190806,-100,4,2,5,71,0,0
191044,-100,4,2,40,75,0,0
191202,-100,4,2,3,75,0,0
191520,-100,4,2,5,75,0,0
191679,-100,4,2,9,75,0,0
192155,-100,4,2,45,75,0,0
192472,-100,4,2,11,75,0,0
193028,-100,4,2,1,75,0,0
193107,-100,4,2,2,75,0,0
193187,-100,4,2,3,75,0,0
193266,-100,4,2,9,75,0,0
193504,-100,4,2,9,5,0,0
193583,-111.111111111111,4,2,46,75,0,0
193742,-111.111111111111,4,2,48,75,0,0
193901,-111.111111111111,4,2,49,75,0,0
194060,-111.111111111111,4,2,50,75,0,0
194377,-111.111111111111,4,2,33,75,0,0
194536,-111.111111111111,4,2,51,75,0,0
194694,-111.111111111111,4,2,52,75,0,0
194853,-111.111111111111,4,2,47,75,0,0
195012,-111.111111111111,4,2,33,75,0,0
195171,-111.111111111111,4,2,51,75,0,0
195329,-111.111111111111,4,2,52,75,0,0
195488,-111.111111111111,4,2,47,75,0,0
195647,-111.111111111111,4,2,53,75,0,0
195806,-111.111111111111,4,2,51,75,0,0
195964,-111.111111111111,4,2,52,75,0,0
196123,-111.111111111111,4,2,47,75,0,0
196441,-111.111111111111,4,2,13,75,0,0
196599,-111.111111111111,4,2,54,75,0,0
196758,-111.111111111111,4,2,10,75,0,0
196917,-111.111111111111,4,2,11,75,0,0
197075,-111.111111111111,4,2,55,75,0,0
197314,-111.111111111111,4,2,16,75,0,0
197393,-111.111111111111,4,2,10,75,0,0
197552,-111.111111111111,4,2,56,75,0,0
197710,-111.111111111111,4,2,4,75,0,0
197948,-111.111111111111,4,2,16,75,0,0
198028,-111.111111111111,4,2,48,75,0,0
198345,-111.111111111111,4,2,57,75,0,0
198663,-111.111111111111,4,2,49,75,0,0
199139,-111.111111111111,4,2,43,75,0,0
199298,-111.111111111111,4,2,50,75,0,0
199456,-111.111111111111,4,2,33,75,0,0
199615,-111.111111111111,4,2,51,75,0,0
199774,-111.111111111111,4,2,58,75,0,0
199933,-111.111111111111,4,2,10,75,0,0
200250,-111.111111111111,4,2,59,75,0,0
200409,-111.111111111111,4,2,20,75,0,0
200567,-111.111111111111,4,2,51,75,0,0
200885,-111.111111111111,4,2,60,75,0,0
201202,-111.111111111111,4,2,52,75,0,0
201361,-111.111111111111,4,2,47,75,0,0
201520,-111.111111111111,4,2,29,75,0,0
201679,-111.111111111111,4,2,61,75,0,0
201837,-111.111111111111,4,2,10,75,0,0
201996,-111.111111111111,4,2,62,75,0,0
202155,-111.111111111111,4,2,63,75,0,0
202314,-111.111111111111,4,2,62,75,0,0
202472,-111.111111111111,4,2,6,75,0,0
202631,-111.111111111111,4,2,64,75,0,0
202710,-111.111111111111,4,2,10,75,0,0
202790,-111.111111111111,4,2,64,75,0,0
203107,-111.111111111111,4,2,6,75,0,0
203187,-111.111111111111,4,2,1,75,0,0
203425,-111.111111111111,4,2,6,75,0,0
203504,-111.111111111111,4,2,1,75,0,0
203742,-100,4,2,7,75,0,0
204060,-100,4,2,13,75,0,0
204218,-100,4,2,11,75,0,0
204377,-100,4,2,10,75,0,0
204536,-100,4,2,7,75,0,0
204694,-100,4,2,13,75,0,0
205012,-100,4,2,10,75,0,0
205171,-100,4,2,7,75,0,0
205329,-100,4,2,4,75,0,0
205488,-100,4,2,11,75,0,0
205647,-100,4,2,10,75,0,0
205806,-100,4,2,7,75,0,0
205964,-100,4,2,13,75,0,0
206123,-100,4,2,11,75,0,0
206282,-100,4,2,7,75,0,0
206441,-100,4,2,11,75,0,0
206599,-100,4,2,13,75,0,0
206758,-100,4,2,11,75,0,0
206917,-100,4,2,10,75,0,0
207075,-100,4,2,7,75,0,0
207234,-100,4,2,13,75,0,0
207393,-100,4,2,11,75,0,0
207552,-100,4,2,10,75,0,0
207710,-100,4,2,7,75,0,0
207869,-100,4,2,13,75,0,0
208028,-100,4,2,11,75,0,0
208187,-100,4,2,10,75,0,0
208345,-100,4,2,11,75,0,0
208583,-100,4,2,1,75,0,0
208663,-100,4,2,2,75,0,0
208742,-100,4,2,3,75,0,0
208980,-100,4,2,5,75,0,0
209139,-100,4,2,9,75,0,0
209298,-100,4,2,2,75,0,0
209377,-100,4,2,3,75,0,0
209456,-100,4,2,5,75,0,0
209615,-100,4,2,3,75,0,0
209774,-100,4,2,9,75,0,0
209933,-100,4,2,6,75,0,0
210012,-100,4,2,3,75,0,0
210409,-100,4,2,9,75,0,0
210567,-100,4,2,6,75,0,0
210647,-100,4,2,3,75,0,0
211044,-100,4,2,9,75,0,0
211202,-100,4,2,6,75,0,0
211282,-100,4,2,3,75,0,0
211520,-100,4,2,9,75,0,0
211837,-100,4,2,6,75,0,0
211917,-100,4,2,3,75,0,0
212234,-100,4,2,9,75,0,0
212472,-100,4,2,6,75,0,0
212552,-100,4,2,3,75,0,0
212631,-100,4,2,5,75,0,0
212790,-100,4,2,3,75,0,0
212948,-100,4,2,9,75,0,0
213345,-100,4,2,2,75,0,0
213425,-100,4,2,5,75,0,0
213583,-100,4,2,9,75,0,0
213742,-100,4,2,12,75,0,1
214218,-100,4,2,38,75,0,1
216123,-100,4,2,13,75,0,1
216282,-100,4,2,3,75,0,1
216441,-100,4,2,7,75,0,1
216758,-100,4,2,11,75,0,1
217552,-100,4,2,9,75,0,1
217710,-100,4,2,3,75,0,1
217869,-100,4,2,9,75,0,1
218187,-100,4,2,33,75,0,1
218266,-100,4,2,3,75,0,1
218345,-100,4,2,7,75,0,1
218425,-100,4,2,3,75,0,1
218504,-100,4,2,1,75,0,1
218583,-100,4,2,2,75,0,1
218663,-100,4,2,11,75,0,1
218980,-111.111111111111,4,2,7,70,0,0
219298,-111.111111111111,4,2,17,70,0,0
219933,-111.111111111111,4,2,13,70,0,0
220091,-111.111111111111,4,2,11,70,0,0
220250,-111.111111111111,4,2,10,70,0,0
220567,-111.111111111111,4,2,13,70,0,0
220726,-111.111111111111,4,2,11,70,0,0
220885,-111.111111111111,4,2,10,70,0,0
221202,-111.111111111111,4,2,13,70,0,0
221361,-111.111111111111,4,2,11,70,0,0
221520,-111.111111111111,4,2,10,70,0,0
221837,-111.111111111111,4,2,17,70,0,0
222790,-111.111111111111,4,2,10,70,0,0
223107,-111.111111111111,4,2,4,70,0,0
223266,-111.111111111111,4,2,11,70,0,0
223425,-111.111111111111,4,2,10,70,0,0
223742,-111.111111111111,4,2,11,70,0,0
224060,-111.111111111111,4,2,5,70,0,0
224377,-111.111111111111,4,2,17,70,0,0
224536,-111.111111111111,4,2,15,70,0,0
224694,-111.111111111111,4,2,17,70,0,0
225012,-111.111111111111,4,2,13,70,0,0
225171,-111.111111111111,4,2,11,70,0,0
225329,-111.111111111111,4,2,10,70,0,0
225647,-111.111111111111,4,2,13,70,0,0
225806,-111.111111111111,4,2,11,70,0,0
225964,-111.111111111111,4,2,10,70,0,0
226123,-111.111111111111,4,2,11,70,0,0
226282,-111.111111111111,4,2,4,70,0,0
226441,-111.111111111111,4,2,11,70,0,0
226599,-111.111111111111,4,2,5,70,0,0
226917,-111.111111111111,4,2,4,70,0,0
227075,-111.111111111111,4,2,11,70,0,0
227234,-111.111111111111,4,2,10,70,0,0
227552,-111.111111111111,4,2,4,70,0,0
227790,-111.111111111111,4,2,4,5,0,0
227869,-111.111111111111,4,2,11,70,0,0
228028,-111.111111111111,4,2,4,70,0,0
228504,-111.111111111111,4,2,13,70,0,0
228583,-111.111111111111,4,2,16,70,0,0
228663,-111.111111111111,4,2,11,70,0,0
229139,-111.111111111111,4,2,7,70,0,0
229456,-111.111111111111,4,2,11,70,0,0
229615,-111.111111111111,4,2,2,70,0,0
229933,-111.111111111111,4,2,10,70,0,0
230091,-111.111111111111,4,2,11,70,0,0
230250,-111.111111111111,4,2,2,70,0,0
230567,-111.111111111111,4,2,9,70,0,0
230726,-111.111111111111,4,2,3,70,0,0
230885,-111.111111111111,4,2,9,70,0,0
231044,-111.111111111111,4,2,7,70,0,0
231202,-111.111111111111,4,2,10,70,0,0
231361,-111.111111111111,4,2,11,70,0,0
231520,-111.111111111111,4,2,2,70,0,0
231679,-111.111111111111,4,2,7,70,0,0
231996,-111.111111111111,4,2,11,70,0,0
232155,-111.111111111111,4,2,2,70,0,0
232472,-111.111111111111,4,2,10,70,0,0
232631,-111.111111111111,4,2,11,70,0,0
232790,-111.111111111111,4,2,2,70,0,0
233107,-111.111111111111,4,2,16,70,0,0
233583,-111.111111111111,4,2,11,70,0,0
233742,-111.111111111111,4,2,7,70,0,0
233901,-111.111111111111,4,2,3,70,0,0
234060,-111.111111111111,4,2,5,70,0,0
234377,-111.111111111111,4,2,9,70,0,0
234536,-111.111111111111,4,2,11,70,0,0
234694,-111.111111111111,4,2,30,70,0,0
235012,-111.111111111111,4,2,9,70,0,0
235171,-111.111111111111,4,2,3,70,0,0
235329,-111.111111111111,4,2,30,70,0,0
235647,-111.111111111111,4,2,9,70,0,0
235806,-111.111111111111,4,2,11,70,0,0
235964,-111.111111111111,4,2,9,70,0,0
236044,-111.111111111111,4,2,3,70,0,0
236123,-111.111111111111,4,2,7,70,0,0
236282,-111.111111111111,4,2,9,70,0,0
236441,-111.111111111111,4,2,11,70,0,0
236599,-111.111111111111,4,2,30,70,0,0
237075,-111.111111111111,4,2,3,70,0,0
237234,-111.111111111111,4,2,31,70,0,0
237393,-111.111111111111,4,2,2,70,0,0
237552,-111.111111111111,4,2,9,70,0,0
237710,-111.111111111111,4,2,11,70,0,0
237869,-111.111111111111,4,2,30,70,0,0
238028,-111.111111111111,4,2,7,70,0,0
238187,-111.111111111111,4,2,9,70,0,0
238345,-111.111111111111,4,2,11,70,0,0
238821,-111.111111111111,4,2,5,70,0,0
238980,-111.111111111111,4,2,2,70,0,0
239139,-111.111111111111,4,2,3,70,0,0
239298,-100,4,2,9,70,0,0
239456,-100,4,2,3,46,0,0
239615,-100,4,2,3,49,0,0
239933,-100,4,2,3,52,0,0
240250,-100,4,2,3,55,0,0
240567,-100,4,2,7,58,0,0
240885,-100,4,2,20,61,0,0
241202,-100,4,2,20,64,0,0
241520,-100,4,2,20,67,0,0
241837,-100,4,2,10,70,0,0
241996,-100,4,2,6,70,0,0
242314,-100,4,2,9,70,0,0
242472,-100,4,2,3,70,0,0
242790,-100,4,2,8,70,0,0
242948,-100,4,2,3,70,0,0
243107,-100,4,2,7,70,0,0
243187,-100,4,2,16,70,0,0
243266,-100,4,2,11,57,0,0
243425,-100,4,2,53,60,0,0
243504,-100,4,2,11,60,0,0
243583,-100,4,2,11,63,0,0
243742,-100,4,2,53,66,0,0
243821,-100,4,2,11,66,0,0
243901,-100,4,2,11,69,0,0
244060,-100,4,2,53,72,0,0
244139,-100,4,2,11,72,0,0
244218,-100,4,2,11,75,0,0
244377,-100,4,2,7,75,0,0
244694,-100,4,2,7,55,0,0
245329,-100,4,2,6,55,0,0
245647,-250,4,2,12,65,0,0
246282,-250,4,2,3,65,0,0
248187,-250,4,2,7,65,0,0
248504,-250,4,2,11,65,0,0
248821,-250,4,2,9,65,0,0
248980,-250,4,2,11,65,0,0
249456,-250,4,2,3,65,0,0
249774,-250,4,2,9,65,0,0
249933,-250,4,2,1,65,0,0
250091,-250,4,2,3,65,0,0
250250,-250,4,2,2,65,0,0
250409,-250,4,2,3,65,0,0
250726,-250,4,2,5,65,0,0
251361,-250,4,2,2,65,0,0
251679,-250,4,2,11,65,0,0
252631,-250,4,2,2,65,0,0
252948,-250,4,2,7,65,0,0
253742,-250,4,2,11,65,0,0
253901,-250,4,2,2,65,0,0
254377,-250,4,2,7,65,0,0
254536,-200,4,2,11,65,0,0
254853,-200,4,2,2,65,0,0
255012,-200,4,2,6,65,0,0
255171,-200,4,2,11,65,0,0
255806,-125,4,2,12,65,0,0
256123,-125,4,2,8,65,0,0
256282,-125,4,2,11,65,0,0
256441,-125,4,2,8,65,0,0
256917,-125,4,2,11,65,0,0
257075,-125,4,2,8,65,0,0
258187,-125,4,2,7,65,0,0
258266,-125,4,2,8,65,0,0
258821,-125,4,2,11,65,0,0
258980,-125,4,2,8,65,0,0
259139,-125,4,2,11,65,0,0
259298,-125,4,2,8,65,0,0
259456,-125,4,2,11,65,0,0
259615,-125,4,2,8,65,0,0
260091,-125,4,2,11,65,0,0
260250,-125,4,2,8,65,0,0
260726,-125,4,2,7,65,0,0
260806,-125,4,2,8,65,0,0
260885,-125,4,2,7,65,0,0
261202,-125,4,2,8,65,0,0
261361,-125,4,2,11,65,0,0
261520,-125,4,2,8,65,0,0
261679,-125,4,2,11,65,0,0
261837,-125,4,2,8,65,0,0
262631,-125,4,2,10,65,0,0
262790,-125,4,2,8,65,0,0
263107,-125,4,2,10,65,0,0
263425,-125,4,2,8,75,0,0
263663,-125,4,2,8,5,0,0
263742,-125,4,2,54,47,0,0
263821,-125,4,2,65,47,0,0
263901,-125,4,2,65,49,0,0
264060,-125,4,2,13,51,0,0
264139,-125,4,2,65,51,0,0
264219,-125,4,2,65,53,0,0
264377,-125,4,2,13,55,0,0
264456,-125,4,2,65,55,0,0
264536,-125,4,2,65,57,0,0
264694,-100,4,2,13,59,0,0
264773,-100,4,2,5,59,0,0
264853,-100,4,2,5,61,0,0
265012,-100,4,2,53,63,0,0
265091,-100,4,2,3,63,0,0
265171,-100,4,2,3,65,0,0
265329,-100,4,2,53,67,0,0
265408,-100,4,2,3,67,0,0
265488,-100,4,2,3,69,0,0
265647,-100,4,2,53,71,0,0
265726,-100,4,2,3,71,0,0
265806,-100,4,2,3,73,0,0
268187,-100,4,2,3,5,0,0
268504,-90.9090909090909,4,2,39,80,0,1
268663,-90.9090909090909,4,2,3,80,0,1
269139,-90.9090909090909,4,2,29,80,0,1
269456,-90.9090909090909,4,2,66,80,0,1
269615,-90.9090909090909,4,2,55,80,0,1
269933,-90.9090909090909,4,2,20,80,0,1
270409,-90.9090909090909,4,2,67,80,0,1
270568,-90.9090909090909,4,2,6,80,0,1
270726,-90.9090909090909,4,2,68,80,0,1
270885,-90.9090909090909,4,2,6,80,0,1
271044,-90.9090909090909,4,2,69,80,0,1
271203,-90.9090909090909,4,2,56,80,0,1
271520,-90.9090909090909,4,2,20,80,0,1
271837,-90.9090909090909,4,2,29,80,0,1
271996,-90.9090909090909,4,2,70,80,0,1
272155,-90.9090909090909,4,2,70,80,0,1
272314,-90.9090909090909,4,2,5,80,0,1
272473,-90.9090909090909,4,2,3,80,0,1
272631,-90.9090909090909,4,2,57,80,0,1
272949,-90.9090909090909,4,2,71,80,0,1
273108,-90.9090909090909,4,2,6,80,0,1
273266,-90.9090909090909,4,2,68,80,0,1
273425,-90.9090909090909,4,2,6,80,0,1
273583,-90.9090909090909,4,2,39,80,0,1
273742,-90.9090909090909,4,2,3,80,0,1
274218,-90.9090909090909,4,2,29,80,0,1
274535,-90.9090909090909,4,2,66,80,0,1
274694,-90.9090909090909,4,2,55,80,0,1
275012,-90.9090909090909,4,2,20,80,0,1
275488,-90.9090909090909,4,2,72,80,0,1
275647,-90.9090909090909,4,2,6,80,0,1
275805,-90.9090909090909,4,2,73,80,0,1
275964,-90.9090909090909,4,2,6,80,0,1
276123,-90.9090909090909,4,2,24,80,0,1
276440,-90.9090909090909,4,2,26,80,0,1
276599,-90.9090909090909,4,2,68,80,0,1
276758,-90.9090909090909,4,2,58,80,0,1
277075,-90.9090909090909,4,2,8,80,0,1
277234,-90.9090909090909,4,2,22,80,0,1
277710,-90.9090909090909,4,2,1,80,0,1
278028,-90.9090909090909,4,2,18,80,0,1
278107,-90.9090909090909,4,2,16,80,0,1
278187,-90.9090909090909,4,2,24,80,0,1
278504,-90.9090909090909,4,2,26,80,0,1
278663,-90.9090909090909,4,2,20,70,0,1
278980,-90.9090909090909,4,2,8,80,0,1
279298,-90.9090909090909,4,2,1,80,0,1
279377,-90.9090909090909,4,2,2,80,0,1
279456,-90.9090909090909,4,2,3,80,0,1
279536,-90.9090909090909,4,2,8,80,0,1
279615,-90.9090909090909,4,2,24,80,0,1
279774,-90.9090909090909,4,2,26,80,0,1
280250,-90.9090909090909,4,2,21,80,0,1
280409,-90.9090909090909,4,2,1,80,0,1
280488,-90.9090909090909,4,2,2,80,0,1
280567,-90.9090909090909,4,2,30,80,0,1
280726,-90.9090909090909,4,2,32,80,0,1
281044,-90.9090909090909,4,2,7,80,0,1
281202,-90.9090909090909,4,2,22,80,0,1
281361,-90.9090909090909,4,2,7,80,0,1
281520,-90.9090909090909,4,2,24,80,0,1
281679,-90.9090909090909,4,2,32,80,0,1
281996,-90.9090909090909,4,2,29,80,0,1
282314,-90.9090909090909,4,2,16,80,0,1
282472,-100,4,2,16,80,0,1
282631,-100,4,2,25,80,0,1
283107,-100,4,2,59,80,0,1
283266,-100,4,2,68,80,0,1
283742,-100,4,2,5,80,0,1
284060,-100,4,2,28,80,0,1
284377,-100,4,2,18,80,0,1
285250,-100,4,2,18,5,0,1
285329,-100,4,2,28,80,0,1
285647,-100,4,2,18,80,0,1
286282,-100,4,2,2,80,0,1
286599,-100,4,2,17,80,0,1
286758,-100,4,2,15,80,0,1
286917,-100,4,2,16,80,0,1
287234,-100,4,2,27,80,0,1
287552,-100,4,2,21,80,0,1
287869,-100,4,2,27,80,0,1
288028,-100,4,2,1,80,0,1
288107,-100,4,2,6,80,0,1
288187,-100,4,2,29,80,0,1
288266,-100,4,2,16,80,0,1
288583,-100,4,2,1,80,0,1
288663,-100,4,2,33,80,0,1
288742,-100,4,2,3,80,0,1
288821,-100,4,2,5,80,0,1
289139,-100,4,2,28,80,0,1
289456,-100,4,2,18,80,0,1
290012,-100,4,2,18,5,0,1
290091,-100,4,2,18,80,0,1
290409,-100,4,2,28,80,0,1
290726,-100,4,2,18,80,0,1
290806,-100,4,2,16,80,0,1
290885,-100,4,2,24,80,0,1
291361,-208.333333333333,4,2,7,70,0,0
292314,-208.333333333333,4,2,11,70,0,0
293742,-125,4,2,3,70,0,0
293901,-125,4,2,1,65,0,0
295012,-125,4,2,2,65,0,0
295647,-125,4,2,1,65,0,0
295726,-125,4,2,3,65,0,0
295806,-125,4,2,4,65,0,0
295964,-125,4,2,2,65,0,0
296123,-125,4,2,3,65,0,0
296282,-125,4,2,60,65,0,0
296441,-125,4,2,3,65,0,0
296917,-125,4,2,6,65,0,0
297393,-125,4,2,9,65,0,0
297552,-125,4,2,4,65,0,0
297710,-125,4,2,64,65,0,0
297869,-125,4,2,6,65,0,0
298187,-125,4,2,34,65,0,0
298266,-125,4,2,10,65,0,0
298345,-125,4,2,61,65,0,0
298663,-125,4,2,10,65,0,0
298821,-125,4,2,6,65,0,0
298901,-125,4,2,6,5,0,0
298980,-125,4,2,9,65,0,0
299139,-125,4,2,5,65,0,0
299456,-125,4,2,13,65,0,0
299615,-125,4,2,7,65,0,0
299933,-125,4,2,13,65,0,0
300091,-125,4,2,7,65,0,0
300409,-125,4,2,13,65,0,0
300567,-125,4,2,7,65,0,0
300885,-125,4,2,13,65,0,0
301044,-125,4,2,7,65,0,0
301202,-125,4,2,11,65,0,0
301361,-125,4,2,39,65,0,0
301520,-100,4,2,39,65,0,0
301679,-100,4,2,5,65,0,0
301996,-100,4,2,11,65,0,0
302155,-100,4,2,7,65,0,0
302314,-100,4,2,11,65,0,0
302631,-100,4,2,5,65,0,0
302948,-100,4,2,9,45,0,0
303107,-100,4,2,9,50,0,0
303266,-100,4,2,9,55,0,0
303425,-100,4,2,9,60,0,0
303583,-100,4,2,9,65,0,0
303742,-100,4,2,9,70,0,0
303901,-100,4,2,9,75,0,0
304694,-243.90243902439,4,2,12,80,0,0
310726,-243.90243902439,4,2,3,5,0,0

[Colours]
Combo1 : 94,102,255
Combo2 : 242,168,77
Combo3 : 244,156,254
Combo4 : 255,72,72

[HitObjects]
36,168,568,6,0,B|119:145|104:196|186:168,1,152,14|0,2:1|0:0,0:0:0:0:
295,78,1044,1,2,2:2:0:0:
295,78,1202,2,0,L|321:227,1,152,2|0,2:2|0:0,0:0:0:0:
230,334,1679,1,2,2:2:0:0:
386,306,1837,6,0,B|405:289|415:262|415:262|436:381,1,152,14|0,2:1|0:0,0:0:0:0:
321,227,2314,1,6,2:3:0:0:
321,227,2393,1,2,2:2:0:0:
321,227,2472,2,0,L|245:213,1,76,2|4,2:2|2:3,0:0:0:0:
142,108,2790,1,4,2:3:0:0:
288,134,2948,1,2,2:2:0:0:
94,195,3107,6,0,P|45:137|56:55,1,152,14|0,2:1|0:0,0:0:0:0:
200,40,3583,1,2,2:2:0:0:
200,40,3742,2,0,B|259:29|259:29|275:35|286:49|286:49|349:37,1,152,2|0,2:2|0:0,0:0:0:0:
455,127,4218,1,2,2:2:0:0:
287,134,4377,6,0,L|313:283,1,152,14|0,2:1|0:0,0:0:0:0:
400,370,4853,1,6,2:3:0:0:
400,370,4933,1,2,2:2:0:0:
400,370,5012,2,0,L|413:295,1,76,2|8,2:2|2:1,0:0:0:0:
487,236,5250,1,8,2:1:0:0:
487,236,5329,2,0,P|436:204|378:205,1,114,12|0,2:2|0:0,0:0:0:0:
348,212,5647,5,14,2:2:0:0:
498,374,5806,1,10,2:1:0:0:
498,151,5964,1,8,2:1:0:0:
365,357,6123,5,14,2:2:0:0:
383,129,6282,1,10,2:1:0:0:
218,289,6441,1,8,2:1:0:0:
479,230,6599,5,14,2:2:0:0:
268,123,6758,1,10,2:1:0:0:
278,359,6917,1,8,2:1:0:0:
392,101,7075,5,14,2:2:0:0:
163,185,7234,1,10,2:1:0:0:
384,292,7393,1,8,2:1:0:0:
308,24,7552,5,14,2:2:0:0:
241,273,7710,1,8,2:1:0:0:
479,173,7869,1,14,2:2:0:0:
174,139,8028,5,8,2:1:0:0:
174,139,8107,1,0,0:0:0:0:
174,139,8187,2,0,L|268:122,1,95,14|0,2:2|0:0,0:0:0:0:
390,212,8504,1,10,2:2:0:0:
223,234,8663,1,10,2:2:0:0:
367,110,8821,1,10,2:2:0:0:
334,330,8980,1,10,2:2:0:0:
174,139,9139,1,10,2:2:0:0:
457,81,9298,6,0,L|424:268,1,190,14|10,2:1|2:2,0:0:0:0:
322,384,9774,1,2,2:3:0:0:
311,222,9933,1,6,2:3:0:0:
311,222,10012,1,6,2:3:0:0:
311,222,10091,1,6,2:3:0:0:
409,351,10250,1,10,2:1:0:0:
412,145,10409,2,0,L|428:240,1,95,14|2,2:2|2:2,0:0:0:0:
492,91,10726,6,0,P|430:48|357:62,1,152,14|10,2:1|2:1,0:0:0:0:
237,118,11202,2,0,L|251:192,1,76,2|8,2:2|2:1,0:0:0:0:
276,42,11520,2,0,P|239:34|201:39,1,76,2|8,2:2|2:1,0:0:0:0:
103,184,11837,6,0,B|185:165|172:214|259:191,1,152,2|0,2:2|0:0,0:0:0:0:
142,91,12314,2,0,L|67:104,1,76,10|0,2:1|0:0,0:0:0:0:
5,246,12631,2,0,L|80:259,1,76,10|0,2:1|0:0,0:0:0:0:
251,192,12948,2,0,P|221:241|222:300,1,114,10|0,2:1|0:0,0:0:0:0:
228,324,13266,6,0,L|302:310,1,76,10|0,2:1|0:0,0:0:0:0:
416,219,13583,1,10,2:1:0:0:
416,219,13742,2,0,L|341:204,1,76,2|8,2:2|2:1,0:0:0:0:
455,306,14060,2,0,P|488:286|505:251,1,76,2|8,2:2|2:1,0:0:0:0:
456,98,14377,6,0,B|397:87|397:87|382:93|371:104|371:104|302:92,1,152,2|0,2:2|0:0,0:0:0:0:
165,21,14853,2,0,L|178:95,1,76,8|0,2:1|0:0,0:0:0:0:
257,237,15171,2,0,L|270:162,1,76,8|0,2:1|0:0,0:0:0:0:
312,10,15488,1,10,2:1:0:0:
178,95,15647,5,2,2:3:0:0:
178,95,15726,1,2,2:3:0:0:
178,95,15806,2,0,P|117:138|105:211,1,152,10|10,2:1|2:1,0:0:0:0:
218,314,16282,2,0,P|255:322|293:317,1,76,2|8,2:2|2:1,0:0:0:0:
407,211,16599,2,0,P|370:203|332:208,1,76,2|8,2:2|2:1,0:0:0:0:
473,286,16917,6,0,B|495:270|518:259|518:259|510:207|499:157,1,152,2|0,2:2|0:0,0:0:0:0:
352,102,17393,2,0,L|366:177,1,76,10|0,2:1|0:0,0:0:0:0:
419,24,17710,2,0,P|385:6|347:1,1,76,10|0,2:1|0:0,0:0:0:0:
290,161,18028,2,0,P|327:155|361:138,1,76,10|0,2:1|0:0,0:0:0:0:
185,61,18345,6,0,L|213:213,1,152,10|10,2:1|2:1,0:0:0:0:
263,364,18821,2,0,L|276:289,1,76,2|8,2:2|2:1,0:0:0:0:
128,215,19139,2,0,L|141:289,1,76,2|8,2:2|2:1,0:0:0:0:
290,161,19456,6,0,B|349:150|349:150|364:156|375:167|375:167|434:156,1,152,2|0,2:2|0:0,0:0:0:0:
381,3,19933,2,0,L|395:78,1,76,8|2,2:1|2:2,0:0:0:0:
500,218,20250,2,0,L|512:143,1,76,10|2,2:1|2:2,0:0:0:0:
364,158,20567,1,10,2:1:0:0:
453,290,20726,1,2,2:2:0:0:
464,82,20885,6,0,P|399:29|317:37,1,161.500003080368,14|10,2:1|2:1,0:0:0:0:
203,150,21361,2,0,L|286:135,1,80.750001540184,2|8,2:2|2:1,0:0:0:0:
148,66,21679,2,0,P|115:98|103:143,1,80.750001540184,2|8,2:2|2:1,0:0:0:0:
189,244,21996,1,10,2:2:0:0:
25,203,22155,6,0,L|40:287,1,80.750001540184,8|0,2:1|0:0,0:0:0:0:
194,344,22472,2,0,P|238:332|271:299,1,80.750001540184,10|0,2:1|0:0,0:0:0:0:
360,159,22790,2,0,L|375:242,1,80.750001540184,10|0,2:1|0:0,0:0:0:0:
381,269,23028,1,8,2:2:0:0:
381,269,23107,1,10,2:1:0:0:
462,128,23266,1,8,2:2:0:0:
285,210,23425,6,0,P|216:215|161:176,1,121.125002310276,10|0,2:1|0:0,0:0:0:0:
147,163,23742,1,10,2:1:0:0:
237,7,23901,2,0,L|251:86,1,80.750001540184,2|8,2:2|2:1,0:0:0:0:
377,207,24218,2,0,L|391:123,1,80.750001540184,2|8,2:2|2:1,0:0:0:0:
484,272,24536,1,10,2:2:0:0:
281,295,24694,6,0,L|311:126,1,161.500003080368,8|8,2:1|2:1,0:0:0:0:
462,189,25171,1,0,0:0:0:0:
360,311,25329,2,0,L|276:294,1,80.750001540184,8|0,2:1|0:0,0:0:0:0:
252,292,25567,1,8,2:2:0:0:
252,292,25647,1,10,2:1:0:0:
309,135,25806,1,10,2:2:0:0:
130,244,25964,6,0,B|12:223|12:223|47:212|52:192,1,161.500003080368,10|8,2:1|2:1,0:0:0:0:
202,161,26441,1,0,0:0:0:0:
167,330,26599,1,10,2:1:0:0:
47,201,26758,2,0,L|129:184,1,80.750001540184,2|10,2:2|2:1,0:0:0:0:
247,263,27075,1,2,2:2:0:0:
300,88,27234,6,0,B|322:105|348:114|348:114|323:218,1,161.500003080368,8|10,2:1|2:1,0:0:0:0:
253,374,27710,1,2,2:2:0:0:
391,265,27869,2,0,B|448:230|508:244|508:244|522:274|492:294,1,161.500003080368,8|10,2:1|2:1,0:0:0:0:
430,147,28345,1,10,2:2:0:0:
342,333,28504,6,0,P|297:345|252:333,1,80.750001540184,8|0,2:1|0:0,0:0:0:0:
149,231,28821,2,0,P|194:218|239:231,1,80.750001540184,8|0,2:1|0:0,0:0:0:0:
391,265,29139,1,8,2:1:0:0:
265,139,29298,1,8,2:2:0:0:
439,114,29456,2,0,L|422:197,1,80.750001540184,10|0,2:1|0:0,0:0:0:0:
230,63,29774,6,0,P|313:68|351:149,1,161.500003080368,10|8,2:1|2:1,0:0:0:0:
286,280,30250,1,0,0:0:0:0:
174,141,30409,2,0,P|130:128|85:140,1,80.750001540184,10|0,2:1|0:0,0:0:0:0:
128,288,30726,2,0,P|171:301|217:289,1,80.750001540184,8|0,2:1|0:0,0:0:0:0:
409,115,31044,6,0,B|384:138|353:147|353:147|385:278,1,190,14|0,2:2|0:0,0:0:0:0:
506,59,31520,2,0,P|441:-8|351:17,1,190,14|0,2:2|0:0,0:0:0:0:
260,240,31996,6,0,B|328:194|399:215|399:215|415:255|380:275,1,213.750008153916,14|8,2:2|2:1,0:0:0:0:
246,380,32631,2,0,L|163:363,1,85.4999973907472,8|4,2:2|2:3,0:0:0:0:
133,358,32869,1,4,2:3:0:0:
133,358,32948,1,4,2:3:0:0:
158,209,33107,1,4,2:3:0:0:
25,305,33266,2,0,L|42:221,1,85.4999973907472,6|2,2:3|2:2,0:0:0:0:
107,127,33583,6,0,L|177:114,1,71.2500027179719,2|0,2:2|0:0,0:0:0:0:
258,35,33901,1,2,2:2:0:0:
258,35,34060,2,0,L|187:22,1,71.2500027179719,2|0,2:2|0:0,0:0:0:0:
300,131,34377,1,2,2:2:0:0:
300,131,34536,6,0,B|453:103|453:103|422:133|423:173,1,227.999993041992,2|2,2:2|2:2,0:0:0:0:
337,253,35382,2,0,L|344:224,2,18.999999420166,2|2|2,2:2|2:2|2:2,0:0:0:0:
394,384,35647,1,8,2:1:0:0:
394,384,35726,1,8,2:1:0:0:
394,384,35806,2,0,L|289:365,1,106.875004076958,10|0,2:2|0:0,0:0:0:0:
249,365,36123,6,0,L|234:281,1,85.4999973907472,14|0,2:1|0:0,0:0:0:0:
98,185,36441,2,0,L|83:269,1,85.4999973907472,8|0,2:2|0:0,0:0:0:0:
210,138,36758,1,8,2:1:0:0:
28,105,36917,1,8,2:1:0:0:
168,243,37075,2,0,P|212:256|255:240,1,85.4999973907472,2|8,2:3|2:2,0:0:0:0:
357,58,37393,6,0,P|323:89|316:134,1,85.4999973907472,2|8,2:3|2:1,0:0:0:0:
387,269,37710,1,10,2:2:0:0:
484,110,37869,2,0,L|400:128,1,85.4999973907472,2|8,2:2|2:1,0:0:0:0:
276,229,38187,1,8,2:1:0:0:
474,297,38345,2,0,L|457:214,1,85.4999973907472,10|2,2:2|2:2,0:0:0:0:
230,149,38663,6,0,P|175:210|198:289,1,170.999994781494,8|8,2:1|2:2,0:0:0:0:
317,148,39139,1,0,0:0:0:0:
138,94,39298,1,8,2:1:0:0:
258,228,39456,1,8,2:1:0:0:
200,38,39615,2,0,P|161:13|115:18,1,85.4999973907472,2|8,2:3|2:2,0:0:0:0:
14,208,39933,6,0,B|77:197|77:197|97:206|112:221|112:221|184:208,1,170.999994781494,2|10,2:3|2:2,0:0:0:0:
314,125,40409,1,2,2:2:0:0:
314,125,40488,1,8,0:2:0:0:
314,125,40567,2,0,L|296:208,1,85.4999973907472,8|8,2:1|2:1,0:0:0:0:
166,90,40885,1,10,2:2:0:0:
354,32,41044,1,2,2:2:0:0:
354,32,41123,1,2,2:2:0:0:
354,32,41202,2,0,P|402:66|406:142,1,128.249996086121,14|0,2:2|0:0,0:0:0:0:
398,165,41520,5,8,2:1:0:0:
232,188,41679,1,8,2:2:0:0:
354,32,41837,1,8,2:1:0:0:
333,232,41996,1,8,2:2:0:0:
223,65,42155,1,8,2:1:0:0:
427,148,42314,1,8,2:2:0:0:
230,300,42472,5,8,2:1:0:0:
230,300,42552,1,8,2:2:0:0:
230,300,42631,2,0,L|222:348,1,47.5,8|8,2:2|2:2,0:0:0:0:
214,112,42790,1,8,2:1:0:0:
214,112,42869,1,8,2:2:0:0:
214,112,42948,2,0,L|223:65,1,47.5,8|8,2:2|2:2,0:0:0:0:
374,216,43107,5,8,2:1:0:0:
367,258,43187,1,8,2:2:0:0:
360,300,43266,1,8,2:2:0:0:
352,342,43345,1,8,2:2:0:0:
345,384,43425,2,0,L|299:375,1,47.5,8|4,2:2|2:3,0:0:0:0:
166,215,43583,2,0,L|213:206,1,47.5,4|8,2:3|2:1,0:0:0:0:
455,106,43742,6,0,L|473:201,1,95,14|8,2:2|2:1,0:0:0:0:
352,342,44060,1,8,2:1:0:0:
281,119,44218,1,14,2:2:0:0:
481,290,44377,1,8,2:1:0:0:
217,287,44536,1,8,2:1:0:0:
382,46,44694,5,10,2:2:0:0:
352,342,44853,1,14,2:1:0:0:
352,342,45329,6,0,L|247:323,1,106.875004076958,2|0,2:2|0:0,0:0:0:0:
240,224,45647,2,0,P|249:191|242:225,1,106.875004076958,2|0,2:2|0:0,0:0:0:0:
248,209,45964,2,0,L|361:189,1,106.875004076958,10|0,2:2|0:0,0:0:0:0:
341,72,46282,6,0,P|293:45|239:45,1,95,14|0,2:1|0:0,0:0:0:0:
97,175,46599,2,0,P|148:173|193:145,1,95,8|0,2:2|0:0,0:0:0:0:
27,27,46917,1,10,2:1:0:0:
30,227,47075,1,0,0:0:0:0:
156,65,47234,1,10,2:2:0:0:
130,306,47393,6,0,L|337:270,1,190,2|0,2:2|0:0,0:0:0:0:
285,78,47869,2,0,L|267:182,1,95,8|0,2:2|0:0,0:0:0:0:
398,28,48187,1,10,2:1:0:0:
203,0,48345,1,0,0:0:0:0:
356,145,48504,2,0,L|459:125,1,95,10|0,2:2|0:0,0:0:0:0:
360,348,48821,6,0,L|267:330,1,95,10|0,2:1|0:0,0:0:0:0:
187,158,49139,1,10,2:2:0:0:
402,137,49298,2,0,L|382:232,1,95,2|8,2:2|2:1,0:0:0:0:
327,44,49615,2,0,P|369:22|416:21,1,95,2|8,2:2|2:2,0:0:0:0:
293,233,49933,6,0,B|229:193|162:210|162:210|147:243|170:259,1,190,2|0,2:2|0:0,0:0:0:0:
332,384,50409,2,0,L|349:290,1,95,10|0,2:2|0:0,0:0:0:0:
512,167,50726,2,0,L|493:270,1,95,10|0,2:1|0:0,0:0:0:0:
293,233,51044,1,10,2:2:0:0:
396,0,51202,5,4,2:3:0:0:
396,0,51282,1,4,2:3:0:0:
396,0,51361,2,0,B|419:20|448:32|448:32|423:163,1,190,14|8,2:1|2:2,0:0:0:0:
438,330,51837,1,0,0:0:0:0:
325,143,51996,2,0,L|231:161,1,95,10|0,2:1|0:0,0:0:0:0:
130,337,52314,1,10,2:2:0:0:
81,93,52472,6,0,P|20:160|45:248,1,190,2|0,2:2|0:0,0:0:0:0:
231,160,52948,2,0,L|138:178,1,95,8|0,2:2|0:0,0:0:0:0:
248,338,53266,2,0,L|342:320,1,95,10|0,2:1|0:0,0:0:0:0:
495,145,53583,2,0,L|402:126,1,95,10|0,2:2|0:0,0:0:0:0:
164,20,53901,6,0,B|142:41|111:53|111:53|137:178,1,190,14|8,2:1|2:2,0:0:0:0:
248,338,54377,1,2,2:2:0:0:
304,112,54536,2,0,L|285:206,1,95,10|0,2:1|0:0,0:0:0:0:
438,78,54853,1,8,2:2:0:0:
235,0,55012,1,2,2:2:0:0:
389,182,55171,6,0,B|454:143|520:158|520:158|535:192|512:208,1,190,14|8,2:1|2:2,0:0:0:0:
383,334,55647,1,2,2:2:0:0:
293,158,55806,1,10,2:1:0:0:
293,158,55885,1,8,2:2:0:0:
293,158,55964,2,0,L|284:204,1,47.5,8|8,2:2|2:2,0:0:0:0:
158,368,56123,5,8,2:2:0:0:
116,376,56202,1,8,2:2:0:0:
76,364,56282,1,8,2:2:0:0:
45,336,56361,1,8,2:2:0:0:
30,295,56441,6,0,L|47:201,1,95,14|0,2:1|0:0,0:0:0:0:
217,94,56758,1,10,2:2:0:0:
124,276,56917,1,2,2:3:0:0:
27,89,57075,2,0,P|77:88|126:117,1,95,10|8,2:1|2:1,0:0:0:0:
228,255,57393,1,10,2:2:0:0:
312,39,57552,6,0,L|345:227,1,190,2|2,2:3|2:3,0:0:0:0:
212,349,58028,2,0,L|229:255,1,95,10|2,2:2|2:3,0:0:0:0:
410,165,58345,1,10,2:1:0:0:
302,314,58504,1,8,2:1:0:0:
225,129,58663,1,10,2:2:0:0:
467,75,58821,6,0,P|527:141|502:230,1,190,2|0,2:3|0:0,0:0:0:0:
316,146,59298,2,0,L|409:164,1,95,10|2,2:2|2:3,0:0:0:0:
512,339,59615,1,10,2:1:0:0:
314,254,59774,1,10,2:1:0:0:
512,165,59933,1,8,2:2:0:0:
385,368,60091,6,0,B|279:335|305:409|201:374,1,190,2|2,2:3|2:3,0:0:0:0:
109,192,60567,1,10,2:2:0:0:
332,161,60726,1,2,2:3:0:0:
332,161,60806,1,8,2:1:0:0:
332,161,60885,2,0,L|315:254,1,95,8|8,2:1|2:1,0:0:0:0:
184,75,61202,1,10,2:2:0:0:
430,6,61361,5,10,2:2:0:0:
430,6,61441,1,10,2:2:0:0:
430,6,61520,2,0,L|447:99,1,95,14|0,2:1|0:0,0:0:0:0:
482,310,61837,1,10,2:2:0:0:
332,161,61996,2,0,L|315:256,1,95,2|8,2:3|2:1,0:0:0:0:
464,177,62314,1,10,2:1:0:0:
329,43,62472,2,0,P|280:54|240:95,1,95,10|2,2:2|2:3,0:0:0:0:
221,271,62790,6,0,L|316:254,1,95,8|2,2:1|2:3,0:0:0:0:
247,83,63107,2,0,L|227:175,1,95,10|2,2:2|2:3,0:0:0:0:
374,46,63425,1,10,2:1:0:0:
190,5,63583,1,8,2:1:0:0:
332,161,63742,2,0,P|381:158|426:180,1,95,10|2,2:2|2:3,0:0:0:0:
314,370,64060,6,0,L|221:350,1,95,14|0,2:1|0:0,0:0:0:0:
21,365,64377,1,10,2:2:0:0:
92,153,64536,2,0,P|128:187|142:242,1,95,2|8,2:3|2:1,0:0:0:0:
0,80,64853,1,10,2:1:0:0:
213,73,65012,1,8,2:2:0:0:
49,250,65171,6,0,L|141:229,1,95,10|0,2:2|0:0,0:0:0:0:
309,143,65488,1,8,2:2:0:0:
309,143,65567,1,8,2:2:0:0:
309,143,65647,2,0,L|300:190,1,47.5,10|8,2:1|2:2,0:0:0:0:
440,325,65806,1,8,2:2:0:0:
440,325,65885,1,8,2:2:0:0:
440,325,65964,2,0,L|448:277,1,47.5,10|8,2:1|2:2,0:0:0:0:
504,97,66123,2,0,L|512:143,1,47.5,8|8,2:2|2:2,0:0:0:0:
351,287,66282,5,10,2:1:0:0:
308,279,66361,1,8,2:2:0:0:
265,271,66441,1,8,2:2:0:0:
223,264,66520,1,8,2:2:0:0:
181,256,66599,6,0,L|197:162,1,95,14|0,2:1|0:0,0:0:0:0:
371,84,66917,2,0,L|386:177,1,95,8|2,2:2|2:3,0:0:0:0:
250,52,67234,1,10,2:1:0:0:
433,19,67393,1,2,2:3:0:0:
286,150,67552,1,10,2:2:0:0:
510,74,67710,6,0,L|474:281,1,190,2|2,2:3|2:3,0:0:0:0:
314,347,68187,2,0,P|278:312|264:258,1,95,8|2,2:2|2:3,0:0:0:0:
400,161,68504,2,0,L|379:254,1,95,10|2,2:1|2:3,0:0:0:0:
310,89,68821,2,0,P|345:58|391:47,1,95,10|2,2:2|2:3,0:0:0:0:
298,194,69139,6,0,L|205:172,1,95,10|2,2:1|2:3,0:0:0:0:
72,61,69456,1,10,2:2:0:0:
243,2,69615,2,0,L|221:94,1,95,2|8,2:3|2:1,0:0:0:0:
111,231,69933,1,2,2:3:0:0:
298,194,70091,1,8,2:2:0:0:
76,142,70250,6,0,P|14:208|39:297,1,190,2|2,2:3|2:3,0:0:0:0:
203,209,70726,2,0,L|111:230,1,95,10|2,2:2|2:3,0:0:0:0:
221,381,71044,2,0,L|314:360,1,95,10|2,2:1|2:3,0:0:0:0:
342,160,71361,2,0,P|311:195|300:241,1,95,10|2,2:2|2:3,0:0:0:0:
425,56,71679,6,0,B|298:33|298:33|257:83,1,190,14|8,2:1|2:2,0:0:0:0:
299,241,72155,1,2,2:3:0:0:
173,97,72314,2,0,L|151:189,1,95,10|2,2:1|2:3,0:0:0:0:
283,52,72631,1,10,2:2:0:0:
59,21,72790,6,0,L|25:210,1,190,2|2,2:3|2:3,0:0:0:0:
116,359,73266,2,0,P|150:326|165:282,1,95,8|2,2:2|2:3,0:0:0:0:
282,179,73583,2,0,L|297:272,1,95,10|2,2:1|2:3,0:0:0:0:
351,60,73901,2,0,P|310:35|264:31,1,95,10|2,2:2|2:3,0:0:0:0:
298,273,74218,6,0,B|363:234|429:249|429:249|444:283|421:299,1,190,14|10,2:1|2:2,0:0:0:0:
267,376,74694,2,0,L|173:355,1,95,2|8,2:3|2:1,0:0:0:0:
38,241,75012,2,0,L|131:219,1,95,2|8,2:3|2:2,0:0:0:0:
357,137,75329,6,0,P|329:50|239:27,1,190,2|2,2:3|2:3,0:0:0:0:
180,197,75806,2,0,P|221:175|248:136,1,95,8|2,2:2|2:3,0:0:0:0:
105,40,76123,1,14,2:1:0:0:
105,40,76202,1,0,0:0:0:0:
105,40,76282,2,0,L|96:87,1,47.5,8|10,2:2|2:2,0:0:0:0:
108,298,76441,1,8,2:2:0:0:
150,290,76520,1,8,2:2:0:0:
192,283,76599,1,10,2:2:0:0:
234,275,76679,1,8,2:2:0:0:
276,268,76758,1,10,2:1:0:0:
276,268,77075,6,0,B|409:244|409:244|381:265|378:298,1,190,14|8,2:2|2:1,0:0:0:0:
484,133,77552,1,8,2:1:0:0:
475,319,77710,1,10,2:2:0:0:
349,124,77869,6,0,B|245:81|266:155|144:113,1,190,2|0,2:2|0:0,0:0:0:0:
0,0,78345,2,0,L|22:92,1,95,10|0,2:2|0:0,0:0:0:0:
176,207,78663,1,10,2:1:0:0:
100,28,78821,1,8,2:1:0:0:
6,239,78980,2,0,L|100:221,1,95,10|0,2:2|0:0,0:0:0:0:
322,115,79298,6,0,L|288:301,1,190,10|10,2:1|2:2,0:0:0:0:
410,114,79774,2,0,P|394:69|359:36,1,95,2|8,2:2|2:1,0:0:0:0:
199,109,80091,1,10,2:1:0:0:
379,195,80250,1,8,2:2:0:0:
242,34,80409,5,2,2:2:0:0:
242,34,80488,1,8,0:2:0:0:
242,34,80567,2,0,P|195:25|148:39,1,95,8|8,2:1|2:1,0:0:0:0:
34,188,80885,2,0,P|81:197|128:183,1,95,14|0,2:2|0:0,0:0:0:0:
302,110,81202,2,0,L|324:202,1,95,10|8,2:2|2:2,0:0:0:0:
310,301,81441,1,8,2:2:0:0:
310,301,81520,2,0,P|357:297|399:271,1,95,10|8,2:2|2:2,0:0:0:0:
450,186,81758,5,8,2:2:0:0:
450,186,81837,2,0,P|445:138|428:94,1,95,14|0,2:1|0:0,0:0:0:0:
230,46,82155,2,0,L|213:139,1,95,10|0,2:2|0:0,0:0:0:0:
310,301,82472,2,0,L|317:204,1,95,10|0,2:1|0:0,0:0:0:0:
114,111,82790,2,0,L|132:207,1,95,10|0,2:2|0:0,0:0:0:0:
310,301,83107,6,0,L|450:276,1,142.5,8|0,2:1|0:0,0:0:0:0:
483,258,83425,2,0,P|479:210|462:166,1,95,10|0,2:2|0:0,0:0:0:0:
292,44,83742,1,10,2:1:0:0:
292,44,83821,1,8,0:2:0:0:
292,44,83901,2,0,L|282:101,1,47.5,8|8,2:2|2:2,0:0:0:0:
146,298,84060,5,10,2:2:0:0:
138,252,84139,1,8,2:2:0:0:
130,205,84218,1,8,2:2:0:0:
122,158,84298,1,8,2:2:0:0:
114,111,84377,6,0,B|156:6|418:34|295:222|451:222,1,418.000012756348,14|2,2:1|2:2,0:0:0:0:
73,131,86441,5,8,2:1:0:0:
73,131,86520,1,8,2:1:0:0:
73,131,86599,2,0,L|201:109,1,128.249996086121,10|0,2:2|0:0,0:0:0:0:
231,107,86917,6,0,L|246:192,1,85.4999973907472,14|0,2:1|0:0,0:0:0:0:
337,305,87234,2,0,L|351:221,1,85.4999973907472,10|0,2:2|0:0,0:0:0:0:
435,100,87552,2,0,P|470:131|480:177,1,85.4999973907472,10|0,2:1|0:0,0:0:0:0:
353,90,87869,2,0,P|366:49|399:23,1,85.4999973907472,10|0,2:2|0:0,0:0:0:0:
387,168,88187,6,0,L|261:191,1,128.249996086121,10|0,2:1|0:0,0:0:0:0:
225,197,88504,2,0,L|239:113,1,85.4999973907472,10|0,2:2|0:0,0:0:0:0:
136,8,88821,2,0,P|96:63|102:131,1,128.249996086121,10|0,2:1|0:0,0:0:0:0:
104,155,89139,2,0,L|19:140,1,85.4999973907472,10|0,2:2|0:0,0:0:0:0:
82,281,89456,6,0,L|167:266,1,85.4999973907472,10|2,2:1|2:2,0:0:0:0:
319,208,89774,1,10,2:2:0:0:
255,358,89933,1,2,2:2:0:0:
176,182,90091,2,0,P|217:202|239:244,1,85.4999973907472,10|0,2:1|0:0,0:0:0:0:
345,364,90409,2,0,L|359:280,1,85.4999973907472,10|2,2:2|2:2,0:0:0:0:
479,156,90726,6,0,L|353:133,1,128.249996086121,10|0,2:1|0:0,0:0:0:0:
321,130,91044,2,0,L|307:46,1,85.4999973907472,10|0,2:2|0:0,0:0:0:0:
135,39,91361,1,10,2:1:0:0:
235,183,91520,1,8,2:1:0:0:
33,134,91679,1,10,2:2:0:0:
39,171,91758,1,0,0:0:0:0:
46,209,91837,1,8,2:1:0:0:
53,247,91917,1,8,2:1:0:0:
59,285,91996,5,14,2:2:0:0:
259,157,92155,1,10,2:1:0:0:
35,54,92314,1,8,2:1:0:0:
161,308,92472,5,14,2:2:0:0:
266,74,92631,1,10,2:1:0:0:
46,209,92790,1,8,2:1:0:0:
303,182,92948,5,14,2:2:0:0:
33,134,93107,1,10,2:1:0:0:
138,384,93266,1,8,2:1:0:0:
174,107,93425,5,14,2:2:0:0:
276,355,93583,1,10,2:1:0:0:
436,135,93742,1,8,2:1:0:0:
151,243,93901,5,14,2:2:0:0:
399,365,94060,1,10,2:1:0:0:
297,101,94218,1,10,2:2:0:0:
303,134,94298,1,4,2:3:0:0:
308,166,94377,1,4,2:3:0:0:
314,199,94456,1,4,2:3:0:0:
320,231,94536,6,0,L|416:211,1,95,14|8,2:2|2:1,0:0:0:0:
512,112,94853,1,8,2:1:0:0:
303,134,95012,1,12,2:2:0:0:
509,224,95171,1,8,2:1:0:0:
418,0,95329,1,4,2:3:0:0:
243,196,95488,1,6,2:3:0:0:
512,112,95647,6,0,L|481:300,1,190,14|10,2:1|2:1,0:0:0:0:
281,316,96123,1,14,2:2:0:0:
395,154,96282,1,10,2:2:0:0:
395,154,96361,1,8,0:2:0:0:
395,154,96441,2,0,L|404:201,1,47.5,8|8,2:1|2:1,0:0:0:0:
459,343,96599,2,0,L|467:297,1,47.5,8|8,2:2|2:2,0:0:0:0:
280,179,96758,1,10,2:2:0:0:
512,113,96917,1,10,2:2:0:0:
367,296,97075,6,0,B|262:277|262:277|284:300|282:328,1,152,14|10,2:1|2:2,0:0:0:0:
154,352,97552,2,0,L|140:277,1,76,2|8,2:2|2:1,0:0:0:0:
278,204,97869,2,0,L|264:278,1,76,10|2,2:1|2:3,0:0:0:0:
69,333,98187,6,0,P|27:271|41:198,1,152,10|8,2:2|2:1,0:0:0:0:
173,120,98663,2,0,L|159:194,1,76,10|0,2:2|0:0,0:0:0:0:
96,60,98980,1,10,2:1:0:0:
244,59,99139,1,8,2:1:0:0:
92,143,99298,2,0,P|55:135|28:108,1,76,10|2,2:2|2:3,0:0:0:0:
244,59,99615,6,0,L|269:208,1,152,10|10,2:1|2:2,0:0:0:0:
400,153,100091,1,2,2:2:0:0:
400,153,100171,1,8,0:2:0:0:
400,153,100250,1,8,2:1:0:0:
390,300,100409,2,0,L|316:287,1,76,10|2,2:1|2:3,0:0:0:0:
314,118,100726,6,0,P|374:67|452:79,1,152,10|8,2:2|2:1,0:0:0:0:
413,227,101202,2,0,L|399:152,1,76,8|0,2:2|0:0,0:0:0:0:
512,251,101520,1,8,2:1:0:0:
382,314,101679,1,8,2:1:0:0:
399,152,101837,2,0,L|473:165,1,76,10|2,2:2|2:2,0:0:0:0:
311,244,102155,6,0,B|252:233|252:233|237:239|226:250|226:250|157:238,1,152,10|10,2:1|2:2,0:0:0:0:
169,99,102631,2,0,P|194:127|207:163,1,76,2|8,2:2|2:1,0:0:0:0:
85,90,102948,2,0,P|97:54|122:26,1,76,10|0,2:1|0:0,0:0:0:0:
306,8,103266,6,0,B|367:3|406:37|406:37|402:69|366:80,1,152,10|8,2:2|2:1,0:0:0:0:
291,195,103742,2,0,L|365:181,1,76,10|0,2:2|0:0,0:0:0:0:
503,136,104060,1,10,2:1:0:0:
381,72,104218,1,8,2:1:0:0:
427,230,104377,2,0,L|501:216,1,76,10|0,2:2|0:0,0:0:0:0:
455,21,104694,6,0,P|389:-12|319:11,1,152,10|10,2:1|2:2,0:0:0:0:
367,146,105171,2,0,L|381:71,1,76,2|8,2:2|2:1,0:0:0:0:
231,19,105488,2,0,L|244:93,1,76,10|0,2:1|0:0,0:0:0:0:
111,201,105806,6,0,B|3:182|3:182|22:199|23:224,1,152,10|8,2:2|2:1,0:0:0:0:
151,289,106282,1,8,2:2:0:0:
257,173,106441,1,8,2:2:0:0:
257,173,106520,1,8,2:2:0:0:
257,173,106599,2,0,L|218:179,3,38,14|8|8|8,2:1|2:2|2:2|2:2,0:0:0:0:
291,302,106917,5,10,2:2:0:0:
328,295,106996,1,8,2:2:0:0:
365,288,107075,1,10,2:2:0:0:
403,282,107155,1,8,2:2:0:0:
440,275,107234,6,0,P|448:192|393:129,1,170.999994781494,14|10,2:1|2:2,0:0:0:0:
216,94,107710,1,2,2:2:0:0:
336,204,107869,1,8,2:1:0:0:
286,46,108028,2,0,P|252:17|211:8,1,85.4999973907472,2|8,2:2|2:2,0:0:0:0:
91,173,108345,6,0,B|185:135|165:203|267:169,1,170.999994781494,2|0,2:2|0:0,0:0:0:0:
386,48,108821,2,0,P|357:81|348:122,1,85.4999973907472,10|0,2:2|0:0,0:0:0:0:
403,282,109139,1,10,2:1:0:0:
432,122,109298,1,0,0:0:0:0:
304,259,109456,2,0,P|303:303|323:340,1,85.4999973907472,10|0,2:2|0:0,0:0:0:0:
348,121,109774,6,0,L|260:103,1,85.4999973907472,10|0,2:1|0:0,0:0:0:0:
99,43,110091,1,10,2:2:0:0:
197,188,110250,1,2,2:2:0:0:
218,22,110409,1,8,2:1:0:0:
80,144,110567,2,0,L|98:231,1,85.4999973907472,2|8,2:2|2:2,0:0:0:0:
253,361,110885,6,0,L|283:192,1,170.999994781494,2|0,2:2|0:0,0:0:0:0:
218,22,111361,2,0,L|235:105,1,85.4999973907472,8|0,2:2|0:0,0:0:0:0:
374,208,111679,2,0,L|391:124,1,85.4999973907472,8|0,2:1|0:0,0:0:0:0:
268,257,111996,1,10,2:2:0:0:
437,272,112155,1,2,2:2:0:0:
302,132,112314,6,0,B|246:97|186:111|186:111|172:141|194:155,1,170.999994781494,14|8,2:1|2:2,0:0:0:0:
128,303,112790,1,0,0:0:0:0:
90,130,112948,2,0,P|48:128|6:147,1,85.4999973907472,10|2,2:1|2:2,0:0:0:0:
40,298,113266,1,10,2:2:0:0:
180,136,113425,6,0,L|209:304,1,170.999994781494,2|0,2:2|0:0,0:0:0:0:
371,342,113901,2,0,P|399:310|409:269,1,85.4999973907472,10|2,2:2|2:2,0:0:0:0:
280,169,114218,2,0,L|298:253,1,85.4999973907472,8|0,2:1|0:0,0:0:0:0:
375,89,114536,1,10,2:2:0:0:
231,77,114694,1,2,2:2:0:0:
395,201,114853,6,0,P|435:187|464:156,1,85.4999973907472,14|0,2:1|0:0,0:0:0:0:
392,5,115171,2,0,L|374:89,1,85.4999973907472,8|0,2:2|0:0,0:0:0:0:
297,252,115488,1,8,2:1:0:0:
463,156,115647,1,8,2:2:0:0:
284,54,115806,2,0,L|302:138,1,85.4999973907472,10|8,2:1|2:1,0:0:0:0:
195,324,116123,6,0,L|177:240,1,85.4999973907472,10|8,2:2|2:1,0:0:0:0:
301,137,116441,1,8,2:1:0:0:
159,101,116599,1,4,2:3:0:0:
283,229,116758,1,10,2:1:0:0:
373,80,116917,1,8,2:1:0:0:
177,240,117075,1,12,2:2:0:0:
198,22,117234,1,8,2:1:0:0:
373,208,117393,5,14,2:2:0:0:
159,101,117552,1,8,2:1:0:0:
373,80,117710,1,8,2:1:0:0:
177,240,117869,5,14,2:2:0:0:
232,12,118028,1,8,2:1:0:0:
373,208,118187,1,8,2:1:0:0:
110,175,118345,5,14,2:2:0:0:
326,146,118504,1,8,2:1:0:0:
208,350,118663,1,8,2:1:0:0:
136,91,118821,5,14,2:2:0:0:
318,266,118980,1,8,2:1:0:0:
83,295,119139,1,8,2:1:0:0:
243,92,119298,5,14,2:2:0:0:
393,290,119456,1,8,2:1:0:0:
196,337,119615,2,0,L|213:243,1,95,14|10,2:2|2:1,0:0:0:0:
220,214,119853,1,8,2:1:0:0:
220,214,119933,5,14,2:2:0:0:
69,34,120091,1,8,2:1:0:0:
64,263,120250,1,10,2:1:0:0:
238,128,120409,5,14,2:2:0:0:
23,185,120567,1,8,2:1:0:0:
200,308,120726,1,10,2:1:0:0:
83,119,120885,5,14,2:2:0:0:
37,333,121044,1,8,2:1:0:0:
220,214,121202,1,8,2:1:0:0:
0,102,121361,5,14,2:2:0:0:
105,282,121520,1,8,2:1:0:0:
215,115,121679,1,8,2:1:0:0:
215,115,121758,1,8,2:1:0:0:
215,115,121837,2,0,B|280:76|346:91|346:91|361:125|338:141,1,190,14|14,2:2|2:2,0:0:0:0:
220,214,122314,1,10,2:1:0:0:
135,179,122472,1,2,2:2:0:0:
65,315,127075,5,2,2:3:0:0:
65,315,127155,1,2,2:3:0:0:
65,315,127234,2,0,P|129:339|193:315,1,128.249996086121,2|0,2:3|0:0,0:0:0:0:
213,308,127552,6,0,L|195:224,1,85.4999973907472,14|0,2:2|0:0,0:0:0:0:
132,117,127869,1,8,2:2:0:0:
121,252,128028,1,8,2:2:0:0:
227,137,128187,1,8,2:2:0:0:
71,183,128345,1,8,2:2:0:0:
247,242,128504,1,8,2:2:0:0:
206,47,128663,1,8,2:2:0:0:
121,252,128821,5,10,2:2:0:0:
294,78,128980,1,8,2:2:0:0:
37,103,129139,1,8,2:2:0:0:
194,311,129298,1,8,2:2:0:0:
206,47,129456,1,8,2:2:0:0:
36,265,129615,1,8,2:2:0:0:
321,202,129774,1,8,2:2:0:0:
110,28,129933,1,8,2:2:0:0:
194,311,130091,5,14,2:2:0:0:
427,130,130250,1,8,2:1:0:0:
175,331,130409,1,8,2:1:0:0:
384,57,130567,5,14,2:2:0:0:
338,358,130726,1,8,2:1:0:0:
393,28,130885,1,8,2:1:0:0:
503,341,131044,5,10,2:2:0:0:
275,54,131202,2,0,L|292:148,1,95,14|0,2:1|0:0,0:0:0:0:
338,358,131520,2,0,L|346:311,1,47.5,8|8,2:1|2:1,0:0:0:0:
171,129,131679,1,10,2:2:0:0:
119,125,131758,1,8,2:2:0:0:
71,145,131837,1,8,2:1:0:0:
35,182,131917,1,8,2:1:0:0:
24,232,131996,6,0,L|71:240,1,47.5,6|4,2:3|2:3,0:0:0:0:
293,148,132155,2,0,L|246:156,1,47.5,8|8,2:1|2:1,0:0:0:0:
260,383,132314,2,0,L|401:357,1,142.5,10|0,2:2|0:0,0:0:0:0:
433,354,132631,6,0,L|412:261,1,95,14|0,2:1|0:0,0:0:0:0:
246,155,132948,2,0,L|266:247,1,95,8|0,2:2|0:0,0:0:0:0:
370,61,133266,1,10,2:1:0:0:
171,129,133425,1,0,0:0:0:0:
371,196,133583,1,10,2:2:0:0:
194,30,133742,6,0,P|105:51|76:137,1,190,2|0,2:2|0:0,0:0:0:0:
226,247,134218,2,0,L|246:154,1,95,8|0,2:2|0:0,0:0:0:0:
98,293,134536,1,10,2:1:0:0:
297,348,134694,1,0,0:0:0:0:
137,183,134853,2,0,P|90:174|43:188,1,95,10|0,2:2|0:0,0:0:0:0:
206,353,135171,6,0,P|253:362|300:347,1,95,10|0,2:1|0:0,0:0:0:0:
433,229,135488,1,10,2:2:0:0:
245,154,135647,2,0,L|225:246,1,95,2|8,2:2|2:1,0:0:0:0:
322,65,135964,2,0,P|280:43|233:41,1,95,2|8,2:2|2:2,0:0:0:0:
362,256,136282,6,0,B|426:216|493:233|493:233|508:266|485:282,1,190,2|0,2:2|0:0,0:0:0:0:
306,384,136758,2,0,L|289:290,1,95,10|0,2:2|0:0,0:0:0:0:
126,166,137075,2,0,L|144:261,1,95,10|0,2:1|0:0,0:0:0:0:
362,256,137393,1,10,2:2:0:0:
172,78,137552,5,4,2:3:0:0:
172,78,137631,1,4,2:3:0:0:
172,78,137710,2,0,P|80:75|30:150,1,190,14|8,2:1|2:2,0:0:0:0:
71,312,138187,1,0,0:0:0:0:
218,186,138345,2,0,L|125:165,1,95,10|0,2:1|0:0,0:0:0:0:
241,310,138663,1,10,2:2:0:0:
350,85,138821,6,0,B|327:105|298:117|298:117|323:243,1,190,2|0,2:2|0:0,0:0:0:0:
500,190,139298,2,0,L|408:170,1,95,8|0,2:2|0:0,0:0:0:0:
342,347,139615,2,0,L|434:327,1,95,10|0,2:1|0:0,0:0:0:0:
303,151,139933,2,0,L|323:243,1,95,10|0,2:2|0:0,0:0:0:0:
486,52,140250,6,0,L|299:19,1,190,14|8,2:1|2:2,0:0:0:0:
206,173,140726,1,2,2:2:0:0:
407,169,140885,2,0,L|427:264,1,95,10|0,2:1|0:0,0:0:0:0:
297,123,141202,1,8,2:2:0:0:
498,165,141361,1,2,2:2:0:0:
342,347,141520,6,0,B|236:314|262:388|158:353,1,190,10|12,2:1|2:2,0:0:0:0:
0,225,141996,1,10,2:1:0:0:
206,173,142155,1,10,2:2:0:0:
206,173,142234,1,8,2:2:0:0:
206,173,142314,2,0,L|197:219,1,47.5,8|8,2:2|2:2,0:0:0:0:
120,48,142472,5,8,2:2:0:0:
152,14,142552,1,8,2:2:0:0:
197,0,142631,1,8,2:2:0:0:
243,7,142710,1,8,2:2:0:0:
288,22,142790,6,0,L|307:116,1,95,14|0,2:1|0:0,0:0:0:0:
203,286,143107,1,10,2:2:0:0:
207,86,143266,1,2,2:3:0:0:
378,210,143425,2,0,L|283:192,1,95,10|8,2:1|2:1,0:0:0:0:
447,85,143742,1,10,2:2:0:0:
512,315,143901,6,0,B|406:282|432:356|328:321,1,190,2|2,2:3|2:3,0:0:0:0:
165,195,144377,1,10,2:2:0:0:
378,210,144536,1,2,2:3:0:0:
378,210,144615,1,8,0:2:0:0:
378,210,144694,1,10,2:1:0:0:
203,286,144853,1,8,2:1:0:0:
307,114,145012,1,10,2:2:0:0:
256,357,145171,6,0,P|164:360|114:285,1,190,2|0,2:3|0:0,0:0:0:0:
224,110,145647,2,0,L|239:203,1,95,10|2,2:2|2:3,0:0:0:0:
97,74,145964,1,10,2:1:0:0:
287,35,146123,1,10,2:1:0:0:
139,176,146282,1,8,2:2:0:0:
363,100,146441,6,0,L|327:307,1,190,2|2,2:3|2:3,0:0:0:0:
234,116,146917,1,10,2:2:0:0:
427,43,147075,1,2,2:3:0:0:
427,43,147155,1,8,0:2:0:0:
427,43,147234,2,0,P|445:86|446:135,1,95,8|8,2:1|2:1,0:0:0:0:
299,272,147552,1,10,2:2:0:0:
206,36,147710,5,10,2:2:0:0:
206,36,147790,1,10,2:2:0:0:
206,36,147869,2,0,P|255:34|303:63,1,95,14|0,2:1|0:0,0:0:0:0:
380,215,148187,1,10,2:2:0:0:
177,160,148345,2,0,L|192:253,1,95,2|8,2:3|2:1,0:0:0:0:
50,384,148663,1,10,2:1:0:0:
12,205,148821,2,0,L|106:220,1,95,10|2,2:2|2:3,0:0:0:0:
263,374,149139,6,0,L|277:280,1,95,8|2,2:1|2:3,0:0:0:0:
444,149,149456,1,10,2:2:0:0:
469,358,149615,1,10,2:1:0:0:
469,358,149694,1,8,2:2:0:0:
469,358,149774,2,0,L|376:344,1,95,10|8,2:1|2:1,0:0:0:0:
273,160,150091,2,0,P|321:171|361:212,1,95,10|2,2:2|2:3,0:0:0:0:
175,384,150409,6,0,L|160:290,1,95,14|8,2:1|2:1,0:0:0:0:
0,166,150726,1,10,2:2:0:0:
201,99,150885,1,2,2:3:0:0:
201,99,150964,1,8,0:2:0:0:
201,99,151044,2,0,L|186:192,1,95,8|10,2:1|2:1,0:0:0:0:
42,20,151361,1,8,2:2:0:0:
273,160,151520,6,0,B|348:152|401:193|401:193|402:230|372:238,1,190,14|8,2:2|2:2,0:0:0:0:
358,260,151917,1,8,2:2:0:0:
358,260,151996,2,0,L|311:251,3,47.5,10|8|8|8,2:1|2:2|2:2|2:2,0:0:0:0:
155,364,152314,5,10,2:1:0:0:
162,321,152393,1,8,2:2:0:0:
169,279,152472,1,8,2:2:0:0:
177,237,152552,1,8,2:2:0:0:
187,193,152631,2,0,L|233:201,1,47.5,10|8,2:1|2:2,0:0:0:0:
339,379,152790,2,0,L|292:370,1,47.5,8|8,2:2|2:2,0:0:0:0:
109,157,152948,6,0,P|142:121|196:107,1,95,14|0,2:1|0:0,0:0:0:0:
311,251,153266,2,0,P|266:236|234:201,1,95,8|2,2:2|2:3,0:0:0:0:
240,8,153583,1,10,2:1:0:0:
371,140,153742,1,2,2:3:0:0:
184,107,153901,1,10,2:2:0:0:
409,50,154060,6,0,P|470:117|445:205,1,190,2|2,2:3|2:3,0:0:0:0:
290,182,154536,2,0,P|325:150|371:140,1,95,8|2,2:2|2:3,0:0:0:0:
275,292,154853,2,0,L|183:270,1,95,10|2,2:1|2:3,0:0:0:0:
22,171,155171,2,0,L|114:150,1,95,10|2,2:2|2:3,0:0:0:0:
271,0,155488,6,0,L|251:93,1,95,14|2,2:1|2:3,0:0:0:0:
360,230,155806,1,10,2:2:0:0:
446,70,155964,2,0,P|401:57|355:66,1,95,2|8,2:3|2:1,0:0:0:0:
201,179,156282,2,0,P|246:192|292:183,1,95,2|8,2:3|2:2,0:0:0:0:
82,53,156599,6,0,L|115:241,1,190,2|2,2:3|2:3,0:0:0:0:
275,319,157075,2,0,P|311:284|325:230,1,95,10|2,2:2|2:3,0:0:0:0:
189,133,157393,2,0,L|210:226,1,95,10|2,2:1|2:3,0:0:0:0:
418,199,157710,5,10,2:2:0:0:
411,161,157790,1,8,0:2:0:0:
404,124,157869,1,10,2:2:0:0:
398,86,157948,1,8,2:2:0:0:
391,49,158028,6,0,B|326:10|260:25|260:25|245:59|266:73,1,190,14|8,2:1|2:2,0:0:0:0:
418,199,158504,1,2,2:3:0:0:
512,25,158663,2,0,L|491:118,1,95,10|2,2:1|2:3,0:0:0:0:
492,318,158980,1,10,2:2:0:0:
314,162,159139,6,0,B|208:129|234:203|130:168,1,190,2|2,2:3|2:3,0:0:0:0:
56,330,159615,2,0,L|149:309,1,95,8|2,2:2|2:3,0:0:0:0:
314,162,159933,2,0,P|278:197|264:251,1,95,10|2,2:1|2:3,0:0:0:0:
460,373,160250,2,0,L|439:280,1,95,10|2,2:2|2:3,0:0:0:0:
394,50,160567,6,0,B|267:27|267:27|226:77,1,190,14|10,2:1|2:2,0:0:0:0:
123,229,161044,2,0,L|102:136,1,95,2|8,2:3|2:1,0:0:0:0:
99,326,161361,2,0,P|149:326|197:298,1,95,2|8,2:3|2:2,0:0:0:0:
371,174,161679,2,0,L|278:195,1,95,2|8,2:3|2:1,0:0:0:0:
448,312,161996,5,8,2:1:0:0:
442,91,162155,2,0,L|349:70,1,95,12|0,2:2|0:0,0:0:0:0:
269,241,162472,1,14,2:1:0:0:
269,241,162552,1,8,0:2:0:0:
269,241,162631,2,0,L|278:194,1,47.5,8|10,2:2|2:2,0:0:0:0:
100,18,162790,5,8,2:2:0:0:
108,60,162869,1,8,2:2:0:0:
115,102,162948,1,10,2:2:0:0:
123,144,163028,1,8,2:2:0:0:
130,186,163107,1,10,2:1:0:0:
130,186,163425,6,0,B|-3:208|-3:208|30:219|39:240,1,190,14|8,2:2|2:1,0:0:0:0:
166,367,163901,1,8,2:1:0:0:
277,194,164060,2,0,P|277:144|249:96,1,95,10|2,2:2|2:2,0:0:0:0:
255,305,164377,6,0,P|305:305|352:277,1,95,8|8,2:1|2:1,0:0:0:0:
413,70,164694,2,0,L|433:162,1,95,10|8,2:2|2:1,0:0:0:0:
445,194,164933,1,8,2:2:0:0:
445,194,165012,1,10,2:1:0:0:
512,9,165171,1,8,2:1:0:0:
342,141,165329,2,0,L|249:120,1,95,10|0,2:2|0:0,0:0:0:0:
24,30,165647,6,0,L|45:123,1,95,10|0,2:1|0:0,0:0:0:0:
117,307,165964,1,10,2:2:0:0:
149,301,166044,1,2,0:2:0:0:
182,295,166123,1,2,2:2:0:0:
215,289,166202,1,8,0:2:0:0:
247,283,166282,1,8,2:1:0:0:
159,115,166441,1,10,2:1:0:0:
87,314,166599,1,8,2:2:0:0:
338,283,166758,6,0,P|286:207|196:211,1,190,2|8,2:2|2:1,0:0:0:0:
291,384,167234,1,14,2:2:0:0:
484,244,167393,1,8,2:1:0:0:
215,289,167552,1,10,2:2:0:0:
442,378,167710,1,8,2:1:0:0:
311,153,167869,2,0,L|332:246,1,95,14|8,2:2|2:2,0:0:0:0:
338,283,168107,5,8,2:2:0:0:
338,283,168187,2,0,P|383:261|414:216,1,95,14|0,2:1|0:0,0:0:0:0:
384,53,168504,2,0,L|291:32,1,95,10|0,2:2|0:0,0:0:0:0:
145,134,168821,2,0,L|237:113,1,95,10|0,2:1|0:0,0:0:0:0:
40,42,169139,2,0,P|8:77|0:123,1,95,10|0,2:2|0:0,0:0:0:0:
65,338,169456,6,0,L|205:313,1,142.5,8|0,2:1|0:0,0:0:0:0:
236,304,169774,2,0,P|236:253|214:210,1,95,10|0,2:2|0:0,0:0:0:0:
26,131,170091,1,10,2:1:0:0:
26,131,170171,1,0,0:0:0:0:
26,131,170250,2,0,L|34:177,1,47.5,4|4,2:3|2:3,0:0:0:0:
236,304,170409,5,6,2:3:0:0:
282,295,170488,1,4,2:3:0:0:
329,287,170567,1,4,2:3:0:0:
376,279,170647,1,4,2:3:0:0:
423,271,170726,6,0,B|403:159|403:159|436:123|436:123|416:11|416:11|410:61|375:90,1,364.80000890625,14|2,2:1|2:2,0:0:0:0:
44,121,173107,5,6,2:3:0:0:
44,121,173187,1,6,2:3:0:0:
44,121,173266,2,0,B|138:47|274:116|181:201|331:268|391:194|391:194|325:209|288:155,1,522.5,14|4,2:1|2:3,0:0:0:0:
256,38,175329,5,4,2:3:0:0:
378,59,175488,2,0,L|368:115,1,56.9999982604981,6|0,2:3|0:0,0:0:0:0:
324,251,175806,6,0,B|212:231|212:231|186:243|167:267|167:267|39:245,1,285,14|2,2:1|2:2,0:0:0:0:
8,127,176917,5,8,2:1:0:0:
8,127,176996,1,8,2:1:0:0:
8,127,177075,2,0,L|121:106,1,113.999996520996,14|10,2:2|2:1,0:0:0:0:
238,32,177552,2,0,L|126:12,1,113.999996520996,4|4,2:3|2:3,0:0:0:0:
210,116,178028,2,0,L|220:172,1,56.9999982604981,6|8,2:3|2:1,0:0:0:0:
345,51,178345,6,0,B|506:22|506:22|473:46|476:79,1,227.999993041992,14|2,2:1|2:2,0:0:0:0:
418,181,179139,2,0,L|409:125,1,56.9999982604981,8|2,2:2|2:3,0:0:0:0:
512,201,179456,1,8,2:1:0:0:
400,285,179615,6,0,B|333:271,1,56.9999982604981,14|0,2:2|0:0,0:0:0:0:
209,205,179933,2,0,B|195:283,1,75.9999976806641,10|8,2:1|2:2,0:0:0:0:
109,338,180250,1,10,2:2:0:0:
109,338,180329,2,0,L|109:302,1,28.4999991302491,8|4,2:2|2:3,0:0:0:0:
36,202,180567,2,0,L|44:252,2,28.4999991302491,6|4|4,2:3|2:3|2:3,0:0:0:0:
152,95,180885,6,0,P|206:80|260:93,1,113.999996520996,14|2,2:1|2:3,0:0:0:0:
338,171,181361,1,8,2:1:0:0:
218,261,181520,2,0,L|209:205,1,56.9999982604981,14|0,2:2|0:0,0:0:0:0:
284,314,181837,2,0,P|258:334|228:346,1,56.9999982604981,14|8,2:2|2:1,0:0:0:0:
111,324,182155,5,2,2:2:0:0:
208,204,182314,2,0,L|320:185,1,113.999996520996,8|8,2:2|2:2,0:0:0:0:
350,185,182710,1,8,2:2:0:0:
349,185,182790,1,10,2:2:0:0:
433,277,182948,1,8,2:2:0:0:
283,312,183107,1,10,2:2:0:0:
431,186,183266,1,8,2:2:0:0:
392,371,183425,6,0,P|324:359|281:307,1,132.999995941162,14|2,2:1|2:3,0:0:0:0:
320,184,183901,1,8,2:1:0:0:
188,270,184060,2,0,L|56:246,1,132.999995941162,10|2,2:2|2:3,0:0:0:0:
0,131,184536,2,0,L|70:118,1,66.4999979705811,8|2,2:1|2:3,0:0:0:0:
167,38,184853,6,0,L|101:25,1,66.4999979705811,8|2,2:1|2:3,0:0:0:0:
154,145,185171,1,8,2:1:0:0:
280,63,185329,2,0,B|352:45|338:93|424:68,1,132.999995941162,10|2,2:2|2:3,0:0:0:0:
512,0,185806,1,8,2:1:0:0:
480,152,185964,6,0,L|456:283,1,132.999995941162,14|2,2:1|2:3,0:0:0:0:
390,384,186441,1,8,2:1:0:0:
338,218,186599,2,0,P|269:211|214:251,1,132.999995941162,10|10,2:2|2:2,0:0:0:0:
306,358,187075,2,0,L|292:293,1,66.4999979705811,8|2,2:1|2:3,0:0:0:0:
130,222,187393,6,0,L|153:352,1,132.999995941162,8|8,2:2|2:1,0:0:0:0:
254,206,187869,1,10,2:2:0:0:
110,141,188028,1,8,2:1:0:0:
140,287,188187,1,6,2:3:0:0:
203,123,188345,1,4,2:3:0:0:
253,320,188504,6,0,L|345:299,1,95,14|8,2:2|2:2,0:0:0:0:
446,160,188821,1,10,2:1:0:0:
273,211,188980,1,8,2:2:0:0:
468,268,189139,1,10,2:1:0:0:
319,123,189298,1,8,2:2:0:0:
382,313,189456,1,10,2:1:0:0:
392,88,189615,1,8,2:2:0:0:
282,319,189774,5,10,2:1:0:0:
253,314,189853,1,8,2:2:0:0:
225,309,189933,1,8,2:2:0:0:
197,304,190012,1,8,2:2:0:0:
174,274,190091,5,10,2:1:0:0:
136,280,190171,1,8,2:2:0:0:
99,287,190250,1,8,2:2:0:0:
61,293,190329,1,8,2:2:0:0:
19,271,190409,5,10,2:1:0:0:
0,228,190488,1,8,2:2:0:0:
10,183,190567,1,8,2:2:0:0:
46,153,190647,1,8,2:2:0:0:
95,139,190726,5,10,2:1:0:0:
114,96,190806,1,8,2:2:0:0:
103,51,190885,1,8,2:2:0:0:
67,21,190964,1,8,2:2:0:0:
15,24,191044,6,0,L|35:117,1,95,14|8,2:1|2:2,0:0:0:0:
46,153,191282,1,8,2:2:0:0:
46,153,191361,1,8,2:2:0:0:
255,60,191520,2,0,L|163:82,1,95,14|8,2:1|2:2,0:0:0:0:
114,96,191758,1,8,2:2:0:0:
114,96,191837,1,10,2:2:0:0:
105,313,191996,1,10,2:2:0:0:
288,161,192155,6,0,L|272:254,1,95,14|0,2:1|0:0,0:0:0:0:
407,121,192472,1,10,2:2:0:0:
195,69,192631,1,10,2:2:0:0:
374,237,192790,1,10,2:2:0:0:
374,237,192869,1,8,2:2:0:0:
374,237,192948,2,0,L|420:228,1,47.5,10|4,2:2|2:3,0:0:0:0:
512,75,193107,2,0,L|465:66,1,47.5,4|4,2:3|2:3,0:0:0:0:
288,161,193266,2,0,L|260:300,1,142.5,14|0,2:2|0:0,0:0:0:0:
253,333,193583,6,0,L|161:311,1,85.4999973907472,14|2,2:1|2:2,0:0:0:0:
45,208,193901,1,10,2:2:0:0:
200,146,194060,2,0,L|180:232,1,85.4999973907472,2|8,2:2|2:1,0:0:0:0:
104,80,194377,1,2,2:2:0:0:
280,82,194536,1,10,2:2:0:0:
180,229,194694,1,2,2:2:0:0:
191,43,194853,5,10,2:1:0:0:
284,208,195012,1,2,2:2:0:0:
360,40,195171,1,10,2:2:0:0:
200,146,195329,1,2,2:2:0:0:
385,171,195488,2,0,L|468:188,1,85.4999973907472,10|2,2:1|2:2,0:0:0:0:
472,384,195806,1,10,2:2:0:0:
307,301,195964,1,2,2:2:0:0:
468,188,196123,6,0,L|450:272,1,85.4999973907472,10|0,2:1|0:0,0:0:0:0:
311,120,196441,1,10,2:2:0:0:
391,320,196599,2,0,L|308:302,1,85.4999973907472,2|8,2:2|2:1,0:0:0:0:
198,144,196917,1,2,2:2:0:0:
387,64,197075,2,0,L|402:149,1,85.4999973907472,10|8,2:2|0:1,0:0:0:0:
409,183,197314,1,8,0:2:0:0:
409,183,197393,1,10,2:1:0:0:
216,228,197552,6,0,L|199:145,1,85.4999973907472,2|8,2:2|2:2,0:0:0:0:
169,317,197869,1,8,0:1:0:0:
169,317,197948,1,8,0:2:0:0:
169,317,198028,2,0,P|215:330|263:316,1,85.4999973907472,14|0,2:1|0:0,0:0:0:0:
392,173,198345,2,0,P|346:160|298:174,1,85.4999973907472,14|0,2:2|0:0,0:0:0:0:
432,383,198663,6,0,L|461:214,1,170.999994781494,14|8,2:1|2:2,0:0:0:0:
505,80,199139,1,2,2:2:0:0:
351,160,199298,1,10,2:1:0:0:
441,21,199456,1,2,2:2:0:0:
460,214,199615,1,10,2:2:0:0:
314,66,199774,6,0,B|196:45|196:45|158:91,1,170.999994781494,2|0,2:2|0:0,0:0:0:0:
253,242,200250,2,0,L|237:159,1,85.4999973907472,10|8,2:2|2:1,0:0:0:0:
234,135,200488,1,8,2:2:0:0:
234,135,200567,1,10,2:1:0:0:
115,239,200726,1,0,0:0:0:0:
235,356,200885,2,0,L|318:339,1,85.4999973907472,10|0,2:2|0:0,0:0:0:0:
430,217,201202,5,14,2:1:0:0:
253,242,201361,1,2,2:2:0:0:
411,306,201520,1,10,2:2:0:0:
316,118,201679,2,0,P|274:115|233:134,1,85.4999973907472,2|8,2:2|2:1,0:0:0:0:
131,251,201996,1,2,2:2:0:0:
291,212,202155,1,10,2:2:0:0:
162,93,202314,2,0,L|147:177,1,85.4999973907472,2|12,2:2|2:1,0:0:0:0:
136,335,202631,5,10,2:2:0:0:
136,335,202710,1,10,2:2:0:0:
136,335,202790,1,10,2:2:0:0:
313,270,202948,1,8,2:2:0:0:
313,270,203028,1,8,2:2:0:0:
313,270,203107,2,0,L|305:226,1,42.7499986953736,10|8,2:1|2:2,0:0:0:0:
162,93,203266,2,0,L|154:136,1,42.7499986953736,8|8,2:2|2:2,0:0:0:0:
235,327,203425,5,10,2:1:0:0:
267,354,203504,1,8,2:2:0:0:
307,366,203583,1,8,2:2:0:0:
349,360,203663,1,8,2:2:0:0:
385,337,203742,6,0,P|432:251|387:154,1,190,14|10,2:1|2:2,0:0:0:0:
235,70,204218,2,0,L|252:166,1,95,2|8,2:2|2:1,0:0:0:0:
342,7,204536,1,10,2:1:0:0:
154,135,204694,2,0,P|106:135|63:159,1,95,10|0,2:2|0:0,0:0:0:0:
203,251,205012,5,10,2:1:0:0:
235,70,205171,1,10,2:1:0:0:
101,239,205329,1,8,2:2:0:0:
297,219,205488,1,2,2:2:0:0:
129,46,205647,2,0,L|109:139,1,95,10|10,2:1|2:1,0:0:0:0:
143,334,205964,1,10,2:2:0:0:
249,148,206123,5,10,2:2:0:0:
249,148,206202,1,10,2:2:0:0:
249,148,206282,2,0,P|295:133|349:148,1,95,14|2,2:1|2:2,0:0:0:0:
467,270,206599,1,10,2:2:0:0:
280,313,206758,1,2,2:2:0:0:
280,313,206837,1,2,2:2:0:0:
280,313,206917,2,0,L|297:220,1,95,8|10,2:1|2:1,0:0:0:0:
482,174,207234,1,10,2:2:0:0:
464,377,207393,6,0,P|417:366|377:327,1,95,2|8,2:2|2:1,0:0:0:0:
339,142,207710,1,10,2:1:0:0:
199,340,207869,2,0,P|107:343|57:268,1,190,10|10,2:2|2:1,0:0:0:0:
174,159,208345,2,0,L|166:206,1,47.5,10|8,2:2|2:2,0:0:0:0:
41,51,208504,1,10,2:2:0:0:
74,45,208583,1,4,2:3:0:0:
107,39,208663,1,4,2:3:0:0:
140,33,208742,1,4,2:3:0:0:
172,27,208821,6,0,B|303:4|303:4|278:27|281:67,1,190,12|10,2:1|2:2,0:0:0:0:
166,204,209298,1,4,2:3:0:0:
166,204,209377,1,4,2:3:0:0:
166,204,209456,2,0,L|182:111,1,95,10|6,2:1|2:3,0:0:0:0:
361,102,209774,1,10,2:2:0:0:
349,297,209933,5,6,2:3:0:0:
349,297,210012,1,4,2:3:0:0:
349,297,210091,2,0,L|256:281,1,95,8|6,2:1|2:3,0:0:0:0:
285,88,210409,1,10,2:2:0:0:
423,236,210567,1,6,2:3:0:0:
423,236,210647,1,4,2:3:0:0:
423,236,210726,2,0,P|440:277|437:334,1,95,8|6,2:1|2:3,0:0:0:0:
259,189,211044,1,10,2:2:0:0:
446,74,211202,5,6,2:3:0:0:
446,74,211282,1,4,2:3:0:0:
446,74,211361,2,0,P|476:109|488:155,1,95,12|2,2:1|2:2,0:0:0:0:
494,187,211599,1,2,2:2:0:0:
494,187,211679,1,10,2:2:0:0:
349,297,211837,1,6,2:3:0:0:
349,297,211917,1,4,2:3:0:0:
349,297,211996,2,0,L|256:281,1,95,8|6,2:1|2:3,0:0:0:0:
158,140,212314,1,10,2:2:0:0:
334,103,212472,5,6,2:3:0:0:
334,103,212552,1,6,2:3:0:0:
334,103,212631,2,0,L|319:198,1,95,10|6,2:1|2:3,0:0:0:0:
200,345,212948,1,10,2:2:0:0:
158,140,213107,1,10,2:2:0:0:
158,140,213187,1,8,2:2:0:0:
158,140,213266,2,0,L|167:187,1,47.5,10|4,2:2|2:3,0:0:0:0:
292,342,213425,2,0,L|300:295,1,47.5,10|8,2:1|2:1,0:0:0:0:
334,103,213583,1,10,2:2:0:0:
121,263,213742,6,0,B|227:296|201:222|305:257,1,190,14|10,2:1|2:1,0:0:0:0:
488,147,214218,5,10,2:2:0:0:
384,383,214377,1,8,2:1:0:0:
415,97,214536,5,10,2:2:0:0:
512,349,214694,1,8,2:1:0:0:
496,60,214853,5,10,2:2:0:0:
302,263,215012,1,8,2:1:0:0:
420,5,215171,5,10,2:2:0:0:
433,307,215329,1,8,2:1:0:0:
190,88,215488,5,10,2:2:0:0:
472,234,215647,1,8,2:1:0:0:
210,0,215806,5,10,2:2:0:0:
239,327,215964,1,8,2:1:0:0:
496,66,216123,5,10,2:2:0:0:
496,66,216202,1,0,0:0:0:0:
496,66,216282,2,0,L|440:75,1,47.5,8|8,2:2|2:2,0:0:0:0:
190,88,216441,6,0,L|206:181,1,95,14|0,2:1|0:0,0:0:0:0:
132,334,216758,1,10,2:2:0:0:
327,231,216917,1,10,2:2:0:0:
77,153,217075,1,10,2:2:0:0:
260,384,217234,1,10,2:2:0:0:
340,56,217393,1,10,2:2:0:0:
0,264,217552,6,0,L|94:248,1,95,14|8,2:2|2:1,0:0:0:0:
254,161,217869,1,8,2:2:0:0:
254,161,217948,1,8,2:2:0:0:
254,161,218028,1,10,2:2:0:0:
77,109,218187,1,8,2:2:0:0:
77,109,218266,1,8,2:2:0:0:
77,109,218345,2,0,L|85:158,1,47.5,10|8,2:1|2:2,0:0:0:0:
229,314,218504,2,0,L|237:264,1,47.5,4|4,2:3|2:3,0:0:0:0:
334,63,218663,5,10,2:2:0:0:
374,39,218742,1,8,2:2:0:0:
421,36,218821,1,8,2:2:0:0:
463,57,218901,1,8,2:2:0:0:
494,92,218980,6,0,L|476:175,1,85.4999973907472,14|0,2:1|0:0,0:0:0:0:
372,299,219298,2,0,L|357:214,1,85.4999973907472,8|0,2:2|0:0,0:0:0:0:
233,116,219615,2,0,L|220:199,1,85.4999973907472,8|0,2:1|0:0,0:0:0:0:
334,63,219933,1,10,2:2:0:0:
162,54,220091,1,2,2:2:0:0:
325,177,220250,6,0,B|382:142|442:156|442:156|456:186|426:206,1,170.999994781494,10|10,2:1|2:2,0:0:0:0:
364,334,220726,1,2,2:2:0:0:
245,217,220885,2,0,L|161:198,1,85.4999973907472,8|0,2:1|0:0,0:0:0:0:
0,260,221202,1,10,2:2:0:0:
163,114,221361,6,0,P|90:152|84:233,1,170.999994781494,2|0,2:2|0:0,0:0:0:0:
245,217,221837,2,0,L|161:198,1,85.4999973907472,8|0,2:2|0:0,0:0:0:0:
212,355,222155,2,0,L|295:336,1,85.4999973907472,8|0,2:1|0:0,0:0:0:0:
399,167,222472,2,0,P|368:195|353:238,1,85.4999973907472,8|0,2:2|0:0,0:0:0:0:
512,384,222790,6,0,L|481:215,1,170.999994781494,10|8,2:1|2:2,0:0:0:0:
362,98,223266,1,2,2:2:0:0:
362,98,223345,1,8,0:2:0:0:
362,98,223425,2,0,L|344:181,1,85.4999973907472,8|0,2:1|0:0,0:0:0:0:
372,360,223742,1,14,2:2:0:0:
481,215,223901,1,2,2:2:0:0:
267,247,224060,6,0,B|171:217|195:283|101:252,1,170.999994781494,14|8,2:1|2:2,0:0:0:0:
121,75,224536,1,8,0:1:0:0:
121,75,224615,1,8,0:2:0:0:
121,75,224694,2,0,L|140:159,1,85.4999973907472,8|0,2:1|0:0,0:0:0:0:
234,11,225012,1,10,2:2:0:0:
53,3,225171,1,2,2:2:0:0:
224,127,225329,6,0,B|281:92|341:106|341:106|355:136|325:156,1,170.999994781494,10|10,2:1|2:2,0:0:0:0:
220,269,225806,2,0,L|136:250,1,85.4999973907472,2|8,2:2|2:1,0:0:0:0:
28,102,226123,1,2,2:2:0:0:
224,127,226282,1,8,2:2:0:0:
63,214,226441,1,2,2:2:0:0:
200,45,226599,6,0,P|280:62|307:139,1,170.999994781494,14|8,2:1|2:2,0:0:0:0:
220,269,227075,1,2,2:2:0:0:
376,205,227234,2,0,L|358:288,1,85.4999973907472,10|0,2:1|0:0,0:0:0:0:
188,366,227552,2,0,L|59:343,1,128.249996086121,8|0,2:2|0:0,0:0:0:0:
29,341,227869,5,14,2:2:0:0:
169,143,228028,1,8,2:1:0:0:
116,384,228187,5,8,2:2:0:0:
52,134,228345,1,8,2:1:0:0:
227,288,228504,5,10,2:2:0:0:
227,288,228583,1,8,0:2:0:0:
227,288,228663,2,0,L|234:243,1,42.7499986953736,10|8,2:2|2:2,0:0:0:0:
334,63,228821,5,10,2:2:0:0:
374,39,228901,1,8,2:2:0:0:
421,36,228980,1,10,2:2:0:0:
463,57,229060,1,8,2:2:0:0:
494,92,229139,6,0,L|476:175,1,85.4999973907472,14|0,2:1|0:0,0:0:0:0:
391,287,229456,1,10,2:2:0:0:
279,172,229615,2,0,B|183:142|207:208|113:177,1,170.999994781494,2|8,2:3|2:1,0:0:0:0:
48,0,230091,1,10,2:2:0:0:
155,101,230250,1,2,2:3:0:0:
62,280,230409,6,0,P|1:225|16:145,1,170.999994781494,8|8,2:1|2:2,0:0:0:0:
155,101,230885,1,2,2:3:0:0:
149,268,231044,1,10,2:1:0:0:
16,144,231202,1,10,2:1:0:0:
205,171,231361,1,10,2:2:0:0:
61,47,231520,1,2,2:3:0:0:
149,268,231679,6,0,L|317:237,1,170.999994781494,14|10,2:1|2:2,0:0:0:0:
426,108,232155,2,0,L|407:192,1,85.4999973907472,2|8,2:3|2:1,0:0:0:0:
512,70,232472,1,8,2:1:0:0:
340,36,232631,1,10,2:2:0:0:
490,169,232790,6,0,L|456:346,1,170.999994781494,2|8,2:3|2:1,0:0:0:0:
320,189,233266,1,8,2:2:0:0:
436,79,233425,1,8,2:1:0:0:
384,273,233583,1,10,2:2:0:0:
265,98,233742,1,14,2:1:0:0:
490,169,233901,1,8,2:2:0:0:
229,224,234060,6,0,L|61:188,1,170.999994781494,14|8,2:1|2:1,0:0:0:0:
8,20,234536,1,10,2:2:0:0:
217,38,234694,2,0,L|198:131,1,85.4999973907472,2|8,2:3|2:1,0:0:0:0:
79,291,235012,1,10,2:1:0:0:
46,93,235171,1,8,2:2:0:0:
229,224,235329,6,0,B|326:193|302:260|398:228,1,170.999994781494,2|8,2:3|2:1,0:0:0:0:
512,95,235806,1,10,2:2:0:0:
303,40,235964,1,8,2:1:0:0:
303,40,236044,1,8,2:2:0:0:
303,40,236123,2,0,L|321:129,1,85.4999973907472,10|8,2:1|2:1,0:0:0:0:
284,337,236441,1,10,2:2:0:0:
182,129,236599,6,0,P|113:172|115:254,1,170.999994781494,2|0,2:3|0:0,0:0:0:0:
272,196,237075,2,0,L|189:214,1,85.4999973907472,8|2,2:2|2:3,0:0:0:0:
65,356,237393,1,8,2:1:0:0:
113,173,237552,1,8,2:1:0:0:
142,367,237710,1,10,2:2:0:0:
16,212,237869,1,2,2:3:0:0:
202,296,238028,6,0,L|293:279,1,85.4999973907472,10|8,2:1|2:1,0:0:0:0:
446,177,238345,1,14,2:2:0:0:
261,106,238504,1,10,2:2:0:0:
261,106,238583,1,8,2:2:0:0:
261,106,238663,2,0,L|280:196,1,85.4999973907472,8|6,2:2|2:3,0:0:0:0:
109,271,238980,1,4,2:3:0:0:
109,271,239298,6,0,L|76:84,1,190,14|8,2:2|2:1,0:0:0:0:
13,206,239774,1,8,2:1:0:0:
174,203,239933,1,8,2:1:0:0:
75,83,240091,1,8,2:1:0:0:
30,284,240250,1,8,2:1:0:0:
163,116,240409,1,12,2:2:0:0:
190,347,240567,5,10,2:1:0:0:
321,146,240726,1,8,2:1:0:0:
109,271,240885,1,8,2:2:0:0:
352,234,241044,1,8,2:1:0:0:
179,22,241202,2,0,L|161:118,1,95,8|8,2:1|2:1,0:0:0:0:
436,156,241520,2,0,L|419:62,1,95,8|8,2:1|2:1,0:0:0:0:
165,196,241837,5,14,2:2:0:0:
404,371,241996,1,8,2:1:0:0:
319,88,242155,1,8,2:1:0:0:
197,381,242314,5,14,2:2:0:0:
468,239,242472,1,8,2:1:0:0:
207,81,242631,1,8,2:1:0:0:
474,322,242790,5,8,2:2:0:0:
350,0,242948,1,12,2:2:0:0:
144,282,243107,5,10,2:1:0:0:
144,282,243187,1,8,0:2:0:0:
144,282,243266,2,0,L|196:273,1,47.5,10|8,2:2|2:2,0:0:0:0:
451,117,243425,1,10,2:1:0:0:
460,74,243504,1,8,2:2:0:0:
469,32,243583,2,0,L|412:41,1,47.5,10|8,2:2|2:2,0:0:0:0:
105,58,243742,5,10,2:1:0:0:
114,114,243821,1,8,2:2:0:0:
124,170,243901,1,10,2:2:0:0:
134,226,243980,1,8,2:2:0:0:
144,282,244060,2,0,L|190:274,1,47.5,10|8,2:1|2:2,0:0:0:0:
451,117,244218,2,0,L|443:163,1,47.5,10|8,2:2|2:2,0:0:0:0:
451,117,245171,6,0,L|443:163,2,47.5,8|8|6,2:1|2:1|2:3,0:0:0:0:
414,283,245647,6,0,B|256:233|318:352|155:294,1,266,14|2,2:1|2:2,0:0:0:0:
36,178,247552,2,0,L|49:252,1,76,2|2,2:2|2:2,0:0:0:0:
193,190,248187,6,0,B|306:170|306:170|332:182|352:207|352:207|481:184,1,304,14|12,2:1|2:1,0:0:0:0:
398,33,249933,2,0,L|385:107,1,76,4|4,2:3|2:3,0:0:0:0:
240,148,250409,2,0,L|234:102,1,38,6|0,2:3|0:0,0:0:0:0:
144,37,250726,6,0,B|108:70|57:86|57:86|81:191|102:293,1,304,14|2,2:1|2:2,0:0:0:0:
302,331,252631,1,2,2:3:0:0:
302,331,252948,2,0,L|307:293,1,38,2|0,2:1|0:0,0:0:0:0:
370,227,253266,6,0,L|349:114,1,114,14|2,2:1|2:2,0:0:0:0:
287,39,253901,2,0,P|231:38|182:66,1,114,2|10,2:3|2:1,0:0:0:0:
75,140,254536,6,0,B|155:114|136:171|215:144,1,142.5,10|6,2:2|2:3,0:0:0:0:
300,207,255171,2,0,L|291:253,1,47.5,2|0,2:2|0:0,0:0:0:0:
179,312,255488,1,8,2:2:0:0:
179,312,255806,6,0,L|164:236,1,76,14|0,2:1|0:0,0:0:0:0:
75,140,256123,1,10,2:1:0:0:
75,140,256282,2,0,B|161:111|137:173|235:146,1,152,2|0,2:2|0:0,0:0:0:0:
251,24,256758,1,10,2:1:0:0:
251,24,256917,2,0,P|219:45|196:76,1,76,2|8,2:2|2:1,0:0:0:0:
277,213,257234,5,0,0:0:0:0:
277,213,257393,2,0,B|336:202|336:202|351:209|363:222|363:222|420:211,1,152,10|10,2:1|2:1,0:0:0:0:
387,139,257869,1,0,0:0:0:0:
387,139,258028,1,10,2:1:0:0:
462,282,258187,5,2,2:3:0:0:
462,282,258266,1,2,2:3:0:0:
462,282,258345,2,0,B|481:263|506:255|506:255|488:149,1,152,8|10,2:1|2:1,0:0:0:0:
366,222,258821,1,2,2:2:0:0:
366,222,258980,1,10,2:1:0:0:
347,70,259139,2,0,P|308:71|273:90,1,76,2|8,2:2|2:1,0:0:0:0:
122,163,259456,6,0,L|95:13,1,152,2|0,2:2|0:0,0:0:0:0:
17,141,259933,1,10,2:1:0:0:
17,141,260091,2,0,L|32:216,1,76,2|8,2:2|2:1,0:0:0:0:
119,365,260409,1,2,2:3:0:0:
119,365,260488,1,2,2:3:0:0:
119,365,260567,1,10,2:1:0:0:
163,203,260726,1,2,2:3:0:0:
0,293,260885,6,0,B|86:322|62:260|160:287,1,152,14|10,2:1|2:1,0:0:0:0:
261,222,261361,2,0,L|246:147,1,76,2|8,2:2|2:1,0:0:0:0:
176,34,261679,1,2,2:2:0:0:
176,34,261837,2,0,L|162:108,1,76,10|0,2:1|0:0,0:0:0:0:
261,222,262155,6,0,P|300:222|333:202,1,76,8|0,2:1|0:0,0:0:0:0:
411,113,262472,1,10,2:1:0:0:
258,69,262631,1,2,0:2:0:0:
258,69,262710,1,2,0:2:0:0:
258,69,262790,2,0,L|273:144,1,76,10|2,2:1|2:3,0:0:0:0:
382,269,263107,2,0,L|395:194,1,76,10|0,2:1|0:0,0:0:0:0:
148,242,263425,2,0,L|263:221,1,114,12|0,2:2|0:0,0:0:0:0:
290,218,263742,5,10,2:1:0:0:
90,111,263901,1,10,2:2:0:0:
81,320,264060,1,8,2:1:0:0:
221,137,264218,1,10,2:2:0:0:
27,243,264377,1,8,2:1:0:0:
243,302,264536,1,10,2:2:0:0:
212,90,264694,5,8,2:1:0:0:
212,90,264774,1,8,2:2:0:0:
212,90,264853,2,0,L|220:137,1,47.5,8|8,2:2|2:2,0:0:0:0:
345,295,265012,1,10,2:1:0:0:
345,295,265091,1,8,2:2:0:0:
345,295,265171,2,0,L|353:245,1,47.5,8|8,2:2|2:2,0:0:0:0:
275,16,265329,5,10,2:1:0:0:
238,3,265409,1,8,2:2:0:0:
201,0,265488,1,8,2:2:0:0:
165,11,265567,1,8,2:2:0:0:
135,34,265647,1,10,2:1:0:0:
102,52,265726,1,8,2:2:0:0:
64,55,265806,1,8,2:2:0:0:
27,47,265885,1,8,2:2:0:0:
256,192,267234,12,0,268187,0:0:0:0:
105,348,268504,5,14,2:2:0:0:
287,196,268663,1,8,2:1:0:0:
54,185,268821,1,8,2:1:0:0:
235,343,268980,5,12,2:2:0:0:
196,103,269139,1,10,2:1:0:0:
32,284,269298,1,8,2:1:0:0:
288,280,269456,5,14,2:2:0:0:
105,108,269615,1,10,2:1:0:0:
104,363,269774,1,8,2:1:0:0:
1,114,269933,5,12,2:2:0:0:
216,267,270091,1,8,2:1:0:0:
202,0,270250,1,8,2:1:0:0:
16,204,270409,6,0,L|35:315,1,104.500003189087,14|8,2:2|2:1,0:0:0:0:
284,196,270726,2,0,L|302:93,1,104.500003189087,14|8,2:2|2:1,0:0:0:0:
312,68,270964,1,8,2:1:0:0:
312,68,271044,5,14,2:2:0:0:
128,259,271202,1,8,2:1:0:0:
388,255,271361,1,10,2:1:0:0:
148,75,271520,5,14,2:2:0:0:
287,326,271679,1,8,2:1:0:0:
399,82,271837,1,10,2:1:0:0:
126,165,271996,5,12,2:2:0:0:
388,255,272155,1,10,2:1:0:0:
236,20,272314,1,8,2:1:0:0:
198,304,272472,5,12,2:2:0:0:
449,168,272631,1,10,2:1:0:0:
176,86,272790,1,8,2:1:0:0:
357,335,272948,6,0,P|410:338|457:308,1,104.500003189087,14|8,2:2|2:1,0:0:0:0:
335,31,273266,2,0,L|354:142,1,104.500003189087,14|8,2:2|2:1,0:0:0:0:
361,167,273504,1,8,2:1:0:0:
361,167,273583,5,14,2:2:0:0:
213,384,273742,1,8,2:1:0:0:
97,140,273901,1,8,2:1:0:0:
299,289,274060,5,12,2:2:0:0:
31,323,274218,1,10,2:1:0:0:
187,95,274377,1,8,2:1:0:0:
307,384,274536,5,14,2:2:0:0:
57,237,274694,1,10,2:1:0:0:
361,167,274853,1,8,2:1:0:0:
163,376,275012,5,12,2:2:0:0:
104,98,275171,1,8,2:1:0:0:
340,269,275329,1,8,2:1:0:0:
75,341,275488,6,0,L|56:230,1,104.500003189087,14|8,2:2|2:1,0:0:0:0:
37,28,275806,2,0,P|81:1|132:4,1,104.500003189087,14|8,2:2|2:1,0:0:0:0:
162,19,276044,1,8,2:1:0:0:
162,19,276123,5,14,2:2:0:0:
354,242,276282,1,8,2:1:0:0:
57,164,276441,1,10,2:1:0:0:
361,29,276599,5,14,2:2:0:0:
304,329,276758,1,8,2:1:0:0:
104,98,276917,1,10,2:1:0:0:
419,150,277075,5,12,2:2:0:0:
138,285,277234,1,10,2:1:0:0:
262,0,277393,1,8,2:1:0:0:
368,293,277552,5,8,2:1:0:0:
83,198,277710,2,0,L|185:179,1,104.500003189087,12|0,2:2|0:0,0:0:0:0:
441,147,278028,1,10,2:1:0:0:
441,147,278107,1,8,0:0:0:0:
441,147,278187,2,0,L|382:136,1,52.2500015945435,8|10,2:2|2:2,0:0:0:0:
163,25,278345,5,8,2:2:0:0:
210,0,278425,1,8,2:2:0:0:
262,0,278504,1,10,2:2:0:0:
306,24,278583,1,8,2:2:0:0:
340,65,278663,1,10,2:1:0:0:
417,230,278821,1,8,2:1:0:0:
191,320,278980,6,0,L|211:218,1,104.500003189087,12|0,2:2|0:0,0:0:0:0:
441,147,279298,1,4,2:3:0:0:
299,289,279456,1,4,2:3:0:0:
299,289,279536,1,8,2:2:0:0:
299,289,279615,1,10,2:2:0:0:
306,24,279774,6,0,B|328:47|360:60|360:60|331:203,1,209.000006378174,14|8,2:1|2:1,0:0:0:0:
170,358,280250,2,0,L|151:255,1,104.500003189087,10|4,2:2|2:3,0:0:0:0:
146,220,280488,1,4,2:3:0:0:
146,220,280567,2,0,P|189:193|240:196,1,104.500003189087,10|4,2:1|2:3,0:0:0:0:
425,333,280885,2,0,P|373:336|329:309,1,104.500003189087,6|4,2:3|2:3,0:0:0:0:
319,28,281202,6,0,B|394:20|447:61|447:61|452:111|407:120,1,209.000006378174,14|14,2:1|2:2,0:0:0:0:
265,275,281679,1,6,2:3:0:0:
265,275,281758,1,4,2:3:0:0:
265,275,281837,1,8,2:1:0:0:
230,58,281996,1,10,2:1:0:0:
398,195,282155,1,8,2:2:0:0:
155,268,282314,5,2,2:2:0:0:
155,268,282393,1,8,0:2:0:0:
155,268,282472,2,0,L|173:165,1,95,8|8,2:1|2:1,0:0:0:0:
346,58,282790,2,0,P|394:43|443:59,1,95,14|0,2:2|0:0,0:0:0:0:
448,298,283107,2,0,P|399:312|350:297,1,95,14|8,2:1|2:2,0:0:0:0:
269,221,283345,1,8,2:2:0:0:
269,221,283425,2,0,L|251:323,1,95,10|8,2:2|2:2,0:0:0:0:
140,370,283663,5,8,2:2:0:0:
140,370,283742,2,0,L|37:352,1,95,14|0,2:1|0:0,0:0:0:0:
127,174,284060,2,0,L|109:276,1,95,10|0,2:2|0:0,0:0:0:0:
52,79,284377,2,0,P|94:52|146:54,1,95,10|0,2:1|0:0,0:0:0:0:
301,142,284694,2,0,P|254:140|215:114,1,95,10|0,2:2|0:0,0:0:0:0:
406,24,285012,6,0,L|431:165,1,142.5,8|0,2:1|0:0,0:0:0:0:
436,202,285329,2,0,L|342:218,1,95,10|0,2:2|0:0,0:0:0:0:
196,336,285647,2,0,L|289:353,1,95,10|0,2:1|0:0,0:0:0:0:
300,141,285964,2,0,P|263:175|252:225,1,95,10|0,2:2|0:0,0:0:0:0:
482,290,286282,6,0,L|448:103,1,190,12|10,2:1|2:2,0:0:0:0:
283,48,286758,1,8,0:1:0:0:
283,48,286837,1,8,0:2:0:0:
283,48,286917,2,0,L|300:141,1,95,10|0,2:1|0:0,0:0:0:0:
376,332,287234,2,0,L|393:238,1,95,10|0,2:2|0:0,0:0:0:0:
196,114,287552,6,0,B|131:75|65:90|65:90|50:124|73:140,1,190,10|10,2:1|2:2,0:0:0:0:
182,277,288028,1,4,2:3:0:0:
182,277,288107,1,8,2:2:0:0:
182,277,288187,2,0,L|190:229,1,47.5,10|8,2:1|2:2,0:0:0:0:
99,39,288345,2,0,L|107:86,1,47.5,8|8,2:2|2:2,0:0:0:0:
111,331,288504,5,10,2:2:0:0:
151,355,288583,1,4,2:3:0:0:
198,358,288663,1,6,2:3:0:0:
240,337,288742,1,4,2:3:0:0:
272,301,288821,6,0,L|289:207,1,95,14|0,2:1|0:0,0:0:0:0:
178,20,289139,2,0,L|195:113,1,95,10|0,2:2|0:0,0:0:0:0:
377,236,289456,2,0,L|359:142,1,95,10|0,2:1|0:0,0:0:0:0:
107,85,289774,6,0,P|56:132|69:198,1,142.5,10|0,2:2|0:0,0:0:0:0:
88,226,290091,2,0,L|181:208,1,95,8|0,2:1|0:0,0:0:0:0:
359,142,290409,2,0,L|341:235,1,95,10|0,2:2|0:0,0:0:0:0:
512,384,290726,1,10,2:1:0:0:
512,384,290806,1,8,0:2:0:0:
512,384,290885,2,0,L|503:336,1,47.5,8|8,2:2|2:2,0:0:0:0:
431,84,291044,5,10,2:2:0:0:
391,60,291123,1,8,2:2:0:0:
344,57,291202,1,8,2:2:0:0:
302,78,291282,1,8,2:2:0:0:
271,113,291361,6,0,B|159:93|159:93|123:126|123:126|11:106|11:106|61:100|88:66,1,364.80000890625,14|2,2:1|2:2,0:0:0:0:
29,240,293742,5,6,2:3:0:0:
29,240,293821,1,4,2:3:0:0:
29,240,293901,2,0,B|112:217|97:268|179:240,1,152,14|0,2:1|0:0,0:0:0:0:
288,330,294377,1,2,2:2:0:0:
288,330,294536,2,0,L|314:181,1,152,2|0,2:2|0:0,0:0:0:0:
223,74,295012,1,2,2:2:0:0:
379,102,295171,6,0,P|353:30|276:0,1,152,14|0,2:1|0:0,0:0:0:0:
133,62,295647,1,6,2:3:0:0:
133,62,295726,1,2,2:2:0:0:
133,62,295806,2,0,L|147:138,1,76,2|4,2:2|2:3,0:0:0:0:
135,300,296123,1,4,2:3:0:0:
273,220,296282,1,10,2:1:0:0:
87,213,296441,6,0,P|38:271|49:353,1,152,14|0,2:1|0:0,0:0:0:0:
193,368,296917,1,2,2:2:0:0:
193,368,297075,2,0,B|252:357|252:357|268:363|279:377|279:377|342:365,1,152,2|2,2:2|2:3,0:0:0:0:
448,281,297552,1,10,2:1:0:0:
298,252,297710,6,0,L|271:102,1,152,14|8,2:2|2:1,0:0:0:0:
133,105,298187,1,6,2:3:0:0:
133,105,298266,1,2,0:2:0:0:
133,105,298345,2,0,L|119:179,1,76,10|8,2:1|2:1,0:0:0:0:
63,250,298583,1,8,0:1:0:0:
63,250,298663,2,0,P|120:267|176:251,1,114,14|0,2:2|0:0,0:0:0:0:
204,242,298980,5,14,2:2:0:0:
129,19,299139,1,10,2:1:0:0:
0,197,299298,1,8,2:1:0:0:
239,116,299456,5,10,2:2:0:0:
35,20,299615,1,10,2:1:0:0:
112,234,299774,1,8,2:1:0:0:
243,7,299933,5,10,2:2:0:0:
223,261,300091,1,10,2:1:0:0:
434,154,300250,1,8,2:1:0:0:
133,116,300409,5,10,2:2:0:0:
166,357,300567,1,10,2:1:0:0:
356,209,300726,1,8,2:1:0:0:
80,223,300885,5,10,2:2:0:0:
311,384,301044,1,10,2:1:0:0:
289,107,301202,1,10,2:2:0:0:
457,332,301361,5,8,2:1:0:0:
457,332,301441,1,8,2:1:0:0:
457,332,301520,2,0,L|363:315,1,95,12|10,2:2|2:1,0:0:0:0:
214,208,301837,1,10,2:1:0:0:
406,158,301996,1,14,2:2:0:0:
231,307,302155,1,10,2:1:0:0:
339,92,302314,1,10,2:2:0:0:
457,332,302472,1,10,2:2:0:0:
253,116,302631,6,0,P|281:29|370:7,1,190,14|10,2:1|2:2,0:0:0:0:
512,203,303107,1,10,2:2:0:0:
305,223,303266,1,10,2:2:0:0:
447,71,303425,1,10,2:2:0:0:
363,321,303583,5,10,2:2:0:0:
317,336,303663,1,8,2:2:0:0:
271,332,303742,1,10,2:2:0:0:
231,307,303821,1,8,2:2:0:0:
185,299,303901,1,10,2:2:0:0:
139,311,303980,1,8,2:2:0:0:
139,311,304694,6,0,B|61:358|61:358|66:271|66:271|2:214|2:214|83:185|83:185|119:112|119:112|165:180|165:180|238:194|238:194|197:262|197:262|251:340|317:366|478:366|565:281|606:156|526:60|418:68|412:149|412:149|342:112|296:222|388:249,1,1480.10002258453,14|8,2:1|2:1,0:0:0:0:
