osu file format v14

[General]
AudioFilename: audio.mp3
AudioLeadIn: 0
PreviewTime: 244696
Countdown: 0
SampleSet: Soft
StackLeniency: 0.7
Mode: 3
LetterboxInBreaks: 0
SpecialStyle: 0
WidescreenStoryboard: 0

[Editor]
Bookmarks: 268506
DistanceSpacing: 1
BeatDivisor: 4
GridSize: 4
TimelineZoom: 1.5

[Metadata]
Title:KIZUNA MUSIC
TitleUnicode:キズナミュージック♪
Artist:Poppin'Party
ArtistUnicode:Poppin'Party
Creator:ATing
Version:Taisetsu na Uta
Source:BanG Dream! 2nd Season
Tags:バンドリ! ガールズバンドパーティ! girls band party bandori garupa ガルパ popipa ポピパ ポッピンパーティ opening bang dream! anime video game japanese
BeatmapID:2057788
BeatmapSetID:983380

[Difficulty]
HPDrainRate:8.6
CircleSize:4
OverallDifficulty:8.3
ApproachRate:5
SliderMultiplier:1.4
SliderTickRate:1

[Events]
//Background and Video events
0,0,"bggg.jpg",0,0
//Break Periods
//Storyboard Layer 0 (Background)
//Storyboard Layer 1 (Fail)
//Storyboard Layer 2 (Pass)
//Storyboard Layer 3 (Foreground)
//Storyboard Layer 4 (Overlay)
//Storyboard Sound Samples
Sample,23268,0,"LR_Drum Click.wav",60
Sample,24538,0,"LR_Drum Click.wav",60
Sample,24855,0,"LR_Drum Click.wav",60
Sample,27395,0,"LR_Drum Click.wav",60
Sample,29300,0,"LR_Drum Click.wav",60
Sample,30252,0,"LR_Drum Click.wav",60
Sample,63585,0,"LR_HiHat Click.wav",60
Sample,78823,0,"LR_HiHat Click.wav",60
Sample,138982,0,"HHOpen.wav",45
Sample,143903,0,"LR_HiHat Click.wav",60
Sample,145173,0,"LR_HiHat Click.wav",60
Sample,162712,0,"HHOpen.wav",45
Sample,182712,0,"HHOpen.wav",45
Sample,215966,0,"HHOpen.wav",45
Sample,229617,0,"LR_HiHat Click.wav",60
Sample,229935,0,"LR_HiHat Click.wav",60
Sample,230252,0,"LR_HiHat Click.wav",60
Sample,230569,0,"LR_HiHat Click.wav",60
Sample,230887,0,"LR_HiHat Click.wav",60
Sample,232792,0,"LR_HiHat Click.wav",60
Sample,233109,0,"LR_HiHat Click.wav",60
Sample,233427,0,"LR_HiHat Click.wav",60
Sample,288189,0,"HHOpen.wav",45
Sample,296284,0,"HHOpen.wav",45
Sample,310728,0,"tom04.wav",60

[TimingPoints]
570,317.460317460317,4,2,1,50,1,0
33585,-133.333333333333,4,2,1,50,0,0
35808,-66.6666666666667,4,2,1,50,0,0
35966,-200,4,2,1,50,0,0
36125,-100,4,2,1,50,0,0
45331,-66.6666666666667,4,2,1,50,0,0
45490,-200,4,2,1,50,0,0
45649,-66.6666666666667,4,2,1,50,0,0
45808,-200,4,2,1,50,0,0
45966,-66.6666666666667,4,2,1,50,0,0
46125,-200,4,2,1,50,0,0
46204,-100,4,2,1,50,0,0
46284,-100,4,2,1,50,0,1
76760,-500,4,2,1,50,0,1
76919,-66.6666666666667,4,2,1,50,0,1
77077,-100,4,2,1,50,0,1
86919,-100,4,2,1,50,0,0
122474,-125,4,2,1,50,0,0
127236,-250,4,2,1,50,0,0
127395,-80,4,2,1,50,0,0
127554,-142.857142857143,4,2,1,50,0,0
127712,-138.888888888889,4,2,1,50,0,0
127871,-135.135135135135,4,2,1,50,0,0
128030,-131.578947368421,4,2,1,50,0,0
128189,-128.205128205128,4,2,1,50,0,0
128347,-125,4,2,1,50,0,0
128506,-121.951219512195,4,2,1,50,0,0
128665,-119.047619047619,4,2,1,50,0,0
128823,-116.279069767442,4,2,1,50,0,0
128982,-113.636363636364,4,2,1,50,0,0
129141,-111.111111111111,4,2,1,50,0,0
129300,-108.695652173913,4,2,1,50,0,0
129458,-106.382978723404,4,2,1,50,0,0
129617,-104.166666666667,4,2,1,50,0,0
129776,-102.040816326531,4,2,1,50,0,0
129935,-100,4,2,1,50,0,0
132316,-66.6666666666667,4,2,1,50,0,0
132474,-200,4,2,1,50,0,0
132633,-100,4,2,1,50,0,1
163109,-500,4,2,1,50,0,1
163268,-66.6666666666667,4,2,1,50,0,1
163427,-100,4,2,1,50,0,1
173268,-100,4,2,1,50,0,0
193268,-66.6666666666667,4,2,1,50,0,0
193427,-200,4,2,1,50,0,0
193585,-100,4,2,1,50,0,0
245331,-66.6666666666667,4,2,1,50,0,0
245490,-200,4,2,1,50,0,0
245649,-125,4,2,1,50,0,0
255808,-117.647058823529,4,2,1,50,0,0
260887,-111.111111111111,4,2,1,50,0,0
263427,-105.263157894737,4,2,1,50,0,0
267236,-16.6666666666667,4,2,1,50,0,0
267316,-250,4,2,1,50,0,0
268189,-1000,4,2,1,50,0,0
268427,-66.6666666666667,4,2,1,50,0,0
268506,-100,4,2,1,50,0,1
278665,-62.5,4,2,1,50,0,1
278744,-500,4,2,1,50,0,1
278823,-62.5,4,2,1,50,0,1
278903,-500,4,2,1,50,0,1
278982,-100,4,2,1,50,0,1
293903,-100,4,2,1,50,0,0

[HitObjects]
64,192,570,128,4,1760:0:0:0:40:
320,192,570,1,2,0:0:0:60:
448,192,570,1,0,0:0:0:0:
320,192,1046,128,0,1125:0:0:0:0:
320,192,1204,128,0,1284:0:0:0:0:
448,192,1681,128,0,1760:0:0:0:0:
64,192,1839,1,4,0:0:0:40:
192,192,1839,1,2,0:0:0:60:
448,192,1839,128,0,3030:0:0:0:0:
64,192,2316,1,0,0:0:0:60:tom01.wav
320,192,2316,128,0,2395:0:0:0:0:
320,192,2474,128,2,2554:0:0:0:60:
64,192,2633,1,0,0:0:0:60:tom03.wav
192,192,2633,1,0,0:0:0:0:
64,192,2792,1,0,0:0:0:60:tom04.wav
320,192,2792,1,0,0:0:0:0:
192,192,2950,128,0,3030:0:0:0:0:
192,192,3109,128,4,4300:0:0:0:40:
320,192,3109,1,2,0:0:0:60:
448,192,3109,1,0,0:0:0:0:
448,192,3585,128,0,3665:0:0:0:0:
448,192,3744,128,0,3823:0:0:0:0:
320,192,4220,128,0,4300:0:0:0:0:
64,192,4379,1,4,0:0:0:40:
192,192,4379,1,2,0:0:0:60:
320,192,4379,128,0,5252:0:0:0:0:
64,192,4855,1,0,0:0:0:60:tom01.wav
448,192,4855,128,0,4935:0:0:0:0:
448,192,5014,128,2,5093:0:0:0:60:
64,192,5173,1,2,0:0:0:60:
192,192,5252,1,2,0:0:0:60:
64,192,5331,1,8,0:0:0:60:
320,192,5331,1,4,0:0:0:40:
448,192,5331,128,0,5649:0:0:0:0:
192,192,5490,128,0,5649:0:0:0:0:
64,192,5649,128,4,5966:0:0:0:40:
320,192,5649,1,8,0:0:0:60:
320,192,5808,1,2,0:0:0:60:
320,192,5966,1,2,0:0:0:60:
64,192,6125,1,8,0:0:0:60:
192,192,6125,1,0,0:0:0:45:HHOpen.wav
448,192,6125,128,0,6443:0:0:0:0:
192,192,6284,1,2,0:0:0:60:
192,192,6443,1,2,0:0:0:60:
64,192,6601,1,8,0:0:0:60:
320,192,6601,128,4,6919:0:0:0:40:
448,192,6601,1,0,0:0:0:0:
64,192,6760,1,2,0:0:0:60:
64,192,6919,1,2,0:0:0:60:
192,192,7077,128,8,7395:0:0:0:60:
320,192,7077,1,0,0:0:0:45:HHOpen.wav
448,192,7077,1,0,0:0:0:0:
448,192,7236,1,2,0:0:0:60:
448,192,7395,1,2,0:0:0:60:
64,192,7554,128,8,7712:0:0:0:60:
192,192,7554,1,4,0:0:0:40:
320,192,7554,1,0,0:0:0:0:
320,192,7712,128,2,7871:0:0:0:60:
64,192,7871,1,8,0:0:0:60:
192,192,7871,1,0,0:0:0:45:HHOpen.wav
448,192,7871,128,0,8030:0:0:0:0:
192,192,8030,1,2,0:0:0:60:
320,192,8109,1,2,0:0:0:60:
64,192,8189,128,8,8427:0:0:0:60:
192,192,8189,1,4,0:0:0:40:
448,192,8189,128,0,8427:0:0:0:0:
64,192,8506,128,0,8585:0:0:0:0:
448,192,8506,128,0,8585:0:0:0:0:
64,192,8665,128,0,8744:0:0:0:0:
448,192,8665,128,0,8744:0:0:0:0:
64,192,8823,128,2,8903:0:0:0:60:
192,192,8823,128,0,8903:0:0:0:45:HHOpen.wav
448,192,8823,128,0,8903:0:0:0:0:
64,192,8982,128,2,9062:0:0:0:60:
192,192,8982,128,0,9062:0:0:0:45:HHOpen.wav
448,192,8982,128,0,9062:0:0:0:0:
64,192,9141,128,2,9220:0:0:0:60:
320,192,9141,128,0,9220:0:0:0:45:HHOpen.wav
448,192,9141,128,0,9220:0:0:0:0:
64,192,9300,128,4,9538:0:0:0:40:
192,192,9300,128,0,9538:0:0:0:0:
448,192,9300,128,0,9538:0:0:0:0:
64,192,9617,128,8,9696:0:0:0:60:
192,192,9617,128,0,9696:0:0:0:0:
448,192,9617,128,0,9696:0:0:0:0:
64,192,9776,128,0,9855:0:0:0:45:HHOpen.wav
320,192,9776,128,0,9855:0:0:0:0:
64,192,9935,128,0,10014:0:0:0:0:
320,192,9935,128,0,10014:0:0:0:0:
64,192,10093,128,0,10173:0:0:0:60:tom02.wav
320,192,10093,128,0,10173:0:0:0:0:
448,192,10093,128,0,10173:0:0:0:0:
64,192,10252,128,0,10331:0:0:0:60:tom03.wav
192,192,10252,128,0,10331:0:0:0:0:
320,192,10252,128,0,10331:0:0:0:0:
64,192,10411,1,8,0:0:0:60:
192,192,10411,1,4,0:0:0:40:
448,192,10411,128,0,10728:0:0:0:0:
320,192,10569,128,0,10728:0:0:0:0:
64,192,10728,128,2,11046:0:0:0:60:
192,192,10728,128,4,10887:0:0:0:40:
192,192,11046,1,2,0:0:0:60:
320,192,11046,128,0,11204:0:0:0:0:
448,192,11204,128,0,11522:0:0:0:60:LR_HiHat Click.wav
64,192,11363,128,2,11522:0:0:0:60:
320,192,11363,1,0,0:0:0:0:
192,192,11522,128,0,11839:0:0:0:60:LR_HiHat Click.wav
64,192,11681,1,2,0:0:0:60:
320,192,11681,128,0,11839:0:0:0:0:
448,192,11839,128,0,12316:0:0:0:60:LR_HiHat Click.wav
64,192,11998,1,2,0:0:0:60:
192,192,11998,128,0,12157:0:0:0:0:
320,192,12157,1,0,0:0:0:60:LR_HiHat Click.wav
64,192,12316,128,2,12474:0:0:0:60:
192,192,12316,128,0,12633:0:0:0:0:
448,192,12474,1,0,0:0:0:60:LR_HiHat Click.wav
320,192,12633,128,2,12950:0:0:0:60:
448,192,12633,128,0,12792:0:0:0:0:
64,192,12792,1,0,0:0:0:60:LR_HiHat Click.wav
64,192,12950,128,2,13109:0:0:0:60:
192,192,12950,128,0,13268:0:0:0:0:
448,192,13109,1,0,0:0:0:60:LR_HiHat Click.wav
64,192,13268,128,2,13427:0:0:0:60:
320,192,13268,128,0,13585:0:0:0:0:
192,192,13585,128,2,13744:0:0:0:60:
448,192,13585,1,0,0:0:0:0:
448,192,13744,128,0,14062:0:0:0:60:LR_HiHat Click.wav
64,192,13903,1,2,0:0:0:60:
320,192,13903,128,0,14062:0:0:0:0:
192,192,14062,128,0,14379:0:0:0:60:LR_HiHat Click.wav
64,192,14220,128,2,14379:0:0:0:60:
448,192,14220,1,0,0:0:0:0:
320,192,14379,128,0,15173:0:0:0:60:LR_HiHat Click.wav
64,192,14538,1,2,0:0:0:60:
192,192,14538,128,0,14696:0:0:0:0:
448,192,14696,1,0,0:0:0:60:LR_HiHat Click.wav
64,192,14855,1,2,0:0:0:60:
448,192,14855,128,0,15014:0:0:0:0:
192,192,15014,1,0,0:0:0:60:LR_HiHat Click.wav
64,192,15173,128,2,15331:0:0:0:60:
448,192,15173,1,0,0:0:0:0:
192,192,15331,1,0,0:0:0:60:LR_HiHat Click.wav
320,192,15490,128,2,15808:0:0:0:60:
448,192,15490,1,0,0:0:0:0:
64,192,15649,128,0,15808:0:0:0:60:LR_HiHat Click.wav
192,192,15808,128,2,15966:0:0:0:60:
448,192,15808,128,0,16125:0:0:0:0:
64,192,16125,128,2,16284:0:0:0:60:
192,192,16125,1,0,0:0:0:0:
320,192,16284,128,0,16601:0:0:0:60:LR_HiHat Click.wav
64,192,16443,1,2,0:0:0:60:
448,192,16443,128,0,16601:0:0:0:0:
192,192,16601,128,0,16919:0:0:0:60:LR_HiHat Click.wav
64,192,16760,128,2,16919:0:0:0:60:
320,192,16760,1,0,0:0:0:0:
448,192,16919,128,0,17395:0:0:0:60:LR_HiHat Click.wav
192,192,17077,1,2,0:0:0:60:
320,192,17077,128,0,17236:0:0:0:0:
64,192,17236,1,0,0:0:0:60:LR_HiHat Click.wav
192,192,17395,128,2,17554:0:0:0:60:
320,192,17395,128,0,17712:0:0:0:0:
448,192,17554,1,0,0:0:0:60:LR_HiHat Click.wav
64,192,17712,128,2,17871:0:0:0:60:
192,192,17712,128,0,18030:0:0:0:0:
320,192,17871,1,0,0:0:0:60:LR_HiHat Click.wav
64,192,18030,128,2,18347:0:0:0:60:
448,192,18030,128,0,18189:0:0:0:0:
192,192,18189,1,0,0:0:0:60:LR_HiHat Click.wav
320,192,18347,128,2,18506:0:0:0:60:
448,192,18347,128,0,18665:0:0:0:0:
64,192,18665,1,2,0:0:0:60:
320,192,18665,128,0,18823:0:0:0:0:
64,192,18823,128,0,19141:0:0:0:60:LR_HiHat Click.wav
192,192,18982,128,2,19141:0:0:0:60:
320,192,18982,1,0,0:0:0:0:
448,192,19141,128,0,19458:0:0:0:60:LR_HiHat Click.wav
64,192,19300,1,2,0:0:0:60:
320,192,19300,128,0,19458:0:0:0:0:
192,192,19458,128,0,20252:0:0:0:60:LR_HiHat Click.wav
64,192,19617,128,2,19776:0:0:0:60:
448,192,19617,1,0,0:0:0:0:
320,192,19776,1,0,0:0:0:60:LR_HiHat Click.wav
64,192,19935,1,2,0:0:0:60:
448,192,19935,128,0,20093:0:0:0:0:
320,192,20093,128,0,20252:0:0:0:60:LR_HiHat Click.wav
64,192,20252,128,2,20411:0:0:0:60:
448,192,20252,1,0,0:0:0:45:HHOpen.wav
320,192,20411,128,0,20569:0:0:0:0:
192,192,20569,128,2,20887:0:0:0:60:
448,192,20569,1,0,0:0:0:45:HHOpen.wav
448,192,20728,128,0,20887:0:0:0:0:
64,192,20887,128,4,21204:0:0:0:40:
320,192,20887,128,2,21046:0:0:0:60:
448,192,21046,1,0,0:0:0:60:LR_HiHat Click.wav
192,192,21204,128,2,21363:0:0:0:60:
320,192,21204,1,0,0:0:0:0:
448,192,21363,128,0,21522:0:0:0:60:LR_HiHat Click.wav
64,192,21522,128,2,21681:0:0:0:60:
192,192,21522,1,0,0:0:0:60:LR_Drum Click.wav
320,192,21681,128,0,21839:0:0:0:60:LR_HiHat Click.wav
64,192,21839,1,2,0:0:0:60:
192,192,21839,128,0,21998:0:0:0:0:
320,192,21998,1,0,0:0:0:60:LR_HiHat Click.wav
448,192,21998,128,0,22316:0:0:0:60:LR_Drum Click.wav
64,192,22157,128,2,22316:0:0:0:60:
192,192,22157,1,0,0:0:0:0:
320,192,22316,1,0,0:0:0:60:LR_HiHat Click.wav
64,192,22474,128,2,22633:0:0:0:60:
448,192,22474,1,0,0:0:0:0:
192,192,22633,128,0,22792:0:0:0:60:LR_HiHat Click.wav
320,192,22792,128,2,22950:0:0:0:60:
448,192,22792,1,0,0:0:0:60:LR_Drum Click.wav
192,192,22950,1,0,0:0:0:0:
320,192,23030,1,0,0:0:0:60:LR_Drum Click.wav
64,192,23109,1,2,0:0:0:60:
448,192,23109,128,0,23427:0:0:0:60:LR_Drum Click.wav
64,192,23268,1,0,0:0:0:60:LR_HiHat Click.wav
192,192,23427,128,2,23585:0:0:0:60:
320,192,23427,1,0,0:0:0:60:LR_Drum Click.wav
64,192,23585,1,0,0:0:0:60:LR_HiHat Click.wav
320,192,23744,1,2,0:0:0:60:
448,192,23744,128,0,23903:0:0:0:0:
192,192,23903,128,0,24220:0:0:0:60:LR_HiHat Click.wav
64,192,24062,128,2,24220:0:0:0:60:
448,192,24062,1,0,0:0:0:60:LR_Drum Click.wav
320,192,24220,128,0,24538:0:0:0:60:LR_HiHat Click.wav
192,192,24379,1,2,0:0:0:60:
448,192,24379,128,0,24538:0:0:0:0:
64,192,24538,128,0,25331:0:0:0:60:LR_HiHat Click.wav
192,192,24696,128,2,24855:0:0:0:60:
448,192,24696,1,0,0:0:0:0:
320,192,24855,1,0,0:0:0:60:LR_HiHat Click.wav
320,192,25014,128,2,25173:0:0:0:60:
448,192,25014,1,0,0:0:0:0:
192,192,25173,1,0,0:0:0:60:LR_HiHat Click.wav
192,192,25331,128,2,25490:0:0:0:60:
448,192,25331,1,0,0:0:0:60:LR_Drum Click.wav
64,192,25490,1,0,0:0:0:0:
320,192,25569,1,0,0:0:0:60:LR_Drum Click.wav
192,192,25649,1,2,0:0:0:60:
448,192,25649,128,0,25808:0:0:0:60:LR_Drum Click.wav
64,192,25808,1,0,0:0:0:60:LR_HiHat Click.wav
320,192,25808,128,0,25966:0:0:0:60:LR_Drum Click.wav
64,192,25966,128,2,26284:0:0:0:60:
448,192,25966,128,0,26125:0:0:0:0:
320,192,26125,1,0,0:0:0:60:LR_HiHat Click.wav
192,192,26284,128,2,26443:0:0:0:60:
448,192,26284,1,0,0:0:0:0:
320,192,26443,1,0,0:0:0:60:LR_HiHat Click.wav
64,192,26601,128,2,26760:0:0:0:60:
192,192,26601,1,0,0:0:0:0:
448,192,26760,128,0,26919:0:0:0:60:LR_HiHat Click.wav
64,192,26919,128,2,27077:0:0:0:60:
320,192,26919,1,0,0:0:0:0:
320,192,27077,128,0,27554:0:0:0:60:LR_HiHat Click.wav
192,192,27236,128,2,27395:0:0:0:60:
448,192,27236,1,0,0:0:0:0:
64,192,27395,1,0,0:0:0:60:LR_HiHat Click.wav
192,192,27554,1,2,0:0:0:60:
448,192,27554,128,0,27712:0:0:0:0:
192,192,27712,128,0,28189:0:0:0:60:LR_HiHat Click.wav
64,192,27871,1,2,0:0:0:60:
320,192,27871,128,0,28030:0:0:0:60:LR_Drum Click.wav
448,192,28030,1,0,0:0:0:60:LR_HiHat Click.wav
64,192,28189,1,2,0:0:0:60:
320,192,28189,128,0,28347:0:0:0:60:LR_Drum Click.wav
64,192,28347,128,0,29141:0:0:0:60:LR_HiHat Click.wav
448,192,28347,1,0,0:0:0:60:LR_Drum Click.wav
192,192,28506,128,2,28665:0:0:0:60:
320,192,28506,1,0,0:0:0:0:
448,192,28665,1,0,0:0:0:60:LR_HiHat Click.wav
192,192,28823,1,2,0:0:0:60:
320,192,28823,128,0,28982:0:0:0:0:
448,192,28982,1,0,0:0:0:60:LR_HiHat Click.wav
320,192,29141,1,2,0:0:0:60:
448,192,29141,128,0,29300:0:0:0:0:
192,192,29300,1,0,0:0:0:60:LR_HiHat Click.wav
64,192,29458,128,2,29617:0:0:0:60:
448,192,29458,1,0,0:0:0:0:
320,192,29617,1,0,0:0:0:60:LR_HiHat Click.wav
64,192,29776,1,2,0:0:0:60:
192,192,29776,128,0,30252:0:0:0:60:LR_Drum Click.wav
448,192,29776,128,0,29935:0:0:0:0:
320,192,29935,1,0,0:0:0:60:LR_HiHat Click.wav
64,192,30093,128,2,30252:0:0:0:60:
448,192,30093,1,0,0:0:0:0:
320,192,30252,1,0,0:0:0:60:LR_HiHat Click.wav
64,192,30411,128,2,30569:0:0:0:60:
320,192,30411,128,0,30887:0:0:0:0:
448,192,30411,128,0,30569:0:0:0:0:
192,192,30569,128,0,30728:0:0:0:60:LR_HiHat Click.wav
64,192,30728,128,2,30887:0:0:0:60:
448,192,30728,128,0,30887:0:0:0:45:HHOpen.wav
64,192,31046,128,4,31363:0:0:0:40:
320,192,31046,128,8,31363:0:0:0:60:
448,192,31046,128,0,31363:0:0:0:0:
64,192,31522,128,8,31839:0:0:0:60:
192,192,31522,128,4,31839:0:0:0:40:
448,192,31522,128,0,31839:0:0:0:0:
64,192,31998,1,4,0:0:0:40:
320,192,31998,128,8,32514:0:0:0:60:
448,192,31998,128,0,32514:0:0:0:0:
192,192,32316,1,0,0:0:0:45:HHOpen.wav
64,192,32514,1,2,0:0:0:60:
192,192,32514,1,0,0:0:0:0:
64,192,32653,1,8,0:0:0:60:
320,192,32653,1,0,0:0:0:0:
448,192,32653,1,0,0:0:0:0:
192,192,32871,1,0,0:0:0:60:tom02.wav
320,192,32950,1,0,0:0:0:60:tom03.wav
448,192,32950,1,0,0:0:0:0:
192,192,33109,1,0,0:0:0:60:tom02.wav
320,192,33109,1,0,0:0:0:0:
64,192,33268,128,0,33427:0:0:0:60:tom04.wav
192,192,33268,1,0,0:0:0:0:
448,192,33427,128,0,33585:0:0:0:0:
64,192,33585,128,0,33744:0:0:0:0:
192,192,33585,1,0,0:0:0:0:
320,192,33903,128,0,34062:0:0:0:0:
192,192,34062,128,0,34379:0:0:0:0:
448,192,34062,1,0,0:0:0:0:
64,192,34379,128,0,34538:0:0:0:0:
320,192,34538,1,0,0:0:0:0:
448,192,34538,128,0,35490:0:0:0:0:
64,192,35173,1,0,0:0:0:0:
320,192,35384,1,0,0:0:0:0:
192,192,35437,1,0,0:0:0:0:
64,192,35490,1,0,0:0:0:0:
192,192,35649,1,2,0:0:0:60:
320,192,35728,1,2,0:0:0:60:
64,192,35808,1,8,0:0:0:60:
448,192,35808,1,0,0:0:0:0:
64,192,36125,1,4,0:0:0:40:
192,192,36125,128,2,36284:0:0:0:60:
320,192,36125,1,0,0:0:0:0:
448,192,36125,1,0,0:0:0:0:
64,192,36443,1,8,0:0:0:60:
192,192,36443,128,0,36601:0:0:0:45:HHOpen.wav
448,192,36443,1,0,0:0:0:0:
320,192,36601,128,0,36760:0:0:0:0:
64,192,36760,1,2,0:0:0:60:
448,192,36760,128,0,36919:0:0:0:45:HHOpen.wav
64,192,36919,128,2,37077:0:0:0:60:
192,192,36919,1,0,0:0:0:0:
320,192,37077,128,0,37236:0:0:0:45:HHOpen.wav
64,192,37236,1,8,0:0:0:60:
192,192,37236,1,0,0:0:0:0:
448,192,37236,1,0,0:0:0:0:
320,192,37395,128,0,37712:0:0:0:45:HHOpen.wav
64,192,37554,1,2,0:0:0:60:
192,192,37554,1,0,0:0:0:0:
64,192,37712,1,8,0:0:0:60:
192,192,37712,1,0,0:0:0:45:HHOpen.wav
448,192,37712,1,0,0:0:0:0:
64,192,37871,128,0,38189:0:0:0:0:
320,192,38030,1,2,0:0:0:60:
448,192,38030,1,0,0:0:0:45:HHOpen.wav
192,192,38189,1,2,0:0:0:60:
320,192,38189,1,0,0:0:0:0:
64,192,38347,1,8,0:0:0:60:
192,192,38347,1,0,0:0:0:45:HHOpen.wav
448,192,38347,1,0,0:0:0:0:
448,192,38506,128,0,39300:0:0:0:0:
64,192,38665,128,2,38823:0:0:0:60:
320,192,38665,1,0,0:0:0:45:HHOpen.wav
192,192,38982,1,8,0:0:0:60:
320,192,38982,128,0,39141:0:0:0:45:HHOpen.wav
64,192,39141,128,0,39300:0:0:0:0:
192,192,39300,128,2,39458:0:0:0:60:
320,192,39300,1,0,0:0:0:45:HHOpen.wav
64,192,39458,1,2,0:0:0:60:
448,192,39458,128,0,39617:0:0:0:0:
64,192,39617,128,0,39935:0:0:0:45:HHOpen.wav
192,192,39776,1,8,0:0:0:60:
448,192,39776,1,0,0:0:0:0:
320,192,39935,128,0,40252:0:0:0:45:HHOpen.wav
192,192,40093,1,2,0:0:0:60:
448,192,40093,1,0,0:0:0:0:
64,192,40252,1,8,0:0:0:60:
192,192,40252,1,0,0:0:0:45:HHOpen.wav
448,192,40252,1,0,0:0:0:0:
64,192,40411,128,0,40887:0:0:0:0:
320,192,40569,1,2,0:0:0:60:
448,192,40569,1,0,0:0:0:45:HHOpen.wav
192,192,40728,1,2,0:0:0:60:
320,192,40728,1,0,0:0:0:0:
192,192,40887,1,8,0:0:0:60:
320,192,40887,1,0,0:0:0:45:HHOpen.wav
448,192,40887,1,0,0:0:0:0:
448,192,41046,128,0,41204:0:0:0:0:
64,192,41204,1,4,0:0:0:40:
192,192,41204,1,2,0:0:0:60:
320,192,41204,1,0,0:0:0:0:
192,192,41363,1,0,0:0:0:0:
192,192,41522,1,2,0:0:0:60:
448,192,41522,1,0,0:0:0:0:
192,192,41681,1,0,0:0:0:0:
64,192,41839,1,2,0:0:0:60:
320,192,41839,1,0,0:0:0:0:
320,192,41998,1,0,0:0:0:0:
64,192,42157,1,2,0:0:0:60:
320,192,42157,1,0,0:0:0:0:
320,192,42316,1,0,0:0:0:60:LR_HiHat Click.wav
192,192,42474,1,2,0:0:0:60:
448,192,42474,1,0,0:0:0:0:
192,192,42633,1,0,0:0:0:60:LR_HiHat Click.wav
64,192,42792,1,8,0:0:0:60:
448,192,42792,1,0,0:0:0:0:
320,192,42871,1,0,0:0:0:0:
192,192,42950,1,0,0:0:0:60:LR_HiHat Click.wav
448,192,43030,1,0,0:0:0:60:LR_HiHat Click.wav
64,192,43109,1,8,0:0:0:60:
320,192,43109,1,0,0:0:0:0:
448,192,43189,1,0,0:0:0:0:
192,192,43268,1,0,0:0:0:0:
320,192,43347,1,8,0:0:0:60:
64,192,43427,1,8,0:0:0:60:
448,192,43427,1,0,0:0:0:0:
192,192,43506,1,0,0:0:0:60:tom02.wav
320,192,43585,1,0,0:0:0:60:tom03.wav
64,192,43665,1,0,0:0:0:60:tom04.wav
192,192,43744,1,8,0:0:0:60:
320,192,43744,1,4,0:0:0:40:
448,192,43744,1,0,0:0:0:0:
192,192,43903,1,2,0:0:0:60:
448,192,43903,1,0,0:0:0:0:
192,192,44062,1,2,0:0:0:60:
448,192,44062,1,0,0:0:0:0:
64,192,44220,1,8,0:0:0:60:
320,192,44220,1,4,0:0:0:40:
448,192,44220,1,0,0:0:0:0:
64,192,44379,1,2,0:0:0:60:
320,192,44379,1,0,0:0:0:0:
64,192,44538,1,2,0:0:0:60:
320,192,44538,1,0,0:0:0:0:
64,192,44696,1,8,0:0:0:60:
192,192,44696,1,0,0:0:0:0:
448,192,44696,1,0,0:0:0:0:
64,192,44855,1,2,0:0:0:60:
192,192,44855,1,4,0:0:0:40:
320,192,44855,1,0,0:0:0:0:
448,192,44855,1,0,0:0:0:0:
64,192,45331,128,0,46204:0:0:0:0:
448,192,45331,1,0,0:0:0:0:
192,192,45649,128,0,46204:0:0:0:0:
448,192,45649,1,0,0:0:0:0:
320,192,45966,128,8,46204:0:0:0:60:
448,192,45966,128,0,46204:0:0:0:60:tom01.wav
64,192,46284,128,2,46443:0:0:0:60:
320,192,46284,128,4,46760:0:0:0:40:
448,192,46284,128,0,46760:0:0:0:0:
64,192,46601,128,8,46760:0:0:0:60:
192,192,46601,128,0,46760:0:0:0:0:
64,192,46919,1,2,0:0:0:60:
320,192,46919,128,0,47236:0:0:0:0:
448,192,46919,128,0,47236:0:0:0:0:
64,192,47077,1,0,0:0:0:60:LR_HiHat Click.wav
64,192,47236,1,8,0:0:0:60:
192,192,47236,1,0,0:0:0:0:
192,192,47395,128,0,47871:0:0:0:60:LR_HiHat Click.wav
320,192,47395,128,0,47554:0:0:0:0:
64,192,47554,1,2,0:0:0:60:
448,192,47554,1,0,0:0:0:0:
320,192,47712,1,0,0:0:0:60:LR_HiHat Click.wav
64,192,47871,1,8,0:0:0:60:
448,192,47871,1,0,0:0:0:0:
320,192,48030,1,0,0:0:0:60:LR_HiHat Click.wav
64,192,48189,128,2,48347:0:0:0:60:
192,192,48189,128,0,48347:0:0:0:0:
448,192,48189,1,0,0:0:0:0:
448,192,48347,1,0,0:0:0:60:LR_HiHat Click.wav
64,192,48506,1,8,0:0:0:60:
320,192,48506,128,0,48665:0:0:0:0:
448,192,48506,128,0,48665:0:0:0:0:
64,192,48665,1,0,0:0:0:60:LR_HiHat Click.wav
192,192,48823,128,2,48982:0:0:0:60:
320,192,48823,128,0,48982:0:0:0:0:
448,192,48823,1,0,0:0:0:0:
64,192,48982,1,0,0:0:0:60:LR_HiHat Click.wav
64,192,49141,128,8,49300:0:0:0:60:
320,192,49141,1,0,0:0:0:0:
448,192,49141,128,0,49300:0:0:0:0:
192,192,49300,128,0,49617:0:0:0:60:LR_HiHat Click.wav
320,192,49300,128,0,49458:0:0:0:0:
64,192,49458,1,2,0:0:0:60:
448,192,49458,1,0,0:0:0:0:
64,192,49617,128,0,49776:0:0:0:60:LR_HiHat Click.wav
320,192,49617,128,0,49776:0:0:0:0:
192,192,49776,1,8,0:0:0:60:
448,192,49776,1,0,0:0:0:0:
64,192,49935,128,0,50093:0:0:0:60:LR_HiHat Click.wav
320,192,49935,128,0,50252:0:0:0:0:
192,192,50093,1,2,0:0:0:60:
448,192,50093,1,0,0:0:0:0:
192,192,50252,1,0,0:0:0:60:LR_HiHat Click.wav
64,192,50411,128,8,50887:0:0:0:60:
320,192,50411,1,0,0:0:0:0:
448,192,50411,128,0,50569:0:0:0:0:
320,192,50569,1,0,0:0:0:60:LR_HiHat Click.wav
192,192,50728,1,2,0:0:0:60:
448,192,50728,128,0,51046:0:0:0:0:
192,192,50887,1,0,0:0:0:60:LR_HiHat Click.wav
64,192,51046,128,8,51204:0:0:0:60:
192,192,51046,128,0,51204:0:0:0:0:
320,192,51046,1,0,0:0:0:0:
448,192,51204,1,0,0:0:0:60:tom01.wav
64,192,51284,1,0,0:0:0:60:tom01.wav
192,192,51363,128,2,51522:0:0:0:60:
320,192,51363,128,4,51839:0:0:0:40:
448,192,51363,128,0,51839:0:0:0:0:
64,192,51681,128,8,51839:0:0:0:60:
192,192,51681,128,0,51839:0:0:0:0:
192,192,51998,1,2,0:0:0:60:
448,192,51998,128,0,52316:0:0:0:0:
192,192,52157,1,0,0:0:0:60:LR_HiHat Click.wav
64,192,52316,128,8,52474:0:0:0:60:
320,192,52316,1,0,0:0:0:0:
192,192,52474,128,0,52950:0:0:0:60:LR_HiHat Click.wav
448,192,52474,128,0,52633:0:0:0:0:
64,192,52633,1,2,0:0:0:60:
320,192,52633,1,0,0:0:0:0:
320,192,52792,1,0,0:0:0:60:LR_HiHat Click.wav
64,192,52950,1,8,0:0:0:60:
448,192,52950,1,0,0:0:0:0:
320,192,53109,1,0,0:0:0:60:LR_HiHat Click.wav
64,192,53268,128,2,53744:0:0:0:60:
192,192,53268,1,0,0:0:0:0:
448,192,53268,1,0,0:0:0:0:
192,192,53427,1,0,0:0:0:60:LR_HiHat Click.wav
320,192,53585,1,8,0:0:0:60:
448,192,53585,128,0,53744:0:0:0:0:
320,192,53744,1,0,0:0:0:60:LR_HiHat Click.wav
64,192,53903,128,2,54062:0:0:0:60:
192,192,53903,128,4,54062:0:0:0:40:
448,192,53903,128,0,54379:0:0:0:0:
320,192,54062,1,0,0:0:0:60:LR_HiHat Click.wav
64,192,54220,1,8,0:0:0:60:
320,192,54220,1,0,0:0:0:0:
192,192,54379,128,0,54538:0:0:0:60:LR_HiHat Click.wav
64,192,54538,128,2,54696:0:0:0:60:
320,192,54538,128,0,55014:0:0:0:0:
448,192,54538,128,0,54696:0:0:0:0:
192,192,54696,1,0,0:0:0:60:LR_HiHat Click.wav
192,192,54855,1,8,0:0:0:60:
448,192,54855,1,0,0:0:0:45:HHOpen.wav
64,192,55014,128,0,55173:0:0:0:60:LR_HiHat Click.wav
192,192,55173,128,2,55649:0:0:0:60:
320,192,55173,128,4,55331:0:0:0:40:
448,192,55173,128,0,55331:0:0:0:0:
64,192,55331,1,0,0:0:0:60:LR_HiHat Click.wav
64,192,55490,1,8,0:0:0:60:
320,192,55490,1,0,0:0:0:45:HHOpen.wav
448,192,55649,128,0,55808:0:0:0:60:LR_HiHat Click.wav
64,192,55808,128,2,56443:0:0:0:60:
192,192,55808,128,0,55966:0:0:0:0:
448,192,55966,1,2,0:0:0:60:
320,192,56046,1,2,0:0:0:60:
192,192,56125,1,8,0:0:0:60:
448,192,56125,1,0,0:0:0:0:
320,192,56284,1,2,0:0:0:60:
192,192,56363,1,2,0:0:0:60:
320,192,56443,1,4,0:0:0:40:
448,192,56443,1,2,0:0:0:60:
64,192,56760,1,8,0:0:0:60:
192,192,56760,1,0,0:0:0:0:
448,192,56760,1,0,0:0:0:0:
448,192,56919,1,0,0:0:0:60:LR_HiHat Click.wav
192,192,57077,1,2,0:0:0:60:
448,192,57077,128,0,57395:0:0:0:0:
64,192,57236,1,2,0:0:0:60:
192,192,57236,1,0,0:0:0:60:LR_HiHat Click.wav
64,192,57395,1,8,0:0:0:60:
320,192,57395,128,0,57554:0:0:0:0:
448,192,57554,128,0,58030:0:0:0:60:LR_HiHat Click.wav
64,192,57712,1,2,0:0:0:60:
192,192,57712,1,0,0:0:0:0:
64,192,57871,1,0,0:0:0:60:LR_HiHat Click.wav
192,192,58030,128,8,58347:0:0:0:60:
320,192,58030,1,0,0:0:0:0:
320,192,58189,1,0,0:0:0:60:LR_HiHat Click.wav
64,192,58347,128,2,58665:0:0:0:60:
448,192,58347,1,0,0:0:0:0:
320,192,58506,1,2,0:0:0:60:
448,192,58506,1,0,0:0:0:60:LR_HiHat Click.wav
192,192,58665,1,8,0:0:0:60:
320,192,58665,128,0,58823:0:0:0:0:
192,192,58823,1,0,0:0:0:60:LR_HiHat Click.wav
448,192,58823,128,0,59617:0:0:0:0:
64,192,58982,1,2,0:0:0:60:
320,192,58982,1,0,0:0:0:0:
64,192,59141,1,0,0:0:0:60:LR_HiHat Click.wav
192,192,59300,1,8,0:0:0:60:
320,192,59300,128,0,59458:0:0:0:0:
192,192,59458,128,0,59617:0:0:0:60:LR_HiHat Click.wav
64,192,59617,128,2,59776:0:0:0:60:
320,192,59617,1,0,0:0:0:0:
192,192,59776,128,2,59935:0:0:0:60:
448,192,59776,1,0,0:0:0:60:LR_HiHat Click.wav
64,192,59935,1,8,0:0:0:60:
320,192,59935,1,0,0:0:0:0:
448,192,59935,1,0,0:0:0:0:
320,192,60093,128,0,60569:0:0:0:60:LR_HiHat Click.wav
64,192,60252,1,2,0:0:0:60:
448,192,60252,1,0,0:0:0:0:
192,192,60411,1,0,0:0:0:60:LR_HiHat Click.wav
64,192,60569,1,8,0:0:0:60:
192,192,60569,1,0,0:0:0:0:
448,192,60569,128,0,60728:0:0:0:0:
192,192,60728,128,0,61204:0:0:0:60:LR_HiHat Click.wav
64,192,60887,1,2,0:0:0:60:
320,192,60887,1,0,0:0:0:0:
64,192,61046,1,2,0:0:0:60:
448,192,61046,1,0,0:0:0:60:LR_HiHat Click.wav
320,192,61204,1,8,0:0:0:60:
448,192,61204,1,0,0:0:0:0:
64,192,61363,1,8,0:0:0:60:
320,192,61363,1,0,0:0:0:0:
192,192,61443,1,8,0:0:0:60:
64,192,61522,1,2,0:0:0:60:
320,192,61522,1,4,0:0:0:40:
448,192,61522,128,0,61839:0:0:0:0:
64,192,61839,128,8,61998:0:0:0:60:
192,192,61839,1,0,0:0:0:0:
320,192,61839,1,0,0:0:0:0:
320,192,61998,128,0,62157:0:0:0:60:LR_HiHat Click.wav
64,192,62157,1,2,0:0:0:60:
448,192,62157,1,0,0:0:0:0:
192,192,62316,128,2,62474:0:0:0:60:
320,192,62316,1,0,0:0:0:60:LR_HiHat Click.wav
64,192,62474,1,8,0:0:0:60:
320,192,62474,1,0,0:0:0:0:
448,192,62474,128,0,62792:0:0:0:0:
192,192,62633,1,0,0:0:0:60:LR_HiHat Click.wav
64,192,62792,1,2,0:0:0:60:
320,192,62792,1,0,0:0:0:0:
320,192,62950,1,0,0:0:0:60:LR_HiHat Click.wav
64,192,63109,128,8,63268:0:0:0:60:
192,192,63109,1,0,0:0:0:0:
448,192,63109,1,0,0:0:0:0:
448,192,63268,1,0,0:0:0:60:LR_HiHat Click.wav
64,192,63427,1,2,0:0:0:60:
320,192,63427,128,0,63585:0:0:0:0:
64,192,63585,1,2,0:0:0:60:
192,192,63744,1,8,0:0:0:60:
320,192,63744,1,0,0:0:0:0:
448,192,63744,128,0,63903:0:0:0:0:
192,192,63903,1,0,0:0:0:60:LR_HiHat Click.wav
64,192,64062,1,2,0:0:0:60:
320,192,64062,1,4,0:0:0:40:
448,192,64062,128,0,64220:0:0:0:0:
192,192,64220,1,0,0:0:0:60:LR_HiHat Click.wav
64,192,64379,1,8,0:0:0:60:
320,192,64379,1,0,0:0:0:0:
448,192,64379,1,0,0:0:0:0:
64,192,64538,128,0,64696:0:0:0:60:LR_HiHat Click.wav
448,192,64538,1,0,0:0:0:0:
192,192,64696,1,2,0:0:0:60:
320,192,64696,1,0,0:0:0:0:
64,192,64855,1,2,0:0:0:60:
448,192,64855,128,0,65014:0:0:0:60:LR_HiHat Click.wav
64,192,65014,1,8,0:0:0:60:
192,192,65014,1,0,0:0:0:0:
320,192,65014,1,0,0:0:0:0:
64,192,65173,1,8,0:0:0:60:
192,192,65173,128,0,65490:0:0:0:60:LR_HiHat Click.wav
448,192,65173,1,0,0:0:0:0:
320,192,65331,1,2,0:0:0:60:
320,192,65490,1,0,0:0:0:60:LR_HiHat Click.wav
448,192,65569,1,8,0:0:0:60:
64,192,65649,1,8,0:0:0:60:
192,192,65649,1,0,0:0:0:0:
320,192,65728,1,2,0:0:0:60:
64,192,65808,1,2,0:0:0:60:
192,192,65887,1,8,0:0:0:60:
64,192,65966,1,8,0:0:0:60:
448,192,65966,1,0,0:0:0:0:
320,192,66046,1,2,0:0:0:60:
192,192,66125,1,0,0:0:0:60:tom01.wav
448,192,66204,1,0,0:0:0:60:tom01.wav
64,192,66284,1,8,0:0:0:60:
320,192,66284,1,0,0:0:0:0:
192,192,66363,1,8,0:0:0:60:
448,192,66443,1,8,0:0:0:60:
320,192,66522,1,8,0:0:0:60:
64,192,66601,128,4,67077:0:0:0:40:
192,192,66601,1,2,0:0:0:60:
448,192,66601,1,0,0:0:0:0:
320,192,66760,1,0,0:0:0:60:LR_HiHat Click.wav
320,192,66919,128,8,67077:0:0:0:60:
448,192,66919,128,0,67077:0:0:0:0:
192,192,67077,1,0,0:0:0:60:LR_HiHat Click.wav
64,192,67236,128,2,67554:0:0:0:60:
320,192,67236,1,0,0:0:0:0:
320,192,67395,1,0,0:0:0:60:LR_HiHat Click.wav
192,192,67554,1,8,0:0:0:60:
448,192,67554,1,0,0:0:0:0:
64,192,67712,1,0,0:0:0:60:LR_HiHat Click.wav
320,192,67712,128,0,68189:0:0:0:0:
64,192,67871,1,2,0:0:0:60:
448,192,67871,1,0,0:0:0:0:
192,192,68030,1,0,0:0:0:60:LR_HiHat Click.wav
64,192,68189,1,8,0:0:0:60:
192,192,68189,1,0,0:0:0:0:
448,192,68189,1,0,0:0:0:0:
320,192,68347,1,0,0:0:0:60:LR_HiHat Click.wav
64,192,68506,128,2,68665:0:0:0:60:
448,192,68506,1,0,0:0:0:0:
448,192,68665,1,0,0:0:0:60:LR_HiHat Click.wav
192,192,68823,128,8,68982:0:0:0:60:
320,192,68823,1,0,0:0:0:0:
448,192,68823,1,0,0:0:0:0:
320,192,68982,1,0,0:0:0:60:LR_HiHat Click.wav
64,192,69141,1,2,0:0:0:60:
320,192,69141,128,0,69300:0:0:0:0:
64,192,69300,1,0,0:0:0:60:LR_HiHat Click.wav
192,192,69458,1,8,0:0:0:60:
320,192,69458,1,0,0:0:0:0:
448,192,69458,128,0,69617:0:0:0:0:
64,192,69617,128,0,69776:0:0:0:60:LR_HiHat Click.wav
320,192,69776,1,2,0:0:0:60:
448,192,69776,1,0,0:0:0:0:
192,192,69935,128,0,70093:0:0:0:60:LR_HiHat Click.wav
64,192,70093,1,8,0:0:0:60:
320,192,70093,1,0,0:0:0:0:
448,192,70093,1,0,0:0:0:0:
192,192,70252,128,0,70569:0:0:0:60:LR_HiHat Click.wav
320,192,70411,1,2,0:0:0:60:
448,192,70411,1,0,0:0:0:0:
448,192,70569,1,0,0:0:0:60:LR_HiHat Click.wav
64,192,70728,128,8,70887:0:0:0:60:
320,192,70728,1,0,0:0:0:0:
448,192,70728,1,0,0:0:0:0:
320,192,70887,1,0,0:0:0:60:LR_HiHat Click.wav
192,192,71046,1,2,0:0:0:60:
448,192,71046,128,0,71204:0:0:0:60:LR_HiHat Click.wav
192,192,71204,1,0,0:0:0:60:LR_HiHat Click.wav
64,192,71363,1,8,0:0:0:60:
320,192,71363,128,0,71522:0:0:0:0:
448,192,71363,1,0,0:0:0:0:
64,192,71522,1,0,0:0:0:60:LR_HiHat Click.wav
192,192,71681,1,2,0:0:0:60:
320,192,71681,1,4,0:0:0:40:
448,192,71681,128,0,72157:0:0:0:0:
192,192,71839,1,0,0:0:0:60:LR_HiHat Click.wav
64,192,71998,1,8,0:0:0:60:
320,192,71998,1,0,0:0:0:0:
64,192,72157,1,0,0:0:0:60:LR_HiHat Click.wav
320,192,72316,1,2,0:0:0:60:
448,192,72316,128,0,72633:0:0:0:0:
320,192,72474,1,0,0:0:0:60:LR_HiHat Click.wav
64,192,72633,128,8,72792:0:0:0:60:
192,192,72633,1,0,0:0:0:0:
320,192,72792,128,0,73268:0:0:0:60:LR_HiHat Click.wav
64,192,72950,1,2,0:0:0:60:
448,192,72950,1,0,0:0:0:0:
192,192,73109,1,0,0:0:0:60:LR_HiHat Click.wav
64,192,73268,1,8,0:0:0:60:
192,192,73268,1,0,0:0:0:0:
448,192,73268,1,0,0:0:0:0:
448,192,73427,1,0,0:0:0:60:LR_HiHat Click.wav
64,192,73585,128,2,73903:0:0:0:60:
320,192,73585,1,0,0:0:0:0:
320,192,73744,1,0,0:0:0:60:LR_HiHat Click.wav
192,192,73903,1,8,0:0:0:60:
448,192,73903,128,0,74220:0:0:0:0:
192,192,74062,1,0,0:0:0:60:LR_HiHat Click.wav
64,192,74220,1,2,0:0:0:60:
192,192,74220,1,4,0:0:0:40:
320,192,74220,128,0,74538:0:0:0:0:
448,192,74379,1,0,0:0:0:60:LR_HiHat Click.wav
64,192,74538,1,8,0:0:0:60:
192,192,74538,128,0,74696:0:0:0:0:
320,192,74696,128,0,75014:0:0:0:60:LR_HiHat Click.wav
64,192,74855,1,2,0:0:0:60:
448,192,74855,1,0,0:0:0:0:
64,192,75014,128,0,75173:0:0:0:60:LR_HiHat Click.wav
192,192,75014,1,0,0:0:0:0:
320,192,75173,1,8,0:0:0:60:
448,192,75173,1,0,0:0:0:0:
448,192,75331,128,0,75808:0:0:0:60:LR_HiHat Click.wav
64,192,75490,1,2,0:0:0:60:
192,192,75490,1,0,0:0:0:0:
192,192,75649,1,0,0:0:0:60:LR_HiHat Click.wav
64,192,75808,1,8,0:0:0:60:
192,192,75808,1,0,0:0:0:0:
320,192,75808,1,0,0:0:0:0:
320,192,75966,1,0,0:0:0:60:LR_HiHat Click.wav
64,192,76125,1,2,0:0:0:60:
192,192,76125,1,4,0:0:0:40:
448,192,76125,1,0,0:0:0:0:
320,192,76284,1,8,0:0:0:60:
192,192,76363,1,8,0:0:0:60:
64,192,76443,1,8,0:0:0:60:
448,192,76443,1,0,0:0:0:0:
320,192,76522,1,8,0:0:0:60:
64,192,76601,1,8,0:0:0:60:
448,192,76601,1,0,0:0:0:0:
192,192,76681,1,8,0:0:0:60:
64,192,76760,1,2,0:0:0:60:
320,192,76760,1,0,0:0:0:0:
64,192,77077,128,8,77712:0:0:0:60:
192,192,77077,1,4,0:0:0:40:
320,192,77077,1,0,0:0:0:0:
448,192,77077,1,0,0:0:0:0:
320,192,77395,1,2,0:0:0:60:
448,192,77395,1,0,0:0:0:0:
192,192,77554,1,2,0:0:0:60:
320,192,77554,1,0,0:0:0:0:
192,192,77712,1,8,0:0:0:60:
320,192,77712,1,0,0:0:0:45:HHOpen.wav
448,192,77712,1,0,0:0:0:0:
448,192,77871,128,0,78506:0:0:0:60:LR_HiHat Click.wav
64,192,78030,1,2,0:0:0:60:
192,192,78030,1,0,0:0:0:45:HHOpen.wav
64,192,78347,128,8,79141:0:0:0:60:
192,192,78347,128,0,78506:0:0:0:45:HHOpen.wav
320,192,78347,1,0,0:0:0:0:
320,192,78506,1,0,0:0:0:60:LR_HiHat Click.wav
192,192,78665,1,2,0:0:0:60:
448,192,78665,128,0,79141:0:0:0:45:HHOpen.wav
192,192,78823,1,2,0:0:0:60:
192,192,78982,128,8,79141:0:0:0:60:
320,192,78982,1,0,0:0:0:45:HHOpen.wav
64,192,79300,128,2,79776:0:0:0:60:
192,192,79300,128,0,79458:0:0:0:45:HHOpen.wav
448,192,79300,1,0,0:0:0:0:
448,192,79458,1,0,0:0:0:60:LR_HiHat Click.wav
192,192,79617,128,8,79776:0:0:0:60:
320,192,79617,1,0,0:0:0:45:HHOpen.wav
448,192,79776,128,0,80093:0:0:0:60:LR_HiHat Click.wav
64,192,79935,1,2,0:0:0:60:
192,192,79935,1,0,0:0:0:45:HHOpen.wav
192,192,80093,1,2,0:0:0:60:
320,192,80093,128,0,80411:0:0:0:60:LR_HiHat Click.wav
64,192,80252,1,8,0:0:0:60:
192,192,80252,1,0,0:0:0:45:HHOpen.wav
448,192,80252,1,0,0:0:0:0:
64,192,80411,128,0,80728:0:0:0:60:LR_HiHat Click.wav
320,192,80569,1,2,0:0:0:60:
448,192,80569,1,0,0:0:0:45:HHOpen.wav
192,192,80728,1,2,0:0:0:60:
320,192,80728,1,0,0:0:0:60:LR_HiHat Click.wav
64,192,80887,128,8,81125:0:0:0:60:
320,192,80887,128,0,80966:0:0:0:45:HHOpen.wav
448,192,80887,128,0,81046:0:0:0:0:
192,192,81046,1,0,0:0:0:60:LR_HiHat Click.wav
64,192,81204,128,8,81363:0:0:0:60:
192,192,81204,128,0,81284:0:0:0:60:tom04.wav
448,192,81204,128,0,81443:0:0:0:0:
320,192,81363,1,0,0:0:0:0:
192,192,81443,1,8,0:0:0:60:
64,192,81522,128,8,81760:0:0:0:60:
320,192,81522,128,0,81601:0:0:0:0:
448,192,81522,128,0,81681:0:0:0:0:
192,192,81681,1,0,0:0:0:0:
320,192,81760,1,8,0:0:0:60:
64,192,81839,1,8,0:0:0:60:
192,192,81839,1,4,0:0:0:40:
448,192,81839,1,0,0:0:0:0:
192,192,81998,1,0,0:0:0:0:
64,192,82157,128,8,82395:0:0:0:60:
320,192,82157,128,0,82236:0:0:0:60:LR_HiHat Click.wav
448,192,82157,128,0,82395:0:0:0:0:
320,192,82316,128,0,82395:0:0:0:0:
64,192,82474,128,2,82712:0:0:0:60:
192,192,82474,128,0,82554:0:0:0:60:LR_HiHat Click.wav
448,192,82474,128,0,82712:0:0:0:0:
192,192,82633,128,0,82712:0:0:0:0:
64,192,82792,128,8,83030:0:0:0:60:
320,192,82792,128,0,82871:0:0:0:60:LR_HiHat Click.wav
448,192,82792,128,0,83030:0:0:0:0:
320,192,82950,128,0,83030:0:0:0:0:
64,192,83109,1,2,0:0:0:60:
192,192,83109,1,0,0:0:0:60:LR_HiHat Click.wav
448,192,83109,1,0,0:0:0:0:
192,192,83268,1,0,0:0:0:0:
64,192,83427,128,8,83665:0:0:0:60:
192,192,83427,128,0,83665:0:0:0:60:LR_HiHat Click.wav
448,192,83427,128,0,83506:0:0:0:0:
448,192,83585,128,0,83665:0:0:0:0:
64,192,83744,128,2,83823:0:0:0:60:
320,192,83744,128,0,83903:0:0:0:60:LR_HiHat Click.wav
448,192,83744,128,0,83903:0:0:0:0:
64,192,83903,128,0,83982:0:0:0:0:
320,192,83982,1,8,0:0:0:60:
448,192,83982,1,0,0:0:0:0:
64,192,84062,1,8,0:0:0:60:
192,192,84062,1,0,0:0:0:60:LR_HiHat Click.wav
320,192,84141,1,8,0:0:0:60:
448,192,84141,1,0,0:0:0:0:
64,192,84220,1,8,0:0:0:60:
192,192,84220,1,0,0:0:0:0:
320,192,84300,1,8,0:0:0:60:
448,192,84300,1,0,0:0:0:0:
64,192,84379,128,2,85331:0:0:0:60:
192,192,84379,1,4,0:0:0:40:
448,192,84379,1,0,0:0:0:0:
448,192,85331,128,0,85649:0:0:0:0:
192,192,85490,128,0,85649:0:0:0:0:
320,192,85649,128,0,86125:0:0:0:0:
64,192,85966,128,0,86125:0:0:0:0:
448,192,86125,128,0,86443:0:0:0:0:
192,192,86443,1,2,0:0:0:60:
320,192,86522,1,2,0:0:0:60:
64,192,86601,1,8,0:0:0:60:
448,192,86601,1,0,0:0:0:0:
320,192,86760,128,0,89458:0:0:0:0:
64,192,86919,1,2,0:0:0:60:
192,192,86919,1,4,0:0:0:40:
448,192,86919,128,0,87077:0:0:0:0:
64,192,87077,128,0,87236:0:0:0:60:LR_HiHat Click.wav
192,192,87236,128,8,87395:0:0:0:60:
448,192,87236,1,0,0:0:0:0:
64,192,87395,128,0,87554:0:0:0:60:LR_HiHat Click.wav
448,192,87554,128,2,87712:0:0:0:60:
192,192,87712,128,0,87871:0:0:0:60:LR_HiHat Click.wav
64,192,87871,128,8,88030:0:0:0:60:
448,192,87871,1,0,0:0:0:0:
192,192,88030,128,0,88189:0:0:0:60:LR_HiHat Click.wav
448,192,88189,128,2,88347:0:0:0:60:
64,192,88347,128,0,88506:0:0:0:60:LR_HiHat Click.wav
192,192,88506,128,8,88665:0:0:0:60:
448,192,88506,1,0,0:0:0:0:
64,192,88665,128,0,88823:0:0:0:60:LR_HiHat Click.wav
448,192,88823,128,2,88982:0:0:0:60:
192,192,88982,128,0,89141:0:0:0:60:LR_HiHat Click.wav
64,192,89141,1,8,0:0:0:60:
448,192,89141,128,0,89300:0:0:0:0:
192,192,89300,128,0,89458:0:0:0:60:LR_HiHat Click.wav
64,192,89458,128,2,89617:0:0:0:60:
448,192,89458,1,0,0:0:0:0:
320,192,89617,128,0,89776:0:0:0:60:LR_HiHat Click.wav
64,192,89776,1,8,0:0:0:60:
192,192,89776,128,0,89935:0:0:0:0:
448,192,89776,1,0,0:0:0:0:
448,192,89935,128,0,90093:0:0:0:60:LR_HiHat Click.wav
192,192,90093,1,2,0:0:0:60:
320,192,90093,128,0,90252:0:0:0:0:
64,192,90252,128,0,90411:0:0:0:60:LR_HiHat Click.wav
192,192,90411,1,8,0:0:0:60:
320,192,90411,1,0,0:0:0:0:
448,192,90411,128,0,90569:0:0:0:0:
64,192,90569,128,0,90728:0:0:0:60:LR_HiHat Click.wav
320,192,90728,128,2,90887:0:0:0:60:
448,192,90728,1,0,0:0:0:0:
64,192,90887,128,0,91046:0:0:0:60:LR_HiHat Click.wav
192,192,91046,128,8,91204:0:0:0:60:
320,192,91046,1,0,0:0:0:0:
448,192,91046,1,0,0:0:0:0:
64,192,91204,128,0,91363:0:0:0:60:LR_HiHat Click.wav
320,192,91363,1,2,0:0:0:60:
448,192,91363,128,0,91522:0:0:0:0:
64,192,91522,1,2,0:0:0:60:
192,192,91522,128,0,91681:0:0:0:60:LR_HiHat Click.wav
64,192,91681,1,8,0:0:0:60:
320,192,91681,128,0,91998:0:0:0:0:
448,192,91681,1,0,0:0:0:0:
192,192,91839,128,2,91998:0:0:0:60:
64,192,91998,1,8,0:0:0:60:
448,192,91998,1,4,0:0:0:40:
448,192,92157,1,2,0:0:0:60:
192,192,92316,1,2,0:0:0:60:
448,192,92316,1,0,0:0:0:0:
64,192,92474,1,8,0:0:0:60:
320,192,92474,1,4,0:0:0:40:
448,192,92474,1,0,0:0:0:0:
64,192,92633,1,2,0:0:0:60:
64,192,92792,1,2,0:0:0:60:
320,192,92792,1,0,0:0:0:0:
64,192,92950,1,8,0:0:0:60:
192,192,92950,1,4,0:0:0:40:
448,192,92950,1,0,0:0:0:0:
192,192,93109,1,2,0:0:0:60:
192,192,93268,1,2,0:0:0:60:
448,192,93268,1,0,0:0:0:0:
64,192,93427,1,8,0:0:0:60:
320,192,93427,1,4,0:0:0:40:
448,192,93427,1,0,0:0:0:0:
320,192,93585,1,2,0:0:0:60:
64,192,93744,1,2,0:0:0:60:
320,192,93744,1,0,0:0:0:0:
64,192,93903,1,8,0:0:0:60:
192,192,93903,1,4,0:0:0:40:
448,192,93903,1,0,0:0:0:0:
192,192,94062,1,2,0:0:0:60:
64,192,94220,1,8,0:0:0:60:
320,192,94220,1,0,0:0:0:0:
448,192,94220,1,0,0:0:0:0:
192,192,94300,1,0,0:0:0:0:
448,192,94379,1,2,0:0:0:60:
320,192,94458,1,2,0:0:0:60:
64,192,94538,1,8,0:0:0:60:
192,192,94538,1,4,0:0:0:40:
448,192,94538,1,0,0:0:0:0:
64,192,94696,1,2,0:0:0:60:
320,192,94696,1,0,0:0:0:0:
64,192,94855,128,2,94935:0:0:0:60:
320,192,94855,128,0,94935:0:0:0:0:
64,192,95014,128,2,95093:0:0:0:60:
320,192,95014,128,4,95093:0:0:0:40:
448,192,95014,128,0,95093:0:0:0:0:
64,192,95173,128,2,95252:0:0:0:60:
320,192,95173,128,0,95252:0:0:0:0:
64,192,95331,128,2,95411:0:0:0:60:
320,192,95331,128,0,95411:0:0:0:0:
192,192,95490,128,2,95569:0:0:0:60:
448,192,95490,128,0,95569:0:0:0:60:tom04.wav
64,192,95649,128,2,95887:0:0:0:60:
192,192,95649,128,4,95887:0:0:0:40:
320,192,95649,128,0,95887:0:0:0:0:
448,192,95649,128,0,95887:0:0:0:0:
64,192,95966,128,2,96046:0:0:0:60:
192,192,95966,128,0,96046:0:0:0:0:
64,192,96125,128,8,96204:0:0:0:60:
192,192,96125,128,4,96204:0:0:0:40:
448,192,96125,128,0,96204:0:0:0:0:
64,192,96284,128,0,96363:0:0:0:60:LR_HiHat Click.wav
192,192,96284,128,0,96363:0:0:0:0:
320,192,96443,128,2,96522:0:0:0:60:
448,192,96443,128,0,96522:0:0:0:0:
320,192,96601,128,0,96681:0:0:0:60:LR_HiHat Click.wav
448,192,96601,128,0,96681:0:0:0:0:
192,192,96681,1,8,0:0:0:60:
64,192,96760,128,8,96839:0:0:0:60:
320,192,96760,128,0,96839:0:0:0:0:
448,192,96760,128,0,96839:0:0:0:0:
64,192,96919,128,8,96998:0:0:0:60:
320,192,96919,128,0,96998:0:0:0:0:
448,192,96919,128,0,96998:0:0:0:0:
64,192,97077,128,4,97395:0:0:0:40:
320,192,97077,128,2,97236:0:0:0:60:
448,192,97077,1,0,0:0:0:0:
192,192,97395,128,8,97554:0:0:0:60:
320,192,97395,1,0,0:0:0:0:
448,192,97395,1,0,0:0:0:0:
448,192,97554,128,0,97712:0:0:0:60:LR_HiHat Click.wav
64,192,97712,128,2,97871:0:0:0:60:
320,192,97712,1,0,0:0:0:0:
320,192,97871,1,2,0:0:0:60:
448,192,97871,128,0,98030:0:0:0:0:
192,192,98030,128,0,98189:0:0:0:60:LR_HiHat Click.wav
64,192,98189,1,8,0:0:0:60:
320,192,98189,1,0,0:0:0:45:HHOpen.wav
448,192,98189,128,0,98506:0:0:0:0:
192,192,98347,128,0,98506:0:0:0:0:
64,192,98506,1,2,0:0:0:60:
320,192,98506,1,0,0:0:0:0:
192,192,98665,1,8,0:0:0:60:
320,192,98665,128,0,98982:0:0:0:0:
448,192,98665,128,0,98823:0:0:0:0:
64,192,98823,1,0,0:0:0:60:LR_HiHat Click.wav
64,192,98982,128,2,99141:0:0:0:60:
192,192,98982,128,0,99300:0:0:0:0:
320,192,99141,1,2,0:0:0:60:
448,192,99141,1,0,0:0:0:0:
64,192,99300,128,8,99617:0:0:0:60:
320,192,99300,128,0,99458:0:0:0:0:
448,192,99300,1,0,0:0:0:0:
192,192,99458,1,0,0:0:0:60:LR_HiHat Click.wav
320,192,99617,128,2,99935:0:0:0:60:
448,192,99617,128,0,99776:0:0:0:0:
64,192,99776,1,0,0:0:0:0:
64,192,99935,1,8,0:0:0:60:
192,192,99935,1,0,0:0:0:0:
448,192,99935,128,0,100093:0:0:0:0:
192,192,100093,128,0,100411:0:0:0:60:LR_HiHat Click.wav
64,192,100252,128,2,100411:0:0:0:60:
448,192,100252,1,0,0:0:0:0:
320,192,100411,128,2,100728:0:0:0:60:
448,192,100411,1,0,0:0:0:0:
192,192,100569,128,0,100728:0:0:0:60:LR_HiHat Click.wav
64,192,100728,1,8,0:0:0:60:
448,192,100728,128,0,101522:0:0:0:0:
320,192,100887,128,0,101046:0:0:0:0:
64,192,101046,1,2,0:0:0:60:
192,192,101046,1,0,0:0:0:0:
64,192,101204,128,8,101363:0:0:0:60:
192,192,101204,1,0,0:0:0:0:
320,192,101204,1,0,0:0:0:0:
320,192,101363,1,0,0:0:0:60:LR_HiHat Click.wav
64,192,101522,1,2,0:0:0:60:
192,192,101522,128,0,101681:0:0:0:0:
320,192,101681,1,2,0:0:0:60:
448,192,101681,1,0,0:0:0:0:
192,192,101839,1,8,0:0:0:60:
320,192,101839,128,0,101998:0:0:0:0:
448,192,101839,1,0,0:0:0:0:
64,192,101998,128,0,102157:0:0:0:60:LR_HiHat Click.wav
320,192,102157,128,2,102474:0:0:0:60:
448,192,102157,1,0,0:0:0:0:
192,192,102316,1,0,0:0:0:0:
64,192,102474,1,8,0:0:0:60:
192,192,102474,1,0,0:0:0:0:
448,192,102474,128,0,102633:0:0:0:0:
64,192,102633,128,0,102792:0:0:0:60:LR_HiHat Click.wav
320,192,102792,1,2,0:0:0:60:
448,192,102792,128,0,102950:0:0:0:0:
64,192,102950,1,2,0:0:0:60:
320,192,102950,128,0,103109:0:0:0:45:HHOpen.wav
192,192,103109,128,0,103268:0:0:0:60:LR_HiHat Click.wav
64,192,103268,1,8,0:0:0:60:
320,192,103268,1,0,0:0:0:0:
448,192,103268,128,0,103744:0:0:0:0:
320,192,103427,128,0,103585:0:0:0:60:LR_HiHat Click.wav
64,192,103585,1,2,0:0:0:60:
192,192,103585,1,0,0:0:0:0:
64,192,103744,1,8,0:0:0:60:
192,192,103744,128,0,103903:0:0:0:0:
320,192,103744,128,0,104062:0:0:0:0:
448,192,103903,1,0,0:0:0:60:LR_HiHat Click.wav
64,192,104062,128,2,104220:0:0:0:60:
192,192,104062,128,0,104379:0:0:0:0:
320,192,104220,1,2,0:0:0:60:
448,192,104220,1,0,0:0:0:0:
64,192,104379,128,8,104696:0:0:0:60:
320,192,104379,1,0,0:0:0:0:
448,192,104379,128,0,104538:0:0:0:0:
192,192,104538,1,0,0:0:0:0:
320,192,104696,128,2,104855:0:0:0:60:
448,192,104696,128,0,105014:0:0:0:0:
64,192,104855,1,0,0:0:0:0:
64,192,105014,1,8,0:0:0:60:
192,192,105014,128,0,105173:0:0:0:0:
320,192,105014,1,0,0:0:0:0:
448,192,105173,128,0,105331:0:0:0:60:LR_HiHat Click.wav
192,192,105331,1,2,0:0:0:60:
320,192,105331,128,0,105490:0:0:0:0:
64,192,105490,128,2,105649:0:0:0:60:
448,192,105490,1,0,0:0:0:45:HHOpen.wav
320,192,105649,128,0,105808:0:0:0:60:LR_HiHat Click.wav
64,192,105808,1,8,0:0:0:60:
192,192,105808,1,0,0:0:0:0:
448,192,105808,128,0,106601:0:0:0:0:
64,192,105966,128,0,106125:0:0:0:60:LR_HiHat Click.wav
192,192,106125,1,2,0:0:0:60:
320,192,106125,1,0,0:0:0:0:
64,192,106284,1,8,0:0:0:60:
320,192,106284,128,0,106443:0:0:0:0:
192,192,106443,1,0,0:0:0:60:LR_HiHat Click.wav
64,192,106601,1,4,0:0:0:40:
320,192,106601,1,2,0:0:0:60:
192,192,106681,1,0,0:0:0:60:LR_HiHat Click.wav
448,192,106760,1,2,0:0:0:60:
320,192,106839,1,8,0:0:0:60:
192,192,106919,1,4,0:0:0:40:
448,192,106919,1,8,0:0:0:60:
64,192,106998,1,2,0:0:0:60:
320,192,107077,1,2,0:0:0:60:
192,192,107157,1,8,0:0:0:60:
64,192,107236,128,2,107554:0:0:0:60:
320,192,107236,128,4,107395:0:0:0:40:
448,192,107236,1,0,0:0:0:0:
192,192,107554,128,8,107871:0:0:0:60:
320,192,107554,1,0,0:0:0:45:HHOpen.wav
448,192,107554,1,0,0:0:0:0:
320,192,107712,128,0,107871:0:0:0:60:LR_HiHat Click.wav
64,192,107871,128,2,108030:0:0:0:60:
448,192,107871,1,0,0:0:0:45:HHOpen.wav
320,192,108030,128,0,108189:0:0:0:60:LR_HiHat Click.wav
64,192,108189,1,8,0:0:0:60:
192,192,108189,128,0,108347:0:0:0:45:HHOpen.wav
448,192,108189,1,0,0:0:0:0:
320,192,108347,128,0,108665:0:0:0:60:LR_HiHat Click.wav
64,192,108506,1,2,0:0:0:60:
448,192,108506,128,0,108665:0:0:0:45:HHOpen.wav
192,192,108665,1,0,0:0:0:60:LR_HiHat Click.wav
64,192,108823,128,8,109141:0:0:0:60:
192,192,108823,128,0,108982:0:0:0:45:HHOpen.wav
448,192,108823,1,0,0:0:0:0:
320,192,108982,1,0,0:0:0:60:LR_HiHat Click.wav
192,192,109141,128,2,109458:0:0:0:60:
320,192,109141,128,0,109300:0:0:0:45:HHOpen.wav
64,192,109300,1,0,0:0:0:60:LR_HiHat Click.wav
64,192,109458,1,8,0:0:0:60:
320,192,109458,128,0,109776:0:0:0:45:HHOpen.wav
448,192,109458,128,0,109617:0:0:0:0:
192,192,109617,1,0,0:0:0:60:LR_HiHat Click.wav
64,192,109776,128,2,109935:0:0:0:60:
448,192,109776,1,0,0:0:0:0:
192,192,109935,1,0,0:0:0:60:LR_HiHat Click.wav
64,192,110093,1,8,0:0:0:60:
320,192,110093,1,0,0:0:0:45:HHOpen.wav
448,192,110093,128,0,110411:0:0:0:0:
192,192,110252,128,0,110411:0:0:0:60:LR_HiHat Click.wav
64,192,110411,128,2,110569:0:0:0:60:
320,192,110411,1,0,0:0:0:45:HHOpen.wav
320,192,110569,128,0,110887:0:0:0:60:LR_HiHat Click.wav
64,192,110728,1,8,0:0:0:60:
192,192,110728,128,0,110887:0:0:0:45:HHOpen.wav
448,192,110728,1,0,0:0:0:0:
448,192,110887,128,0,111681:0:0:0:60:LR_HiHat Click.wav
64,192,111046,128,2,111204:0:0:0:60:
192,192,111046,1,0,0:0:0:45:HHOpen.wav
320,192,111204,1,0,0:0:0:60:LR_HiHat Click.wav
64,192,111363,1,8,0:0:0:60:
192,192,111363,1,0,0:0:0:45:HHOpen.wav
320,192,111363,128,0,111522:0:0:0:0:
64,192,111522,1,0,0:0:0:60:LR_HiHat Click.wav
192,192,111681,128,2,111839:0:0:0:60:
320,192,111681,1,0,0:0:0:45:HHOpen.wav
320,192,111839,1,0,0:0:0:60:LR_HiHat Click.wav
64,192,111998,128,8,112157:0:0:0:60:
192,192,111998,1,0,0:0:0:45:HHOpen.wav
448,192,111998,1,0,0:0:0:0:
320,192,112157,128,0,112316:0:0:0:60:LR_HiHat Click.wav
64,192,112316,128,2,112633:0:0:0:60:
192,192,112316,1,4,0:0:0:40:
448,192,112316,128,0,112474:0:0:0:0:
320,192,112474,1,0,0:0:0:60:LR_HiHat Click.wav
192,192,112633,1,8,0:0:0:60:
320,192,112633,128,0,112792:0:0:0:45:HHOpen.wav
448,192,112633,1,0,0:0:0:0:
64,192,112792,1,0,0:0:0:60:LR_HiHat Click.wav
320,192,112950,128,2,113109:0:0:0:60:
448,192,112950,1,0,0:0:0:45:HHOpen.wav
64,192,113109,128,0,113268:0:0:0:60:LR_HiHat Click.wav
192,192,113268,128,8,113427:0:0:0:60:
320,192,113268,1,0,0:0:0:45:HHOpen.wav
448,192,113268,1,0,0:0:0:0:
448,192,113427,128,0,113744:0:0:0:60:LR_HiHat Click.wav
64,192,113585,1,2,0:0:0:60:
320,192,113585,128,0,113744:0:0:0:45:HHOpen.wav
192,192,113744,1,0,0:0:0:60:LR_HiHat Click.wav
64,192,113903,128,8,114062:0:0:0:60:
320,192,113903,1,0,0:0:0:45:HHOpen.wav
448,192,113903,1,0,0:0:0:0:
320,192,114062,128,0,114379:0:0:0:60:LR_HiHat Click.wav
64,192,114220,1,2,0:0:0:60:
448,192,114220,128,0,114379:0:0:0:45:HHOpen.wav
192,192,114379,1,0,0:0:0:60:LR_HiHat Click.wav
64,192,114538,1,8,0:0:0:60:
320,192,114538,1,0,0:0:0:45:HHOpen.wav
448,192,114538,128,0,114696:0:0:0:0:
64,192,114696,128,0,115173:0:0:0:60:LR_HiHat Click.wav
192,192,114855,128,2,115014:0:0:0:60:
320,192,114855,1,0,0:0:0:45:HHOpen.wav
448,192,115014,1,0,0:0:0:60:LR_HiHat Click.wav
192,192,115173,1,8,0:0:0:60:
320,192,115173,1,0,0:0:0:45:HHOpen.wav
448,192,115173,128,0,115331:0:0:0:0:
64,192,115331,1,0,0:0:0:60:LR_HiHat Click.wav
192,192,115490,128,2,115649:0:0:0:60:
448,192,115490,1,0,0:0:0:45:HHOpen.wav
64,192,115649,1,8,0:0:0:60:
320,192,115649,1,0,0:0:0:0:
448,192,115649,1,0,0:0:0:0:
192,192,115808,128,2,115966:0:0:0:60:
320,192,115808,1,0,0:0:0:45:HHOpen.wav
64,192,115966,1,2,0:0:0:60:
448,192,115966,1,0,0:0:0:0:
64,192,116125,1,8,0:0:0:60:
320,192,116125,128,0,116284:0:0:0:45:HHOpen.wav
448,192,116125,1,0,0:0:0:0:
64,192,116284,1,2,0:0:0:60:
192,192,116284,1,0,0:0:0:0:
192,192,116443,1,2,0:0:0:60:
448,192,116443,1,0,0:0:0:0:
320,192,116601,1,0,0:0:0:60:tom02.wav
448,192,116601,1,0,0:0:0:0:
192,192,116760,1,2,0:0:0:60:
320,192,116760,128,0,116919:0:0:0:0:
64,192,116919,1,2,0:0:0:60:
192,192,116919,1,0,0:0:0:0:
64,192,117077,1,8,0:0:0:60:
320,192,117077,1,4,0:0:0:40:
448,192,117077,1,0,0:0:0:0:
192,192,117236,1,2,0:0:0:60:
320,192,117236,1,0,0:0:0:0:
64,192,117395,1,8,0:0:0:60:
320,192,117395,1,4,0:0:0:40:
448,192,117395,128,0,117712:0:0:0:0:
64,192,117554,1,2,0:0:0:60:
64,192,117712,1,2,0:0:0:60:
192,192,117871,128,4,118189:0:0:0:40:
320,192,117871,1,8,0:0:0:60:
448,192,117871,1,0,0:0:0:0:
448,192,118030,1,2,0:0:0:60:
448,192,118189,1,2,0:0:0:60:
64,192,118347,128,8,119141:0:0:0:60:
192,192,118347,1,0,0:0:0:45:HHOpen.wav
320,192,118347,1,0,0:0:0:0:
320,192,118506,1,2,0:0:0:60:
320,192,118665,1,2,0:0:0:60:
192,192,118823,1,8,0:0:0:60:
320,192,118823,1,0,0:0:0:45:HHOpen.wav
448,192,118823,1,0,0:0:0:0:
192,192,118982,1,2,0:0:0:60:
192,192,119141,1,2,0:0:0:60:
64,192,119300,1,8,0:0:0:60:
320,192,119300,1,0,0:0:0:45:HHOpen.wav
448,192,119300,1,0,0:0:0:0:
320,192,119458,1,2,0:0:0:60:
64,192,119617,1,8,0:0:0:60:
192,192,119617,1,0,0:0:0:45:HHOpen.wav
448,192,119617,128,0,119776:0:0:0:0:
320,192,119776,1,2,0:0:0:60:
192,192,119855,1,2,0:0:0:60:
64,192,119935,128,8,120252:0:0:0:60:
320,192,119935,1,0,0:0:0:45:HHOpen.wav
448,192,119935,1,0,0:0:0:0:
448,192,120093,1,2,0:0:0:60:
448,192,120252,1,2,0:0:0:60:
64,192,120411,1,8,0:0:0:60:
192,192,120411,1,0,0:0:0:45:HHOpen.wav
320,192,120411,128,0,120728:0:0:0:0:
64,192,120569,1,2,0:0:0:60:
64,192,120728,1,2,0:0:0:60:
192,192,120887,1,8,0:0:0:60:
320,192,120887,1,4,0:0:0:40:
448,192,120887,128,0,121522:0:0:0:0:
320,192,121046,1,2,0:0:0:60:
320,192,121204,1,2,0:0:0:60:
64,192,121363,1,8,0:0:0:60:
192,192,121363,1,4,0:0:0:40:
320,192,121363,1,0,0:0:0:0:
64,192,121522,1,2,0:0:0:60:
448,192,121681,128,2,121720:0:0:0:60:
320,192,121720,128,0,121760:0:0:0:0:
64,192,121760,128,0,121800:0:0:0:0:
192,192,121800,128,0,121839:0:0:0:0:
320,192,121839,1,8,0:0:0:60:
448,192,121839,1,4,0:0:0:40:
448,192,121998,1,2,0:0:0:60:
64,192,122157,1,8,0:0:0:60:
192,192,122157,1,4,0:0:0:40:
320,192,122157,1,0,0:0:0:0:
192,192,122316,1,0,0:0:0:0:
64,192,122474,128,0,123427:0:0:0:0:
320,192,122474,1,0,0:0:0:0:
192,192,122792,1,0,0:0:0:0:
320,192,122950,1,0,0:0:0:0:
192,192,123427,1,0,0:0:0:0:
448,192,123427,128,0,124379:0:0:0:0:
320,192,123744,1,0,0:0:0:0:
192,192,123903,1,0,0:0:0:0:
64,192,124379,128,0,125014:0:0:0:0:
320,192,124379,1,0,0:0:0:0:
192,192,124696,1,0,0:0:0:0:
320,192,125014,1,0,0:0:0:0:
448,192,125014,128,0,125966:0:0:0:0:
192,192,125331,1,0,0:0:0:0:
320,192,125490,1,0,0:0:0:0:
64,192,125966,128,0,126919:0:0:0:0:
192,192,125966,1,0,0:0:0:0:
320,192,126284,1,0,0:0:0:0:
192,192,126443,1,0,0:0:0:0:
320,192,126919,1,0,0:0:0:0:
448,192,126919,128,0,127236:0:0:0:0:
192,192,127077,1,0,0:0:0:60:LR_HiHat Click.wav
320,192,127157,1,0,0:0:0:60:LR_HiHat Click.wav
64,192,127236,1,4,0:0:0:45:HHOpen.wav
192,192,127236,1,0,0:0:0:0:
64,192,127554,128,4,127633:0:0:0:40:
320,192,127554,128,8,127633:0:0:0:60:
448,192,127554,128,0,127633:0:0:0:0:
448,192,127712,128,0,127792:0:0:0:0:
448,192,127871,128,0,127950:0:0:0:0:
448,192,128030,128,0,128109:0:0:0:0:
64,192,128189,128,2,128268:0:0:0:60:
448,192,128189,128,0,128268:0:0:0:0:
64,192,128347,128,2,128427:0:0:0:60:
448,192,128347,128,0,128427:0:0:0:0:
64,192,128506,128,2,128585:0:0:0:60:
448,192,128506,128,0,128585:0:0:0:0:
64,192,128665,128,2,128744:0:0:0:60:
448,192,128665,128,0,128744:0:0:0:0:
64,192,128823,128,2,128903:0:0:0:60:
192,192,128823,128,8,128903:0:0:0:60:
448,192,128823,128,0,128903:0:0:0:0:
64,192,128982,128,2,129062:0:0:0:60:
192,192,128982,128,8,129062:0:0:0:60:
448,192,128982,128,0,129062:0:0:0:0:
64,192,129141,128,2,129220:0:0:0:60:
320,192,129141,128,8,129220:0:0:0:60:
448,192,129141,128,0,129220:0:0:0:0:
64,192,129300,128,2,129379:0:0:0:60:
320,192,129300,128,8,129379:0:0:0:60:
448,192,129300,128,0,129379:0:0:0:0:
64,192,129458,128,2,129538:0:0:0:60:
192,192,129458,128,8,129538:0:0:0:60:
448,192,129458,128,0,129538:0:0:0:0:
64,192,129617,128,2,129696:0:0:0:60:
192,192,129617,128,8,129696:0:0:0:60:
448,192,129617,128,0,129696:0:0:0:0:
64,192,129776,128,2,129855:0:0:0:60:
320,192,129776,128,8,129855:0:0:0:60:
448,192,129776,128,0,129855:0:0:0:0:
64,192,129935,128,2,130014:0:0:0:60:
320,192,129935,128,8,130014:0:0:0:60:
448,192,129935,128,0,130014:0:0:0:0:
64,192,130093,128,8,130173:0:0:0:60:
192,192,130093,128,4,130173:0:0:0:40:
320,192,130093,128,0,130173:0:0:0:0:
448,192,130093,128,0,130173:0:0:0:0:
64,192,130252,128,2,130331:0:0:0:60:
192,192,130252,128,0,130331:0:0:0:0:
64,192,130411,128,2,130490:0:0:0:60:
192,192,130411,128,0,130490:0:0:0:0:
64,192,130569,128,8,130649:0:0:0:60:
192,192,130569,128,4,130649:0:0:0:40:
320,192,130569,128,0,130649:0:0:0:0:
448,192,130569,128,0,130649:0:0:0:0:
320,192,130728,128,2,130808:0:0:0:60:
448,192,130728,128,0,130808:0:0:0:0:
320,192,130887,128,2,130966:0:0:0:60:
448,192,130887,128,0,130966:0:0:0:0:
64,192,131046,128,8,131125:0:0:0:60:
192,192,131046,128,0,131125:0:0:0:0:
448,192,131046,128,0,131125:0:0:0:0:
64,192,131204,128,2,131284:0:0:0:60:
192,192,131204,128,4,131284:0:0:0:40:
320,192,131204,128,0,131284:0:0:0:0:
448,192,131204,128,0,131284:0:0:0:0:
192,192,131522,1,2,0:0:0:60:
320,192,131601,1,2,0:0:0:60:
64,192,131681,1,8,0:0:0:60:
192,192,131681,1,0,0:0:0:0:
320,192,131760,1,8,0:0:0:60:
448,192,131760,1,0,0:0:0:0:
64,192,131839,1,2,0:0:0:60:
192,192,131919,1,2,0:0:0:60:
320,192,131998,1,0,0:0:0:60:tom01.wav
448,192,131998,1,0,0:0:0:0:
64,192,132077,1,0,0:0:0:60:tom02.wav
192,192,132077,1,0,0:0:0:0:
320,192,132157,1,0,0:0:0:60:tom03.wav
448,192,132157,1,0,0:0:0:0:
64,192,132236,1,0,0:0:0:60:tom04.wav
192,192,132236,1,0,0:0:0:0:
64,192,132316,1,8,0:0:0:60:
320,192,132316,1,0,0:0:0:0:
448,192,132316,1,0,0:0:0:0:
64,192,132633,1,2,0:0:0:60:
192,192,132633,1,4,0:0:0:40:
320,192,132633,128,0,133109:0:0:0:0:
448,192,132633,128,0,133109:0:0:0:0:
64,192,132950,128,8,133109:0:0:0:60:
192,192,132950,128,0,133109:0:0:0:0:
64,192,133268,1,2,0:0:0:60:
320,192,133268,128,0,133585:0:0:0:0:
448,192,133268,128,0,133585:0:0:0:0:
64,192,133427,1,0,0:0:0:60:LR_HiHat Click.wav
64,192,133585,1,8,0:0:0:60:
192,192,133585,1,0,0:0:0:45:HHOpen.wav
64,192,133744,128,0,134220:0:0:0:60:LR_HiHat Click.wav
192,192,133744,128,0,134220:0:0:0:0:
320,192,133903,1,2,0:0:0:60:
448,192,133903,1,0,0:0:0:45:HHOpen.wav
448,192,134062,1,0,0:0:0:60:LR_HiHat Click.wav
320,192,134220,1,8,0:0:0:60:
448,192,134220,1,0,0:0:0:45:HHOpen.wav
320,192,134379,1,0,0:0:0:60:LR_HiHat Click.wav
64,192,134538,128,2,134696:0:0:0:60:
192,192,134538,128,0,134696:0:0:0:45:HHOpen.wav
448,192,134538,1,0,0:0:0:0:
448,192,134696,1,0,0:0:0:60:LR_HiHat Click.wav
64,192,134855,1,8,0:0:0:60:
192,192,134855,128,0,135014:0:0:0:45:HHOpen.wav
320,192,134855,128,0,135014:0:0:0:0:
64,192,135014,1,0,0:0:0:60:LR_HiHat Click.wav
192,192,135173,1,2,0:0:0:60:
320,192,135173,128,0,135331:0:0:0:0:
448,192,135173,128,0,135331:0:0:0:0:
192,192,135331,1,0,0:0:0:60:LR_HiHat Click.wav
64,192,135490,128,8,135649:0:0:0:60:
320,192,135490,1,0,0:0:0:45:HHOpen.wav
448,192,135490,128,0,135649:0:0:0:0:
192,192,135649,128,0,135808:0:0:0:60:LR_HiHat Click.wav
320,192,135649,128,0,135808:0:0:0:0:
448,192,135808,1,2,0:0:0:60:
192,192,135966,128,0,136125:0:0:0:60:LR_HiHat Click.wav
448,192,135966,128,0,136125:0:0:0:0:
64,192,136125,1,8,0:0:0:60:
320,192,136125,1,0,0:0:0:45:HHOpen.wav
192,192,136284,128,0,136443:0:0:0:60:LR_HiHat Click.wav
448,192,136284,128,0,136443:0:0:0:0:
64,192,136443,1,2,0:0:0:60:
64,192,136601,1,0,0:0:0:60:LR_HiHat Click.wav
64,192,136760,128,8,136919:0:0:0:60:
192,192,136760,128,0,136919:0:0:0:45:HHOpen.wav
448,192,136760,1,0,0:0:0:0:
448,192,136919,1,0,0:0:0:60:LR_HiHat Click.wav
64,192,137077,1,2,0:0:0:60:
320,192,137077,128,0,137236:0:0:0:45:HHOpen.wav
448,192,137077,128,0,137236:0:0:0:0:
64,192,137236,1,0,0:0:0:60:LR_HiHat Click.wav
192,192,137395,128,8,137554:0:0:0:60:
320,192,137395,128,0,137554:0:0:0:45:HHOpen.wav
448,192,137395,1,0,0:0:0:0:
448,192,137554,1,2,0:0:0:60:
64,192,137633,1,2,0:0:0:60:
192,192,137712,1,2,0:0:0:60:
320,192,137712,128,4,138189:0:0:0:40:
448,192,137712,128,0,138189:0:0:0:0:
64,192,138030,128,8,138189:0:0:0:60:
192,192,138030,128,0,138189:0:0:0:45:HHOpen.wav
64,192,138347,1,2,0:0:0:60:
320,192,138347,128,0,138506:0:0:0:45:HHOpen.wav
448,192,138347,128,0,138506:0:0:0:0:
64,192,138506,1,0,0:0:0:60:LR_HiHat Click.wav
64,192,138665,1,8,0:0:0:60:
192,192,138665,1,0,0:0:0:45:HHOpen.wav
448,192,138665,1,0,0:0:0:0:
320,192,138823,128,0,139300:0:0:0:60:LR_HiHat Click.wav
448,192,138823,128,0,139300:0:0:0:0:
192,192,138982,1,2,0:0:0:60:
192,192,139141,1,0,0:0:0:60:LR_HiHat Click.wav
64,192,139300,1,8,0:0:0:60:
192,192,139300,1,0,0:0:0:45:HHOpen.wav
320,192,139458,1,0,0:0:0:60:LR_HiHat Click.wav
64,192,139617,128,2,140093:0:0:0:60:
192,192,139617,1,0,0:0:0:0:
448,192,139617,128,0,139776:0:0:0:0:
320,192,139776,1,0,0:0:0:60:LR_HiHat Click.wav
192,192,139935,128,8,140093:0:0:0:60:
320,192,139935,128,0,140093:0:0:0:45:HHOpen.wav
448,192,139935,1,0,0:0:0:0:
448,192,140093,1,0,0:0:0:60:LR_HiHat Click.wav
64,192,140252,1,2,0:0:0:60:
320,192,140252,128,4,140569:0:0:0:40:
448,192,140252,128,0,140569:0:0:0:0:
64,192,140411,1,0,0:0:0:60:LR_HiHat Click.wav
64,192,140569,1,8,0:0:0:60:
192,192,140569,1,0,0:0:0:0:
192,192,140728,1,0,0:0:0:60:LR_HiHat Click.wav
64,192,140887,128,2,141204:0:0:0:60:
192,192,140887,128,0,141204:0:0:0:0:
448,192,140887,1,0,0:0:0:0:
448,192,141046,1,0,0:0:0:60:LR_HiHat Click.wav
320,192,141204,1,8,0:0:0:60:
448,192,141204,1,0,0:0:0:45:HHOpen.wav
320,192,141363,1,0,0:0:0:60:LR_HiHat Click.wav
64,192,141522,128,2,141839:0:0:0:60:
320,192,141522,128,0,141839:0:0:0:45:HHOpen.wav
448,192,141522,1,0,0:0:0:0:
448,192,141681,1,0,0:0:0:60:LR_HiHat Click.wav
192,192,141839,1,8,0:0:0:60:
448,192,141839,1,0,0:0:0:0:
64,192,141998,1,0,0:0:0:60:LR_HiHat Click.wav
64,192,142157,128,2,142792:0:0:0:60:
192,192,142157,1,0,0:0:0:45:HHOpen.wav
448,192,142157,1,0,0:0:0:0:
320,192,142236,1,0,0:0:0:0:
192,192,142316,1,8,0:0:0:60:
448,192,142395,1,8,0:0:0:60:
320,192,142474,1,8,0:0:0:60:
192,192,142554,1,8,0:0:0:60:
448,192,142633,1,8,0:0:0:60:
192,192,142712,1,8,0:0:0:60:
320,192,142792,1,4,0:0:0:40:
448,192,142792,1,2,0:0:0:60:
64,192,143109,1,8,0:0:0:60:
192,192,143109,1,0,0:0:0:0:
448,192,143109,1,0,0:0:0:0:
448,192,143268,1,0,0:0:0:45:HHOpen.wav
64,192,143427,1,2,0:0:0:60:
448,192,143427,128,0,143585:0:0:0:0:
64,192,143585,1,2,0:0:0:60:
320,192,143585,1,0,0:0:0:0:
64,192,143744,1,8,0:0:0:60:
192,192,143744,1,0,0:0:0:0:
448,192,143744,1,0,0:0:0:0:
448,192,143903,128,0,144379:0:0:0:45:HHOpen.wav
64,192,144062,1,2,0:0:0:60:
192,192,144062,1,0,0:0:0:0:
192,192,144220,1,0,0:0:0:60:LR_HiHat Click.wav
64,192,144379,128,8,144696:0:0:0:60:
320,192,144379,1,0,0:0:0:0:
320,192,144538,1,0,0:0:0:45:HHOpen.wav
192,192,144696,128,2,145014:0:0:0:60:
448,192,144696,1,0,0:0:0:0:
320,192,144855,1,2,0:0:0:60:
448,192,144855,1,0,0:0:0:45:HHOpen.wav
64,192,145014,128,8,145173:0:0:0:60:
320,192,145014,1,0,0:0:0:0:
448,192,145014,1,0,0:0:0:0:
448,192,145173,128,0,145966:0:0:0:45:HHOpen.wav
192,192,145331,1,2,0:0:0:60:
320,192,145331,1,0,0:0:0:0:
320,192,145490,1,0,0:0:0:45:HHOpen.wav
64,192,145649,128,8,145808:0:0:0:60:
192,192,145649,1,0,0:0:0:0:
320,192,145808,1,0,0:0:0:45:HHOpen.wav
64,192,145966,128,2,146125:0:0:0:60:
192,192,145966,1,0,0:0:0:0:
320,192,146125,128,2,146443:0:0:0:60:
448,192,146125,1,0,0:0:0:0:
64,192,146284,1,8,0:0:0:60:
192,192,146284,1,0,0:0:0:0:
448,192,146284,1,0,0:0:0:0:
192,192,146443,128,0,146919:0:0:0:45:HHOpen.wav
64,192,146601,1,2,0:0:0:60:
320,192,146601,1,0,0:0:0:0:
64,192,146760,1,0,0:0:0:45:HHOpen.wav
320,192,146919,1,8,0:0:0:60:
448,192,146919,128,0,147077:0:0:0:0:
64,192,147077,128,0,147236:0:0:0:45:HHOpen.wav
192,192,147236,1,2,0:0:0:60:
320,192,147236,1,0,0:0:0:0:
192,192,147395,1,2,0:0:0:60:
448,192,147395,1,0,0:0:0:0:
64,192,147554,1,8,0:0:0:60:
320,192,147554,1,0,0:0:0:45:HHOpen.wav
448,192,147554,1,0,0:0:0:0:
192,192,147712,1,8,0:0:0:60:
320,192,147792,1,8,0:0:0:60:
64,192,147871,1,2,0:0:0:60:
192,192,147871,1,4,0:0:0:40:
448,192,147871,128,0,148189:0:0:0:0:
64,192,148030,1,0,0:0:0:45:HHOpen.wav
64,192,148189,1,8,0:0:0:60:
192,192,148189,1,0,0:0:0:0:
320,192,148189,1,0,0:0:0:0:
192,192,148347,128,0,148665:0:0:0:45:HHOpen.wav
320,192,148506,1,2,0:0:0:60:
448,192,148506,1,0,0:0:0:0:
64,192,148665,1,2,0:0:0:60:
320,192,148665,1,0,0:0:0:45:HHOpen.wav
192,192,148823,1,8,0:0:0:60:
320,192,148823,128,0,149141:0:0:0:0:
448,192,148823,1,0,0:0:0:0:
192,192,148982,1,0,0:0:0:45:HHOpen.wav
64,192,149141,1,2,0:0:0:60:
448,192,149141,1,0,0:0:0:0:
320,192,149300,1,0,0:0:0:45:HHOpen.wav
64,192,149458,128,8,149776:0:0:0:60:
192,192,149458,1,0,0:0:0:0:
448,192,149458,1,0,0:0:0:0:
320,192,149617,128,0,149776:0:0:0:45:HHOpen.wav
192,192,149776,128,2,150093:0:0:0:60:
448,192,149776,1,0,0:0:0:0:
64,192,149935,128,2,150093:0:0:0:60:
448,192,149935,1,0,0:0:0:45:HHOpen.wav
320,192,150093,128,8,150411:0:0:0:60:
448,192,150093,1,0,0:0:0:0:
192,192,150252,128,0,150411:0:0:0:45:HHOpen.wav
64,192,150411,1,2,0:0:0:60:
448,192,150411,128,4,150728:0:0:0:40:
64,192,150569,1,2,0:0:0:60:
192,192,150569,1,0,0:0:0:0:
64,192,150728,128,8,150887:0:0:0:60:
320,192,150728,1,0,0:0:0:45:HHOpen.wav
192,192,150887,128,0,151204:0:0:0:60:LR_HiHat Click.wav
448,192,150887,1,0,0:0:0:0:
64,192,151046,128,2,151204:0:0:0:60:
448,192,151046,1,0,0:0:0:45:HHOpen.wav
448,192,151204,128,2,151522:0:0:0:60:
64,192,151363,1,8,0:0:0:60:
320,192,151363,128,0,151522:0:0:0:45:HHOpen.wav
64,192,151522,1,8,0:0:0:60:
192,192,151522,128,4,151839:0:0:0:40:
448,192,151681,1,2,0:0:0:60:
320,192,151839,1,8,0:0:0:60:
448,192,151919,1,8,0:0:0:60:
64,192,151998,1,2,0:0:0:60:
192,192,151998,1,0,0:0:0:0:
320,192,152077,1,8,0:0:0:60:
64,192,152157,1,8,0:0:0:60:
192,192,152236,1,8,0:0:0:60:
64,192,152316,1,2,0:0:0:60:
448,192,152316,1,0,0:0:0:45:HHOpen.wav
320,192,152395,1,8,0:0:0:60:
192,192,152474,1,8,0:0:0:60:
448,192,152554,1,8,0:0:0:60:
64,192,152633,1,2,0:0:0:60:
320,192,152633,1,0,0:0:0:45:HHOpen.wav
448,192,152712,1,8,0:0:0:60:
192,192,152792,1,8,0:0:0:60:
320,192,152871,1,8,0:0:0:60:
64,192,152950,128,4,153427:0:0:0:40:
192,192,152950,1,2,0:0:0:60:
448,192,152950,1,0,0:0:0:0:
320,192,153109,1,0,0:0:0:60:LR_HiHat Click.wav
320,192,153268,128,8,153427:0:0:0:60:
448,192,153268,128,0,153427:0:0:0:0:
192,192,153427,1,0,0:0:0:60:LR_HiHat Click.wav
64,192,153585,128,2,153903:0:0:0:60:
320,192,153585,1,0,0:0:0:0:
320,192,153744,1,0,0:0:0:60:LR_HiHat Click.wav
192,192,153903,1,8,0:0:0:60:
448,192,153903,1,0,0:0:0:0:
64,192,154062,1,0,0:0:0:60:LR_HiHat Click.wav
320,192,154062,128,0,154538:0:0:0:0:
64,192,154220,1,2,0:0:0:60:
448,192,154220,1,0,0:0:0:0:
448,192,154379,1,0,0:0:0:60:LR_HiHat Click.wav
64,192,154538,1,8,0:0:0:60:
192,192,154538,1,0,0:0:0:0:
448,192,154538,1,0,0:0:0:0:
192,192,154696,1,0,0:0:0:60:LR_HiHat Click.wav
64,192,154855,128,2,155014:0:0:0:60:
448,192,154855,1,0,0:0:0:0:
320,192,155014,1,0,0:0:0:60:LR_HiHat Click.wav
64,192,155173,1,8,0:0:0:60:
192,192,155173,128,0,155331:0:0:0:0:
448,192,155173,1,0,0:0:0:0:
320,192,155331,1,0,0:0:0:60:LR_HiHat Click.wav
64,192,155490,128,2,155649:0:0:0:60:
192,192,155490,1,0,0:0:0:45:HHOpen.wav
448,192,155490,1,0,0:0:0:0:
192,192,155649,1,0,0:0:0:60:LR_HiHat Click.wav
64,192,155808,128,8,155966:0:0:0:60:
320,192,155808,1,0,0:0:0:0:
448,192,155808,1,0,0:0:0:0:
192,192,155966,128,0,156125:0:0:0:60:LR_HiHat Click.wav
320,192,155966,1,0,0:0:0:0:
64,192,156125,1,2,0:0:0:60:
448,192,156125,1,0,0:0:0:0:
192,192,156284,128,0,156443:0:0:0:60:LR_HiHat Click.wav
448,192,156284,1,0,0:0:0:0:
64,192,156443,1,8,0:0:0:60:
320,192,156443,1,0,0:0:0:0:
448,192,156443,1,0,0:0:0:0:
192,192,156601,128,0,156919:0:0:0:60:LR_HiHat Click.wav
320,192,156601,1,0,0:0:0:0:
64,192,156760,1,2,0:0:0:60:
448,192,156760,1,0,0:0:0:0:
64,192,156919,1,0,0:0:0:60:LR_HiHat Click.wav
192,192,157077,1,8,0:0:0:60:
320,192,157077,1,0,0:0:0:0:
448,192,157077,128,0,157236:0:0:0:0:
64,192,157236,1,0,0:0:0:60:LR_HiHat Click.wav
320,192,157395,128,2,157554:0:0:0:60:
448,192,157395,1,0,0:0:0:60:LR_HiHat Click.wav
64,192,157554,1,0,0:0:0:60:LR_HiHat Click.wav
192,192,157712,1,8,0:0:0:60:
320,192,157712,1,0,0:0:0:0:
448,192,157712,128,0,157871:0:0:0:0:
64,192,157871,1,8,0:0:0:60:
192,192,157950,1,8,0:0:0:60:
320,192,158030,1,2,0:0:0:60:
448,192,158030,128,4,158665:0:0:0:40:
192,192,158189,1,0,0:0:0:60:LR_HiHat Click.wav
64,192,158347,1,8,0:0:0:60:
192,192,158347,1,0,0:0:0:0:
320,192,158347,1,0,0:0:0:0:
64,192,158506,1,0,0:0:0:60:LR_HiHat Click.wav
192,192,158665,1,2,0:0:0:60:
320,192,158665,128,0,158982:0:0:0:0:
192,192,158823,1,0,0:0:0:60:LR_HiHat Click.wav
64,192,158982,1,8,0:0:0:60:
192,192,158982,1,0,0:0:0:0:
448,192,158982,128,0,159141:0:0:0:0:
320,192,159141,128,0,159617:0:0:0:60:LR_HiHat Click.wav
192,192,159300,1,2,0:0:0:60:
448,192,159300,1,0,0:0:0:0:
448,192,159458,1,0,0:0:0:60:LR_HiHat Click.wav
64,192,159617,1,8,0:0:0:60:
192,192,159617,1,0,0:0:0:0:
448,192,159617,1,0,0:0:0:0:
64,192,159776,1,0,0:0:0:60:LR_HiHat Click.wav
192,192,159935,128,2,160093:0:0:0:60:
320,192,159935,1,0,0:0:0:0:
64,192,160093,1,0,0:0:0:60:LR_HiHat Click.wav
448,192,160093,1,0,0:0:0:0:
192,192,160252,1,8,0:0:0:60:
320,192,160252,1,0,0:0:0:0:
448,192,160252,128,0,160411:0:0:0:0:
64,192,160411,1,0,0:0:0:60:LR_HiHat Click.wav
192,192,160569,1,2,0:0:0:60:
320,192,160569,128,4,160887:0:0:0:40:
448,192,160569,1,0,0:0:0:0:
64,192,160728,1,0,0:0:0:60:LR_HiHat Click.wav
64,192,160887,128,8,161046:0:0:0:60:
192,192,160887,1,0,0:0:0:0:
448,192,160887,1,0,0:0:0:0:
320,192,161046,128,0,161204:0:0:0:60:LR_HiHat Click.wav
192,192,161204,1,2,0:0:0:60:
448,192,161204,1,0,0:0:0:0:
64,192,161363,128,0,161522:0:0:0:60:LR_HiHat Click.wav
192,192,161522,1,8,0:0:0:60:
320,192,161522,1,0,0:0:0:0:
448,192,161522,1,0,0:0:0:0:
448,192,161681,128,0,161998:0:0:0:60:LR_HiHat Click.wav
64,192,161839,1,2,0:0:0:60:
192,192,161839,1,0,0:0:0:0:
64,192,161998,1,2,0:0:0:60:
320,192,161998,1,0,0:0:0:0:
64,192,162157,1,8,0:0:0:60:
192,192,162157,1,4,0:0:0:40:
448,192,162157,1,0,0:0:0:0:
320,192,162316,1,0,0:0:0:60:LR_HiHat Click.wav
192,192,162395,1,0,0:0:0:0:
64,192,162474,1,2,0:0:0:60:
448,192,162474,1,0,0:0:0:45:HHOpen.wav
192,192,162633,1,8,0:0:0:60:
448,192,162712,1,8,0:0:0:60:
64,192,162792,1,8,0:0:0:60:
320,192,162792,1,0,0:0:0:0:
192,192,162871,1,8,0:0:0:60:
64,192,162950,1,8,0:0:0:60:
448,192,162950,1,0,0:0:0:0:
320,192,163030,1,8,0:0:0:60:
64,192,163109,1,2,0:0:0:60:
192,192,163109,1,0,0:0:0:0:
64,192,163427,1,8,0:0:0:60:
192,192,163427,1,4,0:0:0:40:
320,192,163427,1,0,0:0:0:0:
448,192,163427,128,0,163744:0:0:0:0:
64,192,163744,1,2,0:0:0:60:
320,192,163744,1,0,0:0:0:0:
192,192,163903,1,2,0:0:0:60:
320,192,163903,1,0,0:0:0:0:
64,192,164062,1,8,0:0:0:60:
192,192,164062,1,0,0:0:0:45:HHOpen.wav
448,192,164062,1,0,0:0:0:0:
448,192,164220,128,0,164538:0:0:0:60:LR_HiHat Click.wav
64,192,164379,1,2,0:0:0:60:
192,192,164379,1,0,0:0:0:45:HHOpen.wav
192,192,164538,1,0,0:0:0:60:LR_HiHat Click.wav
320,192,164538,1,0,0:0:0:0:
64,192,164696,128,8,164855:0:0:0:60:
320,192,164696,1,0,0:0:0:45:HHOpen.wav
448,192,164696,1,0,0:0:0:0:
448,192,164855,1,0,0:0:0:60:LR_HiHat Click.wav
192,192,164935,1,8,0:0:0:60:
64,192,165014,1,2,0:0:0:60:
320,192,165014,1,0,0:0:0:45:HHOpen.wav
448,192,165014,128,0,165173:0:0:0:0:
64,192,165173,1,2,0:0:0:60:
192,192,165173,1,0,0:0:0:60:LR_HiHat Click.wav
192,192,165331,128,8,165490:0:0:0:60:
320,192,165331,1,0,0:0:0:45:HHOpen.wav
448,192,165331,1,0,0:0:0:0:
320,192,165490,1,0,0:0:0:60:LR_HiHat Click.wav
64,192,165649,128,2,165808:0:0:0:60:
192,192,165649,1,4,0:0:0:40:
448,192,165649,1,0,0:0:0:0:
448,192,165808,1,0,0:0:0:60:LR_HiHat Click.wav
64,192,165966,1,8,0:0:0:60:
192,192,165966,1,0,0:0:0:0:
320,192,165966,128,0,166125:0:0:0:0:
64,192,166125,1,0,0:0:0:60:LR_HiHat Click.wav
192,192,166204,1,8,0:0:0:60:
320,192,166284,1,2,0:0:0:60:
448,192,166284,1,0,0:0:0:45:HHOpen.wav
192,192,166443,1,2,0:0:0:60:
448,192,166443,128,0,166601:0:0:0:60:LR_HiHat Click.wav
64,192,166601,1,8,0:0:0:60:
192,192,166601,1,0,0:0:0:45:HHOpen.wav
320,192,166601,1,0,0:0:0:0:
64,192,166760,128,0,166919:0:0:0:60:LR_HiHat Click.wav
320,192,166919,1,2,0:0:0:60:
448,192,166919,1,0,0:0:0:45:HHOpen.wav
192,192,167077,1,2,0:0:0:60:
320,192,167077,1,0,0:0:0:60:LR_HiHat Click.wav
64,192,167236,128,8,167474:0:0:0:60:
320,192,167236,128,0,167316:0:0:0:45:HHOpen.wav
448,192,167236,128,0,167395:0:0:0:0:
192,192,167395,1,0,0:0:0:60:LR_HiHat Click.wav
64,192,167554,128,8,167712:0:0:0:60:
192,192,167554,128,0,167633:0:0:0:60:tom02.wav
448,192,167554,128,0,167792:0:0:0:0:
320,192,167712,1,0,0:0:0:60:LR_HiHat Click.wav
192,192,167792,1,0,0:0:0:0:
64,192,167871,128,8,168109:0:0:0:60:
320,192,167871,128,4,167950:0:0:0:40:
448,192,167871,128,0,168109:0:0:0:0:
192,192,168030,1,0,0:0:0:0:
320,192,168109,1,8,0:0:0:60:
64,192,168189,1,8,0:0:0:60:
192,192,168189,1,4,0:0:0:40:
448,192,168189,1,0,0:0:0:0:
320,192,168347,1,0,0:0:0:60:LR_HiHat Click.wav
64,192,168506,128,8,168744:0:0:0:60:
192,192,168506,128,0,168744:0:0:0:45:HHOpen.wav
448,192,168506,128,0,168585:0:0:0:0:
448,192,168665,128,0,168744:0:0:0:60:LR_HiHat Click.wav
64,192,168823,128,2,168903:0:0:0:60:
320,192,168823,128,0,169062:0:0:0:45:HHOpen.wav
448,192,168823,128,0,169062:0:0:0:0:
64,192,168982,128,0,169062:0:0:0:60:LR_HiHat Click.wav
64,192,169141,128,8,169379:0:0:0:60:
192,192,169141,128,0,169379:0:0:0:45:HHOpen.wav
448,192,169141,128,0,169220:0:0:0:0:
448,192,169300,128,0,169379:0:0:0:60:LR_HiHat Click.wav
64,192,169458,1,2,0:0:0:60:
320,192,169458,1,0,0:0:0:45:HHOpen.wav
448,192,169458,1,0,0:0:0:0:
192,192,169617,1,0,0:0:0:60:LR_HiHat Click.wav
64,192,169776,128,8,170014:0:0:0:60:
320,192,169776,128,0,169855:0:0:0:45:HHOpen.wav
448,192,169776,128,0,170014:0:0:0:0:
320,192,169935,128,0,170014:0:0:0:60:LR_HiHat Click.wav
64,192,170093,128,2,170331:0:0:0:60:
192,192,170093,128,0,170173:0:0:0:45:HHOpen.wav
448,192,170093,128,0,170331:0:0:0:0:
192,192,170252,128,2,170331:0:0:0:60:
320,192,170331,1,2,0:0:0:60:
64,192,170411,1,2,0:0:0:60:
192,192,170411,1,0,0:0:0:45:HHOpen.wav
448,192,170490,1,2,0:0:0:60:
64,192,170569,1,2,0:0:0:60:
192,192,170569,1,0,0:0:0:0:
320,192,170649,1,2,0:0:0:60:
64,192,170728,128,2,171363:0:0:0:60:
192,192,170728,1,4,0:0:0:40:
448,192,170728,1,0,0:0:0:0:
192,192,171681,128,0,171998:0:0:0:0:
320,192,171839,128,0,171998:0:0:0:0:
448,192,171998,128,0,172474:0:0:0:0:
64,192,172316,128,0,172474:0:0:0:0:
192,192,172474,128,0,173109:0:0:0:0:
448,192,172950,128,0,173109:0:0:0:0:
64,192,173109,1,2,0:0:0:60:
320,192,173189,1,0,0:0:0:60:tom02.wav
64,192,173268,128,2,175649:0:0:0:60:
192,192,173268,1,4,0:0:0:40:
448,192,173268,128,0,173427:0:0:0:0:
320,192,173427,128,0,173585:0:0:0:0:
192,192,173585,128,0,173744:0:0:0:0:
320,192,173744,128,0,173903:0:0:0:0:
448,192,173903,128,0,174062:0:0:0:0:
320,192,174062,128,0,174220:0:0:0:0:
192,192,174220,128,0,174379:0:0:0:0:
320,192,174379,128,0,174538:0:0:0:0:
448,192,174538,128,0,174696:0:0:0:0:
192,192,174696,128,0,174855:0:0:0:0:
448,192,174855,128,0,175014:0:0:0:0:
192,192,175014,1,0,0:0:0:60:tom01.wav
320,192,175014,128,0,175173:0:0:0:0:
448,192,175173,128,0,175331:0:0:0:0:
192,192,175331,128,0,175490:0:0:0:60:tom03.wav
320,192,175331,1,0,0:0:0:0:
320,192,175490,128,0,175649:0:0:0:60:tom04.wav
448,192,175490,1,0,0:0:0:0:
192,192,175649,128,0,175808:0:0:0:0:
64,192,175808,128,2,175966:0:0:0:60:
320,192,175808,1,4,0:0:0:40:
448,192,175808,1,0,0:0:0:0:
320,192,175966,128,0,176125:0:0:0:0:
192,192,176125,128,0,176284:0:0:0:0:
320,192,176284,128,0,176443:0:0:0:0:
448,192,176443,128,0,176601:0:0:0:0:
192,192,176601,128,0,176760:0:0:0:0:
320,192,176760,128,0,176919:0:0:0:0:
64,192,176919,1,2,0:0:0:60:
192,192,176998,1,2,0:0:0:60:
64,192,177077,1,8,0:0:0:60:
320,192,177077,1,4,0:0:0:40:
448,192,177077,128,0,177236:0:0:0:0:
192,192,177236,128,0,177395:0:0:0:0:
320,192,177395,128,0,177554:0:0:0:60:tom01.wav
448,192,177395,1,0,0:0:0:0:
64,192,177554,128,0,177712:0:0:0:60:tom02.wav
192,192,177554,1,0,0:0:0:0:
448,192,177712,128,0,177871:0:0:0:0:
64,192,177871,1,0,0:0:0:60:tom03.wav
192,192,177871,128,0,178030:0:0:0:0:
320,192,178030,128,0,178189:0:0:0:60:tom04.wav
448,192,178030,1,0,0:0:0:0:
64,192,178189,128,0,178347:0:0:0:60:tom03.wav
448,192,178189,1,0,0:0:0:0:
192,192,178347,128,2,178506:0:0:0:60:
320,192,178347,1,4,0:0:0:40:
448,192,178347,1,0,0:0:0:0:
64,192,178506,128,0,178665:0:0:0:0:
320,192,178665,128,0,178823:0:0:0:0:
64,192,178823,128,0,178982:0:0:0:0:
448,192,178982,128,0,179141:0:0:0:0:
64,192,179141,128,8,179300:0:0:0:60:
192,192,179141,1,0,0:0:0:0:
320,192,179300,128,0,179458:0:0:0:45:HHOpen.wav
64,192,179458,128,2,179617:0:0:0:60:
448,192,179458,1,0,0:0:0:0:
192,192,179617,128,8,179776:0:0:0:60:
320,192,179617,1,0,0:0:0:0:
64,192,179776,128,0,179935:0:0:0:0:
320,192,179935,1,2,0:0:0:60:
448,192,179935,128,0,180054:0:0:0:0:
64,192,180054,1,8,0:0:0:60:
320,192,180133,1,8,0:0:0:60:
448,192,180133,1,0,0:0:0:0:
64,192,180232,1,8,0:0:0:60:
192,192,180232,1,0,0:0:0:0:
320,192,180331,1,8,0:0:0:60:
448,192,180331,1,0,0:0:0:0:
64,192,180411,1,0,0:0:0:60:tom01.wav
320,192,180490,1,0,0:0:0:0:
192,192,180569,1,0,0:0:0:60:tom02.wav
448,192,180649,1,0,0:0:0:60:tom03.wav
64,192,180728,1,0,0:0:0:60:tom04.wav
320,192,180808,1,0,0:0:0:0:
64,192,180887,128,2,181046:0:0:0:60:
192,192,180887,1,4,0:0:0:40:
448,192,180887,1,0,0:0:0:0:
448,192,181046,128,0,181204:0:0:0:0:
192,192,181204,128,0,181363:0:0:0:45:HHOpen.wav
64,192,181363,1,2,0:0:0:60:
448,192,181363,128,0,181522:0:0:0:0:
64,192,181522,128,8,181681:0:0:0:60:
320,192,181522,1,4,0:0:0:40:
448,192,181681,128,0,181839:0:0:0:0:
192,192,181839,128,8,181998:0:0:0:60:
320,192,181839,1,4,0:0:0:40:
64,192,181998,1,2,0:0:0:60:
448,192,181998,128,0,182157:0:0:0:0:
320,192,182157,128,0,182316:0:0:0:45:HHOpen.wav
64,192,182316,128,8,182474:0:0:0:60:
192,192,182316,1,0,0:0:0:0:
448,192,182474,128,4,182633:0:0:0:40:
192,192,182633,1,0,0:0:0:45:HHOpen.wav
320,192,182712,1,8,0:0:0:60:
64,192,182792,128,8,182950:0:0:0:60:
448,192,182792,1,0,0:0:0:0:
192,192,182950,1,8,0:0:0:60:
320,192,182950,1,0,0:0:0:0:
64,192,183109,1,8,0:0:0:60:
448,192,183109,128,0,183268:0:0:0:0:
192,192,183268,1,8,0:0:0:60:
320,192,183268,1,0,0:0:0:0:
64,192,183427,1,4,0:0:0:40:
320,192,183427,1,2,0:0:0:60:
448,192,183427,128,0,183744:0:0:0:0:
192,192,183585,128,0,183903:0:0:0:60:LR_HiHat Click.wav
320,192,183744,128,0,184062:0:0:0:45:HHOpen.wav
64,192,183903,128,2,184220:0:0:0:60:
448,192,183903,1,0,0:0:0:0:
192,192,184062,1,8,0:0:0:60:
448,192,184062,128,0,184379:0:0:0:45:HHOpen.wav
192,192,184220,128,0,184538:0:0:0:60:LR_HiHat Click.wav
320,192,184379,128,0,184696:0:0:0:45:HHOpen.wav
64,192,184538,128,2,184855:0:0:0:60:
448,192,184538,1,0,0:0:0:0:
448,192,184696,128,0,185014:0:0:0:45:HHOpen.wav
192,192,184855,1,2,0:0:0:60:
320,192,184855,128,0,185173:0:0:0:0:
64,192,185014,128,0,185331:0:0:0:45:HHOpen.wav
192,192,185173,128,2,185490:0:0:0:60:
448,192,185173,1,0,0:0:0:0:
320,192,185331,1,8,0:0:0:60:
448,192,185331,128,0,185649:0:0:0:45:HHOpen.wav
64,192,185490,128,0,185808:0:0:0:60:LR_HiHat Click.wav
320,192,185649,128,0,185966:0:0:0:45:HHOpen.wav
192,192,185808,1,2,0:0:0:60:
64,192,185966,128,2,186284:0:0:0:60:
448,192,185966,1,4,0:0:0:40:
448,192,186125,128,0,186443:0:0:0:60:LR_HiHat Click.wav
192,192,186284,128,0,186601:0:0:0:45:HHOpen.wav
64,192,186443,1,2,0:0:0:60:
320,192,186443,128,0,186760:0:0:0:0:
64,192,186601,128,8,186919:0:0:0:60:
448,192,186601,1,0,0:0:0:45:HHOpen.wav
448,192,186760,128,0,187077:0:0:0:60:LR_HiHat Click.wav
192,192,186919,128,8,187236:0:0:0:60:
320,192,186919,1,0,0:0:0:45:HHOpen.wav
64,192,187077,1,2,0:0:0:60:
320,192,187077,128,0,187395:0:0:0:0:
64,192,187236,128,0,187554:0:0:0:45:HHOpen.wav
192,192,187395,1,8,0:0:0:60:
448,192,187395,128,0,187712:0:0:0:0:
320,192,187554,128,0,187871:0:0:0:45:HHOpen.wav
64,192,187712,1,2,0:0:0:60:
192,192,187712,128,0,187871:0:0:0:0:
64,192,187871,1,8,0:0:0:60:
448,192,187871,1,0,0:0:0:45:HHOpen.wav
192,192,188030,1,2,0:0:0:60:
448,192,188030,1,0,0:0:0:0:
64,192,188189,1,0,0:0:0:60:tom03.wav
448,192,188189,1,0,0:0:0:0:
192,192,188347,1,0,0:0:0:60:tom04.wav
320,192,188347,1,0,0:0:0:0:
64,192,188506,1,4,0:0:0:40:
192,192,188506,1,2,0:0:0:60:
448,192,188506,1,0,0:0:0:0:
320,192,188585,1,0,0:0:0:0:
192,192,188665,1,0,0:0:0:0:
448,192,188744,1,0,0:0:0:0:
64,192,188823,1,2,0:0:0:60:
320,192,188823,1,0,0:0:0:0:
192,192,188903,1,0,0:0:0:0:
320,192,188982,1,0,0:0:0:0:
64,192,189062,1,0,0:0:0:0:
192,192,189141,1,2,0:0:0:60:
448,192,189141,1,0,0:0:0:0:
320,192,189220,1,0,0:0:0:0:
448,192,189300,1,0,0:0:0:60:LR_HiHat Click.wav
64,192,189379,1,0,0:0:0:60:LR_HiHat Click.wav
192,192,189458,1,2,0:0:0:60:
320,192,189458,1,0,0:0:0:0:
64,192,189538,1,0,0:0:0:0:
320,192,189617,1,0,0:0:0:60:LR_HiHat Click.wav
192,192,189696,1,0,0:0:0:60:LR_HiHat Click.wav
64,192,189776,1,2,0:0:0:60:
448,192,189776,1,0,0:0:0:0:
320,192,189855,1,2,0:0:0:60:
64,192,189935,1,8,0:0:0:60:
448,192,189935,1,0,0:0:0:0:
192,192,190014,1,0,0:0:0:0:
320,192,190093,1,2,0:0:0:60:
64,192,190173,1,2,0:0:0:60:
192,192,190252,1,0,0:0:0:60:LR_HiHat Click.wav
320,192,190331,1,0,0:0:0:60:LR_HiHat Click.wav
192,192,190411,1,8,0:0:0:60:
448,192,190411,1,0,0:0:0:0:
64,192,190490,1,0,0:0:0:0:
320,192,190569,1,0,0:0:0:60:LR_HiHat Click.wav
192,192,190649,1,0,0:0:0:60:LR_HiHat Click.wav
64,192,190728,1,8,0:0:0:60:
448,192,190728,1,0,0:0:0:0:
320,192,190808,1,8,0:0:0:60:LR_HiHat Click.wav
192,192,190887,1,8,0:0:0:60:LR_HiHat Click.wav
448,192,190966,1,8,0:0:0:60:LR_HiHat Click.wav
64,192,191046,1,4,0:0:0:40:
192,192,191046,1,2,0:0:0:60:
320,192,191046,1,0,0:0:0:0:
448,192,191204,1,0,0:0:0:0:
64,192,191284,1,8,0:0:0:60:
192,192,191284,1,0,0:0:0:0:
320,192,191363,1,8,0:0:0:60:
448,192,191363,1,0,0:0:0:0:
64,192,191522,1,2,0:0:0:60:
192,192,191522,1,4,0:0:0:40:
448,192,191522,1,0,0:0:0:0:
320,192,191681,1,0,0:0:0:0:
64,192,191760,1,8,0:0:0:60:
192,192,191760,1,0,0:0:0:0:
320,192,191839,1,8,0:0:0:60:
448,192,191839,1,0,0:0:0:0:
64,192,191998,1,2,0:0:0:60:
192,192,191998,1,8,0:0:0:60:
448,192,191998,1,0,0:0:0:0:
64,192,192157,1,2,0:0:0:60:
320,192,192157,1,4,0:0:0:40:
448,192,192157,1,0,0:0:0:0:
320,192,192474,1,2,0:0:0:60:
448,192,192474,1,0,0:0:0:60:tom01.wav
64,192,192633,1,8,0:0:0:60:
320,192,192633,1,0,0:0:0:60:tom01.wav
448,192,192633,1,0,0:0:0:0:
320,192,192792,1,2,0:0:0:60:
448,192,192792,1,0,0:0:0:0:
64,192,192871,1,8,0:0:0:60:
192,192,192871,1,0,0:0:0:0:
448,192,192950,128,0,193030:0:0:0:60:tom01.wav
320,192,192990,128,0,193069:0:0:0:0:
192,192,193030,128,0,193109:0:0:0:60:tom02.wav
64,192,193069,128,0,193149:0:0:0:0:
448,192,193109,128,0,193149:0:0:0:60:tom03.wav
320,192,193149,128,0,193189:0:0:0:0:
192,192,193189,128,0,193228:0:0:0:60:tom04.wav
64,192,193228,128,0,193268:0:0:0:0:
320,192,193268,1,4,0:0:0:40:
448,192,193268,1,2,0:0:0:60:
64,192,193585,128,2,193744:0:0:0:60:
320,192,193585,1,4,0:0:0:40:
448,192,193585,1,0,0:0:0:0:
192,192,193744,128,0,193903:0:0:0:60:LR_HiHat Click.wav
64,192,193903,1,8,0:0:0:60:
320,192,193903,128,0,194062:0:0:0:0:
448,192,194062,128,0,194220:0:0:0:60:LR_HiHat Click.wav
64,192,194220,1,2,0:0:0:60:
192,192,194220,1,0,0:0:0:0:
192,192,194379,128,0,194538:0:0:0:60:LR_HiHat Click.wav
320,192,194538,128,8,194696:0:0:0:60:
448,192,194538,1,0,0:0:0:0:
64,192,194696,128,0,194855:0:0:0:60:LR_HiHat Click.wav
320,192,194855,1,2,0:0:0:60:
448,192,194855,128,0,195014:0:0:0:0:
192,192,195014,128,0,195173:0:0:0:60:LR_HiHat Click.wav
64,192,195173,1,8,0:0:0:60:
320,192,195173,128,0,195331:0:0:0:0:
64,192,195331,128,0,195490:0:0:0:60:LR_HiHat Click.wav
320,192,195490,1,2,0:0:0:60:
448,192,195490,128,0,195649:0:0:0:0:
192,192,195649,128,0,195808:0:0:0:60:LR_HiHat Click.wav
64,192,195808,1,8,0:0:0:60:
320,192,195808,128,0,195966:0:0:0:0:
64,192,195966,128,0,196125:0:0:0:60:LR_HiHat Click.wav
320,192,196125,1,2,0:0:0:60:
448,192,196125,128,0,196284:0:0:0:0:
64,192,196284,1,0,0:0:0:60:LR_HiHat Click.wav
192,192,196443,128,8,196601:0:0:0:60:
320,192,196443,1,0,0:0:0:0:
448,192,196601,128,0,196760:0:0:0:60:LR_HiHat Click.wav
64,192,196760,1,2,0:0:0:60:
320,192,196760,1,0,0:0:0:0:
192,192,196919,128,0,197077:0:0:0:60:LR_HiHat Click.wav
320,192,197077,128,8,197236:0:0:0:60:
448,192,197077,1,0,0:0:0:0:
192,192,197236,1,0,0:0:0:60:LR_HiHat Click.wav
64,192,197395,128,2,197554:0:0:0:60:
448,192,197395,1,0,0:0:0:0:
320,192,197554,128,0,197712:0:0:0:60:LR_HiHat Click.wav
64,192,197712,1,8,0:0:0:60:
448,192,197712,1,0,0:0:0:0:
192,192,197871,1,0,0:0:0:60:LR_HiHat Click.wav
64,192,198030,1,4,0:0:0:40:
320,192,198030,128,2,198189:0:0:0:60:
448,192,198030,1,0,0:0:0:0:
192,192,198189,1,0,0:0:0:60:LR_HiHat Click.wav
64,192,198347,1,8,0:0:0:60:
192,192,198347,128,0,198506:0:0:0:45:HHOpen.wav
448,192,198347,1,0,0:0:0:0:
320,192,198506,1,0,0:0:0:60:LR_HiHat Click.wav
64,192,198665,1,4,0:0:0:40:
320,192,198665,128,2,198982:0:0:0:60:
448,192,198665,1,0,0:0:0:0:
64,192,198823,1,0,0:0:0:60:LR_HiHat Click.wav
192,192,198982,1,8,0:0:0:60:
448,192,198982,1,0,0:0:0:0:
64,192,199141,128,0,199300:0:0:0:60:LR_HiHat Click.wav
192,192,199300,128,2,199458:0:0:0:60:
448,192,199300,1,0,0:0:0:0:
320,192,199458,128,0,199617:0:0:0:60:LR_HiHat Click.wav
64,192,199617,128,8,199776:0:0:0:60:
192,192,199617,1,0,0:0:0:0:
448,192,199776,128,0,199935:0:0:0:60:LR_HiHat Click.wav
64,192,199935,1,2,0:0:0:60:
192,192,199935,1,0,0:0:0:0:
320,192,200093,1,0,0:0:0:60:LR_HiHat Click.wav
64,192,200252,1,8,0:0:0:60:
448,192,200252,128,0,200411:0:0:0:0:
320,192,200411,1,0,0:0:0:60:LR_HiHat Click.wav
64,192,200490,1,8,0:0:0:60:
320,192,200569,128,2,200728:0:0:0:60:
448,192,200569,1,0,0:0:0:0:
192,192,200728,1,0,0:0:0:60:LR_HiHat Click.wav
64,192,200887,128,8,201204:0:0:0:60:
448,192,200887,1,0,0:0:0:0:
192,192,201046,1,0,0:0:0:60:LR_HiHat Click.wav
320,192,201204,1,2,0:0:0:60:
448,192,201204,128,0,201363:0:0:0:45:HHOpen.wav
64,192,201363,128,0,201522:0:0:0:60:LR_HiHat Click.wav
192,192,201522,128,8,201681:0:0:0:60:
320,192,201522,1,0,0:0:0:0:
448,192,201681,128,0,201998:0:0:0:60:LR_HiHat Click.wav
64,192,201839,1,2,0:0:0:60:
320,192,201839,1,0,0:0:0:0:
192,192,201998,128,0,202157:0:0:0:60:LR_HiHat Click.wav
64,192,202157,1,8,0:0:0:60:
448,192,202157,128,0,202316:0:0:0:0:
192,192,202316,128,0,202633:0:0:0:60:LR_HiHat Click.wav
320,192,202474,1,0,0:0:0:45:HHOpen.wav
448,192,202474,1,0,0:0:0:0:
64,192,202633,1,8,0:0:0:60:
320,192,202712,1,8,0:0:0:60:
448,192,202712,1,0,0:0:0:0:
64,192,202792,1,2,0:0:0:60:
192,192,202792,1,0,0:0:0:0:
448,192,202871,1,0,0:0:0:60:LR_HiHat Click.wav
320,192,202950,1,8,0:0:0:60:
64,192,203030,1,8,0:0:0:60:
192,192,203030,1,0,0:0:0:0:
448,192,203109,128,2,203149:0:0:0:60:
320,192,203149,128,0,203189:0:0:0:0:
64,192,203189,128,8,203228:0:0:0:60:
192,192,203228,128,0,203268:0:0:0:0:
320,192,203268,128,8,203308:0:0:0:60:
448,192,203308,128,0,203347:0:0:0:0:
64,192,203347,128,8,203387:0:0:0:60:
192,192,203347,128,0,203387:0:0:0:0:
448,192,203427,128,2,203466:0:0:0:60:
320,192,203466,128,0,203506:0:0:0:0:
64,192,203506,128,8,203546:0:0:0:60:
192,192,203546,128,0,203585:0:0:0:0:
320,192,203585,128,8,203625:0:0:0:60:
448,192,203625,128,0,203665:0:0:0:0:
64,192,203665,128,8,203704:0:0:0:60:
192,192,203665,128,0,203704:0:0:0:0:
320,192,203744,1,2,0:0:0:60:
448,192,203744,128,0,204062:0:0:0:45:HHOpen.wav
192,192,203903,1,0,0:0:0:60:LR_HiHat Click.wav
64,192,204062,1,8,0:0:0:60:
320,192,204062,1,0,0:0:0:45:HHOpen.wav
320,192,204220,128,0,204538:0:0:0:60:LR_HiHat Click.wav
64,192,204379,1,2,0:0:0:60:
448,192,204379,1,0,0:0:0:45:HHOpen.wav
64,192,204538,1,2,0:0:0:60:
192,192,204538,1,0,0:0:0:60:LR_HiHat Click.wav
192,192,204696,128,8,205014:0:0:0:60:
448,192,204696,1,0,0:0:0:45:HHOpen.wav
320,192,204855,1,0,0:0:0:60:LR_HiHat Click.wav
64,192,205014,1,2,0:0:0:60:
448,192,205014,1,0,0:0:0:45:HHOpen.wav
64,192,205173,128,2,205490:0:0:0:60:
320,192,205173,1,0,0:0:0:60:LR_HiHat Click.wav
192,192,205331,1,8,0:0:0:60:
320,192,205331,1,0,0:0:0:45:HHOpen.wav
448,192,205490,128,0,205649:0:0:0:60:LR_HiHat Click.wav
64,192,205649,1,2,0:0:0:60:
320,192,205649,128,0,205808:0:0:0:45:HHOpen.wav
64,192,205808,1,2,0:0:0:60:
192,192,205808,128,0,206125:0:0:0:60:LR_HiHat Click.wav
320,192,205966,1,8,0:0:0:60:
448,192,205966,1,0,0:0:0:45:HHOpen.wav
64,192,206125,1,8,0:0:0:60:
320,192,206204,1,8,0:0:0:60:
448,192,206204,1,0,0:0:0:0:
64,192,206284,128,4,206443:0:0:0:40:
192,192,206284,1,2,0:0:0:60:
320,192,206443,128,0,206601:0:0:0:60:LR_HiHat Click.wav
192,192,206601,1,8,0:0:0:60:
448,192,206601,128,0,206760:0:0:0:45:HHOpen.wav
64,192,206760,128,0,207077:0:0:0:60:LR_HiHat Click.wav
192,192,206919,1,2,0:0:0:60:
448,192,206919,1,0,0:0:0:45:HHOpen.wav
320,192,207077,128,2,207236:0:0:0:60:
448,192,207077,1,0,0:0:0:60:LR_HiHat Click.wav
64,192,207236,1,8,0:0:0:60:
192,192,207236,128,0,207395:0:0:0:45:HHOpen.wav
448,192,207395,128,0,207712:0:0:0:60:LR_HiHat Click.wav
64,192,207554,1,2,0:0:0:60:
192,192,207554,1,0,0:0:0:45:HHOpen.wav
64,192,207712,1,2,0:0:0:60:
320,192,207712,128,0,208030:0:0:0:60:LR_HiHat Click.wav
192,192,207871,1,8,0:0:0:60:
448,192,207871,1,0,0:0:0:45:HHOpen.wav
64,192,208030,1,0,0:0:0:60:LR_HiHat Click.wav
192,192,208109,1,0,0:0:0:0:
64,192,208189,1,2,0:0:0:60:
448,192,208189,128,0,208347:0:0:0:45:HHOpen.wav
320,192,208347,1,8,0:0:0:60:
192,192,208427,1,8,0:0:0:60:
64,192,208506,1,2,0:0:0:60:
448,192,208506,1,0,0:0:0:45:HHOpen.wav
320,192,208585,1,2,0:0:0:60:
192,192,208665,1,2,0:0:0:60:
448,192,208744,1,2,0:0:0:60:
64,192,208823,128,4,208982:0:0:0:40:
320,192,208823,1,2,0:0:0:60:
320,192,208982,1,0,0:0:0:0:
64,192,209141,128,8,209300:0:0:0:60:
320,192,209141,1,0,0:0:0:0:
448,192,209300,1,0,0:0:0:0:
192,192,209379,1,0,0:0:0:60:tom02.wav
64,192,209458,1,0,0:0:0:60:tom03.wav
448,192,209458,128,0,209617:0:0:0:0:
192,192,209617,128,0,209776:0:0:0:60:tom04.wav
64,192,209776,1,8,0:0:0:60:
320,192,209776,128,0,209935:0:0:0:0:
448,192,209935,1,0,0:0:0:60:tom02.wav
192,192,210014,1,0,0:0:0:60:tom03.wav
64,192,210093,1,0,0:0:0:60:tom04.wav
448,192,210093,1,0,0:0:0:0:
320,192,210252,128,0,210411:0:0:0:0:
64,192,210411,1,8,0:0:0:60:
192,192,210411,128,0,210569:0:0:0:0:
448,192,210569,1,0,0:0:0:60:tom02.wav
64,192,210649,1,0,0:0:0:60:tom03.wav
320,192,210728,1,0,0:0:0:60:tom04.wav
448,192,210728,1,0,0:0:0:0:
64,192,210887,128,0,211046:0:0:0:0:
192,192,211046,1,8,0:0:0:60:
320,192,211046,128,0,211204:0:0:0:0:
448,192,211204,1,0,0:0:0:60:tom02.wav
192,192,211284,1,0,0:0:0:60:tom03.wav
64,192,211363,1,4,0:0:0:40:
320,192,211363,1,0,0:0:0:60:tom04.wav
448,192,211363,1,0,0:0:0:0:
192,192,211522,128,0,211601:0:0:0:0:
64,192,211601,128,0,211681:0:0:0:0:
320,192,211681,128,8,211839:0:0:0:60:
448,192,211681,128,0,211839:0:0:0:0:
64,192,211839,1,0,0:0:0:60:tom02.wav
192,192,211919,1,0,0:0:0:60:tom03.wav
64,192,211998,1,0,0:0:0:60:tom04.wav
448,192,211998,1,0,0:0:0:0:
192,192,212157,128,0,212236:0:0:0:0:
320,192,212236,128,0,212316:0:0:0:0:
64,192,212316,128,8,212474:0:0:0:60:
448,192,212316,128,0,212474:0:0:0:0:
320,192,212474,1,0,0:0:0:0:
192,192,212554,1,0,0:0:0:60:tom03.wav
64,192,212633,1,0,0:0:0:60:tom04.wav
320,192,212633,1,0,0:0:0:0:
64,192,212792,128,0,212871:0:0:0:0:
448,192,212792,128,0,212871:0:0:0:0:
64,192,212950,128,8,213030:0:0:0:60:
192,192,212950,128,0,213030:0:0:0:0:
448,192,212950,128,0,213030:0:0:0:0:
320,192,213109,128,8,213189:0:0:0:60:
448,192,213109,128,0,213189:0:0:0:0:
64,192,213268,128,8,213347:0:0:0:60:
192,192,213268,128,0,213347:0:0:0:0:
320,192,213268,128,0,213347:0:0:0:0:
64,192,213427,128,0,213506:0:0:0:60:tom02.wav
192,192,213427,128,0,213506:0:0:0:0:
64,192,213585,128,8,213665:0:0:0:60:
320,192,213585,128,0,213665:0:0:0:0:
448,192,213585,128,0,213665:0:0:0:0:
64,192,213744,1,8,0:0:0:60:
192,192,213744,1,4,0:0:0:40:
320,192,213744,1,0,0:0:0:0:
448,192,213744,128,0,214141:0:0:0:0:
320,192,213982,128,0,214141:0:0:0:0:
64,192,214062,128,2,214220:0:0:0:60:
320,192,214220,128,8,214300:0:0:0:60:
448,192,214220,128,0,214300:0:0:0:45:HHOpen.wav
192,192,214300,128,0,214379:0:0:0:0:
448,192,214379,128,2,214458:0:0:0:60:
64,192,214458,128,0,214538:0:0:0:0:
320,192,214538,128,8,214617:0:0:0:60:
448,192,214538,128,0,214617:0:0:0:45:HHOpen.wav
64,192,214617,128,0,214696:0:0:0:0:
320,192,214696,128,2,214776:0:0:0:60:
192,192,214776,128,0,214855:0:0:0:0:
320,192,214855,128,8,214935:0:0:0:60:
448,192,214855,128,0,214935:0:0:0:45:HHOpen.wav
64,192,214935,128,0,215014:0:0:0:0:
448,192,215014,128,2,215093:0:0:0:60:
192,192,215093,128,0,215173:0:0:0:0:
320,192,215173,128,8,215252:0:0:0:60:
448,192,215173,128,0,215252:0:0:0:45:HHOpen.wav
64,192,215252,128,0,215331:0:0:0:0:
320,192,215331,128,2,215411:0:0:0:60:
192,192,215411,128,0,215490:0:0:0:0:
320,192,215490,128,8,215569:0:0:0:60:
448,192,215490,128,0,215569:0:0:0:45:HHOpen.wav
192,192,215569,128,0,215649:0:0:0:0:
448,192,215649,128,2,215728:0:0:0:60:
192,192,215728,128,0,215808:0:0:0:0:
320,192,215808,128,8,215887:0:0:0:60:
448,192,215808,128,0,215887:0:0:0:45:HHOpen.wav
64,192,215887,128,0,215966:0:0:0:0:
320,192,215966,128,2,216046:0:0:0:60:
64,192,216046,128,0,216125:0:0:0:0:
320,192,216125,128,8,216284:0:0:0:60:
448,192,216125,128,0,216284:0:0:0:45:HHOpen.wav
64,192,216284,128,2,216363:0:0:0:60:
320,192,216363,128,8,216443:0:0:0:60:
64,192,216443,128,2,216681:0:0:0:60:
192,192,216443,128,4,216681:0:0:0:40:
448,192,216443,128,0,216681:0:0:0:0:
64,192,216760,128,2,216839:0:0:0:60:
192,192,216760,128,0,216839:0:0:0:0:
448,192,216760,128,0,216839:0:0:0:0:
64,192,216919,128,2,216998:0:0:0:60:
192,192,216919,128,0,216998:0:0:0:0:
448,192,216919,128,0,216998:0:0:0:0:
64,192,217077,128,2,217157:0:0:0:60:
192,192,217077,128,8,217157:0:0:0:60:
448,192,217077,128,0,217157:0:0:0:0:
64,192,217236,128,8,217316:0:0:0:60:
192,192,217236,128,2,217316:0:0:0:60:
448,192,217236,128,0,217316:0:0:0:0:
64,192,217395,128,2,217474:0:0:0:60:
320,192,217395,128,8,217474:0:0:0:60:
448,192,217395,128,0,217474:0:0:0:0:
64,192,217554,128,2,217871:0:0:0:60:
192,192,217554,128,8,217633:0:0:0:60:
320,192,217554,128,4,217633:0:0:0:40:
448,192,217554,128,0,217633:0:0:0:0:
320,192,217871,1,8,0:0:0:60:
448,192,217871,1,0,0:0:0:0:
64,192,217950,1,8,0:0:0:60:
192,192,217950,1,0,0:0:0:0:
320,192,218030,1,8,0:0:0:60:
448,192,218030,1,0,0:0:0:0:
192,192,218109,1,0,0:0:0:0:
64,192,218189,1,0,0:0:0:45:HHOpen.wav
448,192,218189,1,0,0:0:0:0:
320,192,218268,1,8,0:0:0:60:
64,192,218347,1,2,0:0:0:60:
192,192,218347,1,0,0:0:0:0:
448,192,218427,1,8,0:0:0:60:
64,192,218506,1,0,0:0:0:60:tom01.wav
320,192,218506,1,0,0:0:0:0:
192,192,218585,1,0,0:0:0:60:tom02.wav
320,192,218665,1,0,0:0:0:60:tom03.wav
448,192,218665,1,0,0:0:0:0:
64,192,218744,128,0,218823:0:0:0:60:tom04.wav
192,192,218784,128,0,218863:0:0:0:0:
320,192,218823,128,8,218903:0:0:0:60:
448,192,218863,128,0,218903:0:0:0:0:
64,192,218903,128,8,218982:0:0:0:60:
192,192,218943,128,0,218982:0:0:0:0:
320,192,218982,1,2,0:0:0:60:
448,192,218982,128,0,219141:0:0:0:45:HHOpen.wav
64,192,219300,1,4,0:0:0:40:
192,192,219300,128,8,219776:0:0:0:60:
448,192,219300,1,0,0:0:0:0:
448,192,219458,1,0,0:0:0:60:LR_HiHat Click.wav
64,192,219617,1,2,0:0:0:60:
320,192,219617,1,0,0:0:0:45:HHOpen.wav
320,192,219776,1,0,0:0:0:60:LR_HiHat Click.wav
64,192,219935,1,8,0:0:0:60:
192,192,219935,1,0,0:0:0:45:HHOpen.wav
448,192,219935,1,0,0:0:0:0:
64,192,220093,128,0,220252:0:0:0:60:LR_HiHat Click.wav
448,192,220093,1,0,0:0:0:0:
192,192,220252,1,2,0:0:0:60:
320,192,220252,128,0,220569:0:0:0:45:HHOpen.wav
192,192,220411,1,0,0:0:0:60:LR_HiHat Click.wav
64,192,220569,128,8,220728:0:0:0:60:
448,192,220569,1,0,0:0:0:45:HHOpen.wav
192,192,220728,128,0,221046:0:0:0:60:LR_HiHat Click.wav
320,192,220887,1,2,0:0:0:60:
448,192,220887,1,0,0:0:0:45:HHOpen.wav
320,192,221046,1,0,0:0:0:60:LR_HiHat Click.wav
64,192,221204,128,8,221363:0:0:0:60:
192,192,221204,1,0,0:0:0:45:HHOpen.wav
448,192,221204,1,0,0:0:0:0:
320,192,221363,128,0,222633:0:0:0:60:LR_HiHat Click.wav
64,192,221522,1,2,0:0:0:60:
192,192,221522,1,0,0:0:0:45:HHOpen.wav
192,192,221681,1,0,0:0:0:60:LR_HiHat Click.wav
64,192,221839,1,8,0:0:0:60:
448,192,221839,1,0,0:0:0:45:HHOpen.wav
448,192,221998,1,0,0:0:0:60:LR_HiHat Click.wav
64,192,222157,1,2,0:0:0:60:
192,192,222157,1,0,0:0:0:45:HHOpen.wav
64,192,222316,1,0,0:0:0:60:LR_HiHat Click.wav
192,192,222474,1,8,0:0:0:60:
448,192,222474,1,0,0:0:0:45:HHOpen.wav
192,192,222633,1,0,0:0:0:60:LR_HiHat Click.wav
64,192,222792,1,2,0:0:0:60:
320,192,222792,128,0,223109:0:0:0:45:HHOpen.wav
64,192,222950,1,0,0:0:0:60:LR_HiHat Click.wav
64,192,223109,1,8,0:0:0:60:
192,192,223109,1,0,0:0:0:45:HHOpen.wav
448,192,223109,1,0,0:0:0:0:
192,192,223268,128,0,223744:0:0:0:60:LR_HiHat Click.wav
64,192,223427,1,2,0:0:0:60:
448,192,223427,1,0,0:0:0:45:HHOpen.wav
448,192,223585,1,0,0:0:0:60:LR_HiHat Click.wav
64,192,223744,1,8,0:0:0:60:
320,192,223744,1,0,0:0:0:45:HHOpen.wav
448,192,223744,1,0,0:0:0:0:
64,192,223903,128,0,224062:0:0:0:60:LR_HiHat Click.wav
192,192,224062,1,4,0:0:0:40:
320,192,224062,128,2,224855:0:0:0:60:
448,192,224062,1,0,0:0:0:0:
192,192,224220,1,0,0:0:0:60:LR_HiHat Click.wav
64,192,224379,1,8,0:0:0:60:
448,192,224379,1,0,0:0:0:45:HHOpen.wav
64,192,224538,1,0,0:0:0:60:LR_HiHat Click.wav
192,192,224696,1,2,0:0:0:60:
448,192,224696,1,0,0:0:0:45:HHOpen.wav
192,192,224855,1,0,0:0:0:60:LR_HiHat Click.wav
64,192,225014,1,8,0:0:0:60:
320,192,225014,1,0,0:0:0:45:HHOpen.wav
448,192,225014,1,0,0:0:0:0:
320,192,225173,128,0,225331:0:0:0:60:LR_HiHat Click.wav
192,192,225331,1,2,0:0:0:60:
448,192,225331,128,0,225649:0:0:0:45:HHOpen.wav
192,192,225490,1,0,0:0:0:60:LR_HiHat Click.wav
64,192,225649,128,8,225808:0:0:0:60:
320,192,225649,1,0,0:0:0:45:HHOpen.wav
192,192,225808,128,0,225966:0:0:0:60:LR_HiHat Click.wav
320,192,225966,1,2,0:0:0:60:
448,192,225966,1,0,0:0:0:45:HHOpen.wav
192,192,226125,128,0,226284:0:0:0:60:LR_HiHat Click.wav
64,192,226284,1,8,0:0:0:60:
320,192,226284,1,0,0:0:0:45:HHOpen.wav
448,192,226284,1,0,0:0:0:0:
192,192,226443,1,0,0:0:0:60:LR_HiHat Click.wav
64,192,226601,1,4,0:0:0:40:
192,192,226601,128,2,226919:0:0:0:60:
448,192,226601,1,0,0:0:0:0:
320,192,226760,1,0,0:0:0:60:LR_HiHat Click.wav
64,192,226919,1,8,0:0:0:60:
320,192,226919,1,0,0:0:0:45:HHOpen.wav
448,192,226919,1,0,0:0:0:0:
448,192,227077,128,0,227236:0:0:0:60:LR_HiHat Click.wav
64,192,227236,1,2,0:0:0:60:
320,192,227236,128,0,227871:0:0:0:45:HHOpen.wav
64,192,227395,1,0,0:0:0:60:LR_HiHat Click.wav
192,192,227554,1,8,0:0:0:60:
448,192,227554,1,0,0:0:0:45:HHOpen.wav
448,192,227712,1,0,0:0:0:60:LR_HiHat Click.wav
64,192,227871,1,8,0:0:0:60:
192,192,227871,1,0,0:0:0:45:HHOpen.wav
448,192,227871,1,0,0:0:0:0:
192,192,228030,1,2,0:0:0:60:
320,192,228030,1,0,0:0:0:0:
64,192,228189,1,8,0:0:0:60:
320,192,228189,1,0,0:0:0:45:HHOpen.wav
448,192,228189,1,0,0:0:0:0:
192,192,228347,1,2,0:0:0:60:
320,192,228347,1,0,0:0:0:0:
64,192,228506,1,8,0:0:0:60:
192,192,228506,1,0,0:0:0:45:HHOpen.wav
448,192,228506,1,0,0:0:0:0:
448,192,228665,1,2,0:0:0:60:
192,192,228744,1,2,0:0:0:60:
320,192,228823,1,8,0:0:0:60:
448,192,228823,1,0,0:0:0:45:HHOpen.wav
64,192,228903,1,2,0:0:0:60:
320,192,228982,1,2,0:0:0:60:
192,192,229062,1,8,0:0:0:60:
64,192,229141,1,4,0:0:0:40:
448,192,229141,128,2,229458:0:0:0:60:
192,192,229300,1,0,0:0:0:60:LR_HiHat Click.wav
64,192,229458,1,8,0:0:0:60:
192,192,229458,1,0,0:0:0:0:
320,192,229458,1,0,0:0:0:0:
192,192,229617,128,0,230093:0:0:0:45:HHOpen.wav
320,192,229776,1,2,0:0:0:60:
448,192,229776,1,0,0:0:0:0:
320,192,229935,1,0,0:0:0:45:HHOpen.wav
64,192,230093,1,8,0:0:0:60:
320,192,230093,1,0,0:0:0:0:
448,192,230093,1,0,0:0:0:0:
320,192,230252,128,0,230728:0:0:0:45:HHOpen.wav
64,192,230411,1,2,0:0:0:60:
192,192,230411,1,0,0:0:0:0:
192,192,230569,1,0,0:0:0:45:HHOpen.wav
64,192,230728,1,8,0:0:0:60:
192,192,230728,1,0,0:0:0:0:
448,192,230728,1,0,0:0:0:0:
320,192,230887,1,0,0:0:0:45:HHOpen.wav
64,192,231046,1,2,0:0:0:60:
192,192,231046,1,0,0:0:0:0:
448,192,231046,1,0,0:0:0:0:
192,192,231204,1,2,0:0:0:60:
320,192,231204,1,0,0:0:0:60:LR_HiHat Click.wav
64,192,231363,1,8,0:0:0:60:
320,192,231363,1,0,0:0:0:0:
448,192,231363,1,0,0:0:0:0:
64,192,231522,1,0,0:0:0:0:
192,192,231522,1,0,0:0:0:0:
192,192,231681,1,2,0:0:0:60:
320,192,231681,128,4,231998:0:0:0:40:
448,192,231681,1,0,0:0:0:0:
64,192,231839,1,0,0:0:0:60:LR_HiHat Click.wav
64,192,231998,1,8,0:0:0:60:
192,192,231998,1,0,0:0:0:0:
448,192,231998,1,0,0:0:0:0:
192,192,232157,128,0,232633:0:0:0:60:LR_HiHat Click.wav
320,192,232316,1,2,0:0:0:60:
448,192,232316,1,0,0:0:0:0:
64,192,232474,1,2,0:0:0:60:
320,192,232474,1,0,0:0:0:60:LR_HiHat Click.wav
64,192,232633,1,8,0:0:0:60:
320,192,232633,1,0,0:0:0:0:
448,192,232633,1,0,0:0:0:0:
448,192,232792,128,0,233268:0:0:0:45:HHOpen.wav
64,192,232950,1,2,0:0:0:60:
192,192,232950,1,0,0:0:0:0:
192,192,233109,1,2,0:0:0:60:
320,192,233109,1,0,0:0:0:45:HHOpen.wav
64,192,233268,1,8,0:0:0:60:
192,192,233268,1,0,0:0:0:0:
320,192,233268,1,0,0:0:0:0:
64,192,233427,1,2,0:0:0:60:
320,192,233427,1,0,0:0:0:45:HHOpen.wav
64,192,233585,1,8,0:0:0:60:
192,192,233585,1,0,0:0:0:0:
448,192,233585,1,0,0:0:0:0:
192,192,233744,1,4,0:0:0:40:
320,192,233744,1,2,0:0:0:60:
64,192,233903,1,8,0:0:0:60:
320,192,233903,1,0,0:0:0:0:
448,192,233903,1,0,0:0:0:0:
64,192,234062,1,4,0:0:0:40:
192,192,234062,1,2,0:0:0:60:
448,192,234062,128,0,234538:0:0:0:0:
320,192,234220,1,0,0:0:0:0:
64,192,234379,1,2,0:0:0:60:
192,192,234379,1,0,0:0:0:0:
64,192,234538,1,8,0:0:0:60:
192,192,234538,1,0,0:0:0:0:
320,192,234538,1,0,0:0:0:0:
64,192,234696,128,0,234855:0:0:0:0:
320,192,234855,1,2,0:0:0:60:
448,192,234855,1,0,0:0:0:0:
192,192,235014,1,2,0:0:0:60:
320,192,235014,128,0,235173:0:0:0:0:
64,192,235173,1,8,0:0:0:60:
192,192,235173,1,0,0:0:0:0:
448,192,235173,1,0,0:0:0:0:
448,192,235331,128,0,235649:0:0:0:0:
64,192,235490,1,2,0:0:0:60:
192,192,235490,1,0,0:0:0:0:
192,192,235649,1,2,0:0:0:60:
320,192,235649,1,0,0:0:0:0:
64,192,235808,1,8,0:0:0:60:
192,192,235808,128,0,235966:0:0:0:0:
448,192,235808,1,0,0:0:0:0:
320,192,235966,1,0,0:0:0:45:HHOpen.wav
64,192,236125,128,2,236284:0:0:0:60:
448,192,236125,1,0,0:0:0:0:
320,192,236284,1,0,0:0:0:45:HHOpen.wav
448,192,236284,1,0,0:0:0:0:
64,192,236443,1,8,0:0:0:60:
192,192,236443,1,0,0:0:0:0:
448,192,236443,1,0,0:0:0:0:
192,192,236601,128,0,236760:0:0:0:45:HHOpen.wav
64,192,236760,1,2,0:0:0:60:
448,192,236760,128,0,237077:0:0:0:0:
320,192,236919,1,0,0:0:0:45:HHOpen.wav
64,192,237077,1,8,0:0:0:60:
192,192,237077,1,0,0:0:0:0:
320,192,237077,1,0,0:0:0:0:
192,192,237236,128,0,237554:0:0:0:45:HHOpen.wav
64,192,237395,1,2,0:0:0:60:
448,192,237395,1,0,0:0:0:45:HHOpen.wav
64,192,237554,1,2,0:0:0:60:
320,192,237554,1,0,0:0:0:0:
64,192,237712,1,8,0:0:0:60:
320,192,237712,128,0,238030:0:0:0:45:HHOpen.wav
448,192,237712,1,0,0:0:0:0:
192,192,237871,1,0,0:0:0:45:HHOpen.wav
64,192,238030,1,2,0:0:0:60:
448,192,238030,1,0,0:0:0:0:
192,192,238189,1,2,0:0:0:60:
320,192,238189,1,0,0:0:0:0:
64,192,238347,1,8,0:0:0:60:
192,192,238347,1,0,0:0:0:45:HHOpen.wav
448,192,238347,1,0,0:0:0:0:
320,192,238506,1,2,0:0:0:60:
192,192,238585,1,8,0:0:0:60:
320,192,238665,1,2,0:0:0:60:
448,192,238665,1,0,0:0:0:0:
64,192,238744,1,0,0:0:0:0:
448,192,238823,1,0,0:0:0:60:tom01.wav
192,192,238903,1,0,0:0:0:0:
64,192,238982,1,0,0:0:0:60:tom02.wav
320,192,238982,1,0,0:0:0:0:
448,192,239062,1,0,0:0:0:0:
192,192,239141,1,0,0:0:0:60:tom03.wav
320,192,239220,1,0,0:0:0:0:
64,192,239300,1,2,0:0:0:60:
192,192,239300,1,4,0:0:0:40:
448,192,239300,1,0,0:0:0:0:
64,192,239458,1,0,0:0:0:60:LR_HiHat Click.wav
64,192,239617,1,2,0:0:0:60:
320,192,239617,1,0,0:0:0:0:
64,192,239776,1,0,0:0:0:60:LR_HiHat Click.wav
192,192,239776,1,0,0:0:0:0:
64,192,239935,1,2,0:0:0:60:
448,192,239935,1,0,0:0:0:0:
192,192,240093,1,2,0:0:0:60:
448,192,240093,1,0,0:0:0:60:LR_HiHat Click.wav
320,192,240252,1,2,0:0:0:60:
448,192,240252,1,0,0:0:0:0:
64,192,240411,1,8,0:0:0:60:
192,192,240411,1,4,0:0:0:40:
448,192,240411,1,0,0:0:0:0:
64,192,240569,1,0,0:0:0:45:HHOpen.wav
320,192,240569,1,0,0:0:0:0:
192,192,240728,1,2,0:0:0:60:
320,192,240728,1,0,0:0:0:0:
64,192,240887,1,8,0:0:0:60:
192,192,240887,1,0,0:0:0:0:
448,192,240887,1,0,0:0:0:0:
192,192,241046,1,2,0:0:0:60:
320,192,241046,1,0,0:0:0:0:
192,192,241204,1,2,0:0:0:60:
448,192,241204,1,0,0:0:0:0:
64,192,241363,1,2,0:0:0:60:
448,192,241363,1,0,0:0:0:0:
64,192,241522,1,2,0:0:0:60:
320,192,241522,1,0,0:0:0:0:
64,192,241681,1,2,0:0:0:60:
192,192,241681,1,0,0:0:0:0:
64,192,241839,1,8,0:0:0:60:
320,192,241839,1,4,0:0:0:40:
448,192,241839,1,0,0:0:0:0:
192,192,241998,1,2,0:0:0:60:
448,192,241998,1,0,0:0:0:0:
192,192,242157,1,2,0:0:0:60:
448,192,242157,1,0,0:0:0:0:
64,192,242316,1,8,0:0:0:60:
192,192,242316,1,4,0:0:0:40:
448,192,242316,1,0,0:0:0:0:
64,192,242474,1,2,0:0:0:60:
320,192,242474,1,0,0:0:0:0:
64,192,242633,1,2,0:0:0:60:
320,192,242633,1,0,0:0:0:0:
64,192,242792,1,8,0:0:0:60:
320,192,242792,1,0,0:0:0:0:
448,192,242792,1,0,0:0:0:0:
64,192,242950,1,8,0:0:0:60:
192,192,242950,1,4,0:0:0:40:
448,192,242950,1,0,0:0:0:0:
320,192,243109,1,2,0:0:0:60:
448,192,243109,1,0,0:0:0:45:HHOpen.wav
192,192,243189,1,0,0:0:0:0:
64,192,243268,1,8,0:0:0:10:
320,192,243347,1,8,0:0:0:10:
192,192,243427,1,2,0:0:0:60:
448,192,243427,1,8,0:0:0:20:
64,192,243506,1,8,0:0:0:20:
320,192,243585,1,8,0:0:0:20:
448,192,243665,1,8,0:0:0:20:
64,192,243744,1,8,0:0:0:40:
192,192,243744,1,2,0:0:0:60:
320,192,243823,1,8,0:0:0:40:
448,192,243903,1,8,0:0:0:40:
192,192,243982,1,8,0:0:0:40:
64,192,244062,1,8,0:0:0:60:
320,192,244062,1,0,0:0:0:0:
448,192,244141,1,8,0:0:0:60:
192,192,244220,1,8,0:0:0:60:
64,192,244300,1,8,0:0:0:60:
320,192,244379,1,0,0:0:0:0:
192,192,245173,1,2,0:0:0:60:
320,192,245252,1,2,0:0:0:60:
64,192,245331,1,2,0:0:0:60:
192,192,245331,1,0,0:0:0:60:tom03.wav
64,192,245649,128,4,248109:0:0:0:40:
320,192,245649,128,2,248109:0:0:0:60:
448,192,245649,128,0,248109:0:0:0:0:
64,192,248189,128,2,249379:0:0:0:60:
192,192,248189,128,4,249379:0:0:0:40:
448,192,248189,128,0,249379:0:0:0:0:
320,192,248823,1,0,0:0:0:0:
64,192,249458,128,4,249935:0:0:0:40:
192,192,249458,128,2,249935:0:0:0:60:
448,192,249458,1,0,0:0:0:0:
320,192,249935,1,0,0:0:0:60:tom01.wav
448,192,249935,1,0,0:0:0:0:
64,192,250093,1,0,0:0:0:0:
192,192,250252,1,0,0:0:0:60:tom03.wav
320,192,250252,1,0,0:0:0:0:
64,192,250411,1,0,0:0:0:60:tom04.wav
448,192,250411,1,0,0:0:0:0:
320,192,250569,1,0,0:0:0:0:
64,192,250728,128,2,253189:0:0:0:60:
192,192,250728,128,4,253189:0:0:0:40:
448,192,250728,128,0,253189:0:0:0:0:
320,192,251363,1,0,0:0:0:45:HHOpen.wav
320,192,252633,1,0,0:0:0:45:HHOpen.wav
64,192,253268,128,4,254379:0:0:0:40:
192,192,253268,128,2,254379:0:0:0:60:
320,192,253268,128,0,254379:0:0:0:0:
448,192,253903,1,0,0:0:0:45:HHOpen.wav
448,192,254379,1,0,0:0:0:0:
64,192,254538,1,8,0:0:0:60:
320,192,254538,128,0,255728:0:0:0:60:tom01.wav
448,192,254538,128,0,255728:0:0:0:0:
64,192,255014,1,2,0:0:0:60:
192,192,255014,1,0,0:0:0:60:tom02.wav
64,192,255490,1,8,0:0:0:60:
192,192,255490,1,0,0:0:0:60:tom01.wav
64,192,255808,1,2,0:0:0:60:
320,192,255808,1,4,0:0:0:40:
448,192,255808,1,0,0:0:0:0:
192,192,255966,128,0,256125:0:0:0:60:LR_HiHat Click.wav
64,192,256125,1,2,0:0:0:60:
320,192,256125,1,0,0:0:0:45:HHOpen.wav
192,192,256284,128,0,256443:0:0:0:60:LR_HiHat Click.wav
64,192,256443,1,2,0:0:0:60:
448,192,256443,1,0,0:0:0:45:HHOpen.wav
192,192,256601,128,0,256760:0:0:0:60:LR_HiHat Click.wav
320,192,256760,1,2,0:0:0:60:
448,192,256760,1,0,0:0:0:45:HHOpen.wav
192,192,256919,128,0,257077:0:0:0:60:LR_HiHat Click.wav
64,192,257077,1,2,0:0:0:60:
320,192,257077,1,0,0:0:0:45:HHOpen.wav
448,192,257236,128,0,257395:0:0:0:60:LR_HiHat Click.wav
192,192,257395,1,2,0:0:0:60:
320,192,257395,1,0,0:0:0:45:HHOpen.wav
448,192,257554,128,0,257712:0:0:0:60:LR_HiHat Click.wav
64,192,257712,1,2,0:0:0:60:
192,192,257712,1,0,0:0:0:45:HHOpen.wav
448,192,257871,128,0,258030:0:0:0:60:LR_HiHat Click.wav
64,192,258030,1,2,0:0:0:60:
320,192,258030,1,0,0:0:0:45:HHOpen.wav
448,192,258189,128,0,258347:0:0:0:60:LR_HiHat Click.wav
192,192,258347,1,2,0:0:0:60:
320,192,258347,1,0,0:0:0:45:HHOpen.wav
64,192,258506,128,0,258665:0:0:0:60:LR_HiHat Click.wav
192,192,258665,1,2,0:0:0:60:
448,192,258665,1,0,0:0:0:45:HHOpen.wav
64,192,258823,128,0,258982:0:0:0:60:LR_HiHat Click.wav
192,192,258982,1,2,0:0:0:60:
320,192,258982,1,0,0:0:0:45:HHOpen.wav
64,192,259141,128,0,259300:0:0:0:60:LR_HiHat Click.wav
320,192,259300,1,2,0:0:0:60:
448,192,259300,1,0,0:0:0:45:HHOpen.wav
64,192,259458,128,0,259617:0:0:0:60:LR_HiHat Click.wav
192,192,259617,1,2,0:0:0:60:
448,192,259617,1,0,0:0:0:45:HHOpen.wav
320,192,259776,128,0,259935:0:0:0:60:LR_HiHat Click.wav
64,192,259935,1,2,0:0:0:60:
192,192,259935,1,0,0:0:0:45:HHOpen.wav
320,192,260093,128,0,260252:0:0:0:60:LR_HiHat Click.wav
64,192,260252,1,2,0:0:0:60:
448,192,260252,1,0,0:0:0:45:HHOpen.wav
320,192,260411,1,0,0:0:0:60:LR_HiHat Click.wav
192,192,260490,1,0,0:0:0:45:HHOpen.wav
64,192,260569,1,2,0:0:0:60:
448,192,260569,1,0,0:0:0:45:HHOpen.wav
320,192,260728,1,0,0:0:0:60:LR_HiHat Click.wav
192,192,260808,1,0,0:0:0:45:HHOpen.wav
64,192,260887,1,4,0:0:0:40:
320,192,260887,1,2,0:0:0:60:
448,192,260887,1,0,0:0:0:0:
448,192,261046,1,0,0:0:0:60:LR_HiHat Click.wav
64,192,261204,1,2,0:0:0:60:
320,192,261204,1,0,0:0:0:45:HHOpen.wav
192,192,261363,1,0,0:0:0:60:LR_HiHat Click.wav
64,192,261522,1,2,0:0:0:60:
448,192,261522,1,0,0:0:0:45:HHOpen.wav
192,192,261681,1,0,0:0:0:60:LR_HiHat Click.wav
64,192,261839,1,2,0:0:0:60:
320,192,261839,1,0,0:0:0:45:HHOpen.wav
320,192,261998,1,0,0:0:0:60:LR_HiHat Click.wav
192,192,262157,1,2,0:0:0:60:
448,192,262157,1,0,0:0:0:45:HHOpen.wav
448,192,262316,1,0,0:0:0:60:LR_HiHat Click.wav
64,192,262474,1,2,0:0:0:60:
320,192,262474,1,0,0:0:0:45:HHOpen.wav
320,192,262633,1,0,0:0:0:60:LR_HiHat Click.wav
192,192,262792,1,2,0:0:0:60:
448,192,262792,1,0,0:0:0:45:HHOpen.wav
192,192,262950,1,0,0:0:0:60:LR_HiHat Click.wav
64,192,263109,1,2,0:0:0:60:
320,192,263109,1,4,0:0:0:40:
448,192,263109,1,0,0:0:0:45:HHOpen.wav
64,192,263268,1,0,0:0:0:0:
192,192,263427,1,6,0:0:0:40:
448,192,263427,1,8,0:0:0:15:
64,192,263506,1,8,0:0:0:15:
320,192,263585,1,8,0:0:0:15:
192,192,263665,1,8,0:0:0:15:
64,192,263744,1,2,0:0:0:60:
448,192,263744,1,8,0:0:0:20:
320,192,263823,1,8,0:0:0:20:
192,192,263903,1,8,0:0:0:20:
448,192,263982,1,8,0:0:0:20:
64,192,264062,1,2,0:0:0:60:
320,192,264062,1,8,0:0:0:25:
192,192,264141,1,8,0:0:0:25:
320,192,264220,1,8,0:0:0:25:
64,192,264300,1,8,0:0:0:25:
192,192,264379,1,2,0:0:0:60:
448,192,264379,1,8,0:0:0:30:
320,192,264458,1,8,0:0:0:30:
64,192,264538,1,8,0:0:0:30:
192,192,264617,1,8,0:0:0:30:
320,192,264696,1,2,0:0:0:60:
448,192,264696,1,8,0:0:0:35:
64,192,264776,1,8,0:0:0:35:
192,192,264855,1,8,0:0:0:35:
320,192,264855,1,0,0:0:0:0:
448,192,264935,1,8,0:0:0:35:
64,192,265014,1,8,0:0:0:40:
192,192,265014,1,2,0:0:0:60:
320,192,265093,1,8,0:0:0:40:
64,192,265173,1,8,0:0:0:40:
448,192,265173,1,0,0:0:0:0:
192,192,265252,1,8,0:0:0:40:
320,192,265331,1,8,0:0:0:50:
448,192,265331,1,2,0:0:0:60:
64,192,265411,1,8,0:0:0:50:
192,192,265411,1,0,0:0:0:0:
320,192,265490,1,8,0:0:0:50:
448,192,265490,1,0,0:0:0:0:
64,192,265569,1,8,0:0:0:50:
192,192,265569,1,0,0:0:0:0:
320,192,265649,1,8,0:0:0:60:
448,192,265649,1,2,0:0:0:60:
64,192,265728,1,8,0:0:0:60:
192,192,265728,1,0,0:0:0:0:
320,192,265808,1,8,0:0:0:60:
448,192,265808,1,0,0:0:0:0:
64,192,265887,1,8,0:0:0:60:
192,192,265887,1,0,0:0:0:0:
320,192,265966,1,0,0:0:0:0:
448,192,265966,128,0,267236:0:0:0:0:
64,192,268506,1,8,0:0:0:60:
192,192,268506,128,4,268665:0:0:0:40:
320,192,268506,1,0,0:0:0:0:
448,192,268506,1,0,0:0:0:0:
64,192,268665,1,2,0:0:0:60:
320,192,268665,1,0,0:0:0:0:
192,192,268823,1,2,0:0:0:60:
448,192,268823,1,0,0:0:0:0:
64,192,268982,1,8,0:0:0:60:
192,192,268982,1,0,0:0:0:0:
320,192,268982,128,0,269141:0:0:0:0:
448,192,268982,1,0,0:0:0:0:
192,192,269141,1,2,0:0:0:60:
448,192,269141,1,0,0:0:0:0:
64,192,269300,1,2,0:0:0:60:
320,192,269300,1,0,0:0:0:0:
64,192,269458,1,8,0:0:0:60:
192,192,269458,128,0,269617:0:0:0:0:
320,192,269458,1,0,0:0:0:0:
448,192,269458,1,0,0:0:0:0:
320,192,269617,1,2,0:0:0:60:
448,192,269617,1,0,0:0:0:0:
64,192,269776,1,2,0:0:0:60:
192,192,269776,1,0,0:0:0:0:
64,192,269935,1,8,0:0:0:60:
192,192,269935,1,0,0:0:0:0:
320,192,269935,128,0,270093:0:0:0:0:
448,192,269935,1,0,0:0:0:0:
64,192,270093,1,2,0:0:0:60:
192,192,270093,1,0,0:0:0:45:HHOpen.wav
320,192,270252,1,2,0:0:0:60:
448,192,270252,1,0,0:0:0:0:
64,192,270411,1,8,0:0:0:60:
192,192,270411,128,0,270569:0:0:0:0:
320,192,270411,1,0,0:0:0:0:
448,192,270411,1,0,0:0:0:0:
64,192,270569,1,2,0:0:0:60:
320,192,270569,1,0,0:0:0:0:
64,192,270728,1,8,0:0:0:60:
192,192,270728,1,0,0:0:0:0:
320,192,270728,128,0,270887:0:0:0:0:
448,192,270728,1,0,0:0:0:0:
64,192,270887,1,2,0:0:0:60:
448,192,270887,1,0,0:0:0:0:
64,192,271046,128,8,271204:0:0:0:60:
192,192,271046,1,4,0:0:0:40:
320,192,271046,1,0,0:0:0:0:
448,192,271046,1,0,0:0:0:0:
192,192,271204,1,2,0:0:0:60:
448,192,271204,1,0,0:0:0:0:
64,192,271363,1,2,0:0:0:60:
320,192,271363,1,0,0:0:0:0:
64,192,271522,1,8,0:0:0:60:
192,192,271522,1,0,0:0:0:0:
320,192,271522,1,0,0:0:0:0:
448,192,271522,128,0,271681:0:0:0:0:
64,192,271681,1,2,0:0:0:60:
320,192,271681,1,0,0:0:0:0:
192,192,271839,1,2,0:0:0:60:
448,192,271839,1,0,0:0:0:0:
64,192,271998,1,8,0:0:0:60:
192,192,271998,1,0,0:0:0:0:
320,192,271998,128,0,272157:0:0:0:0:
448,192,271998,1,0,0:0:0:0:
64,192,272157,1,2,0:0:0:60:
192,192,272157,1,0,0:0:0:0:
320,192,272316,1,2,0:0:0:60:
448,192,272316,1,0,0:0:0:0:
64,192,272474,1,8,0:0:0:60:
192,192,272474,128,0,272633:0:0:0:0:
320,192,272474,1,0,0:0:0:0:
448,192,272474,1,0,0:0:0:0:
320,192,272633,1,2,0:0:0:60:
448,192,272633,1,0,0:0:0:0:
64,192,272792,1,2,0:0:0:60:
192,192,272792,1,0,0:0:0:0:
64,192,272950,1,8,0:0:0:60:
192,192,272950,1,0,0:0:0:45:HHOpen.wav
320,192,272950,1,0,0:0:0:0:
448,192,272950,128,0,273109:0:0:0:0:
64,192,273109,1,2,0:0:0:60:
320,192,273109,1,0,0:0:0:0:
64,192,273268,128,8,273427:0:0:0:60:
192,192,273268,1,0,0:0:0:45:HHOpen.wav
320,192,273268,1,0,0:0:0:0:
448,192,273268,1,0,0:0:0:0:
192,192,273427,1,2,0:0:0:60:
448,192,273427,1,0,0:0:0:0:
64,192,273585,1,8,0:0:0:60:
192,192,273585,1,4,0:0:0:40:
320,192,273585,1,0,0:0:0:0:
448,192,273585,128,0,273744:0:0:0:0:
64,192,273744,1,2,0:0:0:60:
320,192,273744,1,0,0:0:0:0:
192,192,273903,1,2,0:0:0:60:
320,192,273903,1,0,0:0:0:0:
64,192,274062,128,8,274220:0:0:0:60:
192,192,274062,1,0,0:0:0:0:
320,192,274062,1,0,0:0:0:0:
448,192,274062,1,0,0:0:0:0:
192,192,274220,1,2,0:0:0:60:
448,192,274220,1,0,0:0:0:0:
64,192,274379,1,2,0:0:0:60:
448,192,274379,1,0,0:0:0:0:
64,192,274538,1,8,0:0:0:60:
192,192,274538,128,0,274696:0:0:0:0:
320,192,274538,1,0,0:0:0:0:
448,192,274538,1,0,0:0:0:0:
64,192,274696,1,2,0:0:0:60:
320,192,274696,1,0,0:0:0:0:
192,192,274855,1,2,0:0:0:60:
448,192,274855,1,0,0:0:0:0:
64,192,275014,1,8,0:0:0:60:
192,192,275014,1,0,0:0:0:0:
320,192,275014,128,0,275173:0:0:0:0:
448,192,275014,1,0,0:0:0:0:
192,192,275173,1,2,0:0:0:60:
448,192,275173,1,0,0:0:0:0:
64,192,275331,1,2,0:0:0:60:
320,192,275331,1,0,0:0:0:0:
64,192,275490,1,8,0:0:0:60:
192,192,275490,128,0,275649:0:0:0:0:
320,192,275490,1,0,0:0:0:0:
448,192,275490,1,0,0:0:0:0:
64,192,275649,1,2,0:0:0:60:
320,192,275649,1,0,0:0:0:0:
64,192,275808,1,8,0:0:0:60:
192,192,275808,1,0,0:0:0:0:
320,192,275808,128,0,275966:0:0:0:0:
448,192,275808,1,0,0:0:0:0:
192,192,275966,1,2,0:0:0:60:
448,192,275966,1,0,0:0:0:0:
64,192,276125,1,8,0:0:0:60:
192,192,276125,128,4,276284:0:0:0:40:
320,192,276125,1,0,0:0:0:0:
448,192,276125,1,0,0:0:0:0:
64,192,276284,1,2,0:0:0:60:
448,192,276284,1,0,0:0:0:0:
64,192,276443,1,2,0:0:0:60:
320,192,276443,1,0,0:0:0:0:
64,192,276601,1,8,0:0:0:60:
192,192,276601,1,0,0:0:0:0:
320,192,276601,1,0,0:0:0:0:
448,192,276601,128,0,276760:0:0:0:0:
192,192,276760,1,0,0:0:0:0:
320,192,276760,1,0,0:0:0:0:
64,192,276919,1,2,0:0:0:60:
448,192,276919,1,0,0:0:0:0:
64,192,277077,1,8,0:0:0:60:
192,192,277077,128,0,277236:0:0:0:0:
320,192,277077,1,0,0:0:0:0:
448,192,277077,1,0,0:0:0:0:
320,192,277236,1,8,0:0:0:60:
448,192,277236,1,0,0:0:0:0:
64,192,277395,1,2,0:0:0:60:
320,192,277395,1,0,0:0:0:0:
64,192,277554,1,2,0:0:0:60:
448,192,277554,1,0,0:0:0:0:
64,192,277712,1,8,0:0:0:60:
192,192,277712,128,0,277871:0:0:0:0:
320,192,277712,1,0,0:0:0:0:
448,192,277712,1,0,0:0:0:0:
64,192,278030,1,8,0:0:0:60:
320,192,278030,1,0,0:0:0:45:HHOpen.wav
448,192,278030,1,0,0:0:0:0:
64,192,278189,1,8,0:0:0:60:
192,192,278189,1,0,0:0:0:0:
320,192,278268,1,8,0:0:0:60:
448,192,278268,1,0,0:0:0:45:HHOpen.wav
64,192,278347,1,8,0:0:0:60:
192,192,278347,1,0,0:0:0:0:
320,192,278427,1,8,0:0:0:60:
448,192,278427,1,0,0:0:0:0:
64,192,278506,1,8,0:0:0:60:
192,192,278506,1,0,0:0:0:0:
320,192,278585,1,8,0:0:0:60:
448,192,278585,1,0,0:0:0:0:
192,192,278665,1,2,0:0:0:60:
192,192,278823,1,2,0:0:0:60:
64,192,278982,1,8,0:0:0:60:
192,192,278982,1,4,0:0:0:40:
320,192,278982,1,0,0:0:0:0:
448,192,278982,128,0,279300:0:0:0:0:
64,192,279300,1,2,0:0:0:60:
192,192,279300,1,0,0:0:0:0:
320,192,279379,1,0,0:0:0:0:
192,192,279458,1,0,0:0:0:0:
320,192,279538,1,8,0:0:0:60:
448,192,279538,1,0,0:0:0:0:
64,192,279617,1,8,0:0:0:60:
192,192,279617,1,0,0:0:0:0:
64,192,279776,128,2,280252:0:0:0:60:
192,192,279776,1,4,0:0:0:40:
448,192,279776,1,0,0:0:0:0:
320,192,279935,1,0,0:0:0:0:
192,192,280093,1,0,0:0:0:0:
320,192,280252,1,8,0:0:0:60:
448,192,280252,1,0,0:0:0:0:
192,192,280411,1,0,0:0:0:60:tom02.wav
320,192,280490,1,0,0:0:0:60:tom02.wav
64,192,280569,1,2,0:0:0:60:
192,192,280569,1,0,0:0:0:60:tom03.wav
448,192,280649,1,0,0:0:0:60:tom03.wav
192,192,280728,1,0,0:0:0:60:tom03.wav
320,192,280728,1,0,0:0:0:0:
64,192,280808,1,0,0:0:0:60:tom03.wav
320,192,280887,1,2,0:0:0:60:
448,192,280887,1,0,0:0:0:60:tom04.wav
192,192,280966,1,0,0:0:0:60:tom04.wav
64,192,281046,1,0,0:0:0:60:tom04.wav
448,192,281046,1,0,0:0:0:0:
320,192,281125,1,0,0:0:0:60:tom04.wav
64,192,281204,1,4,0:0:0:40:
192,192,281204,1,2,0:0:0:60:
448,192,281204,1,0,0:0:0:0:
192,192,281363,1,0,0:0:0:60:LR_HiHat Click.wav
64,192,281522,1,8,0:0:0:60:
320,192,281522,1,0,0:0:0:45:HHOpen.wav
448,192,281522,1,0,0:0:0:0:
192,192,281681,1,0,0:0:0:60:LR_HiHat Click.wav
320,192,281760,1,0,0:0:0:0:
64,192,281839,1,2,0:0:0:60:
448,192,281839,1,0,0:0:0:0:
64,192,281998,1,2,0:0:0:60:
320,192,281998,1,0,0:0:0:60:LR_HiHat Click.wav
64,192,282157,1,8,0:0:0:60:
192,192,282157,1,0,0:0:0:45:HHOpen.wav
448,192,282157,1,0,0:0:0:0:
320,192,282316,1,0,0:0:0:60:LR_HiHat Click.wav
448,192,282316,1,0,0:0:0:0:
192,192,282395,1,0,0:0:0:0:
64,192,282474,1,2,0:0:0:60:
448,192,282474,1,0,0:0:0:0:
64,192,282633,1,2,0:0:0:60:
192,192,282633,1,0,0:0:0:60:LR_HiHat Click.wav
64,192,282792,128,8,282871:0:0:0:60:
320,192,282792,128,4,283030:0:0:0:40:
448,192,282792,128,0,283030:0:0:0:0:
64,192,282950,1,0,0:0:0:60:LR_HiHat Click.wav
64,192,283109,128,8,283189:0:0:0:60:
320,192,283109,128,4,283347:0:0:0:40:
448,192,283109,128,0,283347:0:0:0:0:
64,192,283268,1,8,0:0:0:60:
192,192,283347,1,8,0:0:0:60:
64,192,283427,128,2,283506:0:0:0:60:
320,192,283427,128,0,283665:0:0:0:0:
448,192,283427,128,0,283665:0:0:0:0:
64,192,283585,1,8,0:0:0:60:
192,192,283665,1,8,0:0:0:60:
64,192,283744,1,2,0:0:0:60:
320,192,283744,1,4,0:0:0:40:
320,192,283903,1,0,0:0:0:60:LR_HiHat Click.wav
64,192,284062,128,8,284300:0:0:0:60:
192,192,284062,128,0,284300:0:0:0:45:HHOpen.wav
448,192,284062,128,0,284141:0:0:0:0:
448,192,284220,128,0,284300:0:0:0:60:LR_HiHat Click.wav
64,192,284379,128,2,284458:0:0:0:60:
320,192,284379,128,0,284617:0:0:0:45:HHOpen.wav
448,192,284379,128,0,284617:0:0:0:0:
64,192,284538,128,0,284617:0:0:0:60:LR_HiHat Click.wav
64,192,284696,128,8,284935:0:0:0:60:
192,192,284696,128,0,284935:0:0:0:45:HHOpen.wav
448,192,284696,128,0,284776:0:0:0:0:
448,192,284855,128,0,284935:0:0:0:60:LR_HiHat Click.wav
192,192,285014,1,2,0:0:0:60:
448,192,285014,1,0,0:0:0:45:HHOpen.wav
192,192,285173,1,0,0:0:0:60:LR_HiHat Click.wav
64,192,285331,128,8,285569:0:0:0:60:
320,192,285331,128,0,285569:0:0:0:45:HHOpen.wav
448,192,285331,128,0,285411:0:0:0:0:
448,192,285490,128,0,285569:0:0:0:60:LR_HiHat Click.wav
64,192,285649,128,2,285728:0:0:0:60:
192,192,285649,128,0,285887:0:0:0:45:HHOpen.wav
448,192,285649,128,0,285887:0:0:0:0:
64,192,285808,128,0,285887:0:0:0:60:LR_HiHat Click.wav
64,192,285966,128,8,286204:0:0:0:60:
320,192,285966,128,0,286204:0:0:0:45:HHOpen.wav
448,192,285966,128,0,286046:0:0:0:0:
448,192,286125,128,0,286204:0:0:0:60:LR_HiHat Click.wav
64,192,286284,1,4,0:0:0:40:
192,192,286284,1,2,0:0:0:60:
448,192,286390,1,0,0:0:0:0:
192,192,286495,1,0,0:0:0:0:
64,192,286601,1,8,0:0:0:60:
320,192,286601,1,0,0:0:0:45:HHOpen.wav
448,192,286601,128,0,286760:0:0:0:0:
192,192,286760,1,0,0:0:0:60:LR_HiHat Click.wav
64,192,286919,1,2,0:0:0:60:
448,192,286919,128,0,287077:0:0:0:45:HHOpen.wav
192,192,287077,1,0,0:0:0:60:LR_HiHat Click.wav
64,192,287236,1,8,0:0:0:60:
320,192,287236,1,0,0:0:0:45:HHOpen.wav
448,192,287236,128,0,287395:0:0:0:0:
320,192,287395,1,0,0:0:0:60:LR_HiHat Click.wav
64,192,287554,128,2,287712:0:0:0:60:
192,192,287554,1,0,0:0:0:45:HHOpen.wav
448,192,287554,128,0,287712:0:0:0:0:
320,192,287712,1,8,0:0:0:60:
64,192,287871,128,2,288030:0:0:0:60:
192,192,287871,128,0,288030:0:0:0:45:HHOpen.wav
448,192,287871,1,0,0:0:0:0:
320,192,288030,1,0,0:0:0:60:tom01.wav
64,192,288109,1,8,0:0:0:60:
192,192,288109,1,0,0:0:0:0:
448,192,288189,1,2,0:0:0:60:
64,192,288268,1,8,0:0:0:60:
192,192,288268,1,0,0:0:0:0:
320,192,288347,1,8,0:0:0:60:
448,192,288347,1,0,0:0:0:0:
64,192,288427,1,8,0:0:0:60:
192,192,288427,1,0,0:0:0:0:
320,192,288506,1,2,0:0:0:60:
448,192,288506,1,8,0:0:0:60:
64,192,288585,1,0,0:0:0:60:tom02.wav
320,192,288665,1,0,0:0:0:60:tom03.wav
192,192,288744,1,0,0:0:0:60:tom04.wav
64,192,288823,1,2,0:0:0:60:
320,192,288823,1,4,0:0:0:40:
448,192,288823,1,0,0:0:0:0:
192,192,288982,1,0,0:0:0:60:LR_HiHat Click.wav
64,192,289141,128,8,289379:0:0:0:60:
320,192,289141,128,0,289220:0:0:0:45:HHOpen.wav
448,192,289141,128,0,289379:0:0:0:0:
320,192,289300,128,0,289379:0:0:0:60:LR_HiHat Click.wav
64,192,289458,128,2,289696:0:0:0:60:
192,192,289458,128,0,289538:0:0:0:45:HHOpen.wav
448,192,289458,128,0,289696:0:0:0:0:
192,192,289617,128,0,289696:0:0:0:60:LR_HiHat Click.wav
64,192,289776,128,8,290014:0:0:0:60:
320,192,289776,128,0,289855:0:0:0:45:HHOpen.wav
448,192,289776,128,0,290014:0:0:0:0:
320,192,289935,128,0,290014:0:0:0:60:LR_HiHat Click.wav
64,192,290093,1,2,0:0:0:60:
448,192,290093,1,0,0:0:0:45:HHOpen.wav
320,192,290252,1,0,0:0:0:60:LR_HiHat Click.wav
64,192,290411,128,8,290649:0:0:0:60:
192,192,290411,128,0,290490:0:0:0:45:HHOpen.wav
448,192,290411,128,0,290649:0:0:0:0:
192,192,290569,128,0,290649:0:0:0:60:LR_HiHat Click.wav
64,192,290728,128,2,290808:0:0:0:60:
320,192,290728,128,8,290808:0:0:0:60:
448,192,290728,128,0,290966:0:0:0:45:HHOpen.wav
320,192,290887,128,8,290966:0:0:0:60:
64,192,290966,1,8,0:0:0:60:
192,192,290966,1,0,0:0:0:0:
320,192,291046,1,10,0:0:0:60:
448,192,291046,1,0,0:0:0:45:HHOpen.wav
64,192,291125,1,8,0:0:0:60:
192,192,291125,1,0,0:0:0:0:
320,192,291204,1,8,0:0:0:60:
448,192,291204,1,0,0:0:0:0:
64,192,291284,1,8,0:0:0:60:
192,192,291284,1,0,0:0:0:0:
64,192,291363,128,2,293585:0:0:0:60:
320,192,291363,1,4,0:0:0:40:
448,192,291363,1,0,0:0:0:0:
320,192,293744,1,2,0:0:0:60:
448,192,293744,1,0,0:0:0:0:
64,192,293823,1,2,0:0:0:60:
192,192,293823,1,0,0:0:0:0:
64,192,293903,128,2,295093:0:0:0:60:
320,192,293903,1,4,0:0:0:40:
448,192,293903,1,0,0:0:0:0:
320,192,294379,128,0,294458:0:0:0:0:
320,192,294538,128,0,294617:0:0:0:0:
448,192,295014,128,0,295093:0:0:0:0:
64,192,295173,1,4,0:0:0:40:
192,192,295173,1,2,0:0:0:60:
448,192,295173,128,0,296363:0:0:0:0:
64,192,295649,1,0,0:0:0:60:tom01.wav
320,192,295649,128,0,295728:0:0:0:0:
320,192,295808,128,2,295887:0:0:0:60:
64,192,295966,128,0,296046:0:0:0:60:tom03.wav
192,192,295966,128,0,296046:0:0:0:0:
64,192,296125,128,0,296204:0:0:0:60:tom04.wav
320,192,296125,128,0,296204:0:0:0:0:
192,192,296284,128,2,296363:0:0:0:60:
192,192,296443,128,4,297633:0:0:0:40:
320,192,296443,1,2,0:0:0:60:
448,192,296443,1,0,0:0:0:0:
448,192,296919,128,0,296998:0:0:0:0:
448,192,297077,128,0,297157:0:0:0:0:
320,192,297554,128,2,297633:0:0:0:60:
64,192,297712,128,4,297792:0:0:0:40:
192,192,297712,128,8,297792:0:0:0:60:
448,192,297712,128,0,297792:0:0:0:0:
64,192,297871,128,2,297950:0:0:0:60:
320,192,297871,128,0,297950:0:0:0:0:
192,192,298030,128,2,298109:0:0:0:60:
320,192,298030,128,0,298109:0:0:0:0:
192,192,298189,128,2,298268:0:0:0:60:
448,192,298189,128,0,298268:0:0:0:60:tom01.wav
64,192,298347,128,2,298427:0:0:0:60:
448,192,298347,128,0,298427:0:0:0:60:tom02.wav
192,192,298506,128,2,298585:0:0:0:60:
320,192,298506,128,0,298585:0:0:0:60:tom03.wav
64,192,298665,1,4,0:0:0:40:
320,192,298665,1,8,0:0:0:60:
448,192,298665,128,0,298982:0:0:0:0:
192,192,298823,128,2,298982:0:0:0:60:
64,192,298982,128,8,299300:0:0:0:60:
320,192,298982,1,4,0:0:0:40:
320,192,299141,1,2,0:0:0:60:
320,192,299300,1,2,0:0:0:60:
64,192,299458,1,8,0:0:0:60:
192,192,299458,1,0,0:0:0:45:HHOpen.wav
448,192,299458,128,0,299776:0:0:0:0:
192,192,299617,1,2,0:0:0:60:
192,192,299776,1,2,0:0:0:60:
64,192,299935,1,8,0:0:0:60:
320,192,299935,128,0,300252:0:0:0:45:HHOpen.wav
448,192,299935,1,0,0:0:0:0:
64,192,300093,1,2,0:0:0:60:
64,192,300252,1,2,0:0:0:60:
192,192,300411,128,8,300728:0:0:0:60:
320,192,300411,1,0,0:0:0:45:HHOpen.wav
448,192,300411,1,0,0:0:0:0:
448,192,300569,1,2,0:0:0:60:
448,192,300728,1,2,0:0:0:60:
64,192,300887,128,8,301046:0:0:0:60:
192,192,300887,1,0,0:0:0:45:HHOpen.wav
320,192,300887,1,0,0:0:0:0:
320,192,301046,128,2,301204:0:0:0:60:
64,192,301204,1,8,0:0:0:60:
192,192,301204,1,0,0:0:0:45:HHOpen.wav
448,192,301204,128,0,301363:0:0:0:0:
192,192,301363,1,2,0:0:0:60:
320,192,301443,1,2,0:0:0:60:
64,192,301522,128,8,301760:0:0:0:60:
192,192,301522,1,4,0:0:0:40:
448,192,301522,128,0,301760:0:0:0:0:
64,192,301839,128,2,301919:0:0:0:60:
448,192,301839,128,0,301919:0:0:0:0:
64,192,301998,128,2,302077:0:0:0:60:
320,192,301998,128,4,302077:0:0:0:40:
448,192,301998,128,0,302077:0:0:0:0:
64,192,302157,128,2,302236:0:0:0:60:
448,192,302157,128,0,302236:0:0:0:45:HHOpen.wav
64,192,302316,128,2,302395:0:0:0:60:
448,192,302316,128,0,302395:0:0:0:45:HHOpen.wav
64,192,302474,128,8,302554:0:0:0:60:
320,192,302474,128,0,302554:0:0:0:45:HHOpen.wav
448,192,302474,128,0,302554:0:0:0:0:
64,192,302633,128,2,302871:0:0:0:60:
192,192,302633,128,4,302871:0:0:0:40:
448,192,302633,128,0,302871:0:0:0:0:
64,192,302950,128,2,303030:0:0:0:60:
448,192,302950,128,0,303030:0:0:0:0:
64,192,303109,128,2,303189:0:0:0:60:
320,192,303109,128,8,303189:0:0:0:60:
448,192,303109,128,0,303189:0:0:0:0:
64,192,303268,128,8,303347:0:0:0:60:
320,192,303268,128,2,303347:0:0:0:60:
448,192,303268,128,0,303347:0:0:0:0:
64,192,303427,128,2,303506:0:0:0:60:
320,192,303427,128,8,303506:0:0:0:60:
448,192,303427,128,0,303506:0:0:0:0:
64,192,303585,128,8,303665:0:0:0:60:
192,192,303585,128,0,303665:0:0:0:0:
320,192,303665,128,8,303744:0:0:0:60:
448,192,303665,128,0,303744:0:0:0:0:
64,192,303744,128,8,303823:0:0:0:60:
192,192,303744,128,0,303823:0:0:0:0:
320,192,303823,128,8,303903:0:0:0:60:
448,192,303823,128,0,303903:0:0:0:0:
64,192,303903,128,8,303982:0:0:0:60:
192,192,303903,128,0,303982:0:0:0:0:
320,192,303982,128,8,304062:0:0:0:60:
448,192,303982,128,0,304062:0:0:0:0:
64,192,304696,128,2,306601:0:0:0:60:
192,192,304696,128,4,307871:0:0:0:40:
320,192,304696,128,0,309141:0:0:0:0:
448,192,304696,128,0,310450:0:0:0:0:
192,192,310450,1,2,0:0:0:60:
320,192,310530,1,2,0:0:0:60:
64,192,310609,1,2,0:0:0:60:
192,192,310689,1,0,0:0:0:0:
448,192,310728,1,2,0:0:0:60:
