osu file format v14

[General]
AudioFilename: audio.mp3
AudioLeadIn: 0
PreviewTime: 244367
Countdown: 0
SampleSet: Soft
StackLeniency: 0.4
Mode: 0
LetterboxInBreaks: 0
WidescreenStoryboard: 1

[Editor]
DistanceSpacing: 0.5
BeatDivisor: 4
GridSize: 32
TimelineZoom: 2.700006

[Metadata]
Title:KIZUNA MUSIC
TitleUnicode:キズナミュージック♪
Artist:Poppin'Party
ArtistUnicode:Poppin'Party
Creator:[Karcher]
Version:Forever for Dreaming
Source:BanG Dream! 2nd Season
Tags:バンドリ! ガールズバンドパーティ! girls band party bandori garupa ガルパ popipa ポピパ ポッピンパーティ Aimi Terakawa 寺川愛美 Sae Ōtsuka Otsuka Ootsuka 大塚紗英 Rimi Nishimoto 西本りみ Ayaka Ōhashi Ohashi Oohashi 大橋彩香 Ayasa Itō Ito Itou 伊藤彩沙 Kasumi Toyama Tae Hanazono Rimi Ushigome Sāya Yamabuki Saya Saaya Arisa Ichigaya 戸山香澄 花園たえ 牛込りみ 山吹沙綾 市ヶ谷有咲 opening op full ver version anime video game jpop pop j-pop japanese
BeatmapID:2958190
BeatmapSetID:1222161

[Difficulty]
HPDrainRate:6
CircleSize:4.3
OverallDifficulty:9.2
ApproachRate:9.6
SliderMultiplier:1.88
SliderTickRate:1

[Events]
//Background and Video events
0,0,"bg.jpg",0,0
//Break Periods
//Storyboard Layer 0 (Background)
//Storyboard Layer 1 (Fail)
//Storyboard Layer 2 (Pass)
//Storyboard Layer 3 (Foreground)
//Storyboard Layer 4 (Overlay)
//Storyboard Sound Samples

[TimingPoints]
563,317.460317460317,4,2,1,50,1,0
563,-250,4,2,1,50,0,0
5324,-166.666666666667,4,2,1,50,0,0
5562,-166.666666666667,4,2,1,5,0,0
5642,-100,4,2,1,60,0,0
10721,-200,4,2,1,40,0,0
20880,-142.857142857143,4,2,1,45,0,0
23340,-142.857142857143,4,2,1,5,0,0
23420,-142.857142857143,4,2,1,45,0,0
31039,-71.4285714285714,4,2,1,60,0,0
31515,-83.3333333333333,4,2,1,60,0,0
31991,-166.666666666667,4,2,1,60,0,0
32520,-100,4,2,1,60,0,0
32943,-200,4,2,1,60,0,0
33578,-200,4,2,1,40,0,0
35642,-200,4,2,1,40,0,0
35801,-166.666666666667,4,2,1,60,0,0
36039,-166.666666666667,4,2,1,5,0,0
36118,-111.111111111111,4,2,1,55,0,0
41197,-166.666666666666,4,2,1,60,0,0
41436,-166.666666666666,4,2,1,5,0,0
41515,-100,4,2,1,60,0,0
45324,-333.333333333333,4,2,1,60,0,0
46277,-83.3333333333333,4,2,1,75,0,1
56674,-83.3333333333333,4,2,1,5,0,1
56753,-83.3333333333333,4,2,1,75,0,1
63023,-83.3333333333333,4,2,1,5,0,1
63102,-83.3333333333333,4,2,1,75,0,1
65166,-83.3333333333333,4,2,1,75,0,0
66594,-83.3333333333333,4,2,1,75,0,1
84372,-125,4,2,1,75,0,0
86912,-125,4,2,1,50,0,0
91991,-100,4,2,1,60,0,0
97070,-142.857142857143,4,2,1,45,0,0
107229,-111.111111111111,4,2,1,50,0,0
117388,-83.3333333333333,4,2,1,60,0,0
122467,-500,4,2,1,40,0,0
122943,-500,4,2,1,30,0,0
127547,-100,4,2,1,60,0,0
127785,-100,4,2,1,5,0,0
127864,-100,4,2,1,60,0,0
128182,-100,4,2,1,60,0,0
128816,-100,4,2,1,60,0,0
129451,-100,4,2,1,60,0,0
130086,-100,4,2,1,60,0,0
132626,-83.3333333333333,4,2,1,75,0,1
149372,-83.3333333333333,4,2,1,5,0,1
149451,-83.3333333333333,4,2,1,75,0,1
151515,-83.3333333333333,4,2,1,75,0,0
152943,-83.3333333333333,4,2,1,75,0,1
170721,-90.9090909090909,4,2,1,75,0,0
173261,-200,4,2,1,50,0,0
179928,-125,4,2,1,50,0,0
183420,-166.666666666667,4,2,1,50,0,0
188499,-100,4,2,1,60,0,0
193578,-90.9090909090909,4,2,1,70,0,1
203737,-90.9090909090909,4,2,1,60,0,0
208816,-125,4,2,1,70,0,0
213737,-83.3333333333333,4,2,1,70,0,1
216436,-100,4,2,1,70,0,1
216674,-100,4,2,1,5,0,1
216753,-100,4,2,1,70,0,1
217547,-83.3333333333333,4,2,1,70,0,1
218975,-111.111111111111,4,2,1,60,0,0
229134,-111.111111111111,4,2,1,70,0,0
234055,-100,4,2,1,70,0,0
239293,-83.3333333333333,4,2,1,70,0,1
244293,-100,4,2,1,70,0,0
245166,-100,4,2,1,55,0,0
245642,-500,4,2,1,40,0,0
248182,-250,4,2,1,40,0,0
250721,-500,4,2,1,40,0,0
253261,-250,4,2,1,40,0,0
255801,-166.666666666667,4,2,1,45,0,0
263420,-90.9090909090909,4,2,1,60,0,0
265007,-90.9090909090909,4,2,1,70,0,0
265324,-90.9090909090909,4,2,1,70,0,0
265642,-90.9090909090909,4,2,1,70,0,0
265880,-1000,4,2,1,70,0,0
267229,-1000,4,2,1,20,0,0
267309,-1000,4,2,1,70,0,0
268182,-1000,4,2,1,5,0,0
268499,-83.3333333333333,4,2,1,80,0,1
278737,-83.3333333333333,4,2,1,5,0,1
278816,-83.3333333333333,4,2,1,80,0,1
278896,-83.3333333333333,4,2,1,5,0,1
278975,-83.3333333333333,4,2,1,80,0,1
281197,-83.3333333333333,4,2,1,80,0,1
291356,-90.9090909090909,4,2,1,80,0,0
293578,-90.9090909090909,4,2,1,65,0,0
293896,-250,4,2,1,50,0,0
297705,-250,4,2,1,60,0,0
298658,-86.9565217391304,4,2,1,60,0,0
298975,-100,4,2,1,60,0,0
301753,-100,4,2,1,5,0,0
301832,-100,4,2,1,60,0,0
304689,-416.666666666667,4,2,1,75,0,0
305959,-416.666666666667,4,2,1,65,0,0
307229,-416.666666666667,4,2,1,55,0,0
308499,-416.666666666667,4,2,1,45,0,0
308816,-416.666666666667,4,2,1,40,0,0
309134,-416.666666666667,4,2,1,35,0,0
309451,-416.666666666667,4,2,1,30,0,0
309769,-416.666666666667,4,2,1,25,0,0
310086,-416.666666666667,4,2,1,20,0,0
310721,-416.666666666667,4,2,1,30,0,0

[Colours]
Combo1 : 253,248,142
Combo2 : 244,183,188
Combo3 : 254,208,171

[HitObjects]
0,323,563,6,0,L|78:311,1,75.2,6|0,1:2|0:0,0:0:0:0:
160,305,1039,1,2,0:0:0:0:
160,305,1197,2,0,L|234:316,1,75.2,2|0,0:0|0:0,0:0:0:0:
313,355,1674,1,2,0:0:0:0:
313,355,1832,6,0,P|322:316|314:282,1,75.2,6|0,1:2|0:0,0:0:0:0:
283,215,2309,1,10,0:3:0:0:
283,215,2388,1,8,0:3:0:0:
283,215,2467,2,0,L|278:173,2,37.6,10|4|4,0:3|0:3|0:3,0:0:0:0:
190,78,2943,5,6,0:3:0:0:
190,78,3102,2,0,P|224:74|264:88,1,75.2,6|0,1:2|0:0,0:0:0:0:
342,120,3578,1,2,0:0:0:0:
342,120,3737,2,0,L|422:109,1,75.2,2|0,0:0|0:0,0:0:0:0:
481,161,4213,1,2,0:0:0:0:
481,243,4372,6,0,L|471:318,1,75.2,6|0,1:2|0:0,0:0:0:0:
406,365,4848,1,10,0:3:0:0:
406,365,4928,1,8,0:3:0:0:
406,365,5007,1,10,0:3:0:0:
263,299,5166,1,0,1:2:0:0:
263,299,5245,1,0,1:2:0:0:
263,299,5324,6,0,L|256:213,1,84.599997418213,10|0,0:0|0:0,0:0:0:0:
250,138,5642,5,14,0:0:0:0:
150,350,5801,1,0,1:2:0:0:
360,206,5959,1,0,1:2:0:0:
129,84,6118,5,10,0:0:0:0:
263,299,6277,1,0,1:2:0:0:
282,32,6436,1,0,1:2:0:0:
64,203,6594,5,14,0:0:0:0:
246,104,6753,1,0,1:2:0:0:
37,75,6912,1,0,1:2:0:0:
163,288,7070,5,10,0:0:0:0:
112,126,7229,1,0,1:2:0:0:
35,288,7388,1,0,1:2:0:0:
246,187,7547,5,10,0:0:0:0:
78,362,7705,1,2,1:2:0:0:
112,126,7864,1,10,0:0:0:0:
275,306,8023,1,0,1:2:0:0:
275,306,8102,1,0,1:2:0:0:
275,306,8182,6,0,B|393:277|327:351|459:314,1,188,14|2,0:0|1:2,0:0:0:0:
341,217,8658,1,2,1:2:0:0:
304,384,8816,1,10,0:0:0:0:
463,206,8975,1,10,0:0:0:0:
230,136,9134,1,10,0:0:0:0:
304,384,9293,6,0,L|296:289,1,94,6|0,1:2|0:0,0:0:0:0:
401,133,9610,1,10,0:0:0:0:
455,314,9769,1,2,0:0:0:0:
455,314,9928,1,2,1:2:0:0:
324,178,10086,2,0,P|312:136|326:85,1,94,2|2,1:2|1:2,0:0:0:0:
476,89,10404,2,0,P|488:133|476:178,1,94,14|0,0:0|0:0,0:0:0:0:
296,290,10721,6,0,L|196:303,1,94,2|2,1:2|1:2,0:0:0:0:
131,337,11197,2,0,P|123:313|125:289,1,47,2|0,0:0|1:2,0:0:0:0:
172,228,11515,2,0,P|179:205|178:182,1,47,2|0,0:0|1:2,0:0:0:0:
162,103,11832,6,0,B|117:91|117:91|63:105,1,94,2|0,0:0|0:0,0:0:0:0:
0,136,12309,1,2,1:2:0:0:
124,291,12626,1,2,1:2:0:0:
238,128,12943,1,2,1:2:0:0:
124,291,13261,6,0,L|116:198,1,94,2|2,1:2|1:2,0:0:0:0:
84,124,13737,2,0,P|115:118|138:122,1,47,2|0,0:0|1:2,0:0:0:0:
190,172,14055,2,0,P|212:177|236:176,1,47,2|0,0:0|1:2,0:0:0:0:
307,131,14372,6,0,L|409:130,1,94,2|0,0:0|0:0,0:0:0:0:
478,127,14848,1,2,1:2:0:0:
324,277,15166,1,2,1:2:0:0:
229,94,15483,1,2,1:2:0:0:
229,94,15642,1,2,0:0:0:0:
307,131,15801,6,0,P|316:86|293:40,1,94,2|2,1:2|1:2,0:0:0:0:
229,94,16277,2,0,P|183:106|131:94,1,94,2|2,0:0|0:0,0:0:0:0:
138,97,16753,1,0,1:2:0:0:
43,0,16912,2,0,L|54:99,1,94,2|0,0:0|0:0,0:0:0:0:
66,172,17388,5,2,1:2:0:0:
195,5,17705,1,2,1:2:0:0:
283,192,18023,1,2,1:2:0:0:
179,111,18340,6,0,B|224:101|224:101|275:111,1,94,2|2,1:2|1:2,0:0:0:0:
346,133,18816,2,0,L|398:127,1,47,2|0,0:0|1:2,0:0:0:0:
511,104,19134,2,0,L|465:99,1,47,2|0,0:0|1:2,0:0:0:0:
455,180,19451,6,0,L|465:286,1,94,2|0,0:0|0:0,0:0:0:0:
428,346,19928,1,0,1:2:0:0:
337,267,20086,1,2,0:0:0:0:
337,267,20166,1,2,0:0:0:0:
337,267,20245,2,0,L|384:274,1,47,2|2,1:2|0:0,0:0:0:0:
270,174,20562,1,10,0:0:0:0:
247,336,20721,1,2,0:0:0:0:
359,179,20880,6,0,P|352:134|274:84,1,131.599995983887,6|0,1:2|1:2,0:0:0:0:
205,110,21356,2,0,L|128:120,1,65.7999979919434,2|0,0:0|1:2,0:0:0:0:
97,30,21674,2,0,L|162:21,1,65.7999979919434,2|0,0:0|1:2,0:0:0:0:
286,84,21991,6,0,P|333:139|391:140,1,131.599995983887,2|0,0:0|0:0,0:0:0:0:
478,50,22467,2,0,L|471:120,1,65.7999979919434,2|0,1:2|0:0,0:0:0:0:
409,282,22785,2,0,L|402:216,1,65.7999979919434,2|0,1:2|0:0,0:0:0:0:
392,144,23023,1,2,0:0:0:0:
392,144,23102,2,0,L|283:160,1,98.6999969879151,2|0,1:2|0:0,0:0:0:0:
247,161,23420,6,0,B|209:137|209:137|125:160,1,131.599995983887,2|2,1:2|1:2,0:0:0:0:
184,297,23896,2,0,L|191:230,1,65.7999979919434,2|0,0:0|1:2,0:0:0:0:
99,248,24213,2,0,L|92:313,1,65.7999979919434,2|0,0:0|1:2,0:0:0:0:
266,342,24531,6,0,B|330:319|330:319|399:341,1,131.599995983887,2|0,0:0|0:0,0:0:0:0:
495,363,25007,2,0,L|487:295,1,65.7999979919434,0|0,1:2|0:0,0:0:0:0:
409,245,25324,2,0,L|417:177,1,65.7999979919434,0|0,1:2|0:0,0:0:0:0:
416,179,25562,1,2,0:0:0:0:
416,179,25642,1,2,1:2:0:0:
319,275,25801,1,2,0:0:0:0:
384,107,25959,6,0,P|421:98|499:142,1,131.599995983887,2|0,1:2|1:2,0:0:0:0:
498,141,26436,1,0,0:0:0:0:
506,229,26594,2,0,L|498:294,2,65.7999979919434,2|2|2,1:2|0:0|1:2,0:0:0:0:
411,246,27070,1,2,0:0:0:0:
411,246,27229,6,0,P|357:284|286:271,1,131.599995983887,0|2,1:2|1:2,0:0:0:0:
224,222,27705,1,2,0:0:0:0:
224,222,27864,2,0,L|85:212,1,131.599995983887,0|2,1:2|0:0,0:0:0:0:
72,302,28340,1,2,1:2:0:0:
72,302,28499,6,0,L|141:307,1,65.7999979919434,0|0,1:2|0:0,0:0:0:0:
234,310,28816,2,0,L|299:305,1,65.7999979919434,0|0,1:2|0:0,0:0:0:0:
359,181,29134,1,0,1:2:0:0:
359,181,29293,1,0,0:0:0:0:
422,306,29451,2,0,L|414:376,1,65.7999979919434,2|0,1:2|0:0,0:0:0:0:
269,197,29769,5,2,1:2:0:0:
269,197,29928,1,0,0:0:0:0:
418,86,30086,2,0,L|486:81,1,65.7999979919434,0|0,1:2|0:0,0:0:0:0:
307,297,30404,5,2,1:2:0:0:
307,297,30562,1,0,0:0:0:0:
244,74,30721,2,0,L|254:-2,1,65.7999979919434,0|0,1:2|0:0,0:0:0:0:
438,172,31039,6,0,B|356:175|330:108|330:108|307:175|216:171,1,263.199991967774,14|0,0:0|0:0,0:0:0:0:
58,59,31515,6,0,B|1:21|1:21|37:178,1,225.599993115235,14|0,0:0|0:0,0:0:0:0:
111,310,31991,6,0,L|131:155,1,150.399995410156,14|0,0:0|0:0,0:0:0:0:
243,284,32520,5,0,1:2:0:0:
249,296,32626,2,0,P|305:303|341:288,1,94,8|0,0:0|0:0,0:0:0:0:
396,236,32864,1,8,0:3:0:0:
396,236,32943,2,0,L|390:187,2,47,8|8|6,0:3|0:3|0:3,0:0:0:0:
136,378,33578,5,2,0:0:0:0:
293,219,33896,5,2,0:0:0:0:
293,219,34055,1,2,0:0:0:0:
75,189,34372,5,2,0:0:0:0:
75,189,34531,1,2,0:0:0:0:
186,264,35642,5,0,1:2:0:0:
186,264,35721,1,0,1:2:0:0:
186,264,35801,2,0,L|176:171,1,84.599997418213,10|0,0:0|0:0,0:0:0:0:
182,95,36118,6,0,P|199:137|311:133,2,169.199994836426,6|8|0,1:2|0:0|1:2,0:0:0:0:
361,75,36912,2,0,P|386:111|386:156,1,84.599997418213,0|2,1:2|0:0,0:0:0:0:
300,260,37229,6,0,B|341:226|341:226|453:256,1,169.199994836426,8|0,0:0|1:2,0:0:0:0:
308,344,37705,2,0,L|299:257,1,84.599997418213,10|2,0:0|0:0,0:0:0:0:
386,81,38023,1,0,1:2:0:0:
386,81,38182,1,0,1:2:0:0:
452,255,38340,2,0,L|443:339,1,84.599997418213,10|2,0:0|0:0,0:0:0:0:
325,178,38658,6,0,P|268:176|210:269,2,169.199994836426,0|8|0,1:2|0:0|1:2,0:0:0:0:
217,343,39451,2,0,P|169:336|143:311,1,84.599997418213,0|2,1:2|0:0,0:0:0:0:
73,150,39769,6,0,B|38:206|38:206|62:314,1,169.199994836426,10|0,0:0|1:2,0:0:0:0:
218,203,40245,2,0,L|126:220,1,84.599997418213,10|2,0:0|0:0,0:0:0:0:
284,284,40562,1,0,1:2:0:0:
284,284,40721,1,0,1:2:0:0:
314,189,40880,2,0,L|302:95,1,84.599997418213,10|2,0:0|0:0,0:0:0:0:
114,0,41197,6,0,L|103:83,1,84.599997418213,6|0,1:2|0:0,0:0:0:0:
91,163,41515,1,0,1:2:0:0:
214,118,41674,1,0,1:2:0:0:
27,109,41832,1,0,1:2:0:0:
164,249,41991,1,0,1:2:0:0:
196,46,42150,1,0,1:2:0:0:
14,183,42309,1,0,1:2:0:0:
271,251,42467,5,2,1:2:0:0:
296,222,42547,1,0,1:2:0:0:
307,186,42626,1,0,1:2:0:0:
303,148,42705,1,0,1:2:0:0:
284,115,42785,5,8,0:0:0:0:
243,138,42864,1,0,1:2:0:0:
197,146,42943,1,0,1:2:0:0:
149,140,43023,1,0,1:2:0:0:
110,113,43102,6,0,L|114:58,1,47,8|0,0:0|1:2,0:0:0:0:
362,49,43261,1,8,0:0:0:0:
388,88,43340,1,8,0:0:0:0:
403,133,43420,1,8,0:0:0:0:
405,180,43499,1,8,0:0:0:0:
396,226,43578,1,8,0:3:0:0:
376,268,43658,1,8,0:3:0:0:
346,304,43737,5,14,0:0:0:0:
204,43,43896,1,0,1:2:0:0:
121,309,44055,1,0,1:2:0:0:
326,99,44213,5,12,0:0:0:0:
41,26,44372,1,0,1:2:0:0:
220,271,44531,1,0,1:2:0:0:
403,0,44689,5,10,0:0:0:0:
171,195,44848,2,0,B|275:163|233:228|355:190,1,188,6|0,1:2|0:0,0:0:0:0:
286,58,45324,6,0,L|294:114,2,56.3999982788086,2|2|10,0:0|0:0|0:0,0:0:0:0:
385,278,46277,6,0,P|445:189|387:98,2,225.599993115235,6|8|2,1:2|0:0|1:2,0:0:0:0:
188,138,47070,1,0,0:0:0:0:
145,368,47229,1,10,0:0:0:0:
292,192,47388,1,2,0:0:0:0:
61,110,47547,2,0,L|83:235,1,112.799996557617,0|0,1:2|0:0,0:0:0:0:
235,384,47864,2,0,L|254:272,1,112.799996557617,8|0,0:0|0:0,0:0:0:0:
122,46,48182,6,0,P|66:21|11:34,1,112.799996557617,2|0,1:2|0:0,0:0:0:0:
254,272,48499,2,0,P|308:280|358:256,1,112.799996557617,10|0,0:0|0:0,0:0:0:0:
61,110,48816,6,0,L|83:235,1,112.799996557617,2|0,1:2|0:0,0:0:0:0:
252,42,49134,1,10,0:0:0:0:
358,256,49293,2,0,L|343:368,1,112.799996557617,2|0,0:0|1:2,0:0:0:0:
301,163,49610,2,0,P|356:147|415:165,1,112.799996557617,2|8,0:0|0:0,0:0:0:0:
253,257,49928,2,0,P|211:217|197:157,2,112.799996557617,2|0|0,0:0|1:2|0:0,0:0:0:0:
159,72,50404,5,10,0:0:0:0:
68,271,50562,1,0,0:0:0:0:
252,85,50721,1,2,1:2:0:0:
17,13,50880,1,0,0:0:0:0:
197,165,51039,1,10,0:0:0:0:
376,10,51197,1,8,0:3:0:0:
376,10,51277,1,8,0:3:0:0:
376,10,51356,6,0,P|438:32|423:178,2,225.599993115235,6|8|2,1:2|0:0|1:2,0:0:0:0:
291,222,52150,1,0,0:0:0:0:
167,18,52309,1,10,0:0:0:0:
361,127,52467,1,2,0:0:0:0:
171,257,52626,2,0,L|186:137,1,112.799996557617,0|0,1:2|0:0,0:0:0:0:
32,24,52943,2,0,L|45:135,1,112.799996557617,8|0,0:0|0:0,0:0:0:0:
185,271,53261,6,0,L|200:151,1,112.799996557617,2|0,1:2|0:0,0:0:0:0:
431,80,53578,2,0,P|402:128|341:138,1,112.799996557617,10|0,0:0|0:0,0:0:0:0:
32,24,53896,6,0,B|169:-12|117:68|256:29,1,225.599993115235,6|8,1:2|0:0,0:0:0:0:
460,190,54372,1,2,0:0:0:0:
460,190,54451,1,2,0:0:0:0:
460,190,54531,2,0,P|412:150|442:4,1,225.599993115235,2|8,1:2|0:0,0:0:0:0:
281,138,55007,1,2,0:0:0:0:
281,138,55086,1,2,0:0:0:0:
281,138,55166,6,0,L|263:365,1,225.599993115235,6|8,1:2|0:0,0:0:0:0:
441,209,55642,1,2,0:0:0:0:
441,209,55721,1,2,0:0:0:0:
441,209,55801,1,2,1:2:0:0:
201,83,55959,1,0,1:2:0:0:
183,124,56039,1,0,1:2:0:0:
187,168,56118,1,8,0:0:0:0:
370,167,56277,1,0,1:2:0:0:
374,123,56356,1,8,0:0:0:0:
355,81,56436,6,0,B|310:49|310:49|195:84,1,169.199994836426,4|0,1:2|0:0,0:0:0:0:
112,117,56753,1,10,0:0:0:0:
270,212,56912,1,2,0:0:0:0:
121,27,57070,1,2,1:2:0:0:
57,243,57229,1,0,1:2:0:0:
200,82,57388,2,0,L|315:96,1,112.799996557617,10|2,0:0|0:0,0:0:0:0:
457,180,57705,6,0,P|412:128|486:7,2,225.599993115235,0|10|2,1:2|0:0|1:2,0:0:0:0:
261,309,58499,1,0,1:2:0:0:
311,95,58658,1,10,0:0:0:0:
437,276,58816,1,2,0:0:0:0:
238,150,58975,6,0,P|219:94|238:39,1,112.799996557617,0|0,1:2|0:0,0:0:0:0:
324,191,59293,1,10,0:0:0:0:
324,191,59451,1,2,0:0:0:0:
155,277,59610,1,2,1:2:0:0:
311,95,59769,2,0,L|427:110,1,112.799996557617,2|8,1:2|0:0,0:0:0:0:
122,8,60086,1,2,1:2:0:0:
122,8,60166,1,0,1:2:0:0:
122,8,60245,6,0,L|141:125,1,112.799996557617,0|0,1:2|0:0,0:0:0:0:
317,285,60562,1,10,0:0:0:0:
292,66,60721,1,2,1:2:0:0:
292,66,60801,1,0,1:2:0:0:
292,66,60880,1,0,1:2:0:0:
141,229,61039,1,0,1:2:0:0:
394,114,61197,5,10,0:0:0:0:
122,8,61356,1,10,0:0:0:0:
122,8,61436,1,8,0:0:0:0:
122,8,61515,6,0,L|117:125,1,112.799996557617,6|0,1:2|0:0,0:0:0:0:
185,346,61832,1,10,0:0:0:0:
31,223,61991,2,0,P|88:214|146:231,1,112.799996557617,2|0,0:0|1:2,0:0:0:0:
297,328,62309,1,2,1:2:0:0:
394,177,62467,2,0,L|382:54,1,112.799996557617,10|0,0:0|0:0,0:0:0:0:
510,291,62785,6,0,P|525:344|441:314,1,169.199994836426,0|0,1:2|0:0,0:0:0:0:
430,261,63102,2,0,P|371:249|316:264,1,112.799996557617,10|0,0:0|0:0,0:0:0:0:
129,327,63420,1,2,1:2:0:0:
245,160,63578,1,0,1:2:0:0:
250,364,63737,1,10,0:0:0:0:
127,202,63896,1,0,0:0:0:0:
351,152,64055,5,6,1:2:0:0:
129,327,64213,1,0,0:0:0:0:
139,58,64372,1,10,0:0:0:0:
318,259,64531,1,2,0:0:0:0:
61,117,64689,5,0,1:2:0:0:
364,19,64848,1,2,1:2:0:0:
43,106,65007,1,8,0:0:0:0:
290,335,65166,6,0,B|383:270|307:200|307:200|319:263,1,225.599993115235,14|0,0:0|0:0,0:0:0:0:
431,364,65642,5,10,0:0:0:0:
458,343,65721,1,0,1:2:0:0:
471,311,65801,1,0,1:2:0:0:
468,277,65880,1,0,1:2:0:0:
450,248,65959,5,10,0:0:0:0:
407,265,66039,1,0,1:2:0:0:
362,269,66118,1,0,1:2:0:0:
318,259,66197,1,0,1:2:0:0:
286,226,66277,5,10,0:0:0:0:
235,201,66356,1,8,0:0:0:0:
178,197,66436,1,8,0:0:0:0:
123,208,66515,1,8,0:0:0:0:
80,244,66594,6,0,P|145:264|209:146,2,225.599993115235,6|8|2,1:2|0:0|1:2,0:0:0:0:
184,58,67388,1,0,0:0:0:0:
294,255,67547,1,10,0:0:0:0:
126,122,67705,1,2,0:0:0:0:
341,27,67864,2,0,L|326:147,1,112.799996557617,0|0,1:2|0:0,0:0:0:0:
170,326,68182,2,0,L|156:214,1,112.799996557617,8|0,0:0|0:0,0:0:0:0:
294,255,68499,6,0,P|346:277|402:265,1,112.799996557617,2|0,1:2|0:0,0:0:0:0:
202,143,68816,2,0,P|147:132|96:154,1,112.799996557617,10|0,0:0|0:0,0:0:0:0:
356,188,69134,6,0,L|343:74,1,112.799996557617,2|0,1:2|0:0,0:0:0:0:
156,214,69451,1,10,0:0:0:0:
70,16,69610,2,0,P|130:9|184:31,1,112.799996557617,2|0,0:0|1:2,0:0:0:0:
156,214,69928,2,0,P|119:165|111:107,1,112.799996557617,2|8,0:0|0:0,0:0:0:0:
284,40,70245,2,0,P|260:95|214:131,2,112.799996557617,2|0|0,0:0|1:2|0:0,0:0:0:0:
110,115,70721,5,10,0:0:0:0:
301,234,70880,1,0,0:0:0:0:
178,26,71039,1,2,1:2:0:0:
96,268,71197,1,0,0:0:0:0:
283,112,71356,1,10,0:0:0:0:
50,20,71515,1,8,0:3:0:0:
50,20,71594,1,8,0:3:0:0:
50,20,71674,6,0,P|9:68|116:157,2,225.599993115235,6|8|2,1:2|0:0|1:2,0:0:0:0:
197,151,72467,1,0,0:0:0:0:
5,233,72626,1,10,0:0:0:0:
133,74,72785,1,2,0:0:0:0:
184,286,72943,2,0,P|240:300|294:287,1,112.799996557617,0|0,1:2|0:0,0:0:0:0:
424,151,73261,2,0,L|309:170,1,112.799996557617,8|0,0:0|0:0,0:0:0:0:
72,267,73578,6,0,L|187:286,1,112.799996557617,2|0,1:2|0:0,0:0:0:0:
438,60,73896,2,0,L|323:79,1,112.799996557617,10|0,0:0|0:0,0:0:0:0:
254,343,74213,6,0,P|277:292|264:237,1,112.799996557617,6|0,1:2|0:0,0:0:0:0:
151,67,74531,1,10,0:0:0:0:
72,267,74689,2,0,L|57:380,1,112.799996557617,2|0,0:0|1:2,0:0:0:0:
166,179,75007,2,0,L|151:67,1,112.799996557617,2|8,0:0|0:0,0:0:0:0:
272,246,75324,1,2,1:2:0:0:
272,246,75404,1,0,1:2:0:0:
272,246,75483,6,0,P|321:268|381:254,1,112.799996557617,0|0,1:2|0:0,0:0:0:0:
506,133,75801,2,0,L|495:13,1,112.799996557617,8|0,0:0|0:0,0:0:0:0:
332,181,76118,1,2,1:2:0:0:
187,5,76277,1,8,0:0:0:0:
130,1,76356,1,10,0:0:0:0:
75,18,76436,1,8,0:0:0:0:
43,64,76515,1,8,0:0:0:0:
43,120,76594,1,10,0:0:0:0:
75,166,76674,1,8,0:0:0:0:
129,180,76753,5,2,1:2:0:0:
129,180,77070,6,0,B|259:133|198:219|348:177,1,225.599993115235,12|0,0:0|1:2,0:0:0:0:
182,260,77547,1,0,1:2:0:0:
313,85,77705,1,10,0:0:0:0:
383,286,77864,1,2,0:0:0:0:
237,136,78023,6,0,P|223:77|245:24,1,112.799996557617,0|0,1:2|0:0,0:0:0:0:
382,35,78340,2,0,P|396:94|374:147,1,112.799996557617,10|0,0:0|0:0,0:0:0:0:
233,277,78658,1,2,1:2:0:0:
233,277,78816,1,0,1:2:0:0:
133,90,78975,2,0,P|73:79|19:102,1,112.799996557617,10|0,0:0|0:0,0:0:0:0:
221,147,79293,5,2,1:2:0:0:
68,327,79451,1,0,0:0:0:0:
26,97,79610,1,10,0:0:0:0:
216,250,79769,2,0,P|278:261|331:243,1,112.799996557617,2|0,0:0|1:2,0:0:0:0:
436,80,80086,2,0,L|425:202,1,112.799996557617,2|8,1:2|0:0,0:0:0:0:
317,339,80404,1,2,0:0:0:0:
211,173,80562,5,0,1:2:0:0:
211,173,80721,1,0,1:2:0:0:
226,362,80880,2,0,L|215:249,1,112.799996557617,14|0,0:0|0:0,0:0:0:0:
103,32,81197,1,2,1:2:0:0:
26,241,81356,1,8,0:0:0:0:
68,257,81436,1,8,0:0:0:0:
112,258,81515,1,10,0:0:0:0:
288,199,81674,1,8,0:0:0:0:
330,183,81753,1,8,0:0:0:0:
374,182,81832,6,0,L|391:298,1,112.799996557617,4|0,1:2|0:0,0:0:0:0:
199,361,82150,2,0,L|215:249,1,112.799996557617,10|0,0:0|0:0,0:0:0:0:
363,60,82467,1,2,1:2:0:0:
363,60,82626,1,0,0:0:0:0:
390,293,82785,2,0,P|448:307|499:294,1,112.799996557617,10|0,0:0|0:0,0:0:0:0:
267,173,83102,6,0,P|212:160|158:174,1,112.799996557617,0|0,1:2|0:0,0:0:0:0:
288,379,83420,2,0,L|304:267,1,112.799996557617,10|0,0:0|0:0,0:0:0:0:
152,80,83737,1,2,1:2:0:0:
111,295,83896,1,8,0:0:0:0:
61,271,83975,1,8,0:0:0:0:
31,223,84055,1,10,0:0:0:0:
27,167,84134,1,8,0:0:0:0:
49,115,84213,1,8,0:0:0:0:
95,81,84293,1,8,0:0:0:0:
152,80,84372,5,12,0:0:0:0:
256,192,84451,12,10,86594,0:0:0:0:
0,169,86912,6,0,P|39:174|80:160,1,75.2,6|0,1:2|0:0,0:0:0:0:
163,63,87229,2,0,L|156:148,1,75.2,10|0,0:0|0:0,0:0:0:0:
141,296,87547,2,0,L|134:221,1,75.2,2|0,1:2|0:0,0:0:0:0:
219,202,87864,2,0,P|264:211|299:200,1,75.2,10|0,0:0|0:0,0:0:0:0:
408,122,88182,6,0,L|330:132,1,75.2,2|0,1:2|0:0,0:0:0:0:
331,278,88499,2,0,L|405:287,1,75.2,10|0,0:0|0:0,0:0:0:0:
485,230,88816,2,0,P|500:266|497:305,1,75.2,2|0,1:2|0:0,0:0:0:0:
394,193,89134,2,0,P|392:155|407:121,1,75.2,10|0,0:0|0:0,0:0:0:0:
331,278,89451,5,2,1:2:0:0:
203,222,89610,1,2,0:0:0:0:
215,349,89769,1,10,0:0:0:0:
297,150,89928,1,2,0:0:0:0:
89,202,90086,2,0,L|106:293,1,75.2,2|0,1:2|0:0,0:0:0:0:
160,118,90404,2,0,L|173:44,1,75.2,10|0,0:0|0:0,0:0:0:0:
203,222,90721,6,0,P|242:234|281:226,1,75.2,2|0,1:2|0:0,0:0:0:0:
448,172,91039,2,0,L|454:93,1,75.2,10|0,0:0|0:0,0:0:0:0:
370,234,91356,2,0,L|375:308,1,75.2,2|0,1:2|1:2,0:0:0:0:
308,159,91674,1,10,0:0:0:0:
466,264,91832,1,8,0:3:0:0:
466,264,91912,1,8,0:3:0:0:
466,264,91991,5,14,0:0:0:0:
272,65,92150,1,0,1:2:0:0:
224,325,92309,1,0,1:2:0:0:
394,110,92467,5,14,0:0:0:0:
120,64,92626,1,0,1:2:0:0:
322,243,92785,1,0,1:2:0:0:
390,11,92943,5,14,0:0:0:0:
214,138,93102,1,0,1:2:0:0:
432,179,93261,1,0,1:2:0:0:
233,33,93420,5,14,0:0:0:0:
224,231,93578,1,0,1:2:0:0:
349,88,93737,1,0,1:2:0:0:
128,145,93896,5,14,0:0:0:0:
300,327,94055,1,2,1:2:0:0:
349,88,94213,1,10,0:0:0:0:
158,243,94372,1,0,1:2:0:0:
158,243,94451,1,0,1:2:0:0:
158,243,94531,6,0,B|31:219|101:287|-22:257,1,188,14|2,0:0|1:2,0:0:0:0:
169,135,95007,1,6,1:2:0:0:
125,341,95166,1,10,0:0:0:0:
12,174,95324,1,6,0:3:0:0:
12,174,95404,1,4,0:3:0:0:
12,174,95483,1,6,0:3:0:0:
220,320,95642,6,0,B|283:350|283:350|401:318,1,188,6|2,1:2|1:2,0:0:0:0:
305,164,96118,1,14,0:0:0:0:
220,320,96277,1,2,0:0:0:0:
401,170,96436,1,2,1:2:0:0:
180,109,96594,1,10,0:0:0:0:
180,109,96674,1,8,0:0:0:0:
180,109,96753,1,10,0:0:0:0:
353,292,96912,1,10,0:0:0:0:
393,32,97070,6,0,P|442:38|486:107,2,131.599995983887,6|10|0,1:2|0:0|1:2,0:0:0:0:
325,76,97864,1,2,1:2:0:0:
131,31,98182,6,0,P|88:71|98:149,1,131.599995983887,10|0,0:0|1:2,0:0:0:0:
147,214,98658,2,0,L|141:288,1,65.7999979919434,10|0,0:0|0:0,0:0:0:0:
83,342,98975,1,2,1:2:0:0:
83,342,99134,1,0,1:2:0:0:
31,271,99293,2,0,L|36:205,1,65.7999979919434,10|0,0:0|0:0,0:0:0:0:
147,214,99610,6,0,B|214:231|214:231|276:207,2,131.599995983887,2|10|0,1:2|0:0|1:2,0:0:0:0:
207,146,100404,1,2,1:2:0:0:
346,372,100721,6,0,L|358:237,1,131.599995983887,10|0,0:0|1:2,0:0:0:0:
338,148,101197,2,0,L|327:80,1,65.7999979919434,8|0,0:0|0:0,0:0:0:0:
391,15,101515,1,0,1:2:0:0:
391,15,101674,1,0,1:2:0:0:
464,66,101832,2,0,L|474:130,1,65.7999979919434,10|2,0:0|0:0,0:0:0:0:
485,239,102150,6,0,B|447:219|447:219|355:242,2,131.599995983887,2|10|0,1:2|0:0|1:2,0:0:0:0:
506,317,102943,1,2,1:2:0:0:
302,179,103261,6,0,P|281:221|307:308,1,131.599995983887,10|0,0:0|1:2,0:0:0:0:
254,380,103737,2,0,L|189:384,1,65.7999979919434,10|0,0:0|0:0,0:0:0:0:
128,313,104055,1,2,1:2:0:0:
128,313,104213,1,0,1:2:0:0:
65,376,104372,2,0,L|0:372,1,65.7999979919434,10|0,0:0|0:0,0:0:0:0:
59,270,104689,6,0,L|76:130,2,131.599995983887,2|10|0,1:2|0:0|1:2,0:0:0:0:
128,313,105483,1,2,1:2:0:0:
243,146,105801,6,0,P|280:154|317:243,1,131.599995983887,10|0,0:0|1:2,0:0:0:0:
312,322,106277,2,0,L|384:313,1,65.7999979919434,8|0,0:0|0:0,0:0:0:0:
487,258,106594,5,0,1:2:0:0:
487,258,106674,1,0,1:2:0:0:
487,258,106753,2,0,L|481:214,1,32.8999989959717,8|8,0:0|0:0,0:0:0:0:
366,174,106912,1,10,0:0:0:0:
368,140,106991,1,8,0:3:0:0:
371,107,107070,1,6,0:3:0:0:
374,74,107150,1,4,0:3:0:0:
378,41,107229,6,0,B|319:13|319:13|205:43,1,169.199994836426,6|10,1:2|0:0,0:0:0:0:
98,123,107705,2,0,L|80:38,1,84.599997418213,2|0,0:0|1:2,0:0:0:0:
220,144,108023,2,0,L|202:226,1,84.599997418213,2|8,0:0|0:0,0:0:0:0:
68,305,108340,6,0,B|126:269|126:269|151:316|212:313,1,169.199994836426,2|0,0:0|0:0,0:0:0:0:
307,172,108816,2,0,L|289:254,1,84.599997418213,10|0,0:0|0:0,0:0:0:0:
430,352,109134,2,0,P|444:310|427:266,1,84.599997418213,2|0,1:2|0:0,0:0:0:0:
286,352,109451,2,0,P|244:363|197:352,1,84.599997418213,10|0,0:0|0:0,0:0:0:0:
81,240,109769,6,0,P|24:240|35:347,1,169.199994836426,2|10,1:2|0:0,0:0:0:0:
162,281,110245,2,0,P|171:240|156:197,1,84.599997418213,2|0,0:0|1:2,0:0:0:0:
87,74,110562,2,0,P|74:113|83:154,1,84.599997418213,2|8,0:0|0:0,0:0:0:0:
242,155,110880,6,0,B|339:117|301:187|406:148,1,169.199994836426,2|0,0:0|0:0,0:0:0:0:
366,0,111356,2,0,P|352:39|360:83,1,84.599997418213,8|0,0:0|0:0,0:0:0:0:
482,182,111674,2,0,P|488:140|474:101,1,84.599997418213,0|0,1:2|0:0,0:0:0:0:
350,197,111991,1,10,0:0:0:0:
350,197,112150,1,2,0:0:0:0:
273,63,112309,6,0,P|226:42|116:80,2,169.199994836426,6|8|2,1:2|0:0|1:2,0:0:0:0:
201,140,113102,1,2,0:0:0:0:
119,76,113261,1,10,0:0:0:0:
302,156,113420,1,2,0:0:0:0:
302,156,113578,6,0,L|295:331,1,169.199994836426,0|10,1:2|0:0,0:0:0:0:
194,309,114055,1,2,0:0:0:0:
194,309,114213,2,0,L|201:134,1,169.199994836426,0|10,1:2|0:0,0:0:0:0:
302,156,114689,1,2,0:0:0:0:
302,156,114848,6,0,P|346:155|383:133,1,84.599997418213,4|0,1:2|0:0,0:0:0:0:
351,43,115166,2,0,P|306:43|269:65,1,84.599997418213,8|0,0:0|0:0,0:0:0:0:
200,139,115483,5,0,1:2:0:0:
63,22,115642,1,8,0:0:0:0:
172,29,115801,1,2,1:2:0:0:
172,29,115959,1,0,1:2:0:0:
107,198,116118,5,10,0:0:0:0:
63,22,116277,1,0,1:2:0:0:
21,126,116436,1,0,1:2:0:0:
21,126,116594,1,0,1:2:0:0:
172,29,116753,5,10,0:3:0:0:
172,29,116911,1,8,0:3:0:0:
107,198,117070,2,0,L|115:113,1,84.599997418213,12|0,0:0|1:2,0:0:0:0:
323,68,117388,5,14,0:0:0:0:
409,244,117547,2,0,L|393:131,1,112.799996557617,0|0,1:2|1:2,0:0:0:0:
232,102,117864,5,14,0:0:0:0:
320,274,118023,2,0,L|304:161,1,112.799996557617,0|0,1:2|1:2,0:0:0:0:
142,137,118340,5,14,0:0:0:0:
229,309,118499,2,0,L|213:196,1,112.799996557617,0|0,1:2|1:2,0:0:0:0:
52,171,118816,5,12,0:0:0:0:
136,340,118975,1,0,1:2:0:0:
136,340,119134,1,0,1:2:0:0:
232,102,119293,5,12,0:0:0:0:
18,338,119451,1,0,1:2:0:0:
49,73,119610,1,14,0:0:0:0:
212,294,119769,1,2,1:2:0:0:
212,294,119848,1,0,1:2:0:0:
212,294,119928,5,14,0:0:0:0:
118,119,120086,2,0,L|135:233,1,112.799996557617,0|2,1:2|1:2,0:0:0:0:
298,261,120404,5,14,0:0:0:0:
209,77,120563,2,0,L|225:193,1,112.799996557617,0|2,1:2|1:2,0:0:0:0:
384,228,120880,5,14,0:0:0:0:
302,41,121039,2,0,L|318:157,1,112.799996557617,0|0,1:2|1:2,0:0:0:0:
470,195,121356,5,12,0:0:0:0:
395,6,121515,1,0,1:2:0:0:
395,6,121674,1,0,1:2:0:0:
298,261,121832,5,12,0:0:0:0:
165,44,121991,1,0,1:2:0:0:
99,287,122150,1,14,0:0:0:0:
280,102,122309,1,2,0:0:0:0:
174,172,122467,6,0,L|180:228,4,56.4,2|2|2|2|2,0:0|0:0|0:0|0:0|0:0,0:0:0:0:
301,238,125007,6,0,L|295:294,4,56.4,2|2|2|2|2,0:0|0:0|0:0|0:0|0:0,0:0:0:0:
476,65,127547,6,0,B|431:44|431:44|340:61,1,141,14|0,0:0|0:0,0:0:0:0:
264,75,127864,1,0,1:2:0:0:
161,211,128023,1,0,1:2:0:0:
131,51,128182,1,0,1:2:0:0:
270,190,128340,1,0,1:2:0:0:
74,144,128499,1,0,1:2:0:0:
212,0,128658,1,0,1:2:0:0:
270,190,128816,5,2,1:2:0:0:
55,63,128975,1,8,0:0:0:0:
124,285,129134,1,8,0:0:0:0:
243,82,129293,1,8,0:0:0:0:
16,172,129451,1,8,0:0:0:0:
247,277,129610,1,8,0:0:0:0:
159,24,129769,1,8,0:0:0:0:
29,250,129928,1,8,0:0:0:0:
324,58,130086,5,14,0:0:0:0:
6,18,130245,1,0,1:2:0:0:
338,47,130404,1,0,1:2:0:0:
61,185,130562,5,12,0:0:0:0:
376,149,130721,1,0,1:2:0:0:
48,173,130880,1,0,1:2:0:0:
345,294,131039,5,10,0:0:0:0:
201,34,131197,2,0,B|194:105|194:105|164:132|164:132|156:207,1,188,6|0,1:2|0:0,0:0:0:0:
391,371,131674,5,10,0:0:0:0:
421,335,131753,1,8,0:0:0:0:
429,290,131832,1,8,0:0:0:0:
414,246,131912,1,8,0:0:0:0:
379,216,131991,5,10,0:3:0:0:
380,234,132070,1,8,0:3:0:0:
381,252,132150,1,8,0:3:0:0:
382,270,132229,1,8,0:3:0:0:
383,288,132309,5,10,0:0:0:0:
383,288,132626,6,0,P|280:263|211:354,2,225.599993115235,6|8|2,1:2|0:0|1:2,0:0:0:0:
243,143,133420,1,0,0:0:0:0:
211,346,133578,1,10,0:0:0:0:
341,168,133737,1,2,0:0:0:0:
125,124,133896,2,0,L|145:239,1,112.799996557617,0|0,1:2|0:0,0:0:0:0:
0,368,134213,2,0,L|19:256,1,112.799996557617,8|0,0:0|0:0,0:0:0:0:
140,114,134531,6,0,L|160:229,1,112.799996557617,2|0,1:2|0:0,0:0:0:0:
313,373,134848,2,0,P|371:382|425:360,1,112.799996557617,10|0,0:0|0:0,0:0:0:0:
247,104,135166,6,0,P|189:95|135:117,1,112.799996557617,2|0,1:2|0:0,0:0:0:0:
341,231,135483,1,10,0:0:0:0:
404,0,135642,2,0,L|392:120,1,112.799996557617,2|0,0:0|1:2,0:0:0:0:
210,297,135959,2,0,L|198:184,1,112.799996557617,2|8,0:0|0:0,0:0:0:0:
39,0,136277,2,0,L|27:112,2,112.799996557617,2|0|0,0:0|1:2|0:0,0:0:0:0:
110,211,136753,5,10,0:0:0:0:
260,23,136912,1,0,0:0:0:0:
334,264,137070,1,2,1:2:0:0:
135,107,137229,1,0,0:0:0:0:
389,1,137388,1,10,0:0:0:0:
238,247,137547,1,8,0:3:0:0:
238,247,137626,1,8,0:3:0:0:
238,247,137705,6,0,P|228:177|361:108,2,225.599993115235,6|8|2,1:2|0:0|1:2,0:0:0:0:
58,378,138499,1,0,0:0:0:0:
134,158,138658,1,10,0:0:0:0:
245,364,138816,1,2,0:0:0:0:
55,210,138975,2,0,P|42:153|66:94,1,112.799996557617,0|0,1:2|0:0,0:0:0:0:
252,45,139293,2,0,L|234:161,1,112.799996557617,8|0,0:0|0:0,0:0:0:0:
153,367,139610,6,0,L|135:255,1,112.799996557617,2|0,1:2|0:0,0:0:0:0:
346,33,139928,2,0,L|328:149,1,112.799996557617,10|0,0:0|0:0,0:0:0:0:
485,378,140245,6,0,P|515:316|408:239,1,225.599993115235,6|8,1:2|0:0,0:0:0:0:
234,318,140721,1,2,0:0:0:0:
234,318,140801,1,2,0:0:0:0:
234,318,140880,2,0,B|87:285|157:368|6:325,1,225.599993115235,2|8,1:2|0:0,0:0:0:0:
228,205,141356,1,2,0:0:0:0:
228,205,141436,1,2,0:0:0:0:
228,205,141515,6,0,L|234:325,1,112.799996557617,2|0,1:2|1:2,0:0:0:0:
392,131,141832,1,8,0:0:0:0:
419,362,141991,1,2,0:0:0:0:
260,116,142150,5,14,0:0:0:0:
155,372,142309,1,8,0:0:0:0:
105,364,142388,1,8,0:0:0:0:
66,331,142467,1,8,0:0:0:0:
59,280,142547,1,8,0:0:0:0:
79,233,142626,1,8,0:0:0:0:
123,209,142705,1,8,0:0:0:0:
174,211,142785,6,0,L|293:230,1,112.799996557617,4|0,1:2|0:0,0:0:0:0:
457,170,143102,1,10,0:0:0:0:
291,92,143261,1,2,0:0:0:0:
348,285,143420,2,0,P|369:231|354:180,1,112.799996557617,2|0,1:2|1:2,0:0:0:0:
221,33,143737,1,10,0:0:0:0:
174,211,143896,1,2,0:0:0:0:
298,82,144055,6,0,B|355:43|355:43|507:85,1,225.599993115235,0|10,1:2|0:0,0:0:0:0:
311,195,144531,1,0,1:2:0:0:
311,195,144610,1,0,1:2:0:0:
311,195,144689,2,0,L|298:79,1,112.799996557617,2|0,1:2|1:2,0:0:0:0:
505,84,145007,2,0,L|492:196,1,112.799996557617,10|2,0:0|0:0,0:0:0:0:
329,285,145324,6,0,B|271:296|233:247|233:247|112:292,2,225.599993115235,0|10|2,1:2|0:0|1:2,0:0:0:0:
163,151,146118,1,2,1:2:0:0:
124,377,146277,1,8,0:0:0:0:
319,203,146436,1,2,1:2:0:0:
319,203,146515,1,0,1:2:0:0:
319,203,146594,6,0,L|302:82,1,112.799996557617,0|0,1:2|0:0,0:0:0:0:
76,17,146912,1,10,0:0:0:0:
161,244,147070,1,2,1:2:0:0:
161,244,147150,1,0,1:2:0:0:
161,244,147229,1,0,1:2:0:0:
273,22,147388,1,0,1:2:0:0:
344,294,147547,5,10,0:0:0:0:
101,152,147705,1,10,0:0:0:0:
101,152,147785,1,8,0:0:0:0:
101,152,147864,6,0,P|159:139|221:157,1,112.799996557617,6|0,1:2|0:0,0:0:0:0:
344,294,148182,1,10,0:0:0:0:
442,133,148340,2,0,L|433:18,1,112.799996557617,2|0,0:0|1:2,0:0:0:0:
311,172,148658,1,2,1:2:0:0:
213,23,148816,2,0,P|158:10|103:23,1,112.799996557617,10|0,0:0|0:0,0:0:0:0:
41,233,149134,6,0,P|14:299|93:299,1,169.199994836426,0|0,1:2|0:0,0:0:0:0:
126,230,149451,2,0,L|248:205,1,112.799996557617,10|0,0:0|0:0,0:0:0:0:
236,207,149689,1,0,1:2:0:0:
236,207,149769,1,2,1:2:0:0:
401,27,149928,1,0,1:2:0:0:
439,265,150086,2,0,L|429:382,1,112.799996557617,10|0,0:0|0:0,0:0:0:0:
206,107,150404,5,6,1:2:0:0:
255,344,150562,1,0,1:2:0:0:
377,132,150721,1,10,0:0:0:0:
106,110,150880,1,2,1:2:0:0:
106,110,150959,1,0,1:2:0:0:
106,110,151039,5,0,1:2:0:0:
350,324,151197,1,2,1:2:0:0:
354,0,151356,1,8,0:0:0:0:
75,209,151515,6,0,B|213:164|150:255|298:199,1,225.599993115235,14|0,0:0|1:2,0:0:0:0:
375,185,151912,1,0,1:2:0:0:
375,185,151991,2,0,L|367:249,1,56.3999982788086,10|0,0:0|1:2,0:0:0:0:
226,132,152150,2,0,L|219:76,1,56.3999982788086,0|8,1:2|0:0,0:0:0:0:
136,279,152309,5,14,0:0:0:0:
152,320,152388,1,0,1:2:0:0:
192,338,152467,1,0,1:2:0:0:
237,339,152547,1,0,1:2:0:0:
276,317,152626,5,14,0:0:0:0:
329,299,152705,1,8,0:0:0:0:
385,304,152785,1,8,0:0:0:0:
434,331,152864,1,8,0:0:0:0:
462,379,152943,6,0,P|403:369|388:224,2,225.599993115235,6|8|2,1:2|0:0|1:2,0:0:0:0:
272,261,153737,1,0,0:0:0:0:
468,142,153896,1,10,0:0:0:0:
377,347,154055,1,2,0:0:0:0:
284,143,154213,2,0,P|227:132|170:145,1,112.799996557617,0|0,1:2|0:0,0:0:0:0:
101,322,154531,2,0,L|87:198,1,112.799996557617,8|0,0:0|0:0,0:0:0:0:
186,31,154848,6,0,L|173:143,1,112.799996557617,2|0,1:2|0:0,0:0:0:0:
12,343,155166,2,0,L|-2:219,1,112.799996557617,10|0,0:0|0:0,0:0:0:0:
186,31,155483,6,0,P|245:19|299:32,1,112.799996557617,6|0,1:2|0:0,0:0:0:0:
371,217,155801,1,10,0:0:0:0:
489,45,155959,2,0,L|475:165,1,112.799996557617,2|0,0:0|1:2,0:0:0:0:
283,303,156277,2,0,L|269:190,1,112.799996557617,2|8,0:0|0:0,0:0:0:0:
456,246,156594,2,0,P|421:294|366:304,2,112.799996557617,2|0|0,0:0|1:2|0:0,0:0:0:0:
267,107,157070,5,10,0:0:0:0:
183,305,157229,1,0,0:0:0:0:
357,147,157388,1,2,1:2:0:0:
135,34,157547,1,0,0:0:0:0:
279,203,157705,1,10,0:0:0:0:
416,26,157864,1,8,0:3:0:0:
416,26,157943,1,8,0:3:0:0:
416,26,158023,6,0,P|476:45|450:189,2,225.599993115235,6|8|2,1:2|0:0|1:2,0:0:0:0:
279,203,158816,1,0,0:0:0:0:
216,2,158975,1,10,0:0:0:0:
388,135,159134,1,2,0:0:0:0:
163,227,159293,2,0,L|169:102,1,112.799996557617,0|0,1:2|0:0,0:0:0:0:
378,215,159610,2,0,L|383:327,1,112.799996557617,8|0,0:0|0:0,0:0:0:0:
168,114,159928,6,0,P|112:102|51:122,1,112.799996557617,2|0,1:2|0:0,0:0:0:0:
378,215,160245,2,0,P|431:229|486:217,1,112.799996557617,10|0,0:0|0:0,0:0:0:0:
298,26,160562,6,0,L|290:139,1,112.799996557617,6|0,1:2|0:0,0:0:0:0:
117,311,160880,1,10,0:0:0:0:
59,116,161039,2,0,L|67:3,1,112.799996557617,2|0,0:0|1:2,0:0:0:0:
290,138,161356,2,0,P|348:159|399:143,1,112.799996557617,2|8,0:0|0:0,0:0:0:0:
208,98,161674,1,2,0:0:0:0:
208,98,161753,1,0,0:0:0:0:
208,98,161832,5,0,1:2:0:0:
362,230,161991,1,0,1:2:0:0:
194,299,162150,2,0,L|205:186,1,112.799996557617,12|0,0:0|0:0,0:0:0:0:
359,7,162467,1,6,1:2:0:0:
506,163,162626,1,8,0:0:0:0:
462,197,162705,1,10,0:0:0:0:
405,201,162785,1,8,0:0:0:0:
354,176,162864,1,8,0:0:0:0:
303,151,162943,1,10,0:0:0:0:
246,155,163023,1,8,0:0:0:0:
202,189,163102,5,2,1:2:0:0:
202,189,163420,6,0,B|142:151|142:151|172:310,1,225.599993115235,14|0,0:0|1:2,0:0:0:0:
423,338,163896,1,0,1:2:0:0:
283,140,164055,1,10,0:0:0:0:
227,373,164213,1,2,0:0:0:0:
365,174,164372,6,0,P|369:116|332:66,1,112.799996557617,0|0,1:2|1:2,0:0:0:0:
179,245,164689,2,0,L|290:223,1,112.799996557617,10|0,0:0|0:0,0:0:0:0:
369,178,164929,1,8,0:0:0:0:
369,178,165007,2,0,L|480:200,1,112.799996557617,2|0,1:2|1:2,0:0:0:0:
290,34,165324,2,0,P|269:85|285:143,1,112.799996557617,10|0,0:0|0:0,0:0:0:0:
470,312,165642,6,0,L|480:195,1,112.799996557617,6|0,1:2|0:0,0:0:0:0:
373,23,165959,1,10,0:0:0:0:
297,231,166118,1,2,1:2:0:0:
297,231,166197,1,0,1:2:0:0:
297,231,166277,2,0,L|306:343,1,112.799996557617,0|2,1:2|1:2,0:0:0:0:
377,134,166594,1,8,0:0:0:0:
470,312,166753,1,2,0:0:0:0:
269,144,166912,5,0,1:2:0:0:
269,144,167070,1,0,1:2:0:0:
498,59,167229,2,0,L|486:176,1,112.799996557617,14|0,0:0|1:2,0:0:0:0:
213,279,167547,1,10,0:0:0:0:
374,74,167705,1,0,1:2:0:0:
430,330,167864,1,14,0:0:0:0:
255,122,168023,1,8,0:0:0:0:
255,122,168102,1,8,0:0:0:0:
255,122,168182,6,0,P|196:113|140:122,1,112.799996557617,4|0,1:2|0:0,0:0:0:0:
305,328,168499,2,0,L|292:207,1,112.799996557617,10|0,0:0|0:0,0:0:0:0:
209,7,168816,1,2,1:2:0:0:
209,7,168975,1,0,0:0:0:0:
111,217,169134,2,0,L|98:329,1,112.799996557617,10|0,0:0|0:0,0:0:0:0:
255,122,169451,6,0,P|314:113|370:122,1,112.799996557617,0|0,1:2|0:0,0:0:0:0:
111,217,169769,2,0,L|98:104,1,112.799996557617,10|0,0:0|0:0,0:0:0:0:
281,255,170086,1,2,1:2:0:0:
326,22,170245,1,8,0:3:0:0:
326,22,170324,1,8,0:3:0:0:
326,22,170404,2,0,L|384:16,3,56.3999982788086,6|4|4|4,0:3|0:3|0:3|0:3,0:0:0:0:
456,51,170721,5,12,1:2:0:0:
256,192,170801,12,12,173261,0:0:0:0:
65,196,175007,5,8,0:3:0:0:
84,351,175324,5,4,0:3:0:0:
73,273,175483,1,4,0:3:0:0:
53,117,175801,5,4,1:2:0:0:
61,125,176912,1,0,1:2:0:0:
61,125,176991,1,0,1:2:0:0:
61,125,177070,6,0,L|158:114,1,94,12|8,0:0|0:3,0:0:0:0:
154,114,177547,1,8,0:3:0:0:
319,73,177864,6,0,L|325:25,2,47,4|4|4,0:3|0:3|0:3,0:3:0:0:
346,143,178340,1,4,1:2:0:0:
292,309,179134,6,0,L|303:210,1,94,8|0,0:0|1:2,0:0:0:0:
303,215,179610,1,12,0:0:0:0:
490,165,179928,6,0,L|497:220,2,50.1333333333333,0|0|8,1:2|1:2|0:0,0:0:0:0:
424,99,180245,5,8,0:0:0:0:
391,85,180351,5,8,0:0:0:0:
355,84,180457,5,8,0:3:0:0:
322,95,180562,6,0,L|317:149,2,50.1333333333333,4|4|4,0:3|0:3|0:3,0:0:0:0:
307,18,180880,5,4,1:2:0:0:
173,143,181356,5,0,1:2:0:0:
173,143,181515,2,0,L|97:135,1,75.2,12|0,0:0|0:0,0:0:0:0:
30,87,181832,2,0,P|13:128|19:165,1,75.2,12|0,0:0|0:0,0:0:0:0:
125,233,182150,5,0,1:2:0:0:
242,91,182309,2,0,P|259:132|253:169,1,75.2,8|2,0:0|0:0,0:0:0:0:
186,301,182626,1,0,1:2:0:0:
186,301,182705,1,0,1:2:0:0:
186,301,182785,5,8,0:0:0:0:
173,143,182943,1,8,0:0:0:0:
331,130,183102,1,8,0:0:0:0:
344,288,183261,1,8,0:0:0:0:
260,216,183420,6,0,B|316:206|316:206|370:216,1,112.799996557617,6|2,1:2|0:0,0:0:0:0:
232,194,183896,2,0,B|239:137|239:137|265:89,1,112.799996557617,2|2,1:2|0:0,0:0:0:0:
202,213,184372,2,0,B|150:188|150:188|113:148,1,112.799996557617,2|2,0:0|0:0,0:0:0:0:
211,247,184848,2,0,B|171:288|171:288|122:311,1,112.799996557617,2|2,1:2|1:2,0:0:0:0:
247,249,185324,2,0,B|273:299|273:299|280:353,1,112.799996557617,10|2,0:0|0:0,0:0:0:0:
222,30,185959,6,0,P|274:20|333:49,1,112.799996557617,6|2,1:2|0:0,0:0:0:0:
405,3,186436,2,0,P|415:55|386:114,1,112.799996557617,2|2,1:2|0:0,0:0:0:0:
432,186,186912,2,0,P|380:196|321:167,1,112.799996557617,10|2,0:0|0:0,0:0:0:0:
249,213,187388,2,0,P|239:161|268:102,1,112.799996557617,10|2,0:0|1:2,0:0:0:0:
327,43,187864,5,10,0:0:0:0:
391,108,188023,1,8,0:3:0:0:
326,172,188182,1,6,0:3:0:0:
262,107,188340,1,4,0:3:0:0:
391,108,188499,6,0,L|438:112,3,47,6|0|0|0,1:2|3:0|3:0|3:0,0:0:0:0:
502,184,188816,1,8,0:0:0:0:
504,207,188896,1,0,3:0:0:0:
506,230,188975,1,2,3:0:0:0:
508,253,189055,1,0,3:0:0:0:
509,276,189134,6,0,L|513:330,3,47,0|0|0|0,1:2|3:0|3:0|3:0,0:0:0:0:
400,254,189451,2,0,L|404:308,3,47,10|0|0|0,0:0|3:0|3:0|3:0,0:0:0:0:
292,229,189769,6,0,L|296:283,1,47,0|0,1:2|1:2,0:0:0:0:
132,384,189928,1,10,0:0:0:0:
95,376,190007,1,0,1:2:0:0:
65,352,190086,1,0,1:2:0:0:
57,314,190166,1,0,1:2:0:0:
69,278,190245,1,0,1:2:0:0:
95,251,190324,1,0,1:2:0:0:
131,240,190404,5,10,0:0:0:0:
167,269,190483,1,0,1:2:0:0:
213,275,190562,1,0,1:2:0:0:
259,263,190642,1,0,1:2:0:0:
292,229,190721,5,10,0:0:0:0:
283,172,190801,1,8,0:0:0:0:
283,115,190880,1,8,0:0:0:0:
292,59,190959,1,8,0:0:0:0:
280,2,191039,5,6,1:2:0:0:
408,268,191197,1,0,1:2:0:0:
408,268,191277,1,8,0:0:0:0:
408,268,191356,1,8,0:0:0:0:
173,88,191515,5,6,1:2:0:0:
479,12,191674,1,0,1:2:0:0:
479,12,191753,1,8,0:0:0:0:
479,12,191832,1,8,0:0:0:0:
295,275,191991,5,10,0:0:0:0:
106,43,192150,2,0,B|69:22|69:22|98:137,1,141,6|0,1:2|0:0,0:0:0:0:
112,195,192467,5,2,1:2:0:0:
357,343,192626,1,10,0:0:0:0:
349,64,192785,1,2,1:2:0:0:
349,64,192864,1,8,0:0:0:0:
349,64,192943,6,0,L|352:98,6,23.5,10|0|10|0|10|0|10,0:3|0:0|0:3|0:0|0:3|0:0|0:3,0:0:0:0:
364,162,193261,1,14,0:0:0:0:
364,162,193578,5,6,1:2:0:0:
199,87,193737,1,2,0:0:0:0:
76,220,193896,1,10,0:0:0:0:
364,162,194055,2,0,L|377:56,1,103.400003155518,2|0,0:0|1:2,0:0:0:0:
199,87,194372,5,2,0:0:0:0:
76,220,194531,1,10,0:0:0:0:
165,377,194689,1,2,0:0:0:0:
364,162,194848,5,2,1:2:0:0:
343,342,195007,1,2,0:0:0:0:
165,377,195166,1,10,0:0:0:0:
76,220,195324,1,2,0:0:0:0:
364,162,195483,5,2,1:2:0:0:
343,342,195642,1,2,0:0:0:0:
165,377,195801,1,10,0:0:0:0:
76,220,195959,1,2,0:0:0:0:
364,162,196118,6,0,L|377:271,2,103.400003155518,2|0|8,1:2|0:0|0:0,0:0:0:0:
76,220,196594,2,0,L|88:117,2,103.400003155518,2|0|0,0:0|1:2|0:0,0:0:0:0:
350,155,197070,2,0,L|363:264,2,103.400003155518,10|0|0,0:0|0:0|1:2,0:0:0:0:
87,231,197547,2,0,L|99:128,2,103.400003155518,2|8|0,0:0|0:0|0:0,0:0:0:0:
364,162,198023,6,0,L|376:59,1,103.400003155518,6|0,1:2|0:0,0:0:0:0:
76,220,198340,2,0,L|88:322,1,103.400003155518,14|0,0:0|0:0,0:0:0:0:
364,162,198658,6,0,B|266:137|266:137|166:181,1,206.800006311035,6|8,1:2|0:0,0:0:0:0:
80,224,199134,1,2,0:0:0:0:
80,224,199293,1,2,1:2:0:0:
165,377,199451,1,2,0:0:0:0:
343,342,199610,1,10,0:0:0:0:
199,86,199769,6,0,B|145:57|145:57|178:203,1,206.800006311035,2|0,0:0|0:0,0:0:0:0:
364,162,200245,2,0,L|258:152,1,103.400003155518,10|0,0:0|0:0,0:0:0:0:
76,220,200562,2,0,L|181:199,1,103.400003155518,2|0,1:2|0:0,0:0:0:0:
364,162,200880,2,0,L|258:152,1,103.400003155518,10|0,0:0|0:0,0:0:0:0:
165,377,201197,5,6,1:2:0:0:
343,342,201356,1,2,0:0:0:0:
165,377,201515,1,10,0:0:0:0:
343,342,201674,2,0,L|325:237,1,103.400003155518,2|0,0:0|1:2,0:0:0:0:
199,86,201991,5,2,0:0:0:0:
76,220,202150,1,10,0:0:0:0:
165,377,202309,2,0,L|174:273,1,103.400003155518,2|0,0:0|1:2,0:0:0:0:
372,170,202626,1,2,1:2:0:0:
372,170,202705,1,8,0:0:0:0:
372,170,202785,1,10,0:0:0:0:
351,350,202943,1,0,1:2:0:0:
351,350,203022,1,8,0:0:0:0:
351,350,203102,5,2,1:2:0:0:
304,356,203182,1,10,0:0:0:0:
258,362,203261,1,10,0:0:0:0:
212,368,203340,1,10,0:0:0:0:
165,377,203420,1,2,1:2:0:0:
142,338,203499,1,10,0:0:0:0:
119,299,203578,1,10,0:0:0:0:
97,259,203658,1,10,0:0:0:0:
76,220,203737,6,0,L|184:200,1,103.400003155518,6|0,1:2|0:0,0:0:0:0:
309,73,204055,1,10,0:0:0:0:
309,73,204213,2,0,L|272:176,1,103.400003155518,2|0,0:0|1:2,0:0:0:0:
319,348,204531,1,2,1:2:0:0:
319,348,204689,2,0,L|247:264,1,103.400003155518,10|0,0:0|0:0,0:0:0:0:
181,205,205007,5,2,1:2:0:0:
181,205,205166,2,0,L|80:224,1,103.400003155518,2|8,1:2|0:0,0:0:0:0:
278,174,205483,1,2,0:0:0:0:
278,174,205642,2,0,L|313:77,2,103.400003155518,2|2|10,1:2|1:2|0:0,0:0:0:0:
259,277,206118,1,8,0:0:0:0:
259,277,206197,1,8,0:0:0:0:
259,277,206277,6,0,L|327:356,1,103.400003155518,6|2,1:2|0:0,0:0:0:0:
181,205,206594,2,0,L|80:224,1,103.400003155518,10|2,0:0|0:0,0:0:0:0:
278,174,206912,2,0,L|313:77,2,103.400003155518,2|2|10,1:2|1:2|0:0,0:0:0:0:
80,224,207388,6,0,L|181:205,1,103.400003155518,2|0,0:0|1:2,0:0:0:0:
327,356,207705,1,2,1:2:0:0:
327,356,207864,2,0,L|259:277,1,103.400003155518,10|2,0:0|0:0,0:0:0:0:
313,76,208182,1,2,1:2:0:0:
304,100,208261,1,0,1:2:0:0:
296,124,208340,1,10,0:0:0:0:
288,148,208420,1,8,0:0:0:0:
278,174,208499,2,0,L|330:168,3,51.7000015777588,10|8|4|4,0:3|0:3|0:3|0:3,0:0:0:0:
411,161,208816,6,0,L|491:168,1,75.2,6|2,1:2|0:0,0:0:0:0:
476,257,209134,2,0,L|401:250,1,75.2,10|0,0:0|1:2,0:0:0:0:
382,248,209372,1,0,1:2:0:0:
363,245,209451,6,0,L|370:326,1,75.2,2|0,1:2|1:2,0:0:0:0:
292,372,209769,1,10,0:0:0:0:
207,342,209928,1,2,1:2:0:0:
207,342,210007,1,0,1:2:0:0:
207,342,210086,6,0,L|197:254,1,75.2,0|2,1:2|1:2,0:0:0:0:
138,204,210404,2,0,L|59:212,1,75.2,10|2,0:0|1:2,0:0:0:0:
44,214,210642,1,0,1:2:0:0:
25,215,210721,6,0,L|31:132,1,75.2,0|2,1:2|1:2,0:0:0:0:
62,30,211039,1,10,0:0:0:0:
147,123,211197,1,2,1:2:0:0:
147,123,211277,1,0,1:2:0:0:
147,123,211356,6,0,L|228:129,1,75.2,4|2,1:2|1:2,0:0:0:0:
240,131,211594,1,2,0:0:0:0:
258,132,211674,1,10,0:0:0:0:
349,59,211832,1,2,1:2:0:0:
367,57,211912,1,0,1:2:0:0:
385,54,211991,6,0,L|394:133,1,75.2,0|0,1:2|1:2,0:0:0:0:
477,189,212309,1,10,0:0:0:0:
399,252,212467,1,0,1:2:0:0:
399,252,212547,1,0,1:2:0:0:
399,252,212626,6,0,L|406:328,1,75.2,0|2,1:2|1:2,0:0:0:0:
319,377,212943,1,10,0:0:0:0:
229,335,213102,1,10,0:0:0:0:
229,335,213182,1,8,0:0:0:0:
229,335,213261,2,0,L|223:283,3,37.6,10|0|2|0,0:0|1:2|1:2|1:2,0:0:0:0:
218,219,213578,1,10,0:0:0:0:
101,345,213737,6,0,L|92:229,1,112.799996557617,14|0,0:0|0:0,0:0:0:0:
47,11,214055,1,2,1:2:0:0:
31,59,214134,1,2,0:0:0:0:
43,107,214213,1,10,0:0:0:0:
85,135,214293,1,2,0:0:0:0:
135,141,214372,1,2,1:2:0:0:
183,126,214451,1,2,0:0:0:0:
216,86,214531,5,10,0:0:0:0:
266,62,214610,1,2,0:0:0:0:
321,66,214689,1,2,1:2:0:0:
366,97,214769,1,2,0:0:0:0:
390,146,214848,1,10,0:0:0:0:
385,201,214928,1,2,0:0:0:0:
354,246,215007,1,2,1:2:0:0:
305,270,215086,1,2,0:0:0:0:
251,266,215166,5,10,0:0:0:0:
191,283,215245,1,2,0:0:0:0:
132,261,215324,1,2,1:2:0:0:
97,209,215404,1,2,0:0:0:0:
99,146,215483,1,10,0:0:0:0:
137,96,215562,1,2,0:0:0:0:
198,80,215642,1,2,1:2:0:0:
257,101,215721,1,2,0:0:0:0:
292,153,215801,6,0,L|288:216,1,56.3999982788086,10|2,0:0|0:0,0:0:0:0:
12,277,215959,2,0,L|15:220,1,56.3999982788086,2|2,1:2|0:0,0:0:0:0:
279,299,216118,1,10,0:0:0:0:
30,138,216277,1,8,0:0:0:0:
30,138,216356,1,8,0:0:0:0:
30,138,216436,6,0,B|92:114|92:114|171:129,1,141,6|0,1:2|0:0,0:0:0:0:
243,149,216753,1,8,0:0:0:0:
463,318,216912,1,8,0:0:0:0:
369,39,217070,1,8,0:0:0:0:
201,327,217229,1,8,0:0:0:0:
233,7,217388,1,10,0:0:0:0:
463,318,217547,6,0,P|377:323|344:205,1,225.599993115235,14|8,0:0|0:0,0:0:0:0:
343,206,217943,1,8,0:0:0:0:
343,206,218023,1,2,1:2:0:0:
512,0,218182,2,0,L|508:59,1,56.3999982788086,0|0,1:2|1:2,0:0:0:0:
499,135,218340,5,2,1:2:0:0:
453,148,218420,1,8,0:0:0:0:
406,147,218499,1,8,0:0:0:0:
362,129,218578,1,0,1:2:0:0:
336,89,218658,5,10,0:0:0:0:
285,64,218737,1,8,0:0:0:0:
229,56,218816,1,8,0:0:0:0:
174,72,218896,1,8,0:0:0:0:
134,111,218975,6,0,L|157:281,2,169.199994836426,6|8|0,1:2|0:0|1:2,0:0:0:0:
249,319,219928,1,10,0:0:0:0:
249,319,220086,1,2,0:0:0:0:
302,238,220245,6,0,P|256:223|151:291,1,169.199994836426,2|10,1:2|0:0,0:0:0:0:
69,320,220721,1,2,0:0:0:0:
69,320,220880,2,0,L|59:229,1,84.599997418213,0|0,1:2|0:0,0:0:0:0:
146,178,221197,2,0,L|156:87,1,84.599997418213,10|2,0:0|0:0,0:0:0:0:
0,88,221515,6,0,B|51:59|51:59|160:96,2,169.199994836426,0|8|0,1:2|0:0|1:2,0:0:0:0:
238,150,222467,1,8,0:0:0:0:
238,150,222626,1,0,0:0:0:0:
242,51,222785,6,0,L|417:26,1,169.199994836426,0|8,1:2|0:0,0:0:0:0:
503,90,223261,1,2,0:0:0:0:
503,90,223420,2,0,L|510:6,1,84.599997418213,0|0,1:2|0:0,0:0:0:0:
417,121,223737,1,14,0:0:0:0:
410,199,223896,1,2,0:0:0:0:
403,277,224055,6,0,B|307:256|342:305|234:279,2,169.199994836426,6|8|0,1:2|0:0|1:2,0:0:0:0:
175,215,225007,1,10,0:0:0:0:
175,215,225166,1,2,0:0:0:0:
151,300,225324,6,0,P|99:269|94:169,1,169.199994836426,2|10,1:2|0:0,0:0:0:0:
215,50,225801,1,2,1:2:0:0:
215,50,225880,1,0,1:2:0:0:
215,50,225959,1,0,1:2:0:0:
60,21,226118,2,0,L|51:114,1,84.599997418213,2|8,0:0|0:0,0:0:0:0:
51,105,226436,1,2,0:0:0:0:
207,200,226594,6,0,P|262:184|281:77,1,169.199994836426,6|8,1:2|0:0,0:0:0:0:
401,0,227070,1,2,0:0:0:0:
456,130,227229,2,0,L|466:219,2,84.599997418213,2|0|8,1:2|0:0|0:0,0:0:0:0:
207,200,227864,5,12,0:0:0:0:
407,255,228023,1,0,1:2:0:0:
234,369,228182,2,0,P|223:326|236:283,1,84.599997418213,8|0,0:0|1:2,0:0:0:0:
398,146,228499,1,10,0:0:0:0:
205,49,228658,1,2,1:2:0:0:
158,33,228737,1,0,1:2:0:0:
110,40,228816,1,10,0:0:0:0:
69,67,228896,1,0,1:2:0:0:
45,109,228975,1,2,1:2:0:0:
41,158,229055,1,8,0:0:0:0:
60,203,229134,5,6,1:2:0:0:
205,49,229293,1,0,0:0:0:0:
180,269,229451,1,10,0:0:0:0:
45,109,229610,2,0,L|30:16,2,84.599997418213,2|0|0,0:0|1:2|1:2,0:0:0:0:
208,177,230086,1,10,0:0:0:0:
208,177,230245,1,2,0:0:0:0:
315,30,230404,2,0,L|328:123,1,84.599997418213,0|0,1:2|0:0,0:0:0:0:
445,216,230721,2,0,L|456:132,1,84.599997418213,8|0,0:0|0:0,0:0:0:0:
226,68,231039,5,2,1:2:0:0:
347,298,231197,1,2,1:2:0:0:
464,56,231356,1,10,0:0:0:0:
347,298,231515,1,2,0:0:0:0:
226,68,231674,6,0,P|172:58|126:67,1,84.599997418213,2|0,1:2|0:0,0:0:0:0:
51,185,231991,1,10,0:0:0:0:
51,185,232150,2,0,L|37:95,2,84.599997418213,2|0|0,0:0|1:2|1:2,0:0:0:0:
217,209,232626,1,10,0:0:0:0:
217,209,232785,1,2,0:0:0:0:
100,322,232943,2,0,L|12:336,1,84.599997418213,0|0,1:2|1:2,0:0:0:0:
217,209,233261,2,0,L|305:223,1,84.599997418213,8|0,0:0|1:2,0:0:0:0:
440,347,233578,5,10,0:0:0:0:
365,130,233737,1,6,1:2:0:0:
240,324,233896,1,8,0:0:0:0:
410,58,234055,6,0,B|294:26|344:103|219:62,1,188,6|0,1:2|0:0,0:0:0:0:
31,32,234531,1,10,0:0:0:0:
195,167,234689,2,0,L|185:266,1,94,2|0,0:0|1:2,0:0:0:0:
9,384,235007,2,0,L|0:290,1,94,2|8,1:2|0:0,0:0:0:0:
142,94,235324,6,0,B|220:84|220:84|248:107|248:107|320:96,1,188,2|0,0:0|1:2,0:0:0:0:
447,9,235801,2,0,L|434:108,1,94,10|0,0:0|0:0,0:0:0:0:
428,139,236039,1,8,0:0:0:0:
422,176,236118,2,0,L|431:283,1,94,2|0,1:2|1:2,0:0:0:0:
297,366,236436,1,10,0:0:0:0:
297,366,236594,1,2,0:0:0:0:
226,208,236753,6,0,P|171:194|73:279,2,188,4|8|0,1:2|0:0|1:2,0:0:0:0:
380,274,237547,1,0,1:2:0:0:
257,83,237705,1,10,0:0:0:0:
171,291,237864,1,2,0:0:0:0:
355,89,238023,5,2,1:2:0:0:
88,33,238182,1,0,0:0:0:0:
171,291,238340,1,14,0:0:0:0:
362,96,238499,1,10,0:0:0:0:
362,96,238578,1,8,0:0:0:0:
362,96,238658,5,8,0:0:0:0:
288,153,238816,1,10,0:3:0:0:
194,163,238975,1,4,0:3:0:0:
108,123,239134,1,4,0:3:0:0:
88,33,239293,5,6,1:2:0:0:
88,33,239610,1,0,1:2:0:0:
230,145,239769,1,0,1:2:0:0:
60,210,239928,1,0,1:2:0:0:
170,33,240086,1,0,1:2:0:0:
208,222,240245,1,0,1:2:0:0:
42,131,240404,1,8,0:0:0:0:
251,63,240562,5,2,1:2:0:0:
112,271,240721,1,0,1:2:0:0:
50,36,240880,1,8,0:0:0:0:
270,147,241039,1,0,1:2:0:0:
31,241,241197,1,8,0:3:0:0:
173,7,241356,1,8,0:3:0:0:
277,255,241515,1,4,0:3:0:0:
30,144,241674,1,4,0:3:0:0:
346,37,241832,5,14,0:0:0:0:
273,342,241991,1,0,1:2:0:0:
125,81,242150,1,0,1:2:0:0:
392,243,242309,5,12,0:0:0:0:
111,313,242467,1,0,1:2:0:0:
315,99,242626,1,0,1:2:0:0:
490,371,242785,5,8,0:0:0:0:
347,9,242943,1,12,0:0:0:0:
111,313,243102,5,2,1:2:0:0:
147,328,243182,1,0,1:2:0:0:
186,329,243261,1,0,1:2:0:0:
224,319,243340,1,0,1:2:0:0:
254,293,243420,5,8,0:0:0:0:
304,292,243499,1,0,1:2:0:0:
353,280,243578,1,0,1:2:0:0:
394,249,243658,1,0,1:2:0:0:
406,200,243737,5,8,0:0:0:0:
345,214,243816,1,8,0:0:0:0:
283,205,243896,1,0,1:2:0:0:
232,168,243975,1,0,1:2:0:0:
205,111,244055,5,8,0:0:0:0:
132,121,244134,1,8,0:0:0:0:
63,97,244213,1,8,0:0:0:0:
19,37,244293,1,8,0:0:0:0:
264,19,245166,5,8,0:3:0:0:
264,19,245245,1,8,0:3:0:0:
264,19,245324,1,6,0:3:0:0:
94,76,245642,6,0,B|64:7|2:22|-14:80|0:145|45:165|100:168,1,263.2,6|2,1:2|0:0,0:0:0:0:
229,139,248182,6,0,B|258:70|320:85|337:143|322:208|277:228|222:231,1,263.2,6|2,1:2|0:0,0:0:0:0:
154,186,249451,6,0,B|102:211|102:211|33:205,2,112.8,12|4|2,0:3|0:3|1:2,0:0:0:0:
317,120,250721,6,0,B|357:120|380:82|380:82|335:186|227:138,1,263.2,6|2,1:2|0:0,0:0:0:0:
437,4,253261,6,0,P|468:57|445:147,1,150.4,6|2,1:2|0:0,0:0:0:0:
459,245,254531,2,0,P|437:194|452:139,2,112.8,10|10|8,0:0|0:3|0:0,0:0:0:0:
393,356,255801,5,4,1:2:0:0:
393,356,256118,2,0,L|329:351,1,56.4,2|2,1:2|0:0,0:0:0:0:
265,316,256436,2,0,B|211:333|211:333|149:321,1,112.799996557617,2|2,1:2|1:2,0:0:0:0:
85,297,256912,1,2,0:0:0:0:
85,297,257070,1,0,1:2:0:0:
26,150,257388,6,0,L|90:158,1,56.3999982788086,2|0,1:2|0:0,0:0:0:0:
138,102,257705,2,0,L|112:41,1,56.3999982788086,2|0,1:2|0:0,0:0:0:0:
40,28,258023,2,0,L|0:80,1,56.3999982788086,2|2,1:2|0:0,0:0:0:0:
26,150,258340,5,0,1:2:0:0:
26,150,258658,2,0,L|90:158,1,56.3999982788086,2|2,1:2|0:0,0:0:0:0:
161,182,258975,1,2,1:2:0:0:
161,182,259134,2,0,L|220:173,1,56.3999982788086,2|0,0:0|1:2,0:0:0:0:
285,134,259451,1,2,0:0:0:0:
285,134,259610,6,0,P|342:118|397:155,1,112.799996557617,0|2,1:2|1:2,0:0:0:0:
415,215,260086,1,2,0:0:0:0:
415,215,260245,1,0,1:2:0:0:
500,82,260562,2,0,L|493:19,1,56.3999982788086,2|2,1:2|0:0,0:0:0:0:
415,42,260880,6,0,P|383:47|353:43,1,56.3999982788086,6|0,1:2|0:0,0:0:0:0:
291,13,261197,1,2,1:2:0:0:
291,13,261356,2,0,P|262:10|235:15,1,56.3999982788086,2|0,0:0|1:2,0:0:0:0:
188,80,261674,1,2,0:0:0:0:
188,80,261832,2,0,L|111:77,2,56.3999982788086,2|0|0,1:2|0:0|1:2,0:0:0:0:
328,152,262467,5,2,1:2:0:0:
256,292,262785,1,2,1:2:0:0:
116,220,263102,1,2,1:2:0:0:
186,78,263420,5,14,0:0:0:0:
187,98,263499,1,0,3:0:0:0:
189,118,263578,1,0,3:0:0:0:
190,139,263658,1,0,3:0:0:0:
191,159,263737,1,2,1:2:0:0:
192,179,263816,1,0,3:0:0:0:
194,199,263896,1,2,3:0:0:0:
196,219,263975,1,0,3:0:0:0:
198,239,264055,1,0,1:2:0:0:
200,260,264134,1,0,3:0:0:0:
202,280,264213,1,2,3:0:0:0:
203,300,264293,1,0,3:0:0:0:
205,320,264372,5,8,1:2:0:0:
233,308,264451,1,0,3:0:0:0:
264,305,264531,1,2,3:0:0:0:
294,311,264610,1,0,3:0:0:0:
323,323,264689,5,8,1:2:0:0:
364,318,264769,1,0,3:0:0:0:
400,296,264848,1,0,3:0:0:0:
415,256,264928,1,0,3:0:0:0:
412,214,265007,5,10,0:0:0:0:
361,228,265086,1,8,0:0:0:0:
308,223,265166,1,8,0:0:0:0:
264,195,265245,1,8,0:0:0:0:
249,145,265324,5,10,0:0:0:0:
310,154,265404,1,8,0:0:0:0:
370,135,265483,1,8,0:0:0:0:
409,85,265562,1,8,0:0:0:0:
413,21,265642,5,10,0:0:0:0:
344,46,265721,1,8,0:0:0:0:
270,45,265801,1,8,0:0:0:0:
200,24,265880,2,0,L|119:17,1,79.9,8|0,0:0|0:0,0:0:0:0:
256,192,267309,12,0,268182,0:0:0:0:
108,110,268499,5,14,0:0:0:0:
68,331,268658,1,0,1:2:0:0:
222,171,268816,1,0,1:2:0:0:
11,84,268975,5,8,0:0:0:0:
158,269,269134,1,2,1:2:0:0:
185,32,269293,1,0,1:2:0:0:
48,237,269451,5,10,0:0:0:0:
307,214,269610,1,2,1:2:0:0:
109,67,269769,1,0,1:2:0:0:
289,340,269928,5,8,0:0:0:0:
236,83,270086,1,0,1:2:0:0:
83,307,270245,1,0,1:2:0:0:
312,132,270404,6,0,P|325:76|307:24,1,112.799996557617,10|0,0:0|1:2,0:0:0:0:
26,28,270721,2,0,P|19:83|43:134,1,112.799996557617,10|0,0:0|1:2,0:0:0:0:
338,231,271039,5,14,0:0:0:0:
83,307,271197,1,0,1:2:0:0:
236,83,271356,1,2,1:2:0:0:
315,358,271515,5,10,0:0:0:0:
160,166,271674,1,0,1:2:0:0:
413,172,271832,1,2,1:2:0:0:
193,282,271991,5,8,0:0:0:0:
370,92,272150,1,2,1:2:0:0:
406,343,272309,1,0,1:2:0:0:
236,83,272467,5,8,0:0:0:0:
489,176,272626,1,2,1:2:0:0:
275,310,272785,1,0,1:2:0:0:
479,81,272943,5,14,0:0:0:0:
489,384,273102,1,0,1:2:0:0:
246,190,273261,2,0,P|226:128|242:71,1,112.799996557617,14|0,0:0|1:2,0:0:0:0:
235,82,273499,1,0,1:2:0:0:
235,82,273578,5,14,0:0:0:0:
424,263,273737,1,0,1:2:0:0:
412,4,273896,1,0,1:2:0:0:
257,273,274055,5,8,0:0:0:0:
504,171,274213,1,2,1:2:0:0:
285,23,274372,1,0,1:2:0:0:
355,319,274531,5,10,0:0:0:0:
353,63,274689,1,2,1:2:0:0:
164,252,274848,1,0,1:2:0:0:
402,137,275007,5,8,0:0:0:0:
134,83,275166,1,0,1:2:0:0:
250,337,275324,1,0,1:2:0:0:
353,63,275483,5,14,0:0:0:0:
66,172,275642,1,0,1:2:0:0:
380,254,275801,1,14,0:0:0:0:
164,12,275959,1,0,1:2:0:0:
164,12,276039,1,0,1:2:0:0:
164,12,276118,5,14,0:0:0:0:
216,263,276277,1,0,1:2:0:0:
32,92,276436,1,2,1:2:0:0:
295,168,276594,5,10,0:0:0:0:
101,343,276753,1,0,1:2:0:0:
123,92,276912,1,2,1:2:0:0:
283,334,277070,5,8,0:0:0:0:
30,240,277229,1,2,1:2:0:0:
252,101,277388,5,0,1:2:0:0:
101,343,277547,1,0,1:2:0:0:
39,78,277705,2,0,P|64:29|120:8,1,112.799996557617,12|0,0:0|0:0,0:0:0:0:
281,224,278023,5,6,1:2:0:0:
457,29,278182,1,8,0:0:0:0:
404,7,278261,1,10,0:0:0:0:
347,7,278340,1,8,0:0:0:0:
300,39,278420,1,8,0:0:0:0:
287,93,278499,1,10,0:0:0:0:
306,145,278578,1,8,0:0:0:0:
353,175,278658,6,0,L|361:116,1,56.3999982788086,2|0,1:2|0:0,0:0:0:0:
435,197,278816,2,0,L|443:138,1,56.3999982788086,0|0,1:2|0:0,0:0:0:0:
300,39,278975,6,0,P|238:14|145:127,1,225.599993115235,12|0,0:0|0:0,0:0:0:0:
183,339,279451,1,0,1:2:0:0:
183,339,279531,1,8,0:0:0:0:
183,339,279610,1,10,0:0:0:0:
353,175,279769,6,0,L|336:293,1,112.799996557617,6|0,1:2|0:0,0:0:0:0:
83,346,280086,1,0,1:2:0:0:
83,346,280166,1,0,1:2:0:0:
83,346,280245,2,0,L|66:234,1,112.799996557617,10|0,0:0|0:0,0:0:0:0:
170,54,280562,5,10,0:3:0:0:
241,126,280721,1,8,0:3:0:0:
178,206,280880,1,6,0:3:0:0:
241,283,281039,1,4,0:3:0:0:
63,67,281197,6,0,P|115:45|176:57,1,112.799996557617,6|0,1:2|0:0,0:0:0:0:
267,208,281515,1,10,0:0:0:0:
297,11,281674,1,2,1:2:0:0:
297,11,281753,1,0,1:2:0:0:
297,11,281832,1,0,1:2:0:0:
137,168,281991,1,2,1:2:0:0:
366,199,282150,1,8,0:0:0:0:
208,62,282309,1,10,0:0:0:0:
208,62,282388,1,8,0:0:0:0:
208,62,282467,6,0,L|224:175,1,112.799996557617,0|0,1:2|1:2,0:0:0:0:
350,310,282785,2,0,L|365:198,1,112.799996557617,14|0,0:0|0:0,0:0:0:0:
110,86,283102,5,10,0:0:0:0:
227,329,283261,1,0,1:2:0:0:
227,329,283340,1,0,1:2:0:0:
227,329,283420,1,10,0:0:0:0:
345,120,283578,1,0,1:2:0:0:
345,120,283658,1,8,0:0:0:0:
345,120,283737,6,0,L|221:139,1,112.799996557617,4|0,1:2|0:0,0:0:0:0:
64,190,284055,2,0,L|188:209,1,112.799996557617,10|0,0:0|0:0,0:0:0:0:
13,77,284372,1,2,1:2:0:0:
5,289,284531,1,0,0:0:0:0:
151,123,284689,2,0,L|134:4,1,112.799996557617,10|0,0:0|0:0,0:0:0:0:
264,220,285007,5,0,1:2:0:0:
264,220,285166,1,0,0:0:0:0:
345,120,285324,2,0,P|396:98|455:109,1,112.799996557617,10|0,0:0|0:0,0:0:0:0:
425,299,285642,2,0,L|407:178,1,112.799996557617,2|0,1:2|0:0,0:0:0:0:
361,8,285959,2,0,L|344:119,1,112.799996557617,10|0,0:0|0:0,0:0:0:0:
268,224,286277,5,6,1:2:0:0:
268,224,286356,1,2,0:0:0:0:
268,224,286436,1,2,0:0:0:0:
196,100,286594,2,0,P|144:70|85:72,1,112.799996557617,10|0,0:0|0:0,0:0:0:0:
47,231,286912,2,0,P|97:201|125:149,1,112.799996557617,2|0,1:2|0:0,0:0:0:0:
9,37,287229,2,0,P|9:95|40:146,1,112.799996557617,10|0,0:0|0:0,0:0:0:0:
204,301,287547,6,0,L|208:173,1,112.799996557617,2|0,1:2|0:0,0:0:0:0:
369,0,287864,2,0,L|381:117,1,112.799996557617,10|0,0:0|1:2,0:0:0:0:
393,195,288102,1,8,0:0:0:0:
393,195,288182,2,0,L|331:192,1,56.3999982788086,2|8,1:2|0:0,0:0:0:0:
182,110,288340,2,0,L|244:107,1,56.3999982788086,0|8,1:2|0:0,0:0:0:0:
461,136,288499,1,10,0:3:0:0:
478,171,288578,1,8,0:3:0:0:
480,210,288658,1,10,0:3:0:0:
470,248,288737,1,8,0:3:0:0:
442,275,288816,6,0,L|327:270,1,112.799996557617,4|0,1:2|0:0,0:0:0:0:
120,203,289134,2,0,L|236:192,1,112.799996557617,10|0,0:0|0:0,0:0:0:0:
65,285,289451,1,2,1:2:0:0:
129,90,289610,1,0,0:0:0:0:
253,267,289769,2,0,L|239:385,1,112.799996557617,10|0,0:0|0:0,0:0:0:0:
330,117,290086,5,0,1:2:0:0:
330,117,290245,1,0,0:0:0:0:
120,203,290404,2,0,L|130:81,1,112.799996557617,10|0,0:0|0:0,0:0:0:0:
434,76,290721,1,2,1:2:0:0:
483,104,290801,1,0,1:2:0:0:
504,155,290880,1,0,1:2:0:0:
491,209,290959,1,0,1:2:0:0:
447,245,291039,1,10,0:0:0:0:
390,248,291118,1,8,0:0:0:0:
340,221,291197,1,8,0:0:0:0:
319,168,291277,1,8,0:0:0:0:
330,117,291356,5,12,0:0:0:0:
256,192,291436,12,2,293578,0:0:0:0:
361,101,293737,5,0,1:2:0:0:
361,101,293816,1,0,1:2:0:0:
361,101,293896,2,0,L|356:186,1,75.2,6|0,1:2|0:0,0:0:0:0:
402,248,294372,1,2,0:0:0:0:
402,248,294531,2,0,P|364:260|315:249,1,75.2,2|0,0:0|0:0,0:0:0:0:
270,194,295007,1,2,0:0:0:0:
270,194,295166,6,0,L|184:205,1,75.2,6|0,1:2|0:0,0:0:0:0:
127,234,295642,1,10,0:3:0:0:
127,234,295721,1,8,0:3:0:0:
127,234,295801,2,0,L|123:271,2,37.6,6|4|4,0:3|0:3|0:3,0:0:0:0:
26,97,296277,5,6,0:3:0:0:
26,97,296436,2,0,L|104:108,1,75.2,6|0,1:2|0:0,0:0:0:0:
181,122,296912,1,2,0:0:0:0:
181,122,297070,2,0,L|259:112,1,75.2,2|0,0:0|0:0,0:0:0:0:
327,58,297547,1,2,0:0:0:0:
327,58,297705,5,14,0:0:0:0:
212,208,297864,1,0,1:2:0:0:
239,30,298023,1,0,1:2:0:0:
358,172,298182,1,2,1:2:0:0:
259,116,298340,5,10,0:3:0:0:
259,116,298499,1,8,0:3:0:0:
453,3,298658,2,0,L|438:113,1,108.100002061844,14|0,0:0|0:0,0:0:0:0:
253,313,298975,5,14,0:0:0:0:
239,30,299134,1,0,1:2:0:0:
449,207,299293,1,0,1:2:0:0:
151,157,299451,5,10,0:0:0:0:
343,2,299610,1,0,1:2:0:0:
324,260,299769,1,0,1:2:0:0:
239,30,299928,5,10,0:0:0:0:
465,98,300086,1,0,1:2:0:0:
250,187,300245,1,0,1:2:0:0:
452,17,300404,5,10,0:0:0:0:
433,190,300562,1,0,1:2:0:0:
331,49,300721,1,0,1:2:0:0:
508,233,300880,5,10,0:0:0:0:
266,300,301039,1,2,1:2:0:0:
331,49,301197,1,10,0:3:0:0:
334,72,301277,1,8,0:3:0:0:
337,95,301356,1,8,0:3:0:0:
340,118,301436,1,8,0:3:0:0:
342,141,301515,6,0,P|394:167|421:102,1,141,14|0,0:0|0:0,0:0:0:0:
423,106,301832,1,2,1:2:0:0:
269,217,301991,1,14,0:0:0:0:
441,267,302150,1,2,1:2:0:0:
252,47,302309,1,10,0:0:0:0:
168,313,302467,1,10,0:0:0:0:
384,122,302626,6,0,B|277:91|318:164|202:127,1,188,14|2,0:0|1:2,0:0:0:0:
12,22,303102,1,10,0:0:0:0:
93,254,303261,1,10,0:0:0:0:
252,47,303420,5,10,0:0:0:0:
7,217,303578,1,10,0:0:0:0:
1,268,303657,1,8,0:0:0:0:
22,314,303737,1,10,0:0:0:0:
64,342,303816,1,8,0:0:0:0:
116,345,303896,1,10,0:0:0:0:
160,320,303975,1,8,0:0:0:0:
368,279,304689,6,0,B|304:329|257:306|210:285|159:320|159:320|123:261|75:284|13:271|2:198|24:131|98:128|130:167|130:167|146:120|211:99|257:142|268:202|255:257|164:253|158:329,1,857.280020929688,6|4,1:2|0:3,0:0:0:0:
