osu file format v14

[General]
AudioFilename: audio.mp3
AudioLeadIn: 0
PreviewTime: 64082
Countdown: 0
SampleSet: Soft
StackLeniency: 0.5
Mode: 0
LetterboxInBreaks: 0
WidescreenStoryboard: 1

[Editor]
DistanceSpacing: 1
BeatDivisor: 4
GridSize: 4
TimelineZoom: 2

[Metadata]
Title:Initial (TV Size)
TitleUnicode:イニシャル (TV Size)
Artist:Poppin'Party
ArtistUnicode:Poppin'Party
Creator:Doormat
Version:Special
Source:BanG Dream! 3rd Season
Tags:Kyle73 Gaia StarrStyx バンドリ! ガールズバンドパーティ! Girls Band Party bandori garupa ガルパ popipa ポピパ ポッピンパーティ opening three third toyama kasumi 戸山香澄 terakawa aimi 寺川愛美 hanazono tae 花園たえ otsuka sae 大塚紗英 ushigome rimi 牛込りみ nishimoto rimi 西本りみ yamabuki saya saaya 山吹沙綾 ohashi ayaka 大橋彩香 ichigaya arisa 市ヶ谷有咲 itou ayasa 伊藤彩沙 anime video game japanese
BeatmapID:2279601
BeatmapSetID:1090496

[Difficulty]
HPDrainRate:6
CircleSize:4
OverallDifficulty:9
ApproachRate:9.3
SliderMultiplier:1.72
SliderTickRate:1

[Events]
//Background and Video events
0,0,"initial.jpg",0,0
Video,0,"opening.mp4"
//Break Periods
//Storyboard Layer 0 (Background)
//Storyboard Layer 1 (Fail)
//Storyboard Layer 2 (Pass)
//Storyboard Layer 3 (Foreground)
//Storyboard Layer 4 (Overlay)
//Storyboard Sound Samples

[TimingPoints]
425,310.880829015544,4,2,1,70,1,0
1668,-100,4,2,1,70,0,0
3222,-100,4,2,1,80,0,0
3300,-100,4,2,1,40,0,0
3689,-100,4,2,1,80,0,0
3766,-100,4,2,1,40,0,0
4155,-133.333333333333,4,2,1,80,0,0
4233,-133.333333333333,4,2,1,40,0,0
4777,-133.333333333333,4,2,1,60,0,0
5243,-111.111111111111,4,2,1,70,0,0
8197,-100,4,2,1,80,0,0
8274,-100,4,2,1,40,0,0
8663,-100,4,2,1,80,0,0
8741,-100,4,2,1,40,0,0
9129,-133.333333333333,4,2,1,80,0,0
9207,-133.333333333333,4,2,1,40,0,0
9595,-100,4,2,1,60,0,0
10217,-100,4,2,1,80,0,0
10994,-66.6666666666667,4,2,1,80,0,0
11616,-100,4,2,1,80,0,0
11927,-100,4,2,1,60,0,0
12860,-133.333333333333,4,2,1,60,0,0
17678,-133.333333333333,4,2,1,60,0,0
18922,-133.333333333333,4,2,1,60,0,0
22808,-111.111111111111,4,2,1,60,0,0
32756,-111.111111111111,4,2,1,70,0,0
43015,-100,4,2,1,80,0,0
43093,-100,4,2,1,40,0,0
43481,-100,4,2,1,80,0,0
43559,-100,4,2,1,40,0,0
43948,-133.333333333333,4,2,1,80,0,0
44026,-133.333333333333,4,2,1,40,0,0
44414,-100,4,2,1,60,0,0
45036,-100,4,2,1,70,0,0
47989,-100,4,2,1,80,0,0
48067,-100,4,2,1,40,0,0
48456,-100,4,2,1,80,0,0
48533,-100,4,2,1,40,0,0
48922,-133.333333333333,4,2,1,80,0,0
49000,-133.333333333333,4,2,1,40,0,0
49388,-100,4,2,1,60,0,0
50010,-100,4,2,1,70,0,0
52963,-100,4,2,1,80,0,0
53041,-100,4,2,1,40,0,0
53274,-100,4,2,1,60,0,0
53430,-100,4,2,1,80,0,0
53507,-100,4,2,1,40,0,0
53741,-100,4,2,1,60,0,0
53896,-133.333333333333,4,2,1,80,0,0
53974,-133.333333333333,4,2,1,40,0,0
54518,-100,4,2,1,60,0,0
55140,-100,4,2,1,70,0,0
57627,-133.333333333333,4,2,1,50,0,0
59647,-100,4,2,1,60,0,0
60114,-100,4,2,1,80,0,0
62445,-133.333333333333,4,2,1,60,0,0
64777,-100,4,2,1,80,0,0
64855,-100,4,2,1,20,0,0
64932,-90.9090909090909,4,2,1,80,0,1
74803,-90.9090909090909,4,2,1,80,0,0
74880,-90.9090909090909,4,2,1,80,0,1
78145,-66.6666666666667,4,2,1,80,0,1
78766,-90.9090909090909,4,2,1,80,0,1
84751,-90.9090909090909,4,2,1,80,0,0
84829,-90.9090909090909,4,2,1,80,0,1
87471,-90.9090909090909,4,2,1,80,0,0

[Colours]
Combo1 : 180,150,220
Combo2 : 225,45,75
Combo3 : 30,135,240
Combo4 : 250,150,215
Combo5 : 245,230,115

[HitObjects]
192,132,425,5,12,3:2:0:0:
420,220,580,1,8,3:0:0:0:
416,241,658,1,8,3:0:0:0:
413,262,735,1,8,3:0:0:0:
352,48,891,5,8,3:2:0:0:
244,322,1046,1,8,3:0:0:0:
223,319,1124,1,8,3:0:0:0:
202,315,1202,1,8,3:0:0:0:
276,92,1357,5,8,3:2:0:0:
424,352,1513,1,8,3:0:0:0:
452,104,1668,5,8,3:2:0:0:
244,321,1823,1,8,3:0:0:0:
209,345,1901,1,8,3:0:0:0:
167,356,1979,1,8,3:0:0:0:
125,352,2057,1,8,3:0:0:0:
86,334,2134,1,8,3:0:0:0:
57,303,2212,1,8,3:0:0:0:
40,263,2290,1,8,3:0:0:0:
37,221,2368,1,8,3:0:0:0:
50,180,2445,1,8,3:0:0:0:
76,146,2523,1,8,3:0:0:0:
112,123,2601,1,8,3:0:0:0:
146,98,2678,1,8,3:0:0:0:
156,57,2756,1,8,3:0:0:0:
138,18,2834,1,8,3:0:0:0:
101,0,2912,1,8,3:0:0:0:
101,0,3222,6,0,P|120:84|132:170,1,172,14|0,1:2|0:0,0:0:0:0:
168,301,3689,2,0,P|231:242|299:190,1,172,14|0,1:2|0:0,0:0:0:0:
394,92,4155,2,0,B|332:69|332:69|280:101|280:101|216:81,1,193.50000738144,14|0,1:2|0:0,0:0:0:0:
128,292,4777,6,0,P|164:324|260:296,1,129.00000492096,2|2,0:0|0:0,0:0:0:0:
216,156,5243,6,0,P|168:172|56:196,1,154.799995275879,6|0,1:2|1:0,0:0:0:0:
239,316,5709,2,0,P|278:316|316:324,1,77.3999976379395,10|0,0:0|0:0,0:0:0:0:
456,384,6020,1,2,1:2:0:0:
364,180,6176,1,2,1:2:0:0:
504,240,6331,1,8,0:0:0:0:
315,323,6487,6,0,P|276:323|238:315,1,77.3999976379395,2|0,1:2|0:0,0:0:0:0:
240,112,6798,1,2,1:2:0:0:
108,300,6953,1,10,0:2:0:0:
76,152,7108,1,2,3:2:0:0:
76,152,7186,1,8,3:2:0:0:
76,152,7264,1,0,1:0:0:0:
272,260,7419,5,8,3:0:0:0:
301,272,7497,1,8,3:0:0:0:
333,273,7575,1,8,3:0:0:0:
363,261,7652,1,8,3:0:0:0:
386,239,7730,1,8,3:0:0:0:
399,209,7808,1,8,3:0:0:0:
399,177,7886,1,8,3:0:0:0:
399,177,8197,6,0,P|403:262|420:347,1,172,14|0,1:2|0:0,0:0:0:0:
292,356,8663,2,0,P|215:317|133:289,1,172,14|0,1:2|0:0,0:0:0:0:
190,173,9129,2,0,P|240:192|312:136,1,129.00000492096,14|0,1:2|0:0,0:0:0:0:
336,12,9595,5,0,1:0:0:0:
336,12,9673,1,0,1:0:0:0:
336,12,9751,1,10,1:3:0:0:
324,152,9906,1,10,1:3:0:0:
208,71,10062,1,10,0:0:0:0:
344,164,10217,6,0,P|332:228|328:284,1,86,6|0,1:2|0:0,0:0:0:0:
480,148,10528,1,0,0:0:0:0:
308,32,10684,1,10,0:0:0:0:
224,292,10839,5,0,1:0:0:0:
224,292,10917,1,0,1:0:0:0:
224,292,10994,2,0,L|306:269,1,86,6|0,1:2|0:0,0:0:0:0:
148,232,11202,6,0,L|126:314,1,86,6|0,1:2|0:0,0:0:0:0:
237,196,11409,6,0,L|176:136,1,86,6|0,1:2|0:0,0:0:0:0:
272,100,11616,6,0,B|312:76|356:99|356:99|400:120|436:101,1,172,6|0,1:2|0:0,0:0:0:0:
152,28,12083,5,8,3:0:0:0:
152,28,12160,1,8,3:0:0:0:
152,28,12238,1,4,3:0:0:0:
434,130,12471,5,4,3:0:0:0:
203,323,12704,5,4,3:0:0:0:
256,176,12860,6,0,P|181:168|112:156,1,129.00000492096,4|2,1:2|0:3,0:0:0:0:
244,68,13326,1,0,0:0:0:0:
344,204,13481,2,0,L|332:292,1,64.5000024604798,0|0,0:0|0:0,0:0:0:0:
364,88,13792,1,2,0:3:0:0:
219,196,13948,6,0,P|157:203|108:163,1,129.00000492096,0|0,0:0|0:0,0:0:0:0:
52,8,14414,1,2,0:3:0:0:
52,8,14570,1,0,0:0:0:0:
188,100,14725,5,0,0:0:0:0:
23,105,14880,1,0,0:0:0:0:
153,3,15036,1,2,0:3:0:0:
107,162,15191,6,0,P|96:204|132:280,1,129.00000492096,0|0,1:3|0:0,0:0:0:0:
248,357,15658,1,2,0:3:0:0:
229,258,15813,1,0,0:0:0:0:
149,377,15969,2,0,L|64:356,1,64.5000024604798,0|0,0:0|0:0,0:0:0:0:
229,258,16279,1,2,0:3:0:0:
347,312,16435,2,0,L|338:375,1,64.5000024604798,0|0,0:0|0:0,0:0:0:0:
296,180,16746,5,0,0:0:0:0:
440,335,16901,1,2,0:3:0:0:
264,281,17057,1,0,0:0:0:0:
471,233,17212,1,0,0:0:0:0:
338,375,17368,1,2,0:2:0:0:
338,375,17445,1,2,0:2:0:0:
338,375,17523,1,2,0:3:0:0:
296,179,17678,6,0,P|313:118|317:53,1,129.00000492096,2|0,0:0|0:0,0:0:0:0:
168,132,18145,2,0,P|171:196|189:258,1,129.00000492096,6|0,1:3|0:0,0:0:0:0:
308,308,18611,1,2,0:0:0:0:
296,179,18766,1,6,1:3:0:0:
212,384,18922,6,0,L|148:371,1,64.5000024604798,2|0,0:0|0:0,0:0:0:0:
76,228,19233,1,2,0:0:0:0:
40,336,19388,1,6,1:3:0:0:
184,264,19544,2,0,L|168:184,1,64.5000024604798,2|0,0:0|0:0,0:0:0:0:
188,32,19855,1,2,0:0:0:0:
95,108,20010,1,6,1:3:0:0:
264,124,20165,6,0,L|348:100,1,64.5000024604798,2|0,0:0|0:0,0:0:0:0:
188,32,20476,1,2,0:0:0:0:
252,232,20632,1,6,1:3:0:0:
300,4,20787,1,2,0:0:0:0:
364,204,20943,1,2,0:0:0:0:
160,136,21098,1,2,0:0:0:0:
364,64,21254,1,6,1:3:0:0:
384,312,21409,6,0,P|321:297|257:287,1,129.00000492096,4|0,1:2|1:0,0:0:0:0:
352,147,21875,2,0,P|383:143|414:133,1,64.5000024604798,12|0,1:2|1:0,0:0:0:0:
220,32,22186,5,8,1:2:0:0:
196,200,22342,1,8,1:3:0:0:
364,64,22497,1,8,1:3:0:0:
340,232,22652,1,8,1:3:0:0:
124,112,22808,5,4,1:2:0:0:
248,48,22963,1,2,0:2:0:0:
176,220,23119,1,2,1:2:0:0:
300,156,23274,1,2,0:2:0:0:
116,132,23430,5,2,1:2:0:0:
292,176,23585,1,2,0:2:0:0:
168,240,23741,1,2,1:2:0:0:
239,68,23896,6,0,P|278:71|317:72,1,77.3999976379395,2|0,0:2|1:2,0:0:0:0:
116,132,24207,2,0,P|77:128|38:127,1,77.3999976379395,2|0,0:2|1:2,0:0:0:0:
145,38,24518,1,2,0:2:0:0:
209,161,24673,5,2,1:2:0:0:
8,128,24829,1,0,0:2:0:0:
72,251,24984,1,2,1:2:0:0:
145,38,25140,2,0,L|68:20,1,77.3999976379395,0|0,0:2|1:2,0:0:0:0:
209,161,25450,5,2,0:2:0:0:
76,220,25606,1,2,1:2:0:0:
252,280,25761,1,2,0:2:0:0:
119,339,25917,5,2,1:2:0:0:
167,167,26072,1,2,0:2:0:0:
264,384,26228,1,2,1:2:0:0:
312,212,26383,2,0,L|299:119,1,77.3999976379395,2|0,0:2|1:2,0:0:0:0:
420,188,26694,5,0,0:2:0:0:
212,268,26849,1,0,1:2:0:0:
408,164,27005,1,0,0:2:0:0:
224,292,27160,1,0,1:2:0:0:
284,108,27316,5,8,0:2:0:0:
356,356,27471,1,0,1:2:0:0:
92,296,27627,2,0,L|105:219,1,77.3999976379395,12|0,0:2|1:2,0:0:0:0:
212,48,27937,5,2,0:2:0:0:
252,204,28093,1,2,1:2:0:0:
320,8,28248,1,2,0:2:0:0:
360,164,28404,5,2,1:2:0:0:
196,64,28559,1,2,0:2:0:0:
236,220,28715,1,2,1:2:0:0:
304,24,28870,5,2,3:2:0:0:
304,24,28948,1,0,3:0:0:0:
304,24,29026,1,0,1:0:0:0:
168,152,29181,1,2,0:2:0:0:
392,120,29336,1,2,1:2:0:0:
256,248,29492,1,2,0:2:0:0:
320,36,29647,5,2,1:2:0:0:
272,260,29803,1,8,0:3:0:0:
408,132,29958,1,2,1:2:0:0:
184,164,30114,2,0,P|136:160|92:144,1,77.3999976379395,4|0,0:3|1:2,0:0:0:0:
208,28,30424,5,2,0:2:0:0:
328,192,30580,1,2,1:2:0:0:
352,56,30735,1,2,0:2:0:0:
184,164,30891,5,2,1:2:0:0:
364,80,31046,1,2,0:2:0:0:
236,296,31202,1,2,1:2:0:0:
416,212,31357,2,0,P|480:224|512:224,1,77.3999976379395,14|0,1:2|0:2,0:0:0:0:
352,56,31668,5,0,1:2:0:0:
316,308,31823,1,8,1:2:0:0:
208,56,31979,1,8,1:2:0:0:
484,132,32134,1,8,1:2:0:0:
188,324,32290,5,8,1:2:0:0:
184,295,32368,1,8,1:2:0:0:
180,266,32445,1,8,1:2:0:0:
492,75,32601,5,8,1:2:0:0:
488,103,32678,1,8,1:2:0:0:
484,132,32756,2,0,L|504:224,1,77.3999976379395,4|0,1:2|1:0,0:0:0:0:
228,64,33067,5,10,0:2:0:0:
180,266,33222,2,0,L|84:250,1,77.3999976379395,2|0,0:0|1:0,0:0:0:0:
332,360,33533,5,2,1:2:0:0:
380,158,33689,2,0,L|476:174,1,77.3999976379395,10|0,0:2|1:0,0:0:0:0:
228,64,34000,5,2,0:2:0:0:
180,266,34155,2,0,P|168:310|148:362,1,77.3999976379395,2|8,1:2|0:0,0:0:0:0:
103,141,34466,1,2,0:2:0:0:
312,112,34621,5,2,1:2:0:0:
80,240,34777,1,0,1:0:0:0:
144,56,34932,1,10,0:2:0:0:
268,292,35088,2,0,L|368:276,1,77.3999976379395,0|0,1:0|0:0,0:0:0:0:
368,48,35399,5,2,1:2:0:0:
296,196,35554,1,10,0:2:0:0:
456,160,35709,1,2,0:2:0:0:
232,88,35865,5,2,1:2:0:0:
388,224,36020,1,2,1:2:0:0:
184,260,36176,1,10,0:2:0:0:
428,312,36331,6,0,P|484:263|478:188,1,154.799995275879,2|0,1:2|1:0,0:0:0:0:
292,20,36798,1,8,0:0:0:0:
500,68,36953,1,8,0:0:0:0:
296,256,37108,1,0,1:0:0:0:
368,68,37264,1,0,1:0:0:0:
448,276,37419,1,8,0:0:0:0:
184,312,37575,6,0,P|160:244|224:172,1,154.799995275879,4|0,1:2|1:0,0:0:0:0:
352,204,38041,1,10,0:2:0:0:
228,30,38197,2,0,P|176:36|136:40,1,77.3999976379395,2|0,0:2|1:0,0:0:0:0:
203,179,38507,1,2,1:2:0:0:
377,55,38663,1,8,0:2:0:0:
368,304,38818,6,0,L|288:284,1,77.3999976379395,2|0,1:2|0:0,0:0:0:0:
348,156,39129,1,2,1:2:0:0:
436,384,39285,1,10,0:2:0:0:
491,254,39440,1,2,0:2:0:0:
304,268,39595,5,2,1:2:0:0:
502,236,39751,1,0,1:0:0:0:
447,366,39906,1,8,0:0:0:0:
359,138,40062,2,0,P|360:96|368:60,1,77.3999976379395,4|0,1:2|0:0,0:0:0:0:
208,88,40373,5,2,1:2:0:0:
230,255,40528,1,10,0:2:0:0:
64,149,40684,1,2,0:2:0:0:
87,316,40839,1,2,1:2:0:0:
219,171,40994,1,2,1:2:0:0:
241,338,41150,1,10,0:2:0:0:
300,104,41305,6,0,P|237:62|164:83,1,154.799995275879,2|0,1:2|1:0,0:0:0:0:
52,256,41772,1,8,0:0:0:0:
21,113,41927,1,0,0:0:0:0:
194,225,42083,1,0,1:0:0:0:
256,24,42238,5,8,3:0:0:0:
284,8,42316,1,8,3:0:0:0:
315,4,42393,1,8,3:0:0:0:
347,11,42471,1,8,3:0:0:0:
373,29,42549,1,8,3:0:0:0:
392,55,42627,1,8,3:0:0:0:
400,86,42704,1,8,3:0:0:0:
400,86,43015,6,0,P|376:168|364:253,1,172,14|0,1:2|0:0,0:0:0:0:
304,376,43481,2,0,P|244:314|176:261,1,172,14|0,1:2|0:0,0:0:0:0:
100,147,43948,2,0,B|164:128|164:128|214:156|214:156|280:134,1,193.50000738144,14|0,1:2|1:0,0:0:0:0:
380,60,44570,5,6,1:3:0:0:
288,152,44725,1,2,1:2:0:0:
413,186,44880,1,10,0:2:0:0:
255,27,45036,6,0,L|171:46,1,86,6|0,1:2|0:0,0:0:0:0:
7,58,45347,1,2,1:2:0:0:
184,192,45502,1,10,0:2:0:0:
171,46,45658,1,0,3:0:0:0:
171,46,45735,1,0,3:0:0:0:
171,46,45813,1,2,1:2:0:0:
20,204,45969,2,0,P|31:245|37:287,1,86,2|8,1:2|0:0,0:0:0:0:
220,356,46279,6,0,P|226:313|237:272,1,86,2|0,1:2|0:0,0:0:0:0:
296,140,46590,1,2,1:2:0:0:
392,336,46746,1,10,0:2:0:0:
448,196,46901,1,2,3:2:0:0:
448,196,46979,1,0,3:0:0:0:
448,196,47057,2,0,P|442:153|431:112,1,86,0|0,1:0|1:0,0:0:0:0:
328,276,47368,1,8,0:0:0:0:
240,32,47523,1,0,3:0:0:0:
240,32,47601,1,0,3:0:0:0:
240,32,47678,1,0,3:0:0:0:
240,32,47989,6,0,P|169:75|88:54,1,172,14|0,1:2|0:0,0:0:0:0:
112,176,48456,2,0,P|185:215|207:296,1,172,14|0,1:2|0:0,0:0:0:0:
300,214,48922,2,0,P|348:172|344:92,1,129.00000492096,14|0,1:2|1:0,0:0:0:0:
176,52,49388,5,0,1:0:0:0:
176,52,49466,1,0,1:0:0:0:
176,52,49544,1,2,1:2:0:0:
268,132,49699,1,2,1:2:0:0:
152,171,49855,1,10,0:2:0:0:
292,13,50010,6,0,P|352:32|408:40,1,86,6|0,1:2|0:0,0:0:0:0:
496,16,50321,1,2,1:2:0:0:
356,184,50476,1,10,0:2:0:0:
512,156,50632,1,0,3:0:0:0:
512,156,50709,1,0,3:0:0:0:
512,156,50787,1,2,1:2:0:0:
372,324,50943,2,0,L|272:292,1,86,2|8,1:2|0:2,0:0:0:0:
180,188,51254,1,2,0:2:0:0:
328,212,51409,5,2,0:0:0:0:
188,340,51564,1,0,1:0:0:0:
116,116,51720,2,0,L|228:96,1,86,8|0,0:0|3:0,0:0:0:0:
200,100,51953,1,0,3:0:0:0:
200,100,52031,1,0,1:0:0:0:
188,340,52186,5,8,3:0:0:0:
177,313,52264,1,8,3:0:0:0:
159,291,52342,1,8,3:0:0:0:
135,276,52419,1,8,3:0:0:0:
108,269,52497,1,8,3:0:0:0:
79,271,52575,1,8,3:0:0:0:
53,283,52652,1,8,3:0:0:0:
53,283,52963,6,0,L|88:120,1,129,14|0,1:2|0:0,0:0:0:0:
68,144,53274,1,0,1:0:0:0:
192,176,53430,2,0,L|310:282,1,129,14|0,1:2|0:0,0:0:0:0:
304,256,53741,1,0,1:0:0:0:
408,200,53896,2,0,P|440:113|382:42,1,193.50000738144,14|0,1:2|1:0,0:0:0:0:
156,40,54518,5,10,1:2:0:0:
184,168,54673,1,2,1:2:0:0:
284,12,54829,1,10,1:3:0:0:
312,140,54984,5,2,3:2:0:0:
312,140,55062,1,8,3:2:0:0:
312,139,55140,2,0,P|297:224|292:310,1,172,6|10,1:2|0:0,0:0:0:0:
416,244,55606,1,2,0:0:0:0:
207,140,55761,2,0,P|165:148|123:155,1,86,2|0,1:2|1:0,0:0:0:0:
416,244,56072,2,0,P|458:235|500:228,1,86,8|0,0:0|0:0,0:0:0:0:
364,87,56383,5,2,1:2:0:0:
260,296,56538,1,0,1:0:0:0:
152,68,56694,2,0,L|240:52,1,86,10|2,0:0|0:0,0:0:0:0:
260,296,57005,5,8,3:0:0:0:
236,259,57083,1,8,3:0:0:0:
199,241,57160,1,8,3:0:0:0:
156,244,57238,1,8,3:0:0:0:
121,268,57316,1,8,3:0:0:0:
79,271,57393,1,8,3:0:0:0:
41,253,57471,1,8,3:0:0:0:
17,218,57549,1,8,3:0:0:0:
15,175,57627,5,6,3:2:0:0:
23,183,58248,5,2,0:0:0:0:
31,191,58870,5,2,0:0:0:0:
39,199,59492,6,0,L|119:182,1,64.5000024604798,2|8,0:0|3:0,0:0:0:0:
102,185,59725,1,8,3:0:0:0:
102,185,59803,1,8,3:0:0:0:
424,216,60114,5,14,1:2:0:0:
112,84,60269,1,10,1:2:0:0:
100,92,60580,5,10,1:2:0:0:
420,16,60735,1,10,1:2:0:0:
408,8,61046,5,10,1:2:0:0:
136,228,61202,1,10,1:2:0:0:
144,240,61513,5,10,1:2:0:0:
488,280,61668,1,10,1:2:0:0:
496,292,61979,5,10,1:2:0:0:
319,287,62134,1,0,1:2:0:0:
412,136,62290,1,10,1:2:0:0:
300,272,62445,6,0,P|260:288|180:228,1,129.00000492096,4|0,1:2|0:0,0:0:0:0:
92,128,62912,1,2,0:0:0:0:
50,321,63067,1,2,0:0:0:0:
292,172,63222,5,2,0:0:0:0:
250,365,63378,1,2,0:0:0:0:
92,128,63533,1,2,0:0:0:0:
50,321,63689,1,2,0:0:0:0:
256,192,63766,12,0,64466,0:0:0:0:
196,228,64777,6,0,L|256:204,1,43,8|0,0:0|0:0,0:0:0:0:
352,152,64932,6,0,P|292:83|202:96,1,189.200005773926,6|0,1:2|1:0,0:0:0:0:
400,12,65399,1,10,0:0:0:0:
235,212,65554,1,2,0:0:0:0:
192,16,65709,1,2,1:2:0:0:
404,172,65865,1,0,0:0:0:0:
112,224,66020,1,8,0:0:0:0:
324,380,66176,6,0,P|328:332|336:284,1,94.600002886963,2|0,1:2|0:0,0:0:0:0:
428,88,66487,1,0,1:0:0:0:
460,292,66642,1,10,0:0:0:0:
256,96,66798,1,2,0:0:0:0:
244,311,66953,2,0,L|360:279,1,94.600002886963,2|0,1:2|1:0,0:0:0:0:
148,176,67264,1,8,0:0:0:0:
324,16,67419,6,0,P|376:64|340:176,1,189.200005773926,6|2,1:2|1:2,0:0:0:0:
164,296,67886,1,10,0:2:0:0:
240,96,68041,1,2,0:2:0:0:
388,328,68197,1,2,1:2:0:0:
184,192,68352,1,2,0:2:0:0:
412,124,68507,1,10,0:0:0:0:
224,364,68663,6,0,P|178:349|132:340,1,94.600002886963,2|0,0:2|1:0,0:0:0:0:
412,124,68974,2,0,P|458:114|503:100,1,94.600002886963,2|10,0:0|0:0,0:0:0:0:
336,8,69285,1,2,0:0:0:0:
256,264,69440,1,2,1:2:0:0:
192,60,69595,1,0,1:0:0:0:
416,212,69751,1,8,0:0:0:0:
196,372,69906,6,0,P|128:320|148:216,1,189.200005773926,4|2,1:2|0:3,0:0:0:0:
352,80,70373,1,8,0:0:0:0:
168,36,70528,1,2,0:3:0:0:
304,272,70684,2,0,L|400:240,1,94.600002886963,0|2,1:0|0:3,0:0:0:0:
256,116,70994,5,8,0:0:0:0:
120,352,71150,2,0,L|24:320,1,94.600002886963,2|0,0:3|1:0,0:0:0:0:
160,136,71461,1,2,0:3:0:0:
296,372,71616,2,0,L|392:340,1,94.600002886963,8|2,0:0|0:3,0:0:0:0:
160,136,71927,2,0,L|64:104,1,94.600002886963,0|2,1:0|0:3,0:0:0:0:
228,0,72238,1,8,0:0:0:0:
304,196,72393,6,0,P|391:215|460:148,1,189.200005773926,4|0,1:2|1:0,0:0:0:0:
364,92,72860,1,8,0:0:0:0:
160,248,73015,6,0,P|72:267|3:200,1,189.200005773926,4|0,1:2|1:0,0:0:0:0:
99,144,73481,1,8,0:0:0:0:
304,196,73637,6,0,P|288:268|276:396,1,189.200005773926,4|0,1:2|1:0,0:0:0:0:
98,144,74103,2,0,P|91:96|92:50,1,94.600002886963,8|0,0:0|0:0,0:0:0:0:
382,10,74414,5,8,3:0:0:0:
428,7,74492,1,8,3:0:0:0:
470,29,74570,1,8,3:0:0:0:
494,69,74647,1,8,3:0:0:0:
493,115,74725,1,8,3:0:0:0:
469,155,74803,1,8,3:0:0:0:
428,177,74880,6,0,L|335:160,1,94.600002886963,6|0,1:2|0:0,0:0:0:0:
168,204,75191,1,2,1:2:0:0:
316,40,75347,1,10,0:0:0:0:
260,312,75502,1,2,0:0:0:0:
96,100,75658,2,0,L|189:83,1,94.600002886963,2|0,1:2|0:0,0:0:0:0:
380,144,75969,1,8,0:0:0:0:
176,304,76124,6,0,P|135:279|89:268,1,94.600002886963,2|0,0:0|1:0,0:0:0:0:
240,160,76435,1,2,0:2:0:0:
96,376,76590,1,10,0:2:0:0:
72,132,76746,1,2,0:2:0:0:
288,256,76901,1,2,1:2:0:0:
8,260,77057,1,0,1:0:0:0:
196,76,77212,1,8,0:0:0:0:
292,360,77368,2,0,L|184:344,1,94.600002886963,4|0,1:2|0:0,0:0:0:0:
267,45,77678,5,8,3:0:0:0:
271,92,77756,1,8,3:0:0:0:
294,133,77834,1,8,3:0:0:0:
331,161,77912,1,8,3:0:0:0:
377,171,77989,1,8,3:0:0:0:
423,161,78067,1,8,3:0:0:0:
461,133,78145,6,0,L|468:47,1,86.0000032806398,4|0,3:0|0:0,0:0:0:0:
331,161,78352,6,0,L|252:196,1,86.0000032806398,6|0,1:2|0:0,0:0:0:0:
420,259,78559,6,0,L|490:308,1,86.0000032806398,6|0,1:2|0:0,0:0:0:0:
380,360,78766,6,0,B|308:340|308:340|272:368|272:368|188:348,1,189.200005773926,6|10,1:2|0:0,0:0:0:0:
415,213,79233,1,2,1:2:0:0:
417,236,79311,1,0,1:0:0:0:
420,259,79388,1,0,1:0:0:0:
180,136,79544,1,8,3:0:0:0:
183,113,79621,1,8,3:0:0:0:
185,90,79699,1,8,3:0:0:0:
209,336,79855,6,0,P|148:267|57:275,1,189.200005773926,6|2,1:2|1:2,0:0:0:0:
185,90,80321,1,10,0:0:0:0:
320,332,80476,1,2,3:2:0:0:
320,332,80554,1,0,3:0:0:0:
320,332,80632,1,0,1:0:0:0:
373,143,80787,1,0,1:0:0:0:
131,278,80943,1,10,0:0:0:0:
364,116,81098,6,0,L|476:128,1,94.600002886963,2|0,0:0|1:0,0:0:0:0:
256,8,81409,1,0,0:0:0:0:
295,251,81564,1,10,0:0:0:0:
432,8,81720,1,0,3:0:0:0:
432,8,81798,1,0,3:0:0:0:
432,8,81875,1,2,1:2:0:0:
192,160,82031,1,0,0:0:0:0:
472,208,82186,1,10,0:2:0:0:
96,232,82342,6,0,P|64:176|124:72,1,189.200005773926,6|2,1:2|1:2,0:0:0:0:
308,224,82808,2,0,L|284:332,1,94.600002886963,10|0,0:2|0:0,0:0:0:0:
240,88,83119,1,0,1:0:0:0:
428,212,83274,1,0,1:0:0:0:
168,324,83430,1,8,0:0:0:0:
175,20,83585,6,0,P|264:0|330:61,1,189.200005773926,4|0,1:2|1:0,0:0:0:0:
440,308,84051,1,8,0:0:0:0:
500,112,84207,1,0,1:0:0:0:
268,256,84362,5,8,3:0:0:0:
226,278,84440,1,8,3:0:0:0:
180,273,84518,1,8,3:0:0:0:
143,245,84595,1,8,3:0:0:0:
106,215,84673,1,8,3:0:0:0:
60,211,84751,1,8,3:0:0:0:
19,233,84829,2,0,P|95:245|171:153,1,189.200005773926,6|2,1:2|1:2,0:0:0:0:
80,12,85295,5,10,1:2:0:0:
312,96,85450,1,2,1:2:0:0:
68,312,85606,5,8,1:2:0:0:
184,72,85761,1,0,1:0:0:0:
348,344,85917,5,10,1:2:0:0:
136,200,86072,1,2,1:2:0:0:
456,128,86228,5,8,1:2:0:0:
232,288,86383,1,0,1:0:0:0:
316,8,86538,5,10,1:2:0:0:
344,316,86694,1,0,1:0:0:0:
104,120,86849,1,10,1:2:0:0:
484,16,87005,5,8,3:0:0:0:
490,46,87083,1,8,3:0:0:0:
497,77,87160,1,8,3:0:0:0:
91,181,87316,5,8,3:0:0:0:
98,150,87393,1,8,3:0:0:0:
104,120,87471,1,8,1:2:0:0:
472,228,87627,1,8,1:2:0:0:
484,236,87937,5,8,1:2:0:0:
108,324,88093,1,8,1:2:0:0:
96,332,88404,5,8,1:2:0:0:
392,80,88559,1,8,1:2:0:0:
