osu file format v14

[General]
AudioFilename: audio.mp3
AudioLeadIn: 0
PreviewTime: 64082
Countdown: 0
SampleSet: Soft
StackLeniency: 0.7
Mode: 0
LetterboxInBreaks: 0
WidescreenStoryboard: 1

[Editor]
DistanceSpacing: 1
BeatDivisor: 4
GridSize: 4
TimelineZoom: 2

[Metadata]
Title:Initial (TV Size)
TitleUnicode:イニシャル (TV Size)
Artist:Poppin'Party
ArtistUnicode:Poppin'Party
Creator:Doormat
Version:Normal
Source:BanG Dream! 3rd Season
Tags:Kyle73 Gaia StarrStyx バンドリ! ガールズバンドパーティ! Girls Band Party bandori garupa ガルパ popipa ポピパ ポッピンパーティ opening three third toyama kasumi 戸山香澄 terakawa aimi 寺川愛美 hanazono tae 花園たえ otsuka sae 大塚紗英 ushigome rimi 牛込りみ nishimoto rimi 西本りみ yamabuki saya saaya 山吹沙綾 ohashi ayaka 大橋彩香 ichigaya arisa 市ヶ谷有咲 itou ayasa 伊藤彩沙 anime video game japanese
BeatmapID:2279600
BeatmapSetID:1090496

[Difficulty]
HPDrainRate:4
CircleSize:3.5
OverallDifficulty:5.5
ApproachRate:6
SliderMultiplier:1.1
SliderTickRate:1

[Events]
//Background and Video events
0,0,"initial.jpg",0,0
Video,0,"opening.mp4"
//Break Periods
//Storyboard Layer 0 (Background)
//Storyboard Layer 1 (Fail)
//Storyboard Layer 2 (Pass)
//Storyboard Layer 3 (Foreground)
//Storyboard Layer 4 (Overlay)
//Storyboard Sound Samples

[TimingPoints]
425,310.880829015544,4,2,1,70,1,0
3222,-100,4,2,1,80,0,0
3300,-100,4,2,1,40,0,0
3689,-100,4,2,1,80,0,0
3766,-100,4,2,1,40,0,0
4155,-100,4,2,1,80,0,0
4233,-100,4,2,1,40,0,0
4777,-100,4,2,1,60,0,0
5243,-100,4,2,1,70,0,0
8197,-100,4,2,1,80,0,0
8274,-100,4,2,1,40,0,0
8663,-100,4,2,1,80,0,0
8741,-100,4,2,1,40,0,0
9129,-100,4,2,1,80,0,0
9207,-100,4,2,1,40,0,0
9595,-100,4,2,1,60,0,0
10217,-100,4,2,1,80,0,0
11927,-100,4,2,1,60,0,0
32756,-100,4,2,1,70,0,0
43015,-100,4,2,1,80,0,0
43093,-100,4,2,1,40,0,0
43481,-100,4,2,1,80,0,0
43559,-100,4,2,1,40,0,0
43948,-100,4,2,1,80,0,0
44026,-100,4,2,1,40,0,0
44414,-100,4,2,1,60,0,0
45036,-100,4,2,1,70,0,0
47989,-100,4,2,1,80,0,0
48067,-100,4,2,1,40,0,0
48456,-100,4,2,1,80,0,0
48533,-100,4,2,1,40,0,0
48922,-100,4,2,1,80,0,0
49000,-100,4,2,1,40,0,0
49388,-100,4,2,1,60,0,0
50010,-100,4,2,1,70,0,0
52963,-100,4,2,1,80,0,0
53041,-100,4,2,1,40,0,0
53274,-100,4,2,1,60,0,0
53430,-100,4,2,1,80,0,0
53507,-100,4,2,1,40,0,0
53741,-100,4,2,1,60,0,0
53896,-100,4,2,1,80,0,0
53974,-100,4,2,1,40,0,0
54518,-100,4,2,1,60,0,0
55140,-100,4,2,1,70,0,0
57627,-100,4,2,1,50,0,0
59647,-100,4,2,1,60,0,0
60114,-100,4,2,1,80,0,0
62445,-100,4,2,1,60,0,0
64777,-100,4,2,1,80,0,0
64855,-100,4,2,1,20,0,0
64932,-100,4,2,1,80,0,1
74803,-100,4,2,1,80,0,0
74880,-100,4,2,1,80,0,1
84751,-100,4,2,1,80,0,0
84829,-100,4,2,1,80,0,1
87471,-100,4,2,1,80,0,0

[Colours]
Combo1 : 180,150,220
Combo2 : 225,45,75
Combo3 : 30,135,240
Combo4 : 250,150,215
Combo5 : 245,230,115

[HitObjects]
388,272,425,6,0,P|339:250|292:274,1,110,12|8,3:2|3:0,0:0:0:0:
290,307,891,2,0,P|241:285|194:309,1,110,8|8,3:2|3:0,0:0:0:0:
191,342,1357,1,8,3:2:0:0:
99,280,1668,2,0,B|16:305|16:305|29:227|29:227|-21:155|-21:155|23:160|76:164|107:116|122:66,1,440,8|8,3:2|3:0,0:0:0:0:
211,4,3222,5,14,1:2:0:0:
247,164,3689,1,14,1:2:0:0:
376,60,4155,2,0,P|454:72|484:145,1,165,14|0,1:2|0:0,0:0:0:0:
484,180,4777,2,0,L|376:164,1,110,2|2,0:0|0:0,0:0:0:0:
348,184,5243,6,0,P|363:232|371:308,1,110,6|0,1:2|1:0,0:0:0:0:
364,324,5709,1,10,0:0:0:0:
264,280,6020,1,2,1:2:0:0:
260,276,6176,2,0,L|206:289,1,55,2|8,1:2|0:0,0:0:0:0:
176,304,6487,2,0,P|143:261|151:208,1,110,2|2,1:2|1:2,0:0:0:0:
176,184,6953,1,10,0:2:0:0:
152,76,7264,2,0,B|224:52|224:52|272:84|272:84|360:52,1,220,0|8,1:0|3:0,0:0:0:0:
460,80,8197,5,14,1:2:0:0:
328,180,8663,1,14,1:2:0:0:
480,244,9129,2,0,P|516:284|468:376,1,165,14|0,1:2|1:0,0:0:0:0:
440,376,9751,2,0,L|364:368,1,55,10|10,1:3|1:3,0:0:0:0:
352,368,10062,1,10,0:0:0:0:
348,372,10217,6,0,L|360:262,1,110,6|0,1:2|0:0,0:0:0:0:
348,232,10684,1,10,0:0:0:0:
400,136,10994,2,0,L|472:147,2,73.3333333333333,6|6|6,1:2|1:2|1:2,0:0:0:0:
344,88,11616,6,0,B|289:56|239:88|239:88|184:120|135:90,1,220,6|4,1:2|3:0,0:0:0:0:
68,300,12860,6,0,L|188:280,1,110,4|2,1:2|0:3,0:0:0:0:
280,320,13481,2,0,L|268:384,2,55,0|0|2,0:0|0:0|0:3,0:0:0:0:
312,308,13948,2,0,P|346:266|340:213,1,110,0|0,0:0|0:0,0:0:0:0:
316,188,14414,1,2,0:3:0:0:
360,88,14725,2,0,L|428:100,2,55,0|0|2,0:0|0:0|0:3,0:0:0:0:
340,59,15191,6,0,P|264:38|206:91,1,165,0|2,1:3|0:3,0:0:0:0:
160,192,15969,2,0,L|92:180,1,55,0|0,0:0|0:0,0:0:0:0:
76,196,16279,1,2,0:3:0:0:
72,200,16435,2,0,P|84:260|92:328,1,110,0|0,0:0|0:0,0:0:0:0:
88,342,16901,1,2,0:3:0:0:
192,312,17212,1,0,0:0:0:0:
196,308,17368,2,0,L|263:316,1,55,2|2,0:2|0:3,0:0:0:0:
284,320,17678,6,0,P|317:278|312:224,1,110,2|0,0:0|0:0,0:0:0:0:
292,196,18145,1,6,1:3:0:0:
388,140,18456,2,0,L|455:148,1,55,0|2,0:0|0:0,0:0:0:0:
476,144,18766,1,6,1:3:0:0:
480,140,18922,2,0,P|507:93|490:43,1,110,2|2,0:0|0:0,0:0:0:0:
460,28,19388,1,6,1:3:0:0:
456,32,19544,2,0,P|405:48|359:21,1,110,2|2,0:0|0:0,0:0:0:0:
328,8,20010,1,6,1:3:0:0:
324,12,20165,6,0,L|308:140,1,110,2|2,0:0|0:0,0:0:0:0:
304,156,20632,1,6,1:3:0:0:
208,104,20943,2,0,L|136:128,1,55,2|2,0:0|0:0,0:0:0:0:
128,140,21254,1,6,1:3:0:0:
123,144,21409,2,0,P|141:195|150:250,1,110,4|0,1:2|1:0,0:0:0:0:
148,284,21875,1,12,1:2:0:0:
252,244,22186,2,0,L|304:261,1,55,8|8,1:2|1:3,0:0:0:0:
316,292,22497,2,0,L|368:309,1,55,8|8,1:3|1:3,0:0:0:0:
396,328,22808,6,0,P|400:272|421:221,1,110,4|2,1:2|1:2,0:0:0:0:
456,116,23430,2,0,L|516:132,2,55,2|2|2,1:2|0:2|1:2,0:0:0:0:
436,88,23896,2,0,P|383:80|340:112,1,110,2|2,0:2|0:2,0:0:0:0:
320,140,24362,1,0,1:2:0:0:
224,84,24673,1,2,1:2:0:0:
141,157,24984,1,2,1:2:0:0:
184,257,25295,6,0,P|200:309|178:358,1,110,0|2,1:2|1:2,0:0:0:0:
68,376,25917,2,0,L|57:321,1,55,2|2,1:2|0:2,0:0:0:0:
32,300,26228,1,2,1:2:0:0:
28,304,26383,2,0,P|50:254|34:203,1,110,2|0,0:2|0:2,0:0:0:0:
8,180,26849,1,0,1:2:0:0:
76,92,27160,1,0,1:2:0:0:
80,88,27316,2,0,L|133:101,1,55,8|0,0:2|1:2,0:0:0:0:
168,108,27627,6,0,P|175:161|145:205,1,110,12|2,0:2|0:2,0:0:0:0:
116,224,28093,1,2,1:2:0:0:
192,304,28404,2,0,L|184:360,2,55,2|2|2,1:2|0:2|1:2,0:0:0:0:
216,279,28870,2,0,P|267:263|315:286,1,110,2|2,0:0|0:2,0:0:0:0:
340,312,29336,1,2,1:2:0:0:
412,228,29647,1,2,1:2:0:0:
354,133,29958,1,2,1:2:0:0:
245,158,30269,6,0,P|190:151|136:141,1,110,0|2,1:2|1:2,0:0:0:0:
140,32,30891,2,0,L|208:20,1,55,2|2,1:2|0:2,0:0:0:0:
224,40,31202,1,2,1:2:0:0:
228,44,31357,2,0,L|356:20,1,110,14|0,1:2|1:2,0:0:0:0:
368,36,31823,1,8,1:2:0:0:
332,140,32134,2,0,L|348:192,1,55,8|8,1:2|1:2,0:0:0:0:
320,212,32445,2,0,L|336:264,1,55,8|8,1:2|1:2,0:0:0:0:
368,280,32756,5,4,1:2:0:0:
296,364,33067,1,10,0:2:0:0:
292,360,33222,1,2,0:0:0:0:
208,288,33533,1,2,1:2:0:0:
204,284,33689,1,10,0:2:0:0:
276,200,34000,1,2,0:2:0:0:
280,196,34155,1,2,1:2:0:0:
196,124,34466,1,2,0:2:0:0:
192,120,34621,2,0,L|131:137,1,55,2|0,1:2|1:0,0:0:0:0:
108,148,34932,2,0,P|74:106|84:53,1,110,10|0,0:2|0:0,0:0:0:0:
184,8,35554,5,10,0:2:0:0:
276,68,35865,2,0,L|340:48,1,55,2|2,1:2|1:2,0:0:0:0:
360,64,36176,1,10,0:2:0:0:
364,68,36331,2,0,L|348:196,1,110,2|0,1:2|1:0,0:0:0:0:
376,200,36798,2,0,L|369:254,1,55,8|8,0:0|0:0,0:0:0:0:
364,288,37108,2,0,P|311:299|266:271,1,110,0|8,1:0|0:0,0:0:0:0:
239,247,37575,6,0,P|187:236|142:264,1,110,4|0,1:2|1:0,0:0:0:0:
124,292,38041,1,10,0:2:0:0:
120,288,38197,1,2,0:2:0:0:
48,204,38507,1,2,1:2:0:0:
44,200,38663,1,8,0:2:0:0:
40,196,38818,2,0,P|22:145|48:98,1,110,2|2,1:2|1:2,0:0:0:0:
76,80,39285,1,10,0:2:0:0:
164,148,39595,2,0,L|271:124,1,110,2|8,1:2|0:0,0:0:0:0:
300,144,40062,6,0,P|279:194|271:249,1,110,4|2,1:2|1:2,0:0:0:0:
272,284,40528,1,10,0:2:0:0:
172,328,40839,2,0,L|184:392,2,55,2|2|10,1:2|1:2|0:2,0:0:0:0:
164,295,41305,2,0,P|117:268|67:285,1,110,2|0,1:2|1:0,0:0:0:0:
40,308,41772,1,8,0:0:0:0:
8,204,42083,2,0,L|20:140,1,55,0|8,1:0|3:0,0:0:0:0:
24,116,42393,2,0,P|76:127|119:95,1,110,8|8,3:0|3:0,0:0:0:0:
176,0,43015,5,14,1:2:0:0:
316,88,43481,1,14,1:2:0:0:
169,165,43948,2,0,P|148:200|212:304,1,165,14|0,1:2|1:0,0:0:0:0:
232,308,44570,2,0,L|224:368,2,55,6|2|10,1:3|1:2|0:2,0:0:0:0:
252,279,45036,6,0,P|297:250|349:260,1,110,6|2,1:2|1:2,0:0:0:0:
380,276,45502,1,10,0:2:0:0:
448,188,45813,1,2,1:2:0:0:
452,184,45969,2,0,L|436:124,1,55,2|8,1:2|0:0,0:0:0:0:
424,100,46279,2,0,P|371:89|326:118,1,110,2|2,1:2|1:2,0:0:0:0:
300,140,46746,1,10,0:2:0:0:
228,56,47057,2,0,L|164:72,1,55,0|0,1:0|1:0,0:0:0:0:
156,96,47368,2,0,L|181:202,1,110,8|0,0:0|3:0,0:0:0:0:
212,308,47989,5,14,1:2:0:0:
52,260,48456,1,14,1:2:0:0:
173,145,48922,2,0,P|228:160|348:176,1,165,14|0,1:2|1:0,0:0:0:0:
364,192,49544,2,0,L|352:264,2,55,2|2|10,1:2|1:2|0:2,0:0:0:0:
395,180,50010,6,0,P|428:138|416:86,1,110,6|2,1:2|1:2,0:0:0:0:
392,64,50476,1,10,0:2:0:0:
288,104,50787,2,0,L|172:72,1,110,2|8,1:2|0:2,0:0:0:0:
156,96,51254,1,2,0:2:0:0:
152,100,51409,2,0,L|168:176,1,55,2|0,0:0|1:0,0:0:0:0:
172,188,51720,1,8,0:0:0:0:
120,288,52031,2,0,L|40:276,1,55,0|8,1:0|3:0,0:0:0:0:
32,280,52342,2,0,P|60:234|46:182,1,110,8|8,3:0|3:0,0:0:0:0:
0,84,52963,5,14,1:2:0:0:
144,0,53430,1,14,1:2:0:0:
228,144,53896,2,0,P|256:172|368:136,1,165,14|0,1:2|1:0,0:0:0:0:
396,156,54518,2,0,L|405:210,1,55,10|2,1:2|1:2,0:0:0:0:
436,224,54829,2,0,L|445:278,1,55,10|2,1:3|3:2,0:0:0:0:
428,308,55140,6,0,P|375:297|330:327,1,110,6|10,1:2|0:0,0:0:0:0:
316,356,55606,1,2,0:0:0:0:
312,360,55761,2,0,P|259:370|214:340,1,110,2|8,1:2|0:0,0:0:0:0:
144,256,56383,2,0,L|172:140,1,110,2|10,1:2|0:0,0:0:0:0:
152,120,56849,1,2,0:0:0:0:
148,116,57005,2,0,L|33:149,1,110,8|8,3:0|3:0,0:0:0:0:
0,44,57627,5,6,3:2:0:0:
216,0,58248,1,2,0:0:0:0:
260,216,58870,1,2,0:0:0:0:
44,260,59492,2,0,P|28:300|64:360,1,110,2|8,0:0|3:0,0:0:0:0:
164,380,60114,5,14,1:2:0:0:
168,376,60269,1,10,1:2:0:0:
228,284,60580,1,10,1:2:0:0:
232,280,60735,1,10,1:2:0:0:
163,195,61046,1,10,1:2:0:0:
159,191,61202,1,10,1:2:0:0:
219,99,61513,1,10,1:2:0:0:
223,95,61668,1,10,1:2:0:0:
329,123,61979,2,0,P|379:135|432:89,1,110,10|10,1:2|1:2,0:0:0:0:
436,72,62445,5,4,1:2:0:0:
256,192,62601,12,2,63689,0:0:0:0:
172,68,64932,6,0,P|184:112|200:192,1,110,6|0,1:2|1:0,0:0:0:0:
224,195,65399,2,0,P|240:173|261:155,1,55,10|2,0:0|0:0,0:0:0:0:
292,140,65709,2,0,P|335:171|387:162,1,110,2|8,1:2|0:0,0:0:0:0:
416,144,66176,2,0,P|447:100|438:48,1,110,2|0,1:2|1:0,0:0:0:0:
416,20,66642,1,10,0:0:0:0:
312,48,66953,2,0,L|196:24,1,110,2|8,1:2|0:0,0:0:0:0:
172,16,67419,6,0,P|135:56|155:124,1,110,6|2,1:2|1:2,0:0:0:0:
164,132,67886,1,10,0:2:0:0:
128,236,68197,1,2,1:2:0:0:
124,240,68352,2,0,L|48:224,1,55,2|8,0:2|0:0,0:0:0:0:
40,244,68663,2,0,P|52:280|64:352,1,110,2|2,0:2|0:0,0:0:0:0:
60,384,69129,1,10,0:0:0:0:
160,331,69440,2,0,P|211:318|253:350,1,110,2|8,1:2|0:0,0:0:0:0:
276,376,69906,6,0,P|327:362|347:313,1,110,4|2,1:2|0:3,0:0:0:0:
336,280,70373,1,8,0:0:0:0:
244,216,70684,2,0,P|253:161|266:108,1,110,0|8,1:0|0:0,0:0:0:0:
292,80,71150,1,2,0:3:0:0:
400,60,71461,1,2,0:3:0:0:
404,64,71616,1,8,0:0:0:0:
468,152,71927,2,0,P|457:206|452:260,1,110,0|8,1:0|0:0,0:0:0:0:
452,295,72393,6,0,P|407:326|355:314,1,110,4|0,1:2|1:0,0:0:0:0:
328,292,72860,1,8,0:0:0:0:
324,288,73015,2,0,P|279:318|227:306,1,110,4|0,1:2|1:0,0:0:0:0:
200,284,73481,1,8,0:0:0:0:
196,280,73637,2,0,P|207:227|177:183,1,110,4|0,1:2|1:0,0:0:0:0:
144,172,74103,1,8,0:0:0:0:
184,68,74414,2,0,L|308:84,1,110,8|8,3:0|3:0,0:0:0:0:
328,88,74880,6,0,P|348:124|312:196,1,110,6|2,1:2|1:2,0:0:0:0:
296,200,75347,1,10,0:0:0:0:
330,304,75658,2,0,L|450:280,1,110,2|8,1:2|0:0,0:0:0:0:
470,296,76124,2,0,P|448:246|470:198,1,110,2|2,0:0|0:2,0:0:0:0:
498,176,76590,1,10,0:2:0:0:
400,124,76901,2,0,P|379:74|403:27,1,110,2|8,1:2|0:0,0:0:0:0:
372,12,77368,6,0,L|263:31,1,110,4|8,1:2|3:0,0:0:0:0:
232,40,77834,1,8,3:0:0:0:
188,140,78145,2,0,L|104:124,2,73.3333333333333,4|6|6,3:0|1:2|1:2,0:0:0:0:
252,176,78766,2,0,P|267:227|244:275,1,110,6|10,1:2|0:0,0:0:0:0:
216,296,79233,1,2,1:2:0:0:
116,340,79544,2,0,L|100:276,1,55,8|8,3:0|3:0,0:0:0:0:
70,272,79855,6,0,P|104:230|97:177,1,110,6|2,1:2|1:2,0:0:0:0:
80,148,80321,1,10,0:0:0:0:
76,144,80476,2,0,P|121:115|172:127,1,110,2|0,3:2|1:0,0:0:0:0:
190,158,80943,1,10,0:0:0:0:
193,162,81098,2,0,P|244:174|289:145,1,110,2|0,0:0|0:0,0:0:0:0:
308,116,81564,1,10,0:0:0:0:
368,208,81875,1,2,1:2:0:0:
474,179,82186,1,10,0:2:0:0:
478,183,82342,6,0,L|456:56,1,110,6|2,1:2|1:2,0:0:0:0:
452,40,82808,1,10,0:2:0:0:
348,80,83119,1,0,1:0:0:0:
344,84,83274,2,0,L|272:68,1,55,0|8,1:0|0:0,0:0:0:0:
256,64,83585,2,0,P|219:102|225:155,1,110,4|0,1:2|1:0,0:0:0:0:
248,180,84051,1,8,0:0:0:0:
180,268,84362,2,0,L|108:252,2,55,8|8|8,3:0|3:0|3:0,0:0:0:0:
191,299,84829,6,0,P|239:324|288:304,1,110,6|2,1:2|1:2,0:0:0:0:
312,280,85295,1,10,1:2:0:0:
256,184,85606,1,8,1:2:0:0:
329,101,85917,1,10,1:2:0:0:
273,5,86228,1,8,1:2:0:0:
164,28,86538,1,10,1:2:0:0:
152,138,86849,2,0,P|152:188|96:236,1,110,10|8,1:2|3:0,0:0:0:0:
28,300,87471,5,10,1:2:0:0:
24,304,87627,1,10,1:2:0:0:
132,328,87937,1,10,1:2:0:0:
128,332,88093,1,10,1:2:0:0:
236,356,88404,1,10,1:2:0:0:
232,360,88559,1,10,1:2:0:0:
