osu file format v14

[General]
AudioFilename: audio.mp3
AudioLeadIn: 0
PreviewTime: 64082
Countdown: 0
SampleSet: Soft
StackLeniency: 0.5
Mode: 0
LetterboxInBreaks: 0
WidescreenStoryboard: 1

[Editor]
DistanceSpacing: 1
BeatDivisor: 4
GridSize: 4
TimelineZoom: 2

[Metadata]
Title:Initial (TV Size)
TitleUnicode:イニシャル (TV Size)
Artist:Poppin'Party
ArtistUnicode:Poppin'Party
Creator:Doormat
Version:Insane
Source:BanG Dream! 3rd Season
Tags:Kyle73 Gaia StarrStyx バンドリ! ガールズバンドパーティ! Girls Band Party bandori garupa ガルパ popipa ポピパ ポッピンパーティ opening three third toyama kasumi 戸山香澄 terakawa aimi 寺川愛美 hanazono tae 花園たえ otsuka sae 大塚紗英 ushigome rimi 牛込りみ nishimoto rimi 西本りみ yamabuki saya saaya 山吹沙綾 ohashi ayaka 大橋彩香 ichigaya arisa 市ヶ谷有咲 itou ayasa 伊藤彩沙 anime video game japanese
BeatmapID:2279598
BeatmapSetID:1090496

[Difficulty]
HPDrainRate:5.5
CircleSize:4
OverallDifficulty:7.5
ApproachRate:9
SliderMultiplier:1.6
SliderTickRate:1

[Events]
//Background and Video events
0,0,"initial.jpg",0,0
Video,0,"opening.mp4"
//Break Periods
//Storyboard Layer 0 (Background)
//Storyboard Layer 1 (Fail)
//Storyboard Layer 2 (Pass)
//Storyboard Layer 3 (Foreground)
//Storyboard Layer 4 (Overlay)
//Storyboard Sound Samples

[TimingPoints]
425,310.880829015544,4,2,1,70,1,0
1668,-100,4,2,1,70,0,0
3222,-125,4,2,1,80,0,0
3300,-125,4,2,1,40,0,0
3689,-125,4,2,1,80,0,0
3766,-125,4,2,1,40,0,0
4155,-125,4,2,1,80,0,0
4233,-125,4,2,1,40,0,0
4777,-125,4,2,1,60,0,0
5243,-111.111111111111,4,2,1,70,0,0
8197,-125,4,2,1,80,0,0
8274,-125,4,2,1,40,0,0
8663,-125,4,2,1,80,0,0
8741,-125,4,2,1,40,0,0
9129,-125,4,2,1,80,0,0
9207,-125,4,2,1,40,0,0
9595,-125,4,2,1,60,0,0
10217,-111.111111111111,4,2,1,60,0,0
11616,-111.111111111111,4,2,1,80,0,0
11927,-111.111111111111,4,2,1,60,0,0
12860,-125,4,2,1,60,0,0
17678,-125,4,2,1,60,0,0
22808,-125,4,2,1,60,0,0
32134,-111.111111111111,4,2,1,60,0,0
32756,-111.111111111111,4,2,1,70,0,0
43015,-125,4,2,1,80,0,0
43093,-125,4,2,1,40,0,0
43481,-125,4,2,1,80,0,0
43559,-125,4,2,1,40,0,0
43948,-125,4,2,1,80,0,0
44026,-125,4,2,1,40,0,0
44414,-125,4,2,1,60,0,0
45036,-111.111111111111,4,2,1,70,0,0
47989,-125,4,2,1,80,0,0
48067,-125,4,2,1,40,0,0
48456,-125,4,2,1,80,0,0
48533,-125,4,2,1,40,0,0
48922,-125,4,2,1,80,0,0
49000,-125,4,2,1,40,0,0
49388,-125,4,2,1,60,0,0
50010,-111.111111111111,4,2,1,70,0,0
52963,-125,4,2,1,80,0,0
53041,-125,4,2,1,40,0,0
53274,-125,4,2,1,60,0,0
53430,-125,4,2,1,80,0,0
53507,-125,4,2,1,40,0,0
53741,-125,4,2,1,60,0,0
53896,-125,4,2,1,80,0,0
53974,-125,4,2,1,40,0,0
54518,-125,4,2,1,60,0,0
55140,-111.111111111111,4,2,1,70,0,0
57627,-133.333333333333,4,2,1,50,0,0
59647,-133.333333333333,4,2,1,60,0,0
60114,-133.333333333333,4,2,1,80,0,0
62445,-100,4,2,1,60,0,0
64777,-100,4,2,1,80,0,0
64855,-100,4,2,1,20,0,0
64932,-100,4,2,1,80,0,1
74803,-100,4,2,1,80,0,0
74880,-100,4,2,1,80,0,1
84751,-100,4,2,1,80,0,0
84829,-100,4,2,1,80,0,1
87471,-100,4,2,1,80,0,0

[Colours]
Combo1 : 180,150,220
Combo2 : 225,45,75
Combo3 : 30,135,240
Combo4 : 250,150,215
Combo5 : 245,230,115

[HitObjects]
232,108,425,6,0,L|152:96,1,80,12|8,3:2|3:0,0:0:0:0:
152,96,658,1,8,3:0:0:0:
152,96,735,1,8,3:0:0:0:
176,204,891,2,0,L|256:216,1,80,8|8,3:2|3:0,0:0:0:0:
255,215,1124,1,8,3:0:0:0:
255,215,1202,1,8,3:0:0:0:
216,316,1357,2,0,L|136:304,1,80,8|8,3:2|3:0,0:0:0:0:
24,284,1668,5,8,3:2:0:0:
44,156,1823,1,8,3:0:0:0:
44,156,1901,1,8,3:0:0:0:
44,156,1979,2,0,L|84:164,3,40,8|8|8|8,3:0|3:0|3:0|3:0,0:0:0:0:
108,140,2290,2,0,L|148:148,3,40,8|8|8|8,3:0|3:0|3:0|3:0,0:0:0:0:
172,123,2601,1,8,3:0:0:0:
194,104,2678,1,8,3:0:0:0:
206,77,2756,1,8,3:0:0:0:
206,47,2834,1,8,3:0:0:0:
193,21,2912,1,8,3:0:0:0:
193,21,3222,6,0,L|341:37,1,128,14|0,1:2|0:0,0:0:0:0:
236,140,3689,2,0,L|108:126,1,128,14|0,1:2|0:0,0:0:0:0:
156,252,4155,2,0,B|220:236|220:236|260:268|260:268|332:248,1,192,14|0,1:2|0:0,0:0:0:0:
412,120,4777,6,0,P|374:70|312:67,1,128,2|2,0:0|0:0,0:0:0:0:
332,247,5243,6,0,L|475:263,1,143.999995605469,6|0,1:2|1:0,0:0:0:0:
384,356,5709,2,0,L|313:370,1,71.9999978027344,10|0,0:0|0:0,0:0:0:0:
261,232,6020,1,2,1:2:0:0:
261,232,6176,2,0,L|331:246,1,71.9999978027344,2|8,1:2|0:0,0:0:0:0:
172,308,6487,6,0,P|144:284|164:180,1,143.999995605469,2|2,1:2|1:2,0:0:0:0:
188,84,6953,2,0,L|108:64,1,71.9999978027344,10|2,0:2|3:2,0:0:0:0:
118,66,7186,1,8,3:2:0:0:
118,66,7264,1,0,1:0:0:0:
256,160,7419,5,8,3:0:0:0:
271,151,7497,1,8,3:0:0:0:
288,144,7575,1,8,3:0:0:0:
305,138,7652,1,8,3:0:0:0:
322,133,7730,1,8,3:0:0:0:
340,130,7808,1,8,3:0:0:0:
358,128,7886,1,8,3:0:0:0:
357,128,8197,6,0,P|342:188|379:237,1,128,14|0,1:2|0:0,0:0:0:0:
352,340,8663,2,0,P|307:297|245:304,1,128,14|0,1:2|0:0,0:0:0:0:
171,228,9129,2,0,P|247:178|239:87,1,192,14|0,1:2|1:0,0:0:0:0:
232,84,9673,1,0,1:0:0:0:
225,81,9751,2,0,L|309:65,1,64,10|10,1:3|1:3,0:0:0:0:
388,96,10062,1,10,0:0:0:0:
320,180,10217,6,0,P|300:216|360:304,1,143.999995605469,6|0,1:2|0:0,0:0:0:0:
440,284,10684,1,10,0:0:0:0:
276,372,10839,5,0,1:0:0:0:
276,372,10917,1,0,1:0:0:0:
276,372,10994,2,0,B|232:352|232:352|168:372,2,95.9999970703126,6|6|6,1:2|1:2|1:2,0:0:0:0:
343,299,11616,6,0,P|363:263|303:175,1,143.999995605469,6|0,1:2|0:0,0:0:0:0:
172,172,12083,1,8,3:0:0:0:
172,172,12160,1,8,3:0:0:0:
172,171,12238,2,0,L|155:283,2,107.999996704102,4|4|4,3:0|3:0|3:0,0:0:0:0:
156,76,12860,6,0,B|204:68|204:68|228:84|228:84|292:72,1,128,4|2,1:2|0:3,0:0:0:0:
360,112,13326,1,0,0:0:0:0:
304,184,13481,2,0,L|320:252,1,64,0|0,0:0|0:0,0:0:0:0:
404,276,13792,1,2,0:3:0:0:
360,356,13948,6,0,P|304:328|236:352,1,128,0|0,0:0|0:0,0:0:0:0:
160,308,14414,2,0,L|174:237,1,64,2|0,0:3|0:0,0:0:0:0:
185,153,14725,1,0,0:0:0:0:
98,189,14880,1,0,0:0:0:0:
173,246,15036,1,2,0:3:0:0:
84,205,15191,6,0,P|52:147|70:85,1,128,0|0,1:3|0:0,0:0:0:0:
132,24,15658,1,2,0:3:0:0:
132,24,15813,1,0,0:0:0:0:
184,100,15969,2,0,L|256:80,1,64,0|0,0:0|0:0,0:0:0:0:
336,100,16279,1,2,0:3:0:0:
336,192,16435,6,0,L|264:172,1,64,0|0,0:0|0:0,0:0:0:0:
192,220,16746,1,0,0:0:0:0:
192,219,16901,2,0,P|198:249|200:288,1,64,2|0,0:3|0:0,0:0:0:0:
288,304,17212,2,0,P|282:334|280:373,1,64,0|2,0:0|0:2,0:0:0:0:
279,367,17445,1,2,0:2:0:0:
279,367,17523,1,2,0:3:0:0:
158,366,17678,6,0,P|110:327|110:265,1,128,2|0,0:0|0:0,0:0:0:0:
228,224,18145,2,0,P|276:184|276:122,1,128,6|0,1:3|0:0,0:0:0:0:
236,8,18611,1,2,0:0:0:0:
364,72,18766,1,6,1:3:0:0:
192,144,18922,6,0,L|64:120,1,128,2|2,0:0|0:0,0:0:0:0:
152,272,19388,1,6,1:3:0:0:
152,272,19544,2,0,L|280:248,1,128,2|2,0:0|0:0,0:0:0:0:
336,140,20010,1,6,1:3:0:0:
392,316,20165,6,0,P|444:340|508:308,1,128,2|2,0:0|0:0,0:0:0:0:
512,164,20632,1,6,1:3:0:0:
512,164,20787,1,2,0:0:0:0:
428,220,20943,2,0,L|356:204,1,64,2|2,0:0|0:0,0:0:0:0:
304,92,21254,1,6,1:3:0:0:
256,256,21409,6,0,P|268:304|280:404,1,128,4|0,1:2|1:0,0:0:0:0:
392,372,21875,2,0,P|393:338|399:308,1,64,12|0,1:2|1:0,0:0:0:0:
428,220,22186,5,8,1:2:0:0:
428,220,22342,1,8,1:3:0:0:
339,191,22497,1,8,1:3:0:0:
339,191,22652,1,8,1:3:0:0:
367,101,22808,6,0,P|426:93|492:76,1,128,4|2,1:2|1:2,0:0:0:0:
496,168,23274,1,2,0:2:0:0:
496,168,23430,2,0,P|484:212|488:256,1,64,2|2,1:2|0:2,0:0:0:0:
484,320,23741,1,2,1:2:0:0:
403,279,23896,6,0,P|340:272|297:319,1,128,2|2,0:2|0:2,0:0:0:0:
232,256,24362,2,0,L|240:184,1,64,0|2,1:2|0:2,0:0:0:0:
148,200,24673,2,0,L|140:272,1,64,2|0,1:2|0:2,0:0:0:0:
52,248,24984,2,0,P|26:197|52:124,1,128,2|0,1:2|1:2,0:0:0:0:
128,96,25450,5,2,0:2:0:0:
80,16,25606,2,0,L|12:36,1,64,2|2,1:2|0:2,0:0:0:0:
128,96,25917,2,0,L|196:76,1,64,2|2,1:2|0:2,0:0:0:0:
276,108,26228,1,2,1:2:0:0:
213,174,26383,6,0,P|192:232|224:284,1,128,2|0,0:2|0:2,0:0:0:0:
312,252,26849,1,0,1:2:0:0:
296,343,27005,1,0,0:2:0:0:
383,310,27160,1,0,1:2:0:0:
300,360,27316,2,0,L|220:341,1,64,8|0,0:2|1:2,0:0:0:0:
312,251,27627,6,0,P|355:213|432:228,1,128,12|2,0:2|0:2,0:0:0:0:
480,152,28093,2,0,L|472:80,1,64,2|2,1:2|0:2,0:0:0:0:
384,56,28404,1,2,1:2:0:0:
384,56,28559,2,0,L|376:119,1,64,2|2,0:2|1:2,0:0:0:0:
360,212,28870,5,2,3:2:0:0:
360,212,28948,1,0,3:0:0:0:
359,211,29026,2,0,P|331:202|296:196,1,64,0|2,1:0|0:2,0:0:0:0:
256,280,29336,2,0,P|225:289|193:294,1,64,2|2,1:2|0:2,0:0:0:0:
132,224,29647,1,2,1:2:0:0:
61,286,29803,1,8,0:3:0:0:
123,356,29958,1,2,1:2:0:0:
193,293,30114,6,0,P|251:273|305:304,1,128,4|2,0:3|0:2,0:0:0:0:
368,376,30580,1,2,1:2:0:0:
368,376,30735,1,2,0:2:0:0:
408,292,30891,2,0,L|476:304,1,64,2|2,1:2|0:2,0:0:0:0:
510,216,31202,1,2,1:2:0:0:
431,160,31357,6,0,P|374:189|311:199,1,128,14|0,1:2|1:2,0:0:0:0:
232,132,31823,1,8,1:2:0:0:
213,234,31979,1,8,1:2:0:0:
133,165,32134,2,0,P|138:130|142:94,1,71.9999978027344,8|8,1:2|1:2,0:0:0:0:
142,94,32368,1,8,1:2:0:0:
142,94,32445,1,8,1:2:0:0:
311,199,32601,5,8,1:2:0:0:
311,199,32678,1,8,1:2:0:0:
311,199,32756,2,0,P|305:234|301:270,1,71.9999978027344,4|0,1:2|1:0,0:0:0:0:
376,344,33067,1,10,0:2:0:0:
274,371,33222,2,0,L|192:352,1,71.9999978027344,2|0,0:0|1:0,0:0:0:0:
199,243,33533,1,2,1:2:0:0:
301,270,33689,2,0,L|383:251,1,71.9999978027344,10|0,0:2|1:0,0:0:0:0:
376,142,34000,5,2,0:2:0:0:
274,169,34155,2,0,L|192:150,1,71.9999978027344,2|8,1:2|0:0,0:0:0:0:
199,41,34466,1,2,0:2:0:0:
301,68,34621,2,0,L|383:49,1,71.9999978027344,2|0,1:2|1:0,0:0:0:0:
199,41,34932,2,0,P|124:56|72:8,1,143.999995605469,10|0,0:2|0:0,0:0:0:0:
16,128,35399,5,2,1:2:0:0:
16,128,35554,2,0,L|34:197,1,71.9999978027344,10|2,0:2|0:2,0:0:0:0:
152,232,35865,2,0,L|170:162,1,71.9999978027344,2|2,1:2|1:2,0:0:0:0:
208,44,36176,1,10,0:2:0:0:
268,180,36331,6,0,P|312:192|380:108,1,143.999995605469,2|0,1:2|1:0,0:0:0:0:
412,0,36798,1,8,0:0:0:0:
488,184,36953,1,8,0:0:0:0:
304,104,37108,2,0,L|312:20,1,71.9999978027344,0|0,1:0|1:0,0:0:0:0:
172,120,37419,1,8,0:0:0:0:
347,214,37575,6,0,P|416:194|487:183,1,143.999995605469,4|0,1:2|1:0,0:0:0:0:
440,52,38041,1,10,0:2:0:0:
374,117,38197,2,0,L|304:104,1,71.9999978027344,2|0,0:2|1:0,0:0:0:0:
200,80,38507,1,2,1:2:0:0:
316,4,38663,1,8,0:2:0:0:
324,196,38818,6,0,L|180:220,1,143.999995605469,2|2,1:2|1:2,0:0:0:0:
52,288,39285,1,10,0:2:0:0:
151,318,39440,1,2,0:2:0:0:
82,188,39595,2,0,P|60:123|101:67,1,143.999995605469,2|8,1:2|0:0,0:0:0:0:
244,64,40062,6,0,P|285:119|262:184,1,143.999995605469,4|2,1:2|1:2,0:0:0:0:
148,260,40528,1,10,0:2:0:0:
243,279,40684,1,2,0:2:0:0:
128,354,40839,2,0,L|44:340,1,71.9999978027344,2|2,1:2|1:2,0:0:0:0:
148,260,41150,1,10,0:2:0:0:
223,374,41305,6,0,L|371:349,1,143.999995605469,2|0,1:2|1:0,0:0:0:0:
272,248,41772,2,0,L|124:223,1,143.999995605469,8|0,0:0|1:0,0:0:0:0:
63,116,42238,1,8,3:0:0:0:
74,94,42316,1,8,3:0:0:0:
90,76,42393,1,8,3:0:0:0:
111,65,42471,1,8,3:0:0:0:
134,60,42549,1,8,3:0:0:0:
158,62,42627,1,8,3:0:0:0:
180,71,42704,1,8,3:0:0:0:
180,71,43015,6,0,L|24:43,1,128,14|0,1:2|0:0,0:0:0:0:
72,156,43481,2,0,L|125:305,1,128,14|0,1:2|0:0,0:0:0:0:
199,207,43948,2,0,L|334:46,1,192,14|0,1:2|1:0,0:0:0:0:
392,140,44570,2,0,L|404:228,1,64,6|2,1:3|1:2,0:0:0:0:
488,116,44880,1,10,0:2:0:0:
364,40,45036,6,0,P|304:64|220:80,1,143.999995605469,6|2,1:2|1:2,0:0:0:0:
184,191,45502,2,0,P|219:194|254:204,1,71.9999978027344,10|0,0:2|3:0,0:0:0:0:
254,204,45735,1,0,3:0:0:0:
254,204,45813,1,2,1:2:0:0:
226,79,45969,2,0,P|190:76|155:66,1,71.9999978027344,2|8,1:2|0:0,0:0:0:0:
24,108,46279,6,0,P|-6:169|28:229,1,143.999995605469,2|2,1:2|1:2,0:0:0:0:
148,256,46746,1,10,0:2:0:0:
101,182,46901,1,2,3:2:0:0:
74,302,47057,2,0,L|87:379,1,71.9999978027344,0|0,1:0|1:0,0:0:0:0:
208,372,47368,2,0,L|221:294,1,71.9999978027344,8|0,0:0|3:0,0:0:0:0:
220,301,47601,1,0,3:0:0:0:
220,301,47678,1,0,3:0:0:0:
475,215,47989,6,0,P|509:268|496:329,1,128,14|0,1:2|0:0,0:0:0:0:
396,288,48456,2,0,P|333:291|287:249,1,128,14|0,1:2|0:0,0:0:0:0:
373,182,48922,2,0,P|448:120|412:32,1,192,14|0,1:2|1:0,0:0:0:0:
412,36,49466,1,0,1:0:0:0:
400,31,49544,2,0,L|316:44,1,64,2|2,1:2|1:2,0:0:0:0:
216,60,49855,1,10,0:2:0:0:
234,217,50010,6,0,P|301:192|372:181,1,143.999995605469,6|2,1:2|1:2,0:0:0:0:
472,224,50476,2,0,P|464:284|464:320,1,71.9999978027344,10|0,0:2|3:0,0:0:0:0:
463,295,50709,1,0,3:0:0:0:
463,295,50787,1,2,1:2:0:0:
372,181,50943,2,0,P|377:145|380:109,1,71.9999978027344,2|8,1:2|0:2,0:0:0:0:
336,8,51254,1,2,0:2:0:0:
264,92,51409,6,0,L|184:80,1,71.9999978027344,2|0,0:0|1:0,0:0:0:0:
229,200,51720,2,0,L|377:180,1,143.999995605469,8|0,0:0|1:0,0:0:0:0:
464,256,52186,1,8,3:0:0:0:
460,279,52264,1,8,3:0:0:0:
449,301,52342,1,8,3:0:0:0:
433,318,52419,1,8,3:0:0:0:
411,329,52497,1,8,3:0:0:0:
388,334,52575,1,8,3:0:0:0:
364,331,52652,1,8,3:0:0:0:
364,331,52963,6,0,L|380:184,1,128,14|0,1:2|1:0,0:0:0:0:
276,132,53430,2,0,L|260:279,1,128,14|0,1:2|1:0,0:0:0:0:
144,296,53896,2,0,P|86:224|123:141,1,192,14|0,1:2|1:0,0:0:0:0:
224,164,54518,5,10,1:2:0:0:
193,65,54673,1,2,1:2:0:0:
294,87,54829,1,10,1:3:0:0:
122,141,54984,5,2,3:2:0:0:
122,141,55062,1,8,3:2:0:0:
121,141,55140,2,0,P|51:125|-19:116,1,143.999995605469,6|10,1:2|0:0,0:0:0:0:
72,24,55606,1,2,0:0:0:0:
193,65,55761,2,0,P|264:55|334:40,1,143.999995605469,2|8,1:2|0:0,0:0:0:0:
432,92,56228,1,0,0:0:0:0:
348,160,56383,6,0,L|362:230,1,71.9999978027344,2|0,1:2|1:0,0:0:0:0:
432,92,56694,2,0,L|417:21,1,71.9999978027344,10|2,0:0|0:0,0:0:0:0:
296,16,57005,1,8,3:0:0:0:
290,42,57083,1,8,3:0:0:0:
275,64,57160,1,8,3:0:0:0:
252,77,57238,1,8,3:0:0:0:
226,81,57316,2,0,L|166:69,3,35.9999989013672,8|8|8|8,3:0|3:0|3:0|3:0,0:0:0:0:
168,48,57627,5,6,3:2:0:0:
400,104,58248,1,2,0:0:0:0:
344,336,58870,1,2,0:0:0:0:
112,280,59492,2,0,L|175:262,1,60.0000022888184,2|8,0:0|3:0,0:0:0:0:
169,263,59725,1,8,3:0:0:0:
169,263,59803,1,8,3:0:0:0:
152,28,60114,5,14,1:2:0:0:
117,191,60269,1,10,1:2:0:0:
108,201,60580,5,10,1:2:0:0:
266,148,60735,1,10,1:2:0:0:
270,133,61046,5,10,1:2:0:0:
304,298,61202,1,10,1:2:0:0:
310,312,61513,5,10,1:2:0:0:
145,278,61668,1,10,1:2:0:0:
132,274,61979,6,0,L|144:344,2,60.0000022888184,10|0|10,1:2|1:0|1:2,0:0:0:0:
248,144,62445,1,4,1:2:0:0:
256,192,62523,12,2,63689,0:0:0:0:
120,104,64777,5,8,0:0:0:0:
224,140,64932,6,0,P|205:217|193:296,1,160,6|0,1:2|1:0,0:0:0:0:
300,252,65399,1,10,0:0:0:0:
128,136,65554,1,2,0:0:0:0:
256,60,65709,2,0,P|300:76|416:88,1,160,2|8,1:2|0:0,0:0:0:0:
378,236,66176,6,0,L|299:251,1,80,2|0,1:2|0:0,0:0:0:0:
416,92,66487,1,0,1:0:0:0:
416,92,66642,2,0,L|494:76,1,80,10|2,0:0|0:0,0:0:0:0:
276,0,66953,2,0,P|264:60|232:96,1,80,2|0,1:2|1:0,0:0:0:0:
136,116,67264,1,8,0:0:0:0:
284,216,67419,6,0,L|452:168,1,160,6|2,1:2|1:2,0:0:0:0:
248,112,67886,1,10,0:2:0:0:
232,304,68041,1,2,0:2:0:0:
352,108,68197,1,2,1:2:0:0:
336,300,68352,2,0,P|344:339|356:377,1,80,2|8,0:2|0:0,0:0:0:0:
132,316,68663,6,0,P|144:277|152:238,1,80,2|0,0:2|1:0,0:0:0:0:
124,120,68974,1,2,0:0:0:0:
256,208,69129,2,0,L|360:176,1,80,10|2,0:0|0:0,0:0:0:0:
124,120,69440,2,0,L|20:88,1,80,2|0,1:2|1:0,0:0:0:0:
208,16,69751,1,8,0:0:0:0:
240,188,69906,6,0,P|221:265|214:345,1,160,4|2,1:2|0:3,0:0:0:0:
64,303,70373,2,0,L|51:225,1,80,8|2,0:0|0:3,0:0:0:0:
226,109,70684,2,0,L|239:187,1,80,0|2,1:0|0:3,0:0:0:0:
320,48,70994,5,8,0:0:0:0:
156,12,71150,2,0,L|81:40,1,80,2|0,0:3|1:0,0:0:0:0:
156,164,71461,1,2,0:3:0:0:
320,48,71616,2,0,L|394:77,1,80,8|2,0:0|0:3,0:0:0:0:
340,228,71927,2,0,L|266:257,1,80,0|2,1:0|0:3,0:0:0:0:
128,324,72238,1,8,0:0:0:0:
52,156,72393,6,0,P|112:203|188:180,1,160,4|0,1:2|1:0,0:0:0:0:
132,96,72860,1,8,0:0:0:0:
300,172,73015,6,0,P|347:232|324:308,1,160,4|0,1:2|1:0,0:0:0:0:
240,252,73481,1,8,0:0:0:0:
308,60,73637,6,0,P|392:84|480:96,1,160,4|0,1:2|1:0,0:0:0:0:
239,252,74103,2,0,P|200:257|162:270,1,80,8|0,0:0|0:0,0:0:0:0:
12,72,74414,5,8,3:0:0:0:
36,81,74492,1,8,3:0:0:0:
63,82,74570,1,8,3:0:0:0:
88,74,74647,1,8,3:0:0:0:
110,59,74725,1,8,3:0:0:0:
126,38,74803,1,8,3:0:0:0:
136,14,74880,6,0,L|164:178,1,160,6|2,1:2|1:2,0:0:0:0:
312,232,75347,1,10,0:0:0:0:
264,108,75502,1,2,0:0:0:0:
204,308,75658,2,0,L|96:284,1,80,2|0,1:2|0:0,0:0:0:0:
162,171,75969,1,8,0:0:0:0:
312,232,76124,6,0,P|386:252|442:195,1,160,2|2,0:0|0:2,0:0:0:0:
416,32,76590,1,10,0:2:0:0:
512,104,76746,1,2,0:2:0:0:
344,127,76901,2,0,P|284:112|172:96,1,160,2|8,1:2|0:0,0:0:0:0:
232,268,77368,6,0,P|296:316|372:288,1,160,4|8,1:2|3:0,0:0:0:0:
366,293,77756,1,8,3:0:0:0:
366,293,77834,1,8,3:0:0:0:
344,127,77989,5,8,3:0:0:0:
344,127,78067,1,8,3:0:0:0:
344,127,78145,2,0,B|320:83|320:83|340:30,2,106.666666666667,4|6|6,3:0|1:2|1:2,0:0:0:0:
288,216,78766,6,0,L|124:192,1,160,6|10,1:2|0:0,0:0:0:0:
160,312,79233,1,2,1:2:0:0:
160,312,79311,1,0,1:0:0:0:
160,312,79388,1,0,1:0:0:0:
276,104,79544,1,8,3:0:0:0:
276,104,79621,1,8,3:0:0:0:
276,104,79699,1,8,3:0:0:0:
40,72,79855,6,0,P|17:145|67:203,1,160,6|2,1:2|1:2,0:0:0:0:
204,168,80321,1,10,0:0:0:0:
140,344,80476,1,2,3:2:0:0:
140,344,80554,1,0,3:0:0:0:
140,344,80632,2,0,P|92:332|-20:320,1,160,0|10,1:0|0:0,0:0:0:0:
67,203,81098,6,0,P|103:163|79:67,1,160,2|0,0:0|0:0,0:0:0:0:
180,8,81564,2,0,L|257:27,1,80,10|0,0:0|0:0,0:0:0:0:
300,148,81875,2,0,L|222:167,1,80,2|0,1:2|0:0,0:0:0:0:
344,32,82186,1,10,0:2:0:0:
408,200,82342,6,0,P|390:278|385:357,1,160,6|2,1:2|1:2,0:0:0:0:
228,384,82808,2,0,P|224:328|212:292,1,80,10|0,0:2|0:0,0:0:0:0:
144,176,83119,1,0,1:0:0:0:
320,220,83274,1,0,1:0:0:0:
246,90,83430,1,8,0:0:0:0:
217,305,83585,6,0,P|165:297|41:281,1,160,4|0,1:2|1:0,0:0:0:0:
36,112,84051,2,0,P|75:108|114:98,1,80,8|0,0:0|1:0,0:0:0:0:
304,36,84362,5,8,3:0:0:0:
329,42,84440,1,8,3:0:0:0:
351,57,84518,1,8,3:0:0:0:
367,78,84595,1,8,3:0:0:0:
374,104,84673,1,8,3:0:0:0:
371,130,84751,1,8,3:0:0:0:
359,154,84829,6,0,P|318:240|367:299,1,160,6|2,1:2|1:2,0:0:0:0:
452,192,85295,1,10,1:2:0:0:
264,108,85450,1,2,1:2:0:0:
366,11,85606,2,0,L|456:24,1,80,8|0,1:2|1:0,0:0:0:0:
344,184,85917,1,10,1:2:0:0:
244,24,86072,6,0,P|196:12|116:80,1,160,2|0,1:2|1:0,0:0:0:0:
168,224,86538,2,0,L|264:204,1,80,10|0,1:2|1:0,0:0:0:0:
144,352,86849,1,10,1:2:0:0:
80,152,87005,1,0,3:0:0:0:
80,152,87083,1,0,3:0:0:0:
80,152,87160,2,0,L|-16:172,1,80,8|8,3:0|3:0,0:0:0:0:
176,8,87471,5,10,1:2:0:0:
217,226,87627,1,10,1:2:0:0:
209,234,87937,5,10,1:2:0:0:
427,193,88093,1,10,1:2:0:0:
435,201,88404,5,10,1:2:0:0:
251,75,88559,1,10,1:2:0:0:
