osu file format v14

[General]
AudioFilename: audio.mp3
AudioLeadIn: 0
PreviewTime: 64082
Countdown: 0
SampleSet: Soft
StackLeniency: 0.7
Mode: 0
LetterboxInBreaks: 0
WidescreenStoryboard: 1

[Editor]
DistanceSpacing: 1
BeatDivisor: 4
GridSize: 4
TimelineZoom: 2

[Metadata]
Title:Initial (TV Size)
TitleUnicode:イニシャル (TV Size)
Artist:Poppin'Party
ArtistUnicode:Poppin'Party
Creator:Doormat
Version:Hard
Source:BanG Dream! 3rd Season
Tags:Kyle73 Gaia StarrStyx バンドリ! ガールズバンドパーティ! Girls Band Party bandori garupa ガルパ popipa ポピパ ポッピンパーティ opening three third toyama kasumi 戸山香澄 terakawa aimi 寺川愛美 hanazono tae 花園たえ otsuka sae 大塚紗英 ushigome rimi 牛込りみ nishimoto rimi 西本りみ yamabuki saya saaya 山吹沙綾 ohashi ayaka 大橋彩香 ichigaya arisa 市ヶ谷有咲 itou ayasa 伊藤彩沙 anime video game japanese
BeatmapID:2279597
BeatmapSetID:1090496

[Difficulty]
HPDrainRate:5
CircleSize:4
OverallDifficulty:7
ApproachRate:8
SliderMultiplier:1.4
SliderTickRate:1

[Events]
//Background and Video events
0,0,"initial.jpg",0,0
Video,0,"opening.mp4"
//Break Periods
//Storyboard Layer 0 (Background)
//Storyboard Layer 1 (Fail)
//Storyboard Layer 2 (Pass)
//Storyboard Layer 3 (Foreground)
//Storyboard Layer 4 (Overlay)
//Storyboard Sound Samples

[TimingPoints]
425,310.880829015544,4,2,1,70,1,0
1668,-100,4,2,1,70,0,0
3222,-125,4,2,1,80,0,0
3300,-125,4,2,1,40,0,0
3689,-125,4,2,1,80,0,0
3766,-125,4,2,1,40,0,0
4155,-125,4,2,1,80,0,0
4233,-125,4,2,1,40,0,0
4777,-125,4,2,1,60,0,0
5243,-111.111111111111,4,2,1,70,0,0
8197,-125,4,2,1,80,0,0
8274,-125,4,2,1,40,0,0
8663,-125,4,2,1,80,0,0
8741,-125,4,2,1,40,0,0
9129,-125,4,2,1,80,0,0
9207,-125,4,2,1,40,0,0
9595,-125,4,2,1,60,0,0
10217,-111.111111111111,4,2,1,80,0,0
11616,-111.111111111111,4,2,1,80,0,0
11927,-111.111111111111,4,2,1,60,0,0
12860,-133.333333333333,4,2,1,60,0,0
17678,-133.333333333333,4,2,1,60,0,0
22808,-133.333333333333,4,2,1,60,0,0
32756,-111.111111111111,4,2,1,70,0,0
43015,-125,4,2,1,80,0,0
43093,-125,4,2,1,40,0,0
43481,-125,4,2,1,80,0,0
43559,-125,4,2,1,40,0,0
43948,-125,4,2,1,80,0,0
44026,-125,4,2,1,40,0,0
44414,-125,4,2,1,60,0,0
45036,-111.111111111111,4,2,1,70,0,0
47989,-125,4,2,1,80,0,0
48067,-125,4,2,1,40,0,0
48456,-125,4,2,1,80,0,0
48533,-125,4,2,1,40,0,0
48922,-125,4,2,1,80,0,0
49000,-125,4,2,1,40,0,0
49388,-125,4,2,1,60,0,0
50010,-111.111111111111,4,2,1,70,0,0
52963,-125,4,2,1,80,0,0
53041,-125,4,2,1,40,0,0
53274,-125,4,2,1,60,0,0
53430,-125,4,2,1,80,0,0
53507,-125,4,2,1,40,0,0
53741,-125,4,2,1,60,0,0
53896,-125,4,2,1,80,0,0
53974,-125,4,2,1,40,0,0
54518,-125,4,2,1,60,0,0
55140,-111.111111111111,4,2,1,70,0,0
57627,-133.333333333333,4,2,1,50,0,0
59647,-133.333333333333,4,2,1,60,0,0
60114,-100,4,2,1,80,0,0
62445,-100,4,2,1,60,0,0
64777,-100,4,2,1,80,0,0
64855,-100,4,2,1,20,0,0
64932,-100,4,2,1,80,0,1
74803,-100,4,2,1,80,0,0
74880,-100,4,2,1,80,0,1
84751,-100,4,2,1,80,0,0
84829,-100,4,2,1,80,0,1
87471,-100,4,2,1,80,0,0

[Colours]
Combo1 : 180,150,220
Combo2 : 225,45,75
Combo3 : 30,135,240
Combo4 : 250,150,215
Combo5 : 245,230,115

[HitObjects]
344,124,425,6,0,L|412:108,2,70,12|8|8,3:2|3:0|3:0,0:0:0:0:
292,192,891,2,0,L|223:176,2,70,8|8|8,3:2|3:0|3:0,0:0:0:0:
356,247,1357,2,0,P|342:279|333:313,1,70,8|8,3:2|3:0,0:0:0:0:
252,376,1668,6,0,P|238:343|229:309,1,70,8|8,3:2|3:0,0:0:0:0:
160,256,1979,2,0,L|121:267,2,35,8|8|8,3:0|3:0|3:0,0:0:0:0:
196,172,2290,2,0,L|234:160,2,35,8|8|8,3:0|3:0|3:0,0:0:0:0:
116,132,2601,2,0,L|82:142,2,35,8|8|8,3:0|3:0|3:0,0:0:0:0:
152,48,2912,1,8,3:0:0:0:
152,48,3222,6,0,L|263:61,1,112,14|0,1:2|0:0,0:0:0:0:
328,124,3689,2,0,L|261:213,1,112,14|0,1:2|0:0,0:0:0:0:
174,237,4155,2,0,P|160:156|75:133,1,168,14|0,1:2|0:0,0:0:0:0:
32,204,4777,2,0,L|56:320,1,112,2|2,0:0|0:0,0:0:0:0:
128,371,5243,6,0,P|167:325|228:328,1,125.999996154785,6|0,1:2|1:0,0:0:0:0:
312,284,5709,2,0,L|305:221,1,62.9999980773926,10|0,0:0|0:0,0:0:0:0:
220,184,6020,1,2,1:2:0:0:
220,184,6176,2,0,L|226:121,1,62.9999980773926,2|8,1:2|0:0,0:0:0:0:
288,48,6487,6,0,P|343:74|401:52,1,125.999996154785,2|2,1:2|1:2,0:0:0:0:
488,88,6953,1,10,0:2:0:0:
448,172,7108,2,0,P|426:229|452:285,1,125.999996154785,2|8,3:2|3:0,0:0:0:0:
380,348,7575,1,8,3:0:0:0:
380,348,7652,1,8,3:0:0:0:
380,348,7730,2,0,L|300:336,1,62.9999980773926,8|8,3:0|3:0,0:0:0:0:
317,338,8197,6,0,P|336:287|316:235,1,112,14|0,1:2|0:0,0:0:0:0:
260,164,8663,2,0,P|205:173|171:216,1,112,14|0,1:2|0:0,0:0:0:0:
136,301,9129,2,0,P|56:302|15:233,1,168,14|0,1:2|1:0,0:0:0:0:
64,156,9751,2,0,L|56:92,2,56,10|10|10,1:3|1:3|0:0,0:0:0:0:
148,196,10217,6,0,P|207:205|249:162,1,125.999996154785,6|0,1:2|0:0,0:0:0:0:
268,68,10684,1,10,0:0:0:0:
348,136,10839,1,0,1:0:0:0:
348,136,10917,1,0,1:0:0:0:
348,136,10994,2,0,B|387:144|387:144|426:124,2,83.9999974365235,6|6|6,1:2|1:2|1:2,0:0:0:0:
249,160,11616,6,0,P|193:231|230:313,1,188.999994232178,6|8,1:2|3:0,0:0:0:0:
237,320,12160,1,8,3:0:0:0:
243,327,12238,2,0,L|138:345,2,94.499997116089,4|4|4,3:0|3:0|3:0,0:0:0:0:
328,368,12860,6,0,P|368:337|372:286,1,105.000004005432,4|2,1:2|0:3,0:0:0:0:
328,208,13326,1,0,0:0:0:0:
416,204,13481,2,0,L|467:194,2,52.5000020027161,0|0|2,0:0|0:0|0:3,0:0:0:0:
328,208,13948,6,0,P|300:172|232:176,1,105.000004005432,0|0,0:0|0:0,0:0:0:0:
176,224,14414,1,2,0:3:0:0:
176,224,14570,1,0,0:0:0:0:
116,160,14725,2,0,L|128:96,1,52.5000020027161,0|0,0:0|0:0,0:0:0:0:
148,20,15036,1,2,0:3:0:0:
220,108,15191,6,0,L|344:80,1,105.000004005432,0|0,1:3|0:0,0:0:0:0:
368,164,15658,2,0,L|316:175,1,52.5000020027161,2|0,0:3|0:0,0:0:0:0:
348,260,15969,2,0,L|399:248,1,52.5000020027161,0|0,0:0|0:0,0:0:0:0:
456,180,16279,1,2,0:3:0:0:
368,164,16435,6,0,P|344:132|368:56,1,105.000004005432,0|0,0:0|0:0,0:0:0:0:
272,32,16901,2,0,L|216:56,1,52.5000020027161,2|0,0:3|0:0,0:0:0:0:
160,116,17212,2,0,L|111:95,1,52.5000020027161,0|2,0:0|0:2,0:0:0:0:
111,95,17445,1,2,0:2:0:0:
111,95,17523,1,2,0:3:0:0:
64,180,17678,6,0,P|84:228|91:280,1,105.000004005432,2|0,0:0|0:0,0:0:0:0:
176,312,18145,2,0,P|182:260|203:211,1,105.000004005432,6|0,1:3|0:0,0:0:0:0:
280,164,18611,1,2,0:0:0:0:
280,164,18766,1,6,1:3:0:0:
204,116,18922,6,0,L|96:144,1,105.000004005432,2|2,0:0|0:0,0:0:0:0:
108,52,19388,1,6,1:3:0:0:
108,52,19544,2,0,L|162:38,1,52.5000020027161,2|0,0:0|0:0,0:0:0:0:
252,40,19855,1,2,0:0:0:0:
252,40,20010,1,6,1:3:0:0:
204,116,20165,6,0,P|184:156|216:224,1,105.000004005432,2|2,0:0|0:0,0:0:0:0:
284,256,20632,1,6,1:3:0:0:
284,256,20787,1,2,0:0:0:0:
208,304,20943,2,0,L|136:292,1,52.5000020027161,2|2,0:0|0:0,0:0:0:0:
68,276,21254,1,6,1:3:0:0:
116,200,21409,6,0,P|129:150|102:107,1,105.000004005432,4|0,1:2|1:0,0:0:0:0:
28,68,21875,1,12,1:2:0:0:
28,68,22031,1,0,1:0:0:0:
104,20,22186,2,0,L|154:7,1,52.5000020027161,8|8,1:2|1:3,0:0:0:0:
208,80,22497,2,0,L|258:67,1,52.5000020027161,8|8,1:3|1:3,0:0:0:0:
356,84,22808,6,0,P|346:108|340:133,1,52.5000020027161,4|2,1:2|0:2,0:0:0:0:
256,160,23119,2,0,P|265:184|271:209,1,52.5000020027161,2|2,1:2|0:2,0:0:0:0:
352,248,23430,2,0,P|342:272|336:297,1,52.5000020027161,2|2,1:2|0:2,0:0:0:0:
369,382,23741,1,2,1:2:0:0:
280,368,23896,6,0,L|160:348,1,105.000004005432,2|2,0:2|0:2,0:0:0:0:
104,296,24362,1,0,1:2:0:0:
104,296,24518,1,2,0:2:0:0:
176,243,24673,2,0,P|183:219|182:192,1,52.5000020027161,2|0,1:2|0:2,0:0:0:0:
104,152,24984,2,0,P|92:116|132:48,1,105.000004005432,2|0,1:2|1:2,0:0:0:0:
200,20,25450,5,2,0:2:0:0:
244,96,25606,2,0,L|294:82,1,52.5000020027161,2|2,1:2|0:2,0:0:0:0:
332,164,25917,2,0,L|281:177,1,52.5000020027161,2|2,1:2|0:2,0:0:0:0:
240,256,26228,1,2,1:2:0:0:
312,308,26383,6,0,P|362:309|396:268,1,105.000004005432,2|0,0:2|0:2,0:0:0:0:
480,240,26849,2,0,L|492:291,1,52.5000020027161,0|0,1:2|0:2,0:0:0:0:
399,275,27160,1,0,1:2:0:0:
399,275,27316,2,0,L|386:223,1,52.5000020027161,8|0,0:2|1:2,0:0:0:0:
387,125,27627,6,0,P|341:103|290:121,1,105.000004005432,12|2,0:2|0:2,0:0:0:0:
232,188,28093,1,2,1:2:0:0:
232,188,28248,1,2,0:2:0:0:
168,124,28404,2,0,L|176:64,2,52.5000020027161,2|2|2,1:2|0:2|1:2,0:0:0:0:
92,172,28870,6,0,P|104:208|116:296,1,105.000004005432,2|2,0:0|0:2,0:0:0:0:
152,356,29336,2,0,L|198:332,1,52.5000020027161,2|2,1:2|0:2,0:0:0:0:
280,288,29647,1,2,1:2:0:0:
280,288,29803,1,8,0:3:0:0:
204,240,29958,1,2,1:2:0:0:
283,197,30114,6,0,P|298:154|258:94,1,105.000004005432,4|2,0:3|0:2,0:0:0:0:
340,44,30580,2,0,L|390:58,1,52.5000020027161,2|2,1:2|0:2,0:0:0:0:
444,132,30891,2,0,L|494:117,2,52.5000020027161,2|2|2,1:2|0:2|1:2,0:0:0:0:
396,208,31357,6,0,P|350:183|301:197,1,105.000004005432,14|0,1:2|1:2,0:0:0:0:
264,280,31823,2,0,L|212:269,1,52.5000020027161,8|8,1:2|1:2,0:0:0:0:
160,196,32134,1,8,1:2:0:0:
96,260,32290,2,0,L|103:290,2,26.2500010013581,8|8|8,1:2|1:2|1:2,0:0:0:0:
28,200,32601,5,8,1:2:0:0:
28,200,32678,1,8,1:2:0:0:
28,200,32756,2,0,L|44:116,1,62.9999980773926,4|0,1:2|1:0,0:0:0:0:
128,92,33067,1,10,0:2:0:0:
128,92,33222,2,0,L|139:153,1,62.9999980773926,2|0,0:0|1:0,0:0:0:0:
232,200,33533,1,2,1:2:0:0:
232,200,33689,2,0,L|243:138,1,62.9999980773926,10|0,0:2|1:0,0:0:0:0:
288,52,34000,5,2,0:2:0:0:
288,52,34155,2,0,P|317:62|349:63,1,62.9999980773926,2|8,1:2|0:0,0:0:0:0:
408,148,34466,1,2,0:2:0:0:
408,148,34621,2,0,P|378:158|346:159,1,62.9999980773926,2|0,1:2|1:0,0:0:0:0:
252,140,34932,2,0,P|213:187|227:246,1,125.999996154785,10|0,0:2|0:0,0:0:0:0:
316,288,35399,5,2,1:2:0:0:
236,344,35554,2,0,L|164:332,1,62.9999980773926,10|2,0:2|0:2,0:0:0:0:
88,380,35865,1,2,1:2:0:0:
88,380,36020,2,0,L|16:368,1,62.9999980773926,2|10,1:2|0:2,0:0:0:0:
24,272,36331,6,0,P|69:232|63:171,1,125.999996154785,2|0,1:2|1:0,0:0:0:0:
0,96,36798,1,8,0:0:0:0:
76,160,36953,1,8,0:0:0:0:
104,64,37108,2,0,L|168:52,1,62.9999980773926,0|0,1:0|1:0,0:0:0:0:
252,8,37419,1,8,0:0:0:0:
248,104,37575,6,0,P|240:152|232:248,1,125.999996154785,4|0,1:2|1:0,0:0:0:0:
260,324,38041,1,10,0:2:0:0:
260,324,38197,2,0,L|348:304,1,62.9999980773926,2|0,0:2|1:0,0:0:0:0:
388,240,38507,1,2,1:2:0:0:
388,240,38663,1,8,0:2:0:0:
320,172,38818,6,0,P|300:132|348:52,1,125.999996154785,2|2,1:2|1:2,0:0:0:0:
248,8,39285,2,0,L|186:23,1,62.9999980773926,10|2,0:2|0:2,0:0:0:0:
160,116,39595,2,0,L|98:100,1,62.9999980773926,2|0,1:2|1:0,0:0:0:0:
8,68,39906,1,8,0:0:0:0:
0,164,40062,6,0,P|17:221|76:231,1,125.999996154785,4|2,1:2|1:2,0:0:0:0:
172,204,40528,1,10,0:2:0:0:
172,204,40684,1,2,0:2:0:0:
256,252,40839,2,0,L|248:324,2,62.9999980773926,2|2|10,1:2|1:2|0:2,0:0:0:0:
332,192,41305,6,0,P|313:131|304:69,1,125.999996154785,2|0,1:2|1:0,0:0:0:0:
400,48,41772,2,0,P|418:108|427:170,1,125.999996154785,8|0,0:0|1:0,0:0:0:0:
400,264,42238,1,8,3:0:0:0:
400,264,42316,1,8,3:0:0:0:
400,264,42393,2,0,P|338:277|278:297,1,125.999996154785,8|8,3:0|3:0,0:0:0:0:
278,296,43015,6,0,P|289:243|263:194,1,112,14|0,1:2|0:0,0:0:0:0:
272,92,43481,2,0,P|312:128|367:130,1,112,14|0,1:2|0:0,0:0:0:0:
452,189,43948,2,0,P|399:206|388:324,1,168,14|0,1:2|1:0,0:0:0:0:
278,296,44570,2,0,L|214:280,1,56,6|2,1:3|1:2,0:0:0:0:
128,252,44880,1,10,0:2:0:0:
203,180,45036,6,0,P|223:122|194:68,1,125.999996154785,6|2,1:2|1:2,0:0:0:0:
112,16,45502,2,0,L|50:30,1,62.9999980773926,10|0,0:2|3:0,0:0:0:0:
199,72,45813,1,2,1:2:0:0:
199,72,45969,2,0,L|260:57,1,62.9999980773926,2|8,1:2|0:0,0:0:0:0:
352,24,46279,6,0,P|392:69|380:128,1,125.999996154785,2|2,1:2|1:2,0:0:0:0:
292,168,46746,1,10,0:2:0:0:
370,224,46901,1,2,3:2:0:0:
281,263,47057,2,0,P|249:257|218:254,1,62.9999980773926,0|0,1:0|1:0,0:0:0:0:
359,319,47368,2,0,P|390:324|421:327,1,62.9999980773926,8|0,0:0|3:0,0:0:0:0:
421,327,47601,1,0,3:0:0:0:
421,327,47678,1,0,3:0:0:0:
491,120,47989,6,0,P|438:128|393:97,1,112,14|0,1:2|0:0,0:0:0:0:
284,92,48456,2,0,P|318:134|314:188,1,112,14|0,1:2|0:0,0:0:0:0:
224,248,48922,2,0,P|154:207|148:127,1,168,14|0,1:2|1:0,0:0:0:0:
154,121,49466,1,0,1:0:0:0:
160,115,49544,2,0,L|84:104,2,56,2|2|10,1:2|1:2|0:2,0:0:0:0:
219,40,50010,6,0,P|274:11|333:29,1,125.999996154785,6|2,1:2|1:2,0:0:0:0:
400,96,50476,1,10,0:2:0:0:
336,168,50632,2,0,L|292:160,2,31.4999990386963,0|0|2,3:0|3:0|1:2,0:0:0:0:
404,236,50943,2,0,L|476:224,1,62.9999980773926,2|8,1:2|0:2,0:0:0:0:
512,308,51254,1,2,0:2:0:0:
440,372,51409,6,0,P|392:336|328:352,2,125.999996154785,2|8|0,0:0|0:0|1:0,0:0:0:0:
512,308,52186,1,8,3:0:0:0:
512,308,52264,1,8,3:0:0:0:
512,308,52342,2,0,L|496:176,1,125.999996154785,8|8,3:0|3:0,0:0:0:0:
504,188,52963,6,0,L|388:224,1,112,14|0,1:2|1:0,0:0:0:0:
292,200,53430,2,0,L|318:81,1,112,14|0,1:2|1:0,0:0:0:0:
236,20,53896,2,0,L|59:74,1,168,14|0,1:2|1:0,0:0:0:0:
16,160,54518,5,10,1:2:0:0:
16,160,54673,1,2,1:2:0:0:
83,231,54829,1,10,1:3:0:0:
171,189,54984,5,2,3:2:0:0:
171,189,55062,1,8,3:2:0:0:
170,189,55140,2,0,P|231:178|278:217,1,125.999996154785,6|10,1:2|0:0,0:0:0:0:
328,300,55606,1,2,0:0:0:0:
396,232,55761,2,0,P|406:171|367:124,1,125.999996154785,2|8,1:2|0:0,0:0:0:0:
276,92,56228,1,0,0:0:0:0:
344,24,56383,6,0,P|405:39|467:44,1,125.999996154785,2|10,1:2|0:0,0:0:0:0:
508,132,56849,1,2,0:0:0:0:
440,200,57005,2,0,L|447:230,3,31.4999990386963,8|8|8|8,3:0|3:0|3:0|3:0,0:0:0:0:
428,260,57316,2,0,L|435:290,3,31.4999990386963,8|8|8|8,3:0|3:0|3:0|3:0,0:0:0:0:
415,319,57627,6,0,P|317:341|252:266,1,210.000008010865,6|2,3:2|0:0,0:0:0:0:
308,84,58870,2,0,P|405:61|470:136,1,210.000008010865,2|2,0:0|0:0,0:0:0:0:
496,232,59647,5,8,3:0:0:0:
496,232,59725,1,8,3:0:0:0:
496,232,59803,1,8,3:0:0:0:
308,328,60114,5,14,1:2:0:0:
316,228,60269,1,10,1:2:0:0:
126,264,60580,5,10,1:2:0:0:
226,272,60735,1,10,1:2:0:0:
191,82,61046,5,10,1:2:0:0:
183,182,61202,1,10,1:2:0:0:
373,147,61513,5,10,1:2:0:0:
273,139,61668,1,10,1:2:0:0:
308,328,61979,6,0,L|456:308,1,140,10|10,1:2|1:2,0:0:0:0:
488,220,62445,1,4,1:2:0:0:
256,192,62523,12,2,63689,0:0:0:0:
368,64,64777,5,8,0:0:0:0:
284,100,64932,6,0,L|312:252,1,140,6|0,1:2|1:0,0:0:0:0:
248,316,65399,1,10,0:0:0:0:
248,316,65554,1,2,0:0:0:0:
188,240,65709,2,0,L|42:221,1,140,2|8,1:2|0:0,0:0:0:0:
44,124,66176,6,0,P|77:115|101:90,1,70,2|0,1:2|0:0,0:0:0:0:
196,60,66487,1,0,1:0:0:0:
196,60,66642,2,0,P|220:84|229:117,1,70,10|2,0:0|0:0,0:0:0:0:
320,152,66953,2,0,P|344:88|408:65,1,140,2|8,1:2|0:0,0:0:0:0:
472,140,67419,6,0,P|464:180|452:288,1,140,6|2,1:2|1:2,0:0:0:0:
380,344,67886,1,10,0:2:0:0:
380,344,68041,1,2,0:2:0:0:
324,264,68197,1,2,1:2:0:0:
324,264,68352,2,0,L|256:282,1,70,2|8,0:2|0:0,0:0:0:0:
268,184,68663,6,0,L|335:165,1,70,2|0,0:2|1:0,0:0:0:0:
384,80,68974,1,2,0:0:0:0:
288,84,69129,2,0,L|220:65,1,70,10|2,0:0|0:0,0:0:0:0:
128,100,69440,2,0,P|104:148|172:228,1,140,2|8,1:2|0:0,0:0:0:0:
232,288,69906,6,0,P|244:240|336:220,1,140,4|2,1:2|0:3,0:0:0:0:
360,124,70373,2,0,L|291:111,1,70,8|2,0:0|0:3,0:0:0:0:
336,24,70684,2,0,L|404:36,1,70,0|2,1:0|0:3,0:0:0:0:
484,96,70994,5,8,0:0:0:0:
484,96,71150,2,0,P|468:136|468:168,1,70,2|0,0:3|1:0,0:0:0:0:
380,204,71461,1,2,0:3:0:0:
380,204,71616,2,0,P|396:244|396:276,1,70,8|2,0:0|0:3,0:0:0:0:
320,332,71927,2,0,L|172:300,1,140,0|8,1:0|0:0,0:0:0:0:
112,216,72393,6,0,P|156:172|136:100,1,140,4|0,1:2|1:0,0:0:0:0:
52,56,72860,1,8,0:0:0:0:
160,12,73015,6,0,L|308:32,1,140,4|0,1:2|1:0,0:0:0:0:
360,108,73481,1,8,0:0:0:0:
252,156,73637,6,0,P|224:188|268:280,1,140,4|0,1:2|1:0,0:0:0:0:
344,304,74103,2,0,L|436:280,1,70,8|0,0:0|0:0,0:0:0:0:
276,372,74414,1,8,3:0:0:0:
276,372,74492,1,8,3:0:0:0:
276,372,74570,2,0,L|208:354,1,70,8|0,3:0|0:0,0:0:0:0:
95,328,74880,6,0,P|109:295|115:261,1,70,6|0,1:2|0:0,0:0:0:0:
192,200,75191,1,2,1:2:0:0:
192,200,75347,2,0,P|178:167|172:133,1,70,10|2,0:0|0:0,0:0:0:0:
240,59,75658,2,0,P|307:50|357:95,1,140,2|8,1:2|0:0,0:0:0:0:
372,196,76124,6,0,P|304:186|254:231,1,140,2|2,0:0|0:2,0:0:0:0:
320,308,76590,1,10,0:2:0:0:
320,308,76746,1,2,0:2:0:0:
224,332,76901,2,0,L|85:314,1,140,2|8,1:2|0:0,0:0:0:0:
64,196,77368,6,0,L|202:178,1,140,4|8,1:2|3:0,0:0:0:0:
268,104,77834,1,8,3:0:0:0:
312,204,77989,1,0,0:0:0:0:
312,204,78067,1,8,3:0:0:0:
312,204,78145,2,0,B|328:251|328:251|292:327,2,93.3333333333333,4|6|6,3:0|1:2|1:2,0:0:0:0:
202,178,78766,6,0,P|160:120|184:56,1,140,6|10,1:2|0:0,0:0:0:0:
268,20,79233,2,0,L|335:38,1,70,2|0,1:2|1:0,0:0:0:0:
392,120,79544,2,0,L|425:110,2,35,8|8|8,3:0|3:0|3:0,0:0:0:0:
296,144,79855,6,0,P|266:204|300:262,1,140,6|2,1:2|1:2,0:0:0:0:
388,300,80321,1,10,0:0:0:0:
304,352,80476,2,0,P|243:381|185:347,1,140,2|0,3:2|1:0,0:0:0:0:
140,260,80943,1,10,0:0:0:0:
236,240,81098,6,0,L|375:213,1,140,2|0,0:0|0:0,0:0:0:0:
388,116,81564,2,0,L|320:99,1,70,10|0,0:0|0:0,0:0:0:0:
373,214,81875,2,0,L|440:230,1,70,2|0,1:2|0:0,0:0:0:0:
488,316,82186,1,10,0:2:0:0:
380,364,82342,6,0,P|325:324|261:344,1,140,6|2,1:2|1:2,0:0:0:0:
179,287,82808,2,0,L|189:217,1,70,10|0,0:2|0:0,0:0:0:0:
279,171,83119,1,0,1:0:0:0:
279,171,83274,2,0,L|289:240,1,70,0|8,1:0|0:0,0:0:0:0:
404,212,83585,6,0,P|430:149|398:89,1,140,4|0,1:2|1:0,0:0:0:0:
344,8,84051,2,0,L|278:32,1,70,8|0,0:0|1:0,0:0:0:0:
196,88,84362,2,0,L|163:75,5,35,8|8|8|8|8|8,3:0|3:0|3:0|3:0|3:0|3:0,0:0:0:0:
132,88,84829,6,0,P|96:144|136:224,1,140,6|2,1:2|1:2,0:0:0:0:
88,304,85295,2,0,L|19:290,1,70,10|2,1:2|1:2,0:0:0:0:
117,209,85606,2,0,L|185:222,1,70,8|0,1:2|1:0,0:0:0:0:
280,268,85917,1,10,1:2:0:0:
280,164,86072,6,0,P|262:98|303:44,1,140,2|0,1:2|1:0,0:0:0:0:
208,4,86538,2,0,L|141:25,1,70,10|0,1:2|1:0,0:0:0:0:
64,96,86849,1,10,1:2:0:0:
168,144,87005,1,0,3:0:0:0:
168,144,87083,1,0,3:0:0:0:
168,144,87160,2,0,L|152:240,1,70,8|8,3:0|3:0,0:0:0:0:
252,288,87471,5,10,1:2:0:0:
328,196,87627,1,10,1:2:0:0:
428,356,87937,5,10,1:2:0:0:
336,280,88093,1,10,1:2:0:0:
496,180,88404,5,10,1:2:0:0:
420,272,88559,1,10,1:2:0:0:
