osu file format v14

[General]
AudioFilename: audio.mp3
AudioLeadIn: 0
PreviewTime: 64082
Countdown: 0
SampleSet: Soft
StackLeniency: 0.7
Mode: 0
LetterboxInBreaks: 0
WidescreenStoryboard: 1

[Editor]
DistanceSpacing: 1
BeatDivisor: 4
GridSize: 4
TimelineZoom: 2

[Metadata]
Title:Initial (TV Size)
TitleUnicode:イニシャル (TV Size)
Artist:Poppin'Party
ArtistUnicode:Poppin'Party
Creator:Doormat
Version:Gaia's Insane
Source:BanG Dream! 3rd Season
Tags:Kyle73 Gaia StarrStyx バンドリ! ガールズバンドパーティ! Girls Band Party bandori garupa ガルパ popipa ポピパ ポッピンパーティ opening three third toyama kasumi 戸山香澄 terakawa aimi 寺川愛美 hanazono tae 花園たえ otsuka sae 大塚紗英 ushigome rimi 牛込りみ nishimoto rimi 西本りみ yamabuki saya saaya 山吹沙綾 ohashi ayaka 大橋彩香 ichigaya arisa 市ヶ谷有咲 itou ayasa 伊藤彩沙 anime video game japanese
BeatmapID:2279596
BeatmapSetID:1090496

[Difficulty]
HPDrainRate:6
CircleSize:4
OverallDifficulty:8
ApproachRate:9
SliderMultiplier:1.7
SliderTickRate:1

[Events]
//Background and Video events
0,0,"initial.jpg",0,0
Video,0,"opening.mp4"
//Break Periods
//Storyboard Layer 0 (Background)
//Storyboard Layer 1 (Fail)
//Storyboard Layer 2 (Pass)
//Storyboard Layer 3 (Foreground)
//Storyboard Layer 4 (Overlay)
//Storyboard Sound Samples

[TimingPoints]
425,310.880829015544,4,2,1,70,1,0
3222,-111.111111111111,4,2,1,80,0,0
3300,-111.111111111111,4,2,1,40,0,0
3689,-111.111111111111,4,2,1,80,0,0
3766,-111.111111111111,4,2,1,40,0,0
4155,-125,4,2,1,80,0,0
4233,-125,4,2,1,40,0,0
4777,-111.111111111111,4,2,1,60,0,0
5243,-100,4,2,1,70,0,0
8197,-125,4,2,1,80,0,0
8274,-125,4,2,1,40,0,0
8663,-125,4,2,1,80,0,0
8741,-125,4,2,1,40,0,0
9129,-100,4,2,1,80,0,0
9207,-100,4,2,1,40,0,0
9595,-100,4,2,1,60,0,0
10217,-100,4,2,1,80,0,0
11616,-125,4,2,1,80,0,0
11927,-125,4,2,1,60,0,0
12860,-100,4,2,1,60,0,0
22808,-142.857142857143,4,2,1,60,0,0
27782,-125,4,2,1,60,0,0
31357,-100,4,2,1,60,0,0
32756,-100,4,2,1,70,0,0
43015,-125,4,2,1,80,0,0
43093,-125,4,2,1,40,0,0
43481,-125,4,2,1,80,0,0
43559,-125,4,2,1,40,0,0
43948,-111.111111111111,4,2,1,80,0,0
44026,-111.111111111111,4,2,1,40,0,0
44414,-111.111111111111,4,2,1,60,0,0
45036,-100,4,2,1,70,0,0
47989,-125,4,2,1,80,0,0
48067,-125,4,2,1,40,0,0
48456,-125,4,2,1,80,0,0
48533,-125,4,2,1,40,0,0
48922,-111.111111111111,4,2,1,80,0,0
49000,-111.111111111111,4,2,1,40,0,0
49388,-111.111111111111,4,2,1,60,0,0
50010,-100,4,2,1,70,0,0
52342,-83.3333333333333,4,2,1,70,0,0
52963,-125,4,2,1,80,0,0
53041,-125,4,2,1,40,0,0
53274,-125,4,2,1,60,0,0
53430,-125,4,2,1,80,0,0
53507,-125,4,2,1,40,0,0
53741,-125,4,2,1,60,0,0
53896,-100,4,2,1,80,0,0
53974,-100,4,2,1,40,0,0
54362,-100,4,2,1,60,0,0
55140,-100,4,2,1,70,0,0
57627,-100,4,2,1,50,0,0
59647,-100,4,2,1,60,0,0
60114,-100,4,2,1,80,0,0
62445,-100,4,2,1,60,0,0
64777,-100,4,2,1,80,0,0
64855,-100,4,2,1,20,0,0
64932,-100,4,2,1,80,0,0

[Colours]
Combo1 : 180,150,220
Combo2 : 225,45,75
Combo3 : 30,135,240
Combo4 : 250,150,215
Combo5 : 245,230,115

[HitObjects]
107,232,425,5,12,3:2:0:0:
44,144,580,1,8,3:0:0:0:
44,144,658,1,8,3:0:0:0:
44,144,735,1,8,3:0:0:0:
202,77,891,5,8,3:2:0:0:
132,155,1046,1,8,3:0:0:0:
132,155,1124,1,8,3:0:0:0:
132,155,1202,1,8,3:0:0:0:
298,267,1357,5,8,3:2:0:0:
215,168,1513,1,8,3:0:0:0:
401,75,1668,5,8,3:2:0:0:
475,165,1823,1,8,3:0:0:0:
475,165,1901,1,8,3:0:0:0:
475,165,1979,2,0,P|456:190|427:210,3,42.5,8|8|8|8,3:0|3:0|3:0|3:0,0:0:0:0:
444,284,2290,2,0,P|414:296|377:302,3,42.5,8|8|8|8,3:0|3:0|3:0|3:0,0:0:0:0:
346,367,2601,1,8,3:0:0:0:
303,361,2678,1,8,3:0:0:0:
261,355,2756,1,8,3:0:0:0:
219,349,2834,1,8,3:0:0:0:
177,343,2912,5,8,3:0:0:0:
177,343,3222,2,0,P|133:286|145:198,1,152.999995330811,14|0,1:2|0:0,0:0:0:0:
220,73,3689,2,0,P|264:130|252:218,1,152.999995330811,14|0,1:2|0:0,0:0:0:0:
67,159,4155,6,0,B|174:145|132:247|272:221,1,204,14|0,1:2|0:0,0:0:0:0:
352,114,4777,2,0,P|293:67|219:72,1,152.999995330811,2|2,0:0|0:0,0:0:0:0:
262,180,5243,6,0,P|274:260|283:350,1,170,6|0,1:2|1:0,0:0:0:0:
400,256,5709,2,0,P|387:175|379:86,1,170,10|2,0:0|1:2,0:0:0:0:
348,181,6176,1,2,1:2:0:0:
440,343,6331,1,8,0:0:0:0:
307,311,6487,6,0,P|229:300|126:293,1,170,2|2,1:2|1:2,0:0:0:0:
59,133,6953,1,10,0:2:0:0:
11,242,7108,2,0,P|51:238|98:211,1,85,2|0,3:2|1:0,0:0:0:0:
191,43,7419,5,8,3:0:0:0:
191,43,7497,1,8,3:0:0:0:
191,43,7575,2,0,L|201:98,1,42.5,8|8,3:0|3:0,0:0:0:0:
289,104,7730,2,0,P|284:131|271:166,1,42.5,8|8,3:0|3:0,0:0:0:0:
205,208,7886,5,8,3:0:0:0:
205,208,8197,2,0,P|200:143|171:76,1,136,14|0,1:2|0:0,0:0:0:0:
329,222,8663,2,0,P|302:284|296:351,1,136,14|0,1:2|0:0,0:0:0:0:
435,155,9129,6,0,P|372:102|288:103,1,170,14|0,1:2|0:0,0:0:0:0:
57,213,9595,1,0,1:0:0:0:
57,213,9673,1,0,1:0:0:0:
57,213,9751,1,10,1:3:0:0:
165,152,9906,1,10,1:3:0:0:
222,315,10062,1,10,0:0:0:0:
143,240,10217,6,0,P|133:183|128:61,1,170,6|0,1:2|0:0,0:0:0:0:
326,49,10684,2,0,P|279:54|213:78,1,85,10|0,0:0|1:0,0:0:0:0:
238,73,10917,5,0,1:0:0:0:
235,83,10994,1,6,1:2:0:0:
329,283,11202,5,6,1:2:0:0:
123,217,11409,5,6,1:2:0:0:
397,370,11616,6,0,P|434:313|418:232,1,136,6|0,1:2|0:0,0:0:0:0:
286,158,12083,1,8,3:0:0:0:
293,152,12160,1,8,3:0:0:0:
304,160,12238,2,0,L|322:269,2,102,4|4|4,3:0|3:0|3:0,0:0:0:0:
245,44,12860,6,0,B|194:61|194:61|169:200,1,170,4|2,1:2|0:3,0:0:0:0:
143,330,13326,1,0,0:0:0:0:
95,244,13481,2,0,L|-14:219,1,85,0|0,0:0|0:0,0:0:0:0:
143,330,13792,1,2,0:3:0:0:
232,291,13948,54,0,B|291:281|291:281|330:248|330:248|414:239,1,170,0|0,0:0|0:0,0:0:0:0:
411,337,14414,2,0,L|501:328,1,85,2|0,0:3|0:0,0:0:0:0:
489,88,14725,5,0,0:0:0:0:
429,155,14880,1,0,0:0:0:0:
361,92,15036,1,2,0:3:0:0:
423,25,15191,54,0,P|463:116|450:210,1,170,0|0,1:3|0:0,0:0:0:0:
323,298,15658,2,0,P|304:266|312:192,1,85,2|0,0:3|0:0,0:0:0:0:
361,92,15969,1,0,0:0:0:0:
361,92,16124,1,0,0:0:0:0:
429,155,16279,1,2,0:3:0:0:
361,92,16435,6,0,B|270:90|283:136|185:127,1,170,0|0,0:0|0:0,0:0:0:0:
24,55,16901,1,2,0:3:0:0:
61,145,17057,1,0,0:0:0:0:
159,49,17212,1,0,0:0:0:0:
159,49,17368,37,2,0:2:0:0:
72,123,17523,1,2,0:3:0:0:
178,152,17678,2,0,B|267:151|254:203|368:176,1,170,2|0,0:0|0:0,0:0:0:0:
358,69,18145,5,6,1:3:0:0:
431,116,18611,53,2,0:0:0:0:
346,81,18766,5,6,1:3:0:0:
487,27,18922,54,0,P|520:86|498:211,1,170,2|2,0:0|0:0,0:0:0:0:
374,316,19388,5,6,1:3:0:0:
332,211,19544,53,2,0:0:0:0:
197,319,19699,1,0,0:0:0:0:
288,299,19855,1,2,0:0:0:0:
459,353,20010,5,6,1:3:0:0:
288,299,20165,54,0,L|86:279,1,170,2|2,0:0|0:0,0:0:0:0:
10,115,20632,5,6,1:3:0:0:
52,211,20787,53,2,0:0:0:0:
157,31,20943,1,2,0:0:0:0:
132,126,21098,1,2,0:0:0:0:
252,100,21254,5,6,1:3:0:0:
397,154,21409,38,0,P|314:92|241:103,1,170,4|0,1:2|1:0,0:0:0:0:
96,273,21875,2,0,L|193:258,1,85,12|0,1:2|1:0,0:0:0:0:
431,239,22186,1,8,1:2:0:0:
339,332,22342,1,8,1:3:0:0:
302,192,22497,1,8,1:3:0:0:
394,248,22652,1,8,1:3:0:0:
244,331,22808,21,4,1:2:0:0:
252,343,23119,1,2,1:2:0:0:
259,355,23430,2,0,P|271:329|272:284,1,59.4999981842042,2|2,1:2|0:2,0:0:0:0:
151,206,23741,1,2,1:2:0:0:
205,128,23896,2,0,B|267:130|258:155|344:156,2,118.999996368408,2|2|2,0:2|0:2|0:2,0:0:0:0:
0,200,24673,5,2,1:2:0:0:
83,129,24829,1,0,0:2:0:0:
200,145,24984,1,2,1:2:0:0:
133,42,25140,2,0,P|97:93|97:156,1,118.999996368408,0|2,0:2|0:2,0:0:0:0:
197,310,25606,53,2,1:2:0:0:
272,244,25761,1,2,0:2:0:0:
134,239,25917,2,0,L|68:229,2,59.4999981842042,2|2|2,1:2|0:2|1:2,0:0:0:0:
213,325,26383,6,0,P|249:274|249:211,1,118.999996368408,2|0,0:2|0:2,0:0:0:0:
198,65,26849,2,0,P|190:95|192:139,1,59.4999981842042,0|0,1:2|0:2,0:0:0:0:
318,65,27160,1,0,1:2:0:0:
258,136,27316,2,0,L|178:150,1,59.4999981842042,8|0,0:2|1:2,0:0:0:0:
391,220,27627,1,12,0:2:0:0:
331,172,27782,6,0,P|267:151|179:148,1,136,0|2,1:2|1:2,0:0:0:0:
95,332,28404,2,0,P|162:327|227:306,1,136,2|2,1:2|1:2,0:0:0:0:
189,123,28870,2,0,P|149:182|155:272,1,136,2|2,0:0|0:2,0:0:0:0:
312,333,29336,2,0,L|298:251,1,68,2|2,1:2|0:2,0:0:0:0:
385,160,29647,53,2,1:2:0:0:
279,238,29803,1,8,0:3:0:0:
402,318,29958,1,2,1:2:0:0:
300,265,30114,6,0,B|190:255|230:343|90:328,1,204,4|2,0:3|1:2,0:0:0:0:
0,164,30891,2,0,P|57:162|132:223,1,136,2|2,1:2|1:2,0:0:0:0:
286,354,31357,6,0,B|241:336|241:336|221:187,1,170,14|0,1:2|1:2,0:0:0:0:
312,38,31823,1,8,1:2:0:0:
165,125,31979,1,8,1:2:0:0:
89,17,32134,1,8,1:2:0:0:
232,72,32290,1,8,1:2:0:0:
232,72,32368,1,8,1:2:0:0:
232,72,32445,1,8,1:2:0:0:
127,226,32601,5,8,1:2:0:0:
127,226,32678,1,8,1:2:0:0:
127,226,32756,1,4,1:2:0:0:
62,130,32912,1,0,1:0:0:0:
242,186,33067,5,10,0:2:0:0:
45,240,33222,2,0,P|88:211|141:204,1,85,2|0,0:0|1:0,0:0:0:0:
235,199,33533,5,2,1:2:0:0:
432,250,33689,2,0,P|380:252|330:233,1,85,10|0,0:2|1:0,0:0:0:0:
226,190,34000,5,2,0:2:0:0:
186,27,34155,2,0,L|169:123,1,85,2|8,1:2|0:0,0:0:0:0:
245,195,34466,5,2,0:2:0:0:
285,358,34621,2,0,L|302:262,1,85,2|0,1:2|1:0,0:0:0:0:
406,161,34932,5,10,0:2:0:0:
253,104,35088,2,0,L|216:301,1,170,0|2,1:0|1:2,0:0:0:0:
57,362,35554,6,0,P|36:328|43:266,1,85,10|2,0:2|0:2,0:0:0:0:
106,185,35865,2,0,P|65:180|12:170,1,85,2|2,1:2|1:2,0:0:0:0:
137,288,36176,1,10,0:2:0:0:
211,127,36331,6,0,P|291:115|391:105,1,170,2|0,1:2|1:0,0:0:0:0:
452,209,36798,1,8,0:0:0:0:
307,154,36953,1,8,0:0:0:0:
446,36,37108,1,0,1:0:0:0:
398,126,37264,1,0,1:0:0:0:
253,32,37419,1,8,0:0:0:0:
446,36,37575,6,0,P|496:92|473:196,1,170,4|0,1:2|1:0,0:0:0:0:
268,232,38041,1,10,0:2:0:0:
346,308,38197,2,0,P|395:298|443:292,1,85,2|0,0:2|1:0,0:0:0:0:
262,230,38507,1,2,1:2:0:0:
241,363,38663,1,8,0:2:0:0:
161,301,38818,6,0,B|65:295|97:348|-4:339,1,170,2|2,1:2|1:2,0:0:0:0:
47,137,39285,2,0,P|37:174|29:236,1,85,10|2,0:2|0:2,0:0:0:0:
262,230,39595,1,2,1:2:0:0:
268,232,39751,1,0,1:0:0:0:
215,131,39906,1,8,0:0:0:0:
264,33,40062,6,0,P|255:93|244:213,1,170,4|2,1:2|1:2,0:0:0:0:
351,360,40528,1,10,0:2:0:0:
407,257,40684,1,2,0:2:0:0:
237,318,40839,1,2,1:2:0:0:
436,329,40994,1,2,1:2:0:0:
334,182,41150,1,10,0:2:0:0:
251,294,41305,6,0,P|172:326|62:319,1,170,2|0,1:2|1:0,0:0:0:0:
0,210,41772,2,0,P|79:178|189:185,1,170,8|0,0:0|1:0,0:0:0:0:
296,209,42238,37,8,3:0:0:0:
296,209,42316,1,8,3:0:0:0:
296,209,42393,2,0,L|306:149,1,42.5,8|8,3:0|3:0,0:0:0:0:
385,140,42549,2,0,P|378:110|368:84,1,42.5,8|8,3:0|3:0,0:0:0:0:
311,33,42704,5,8,3:0:0:0:
311,33,43015,2,0,P|320:81|335:187,1,136,14|0,1:2|0:0,0:0:0:0:
201,351,43481,2,0,P|191:302|176:196,1,136,14|0,1:2|0:0,0:0:0:0:
96,75,43948,6,0,P|142:65|213:156,1,152.999995330811,14|0,1:2|0:0,0:0:0:0:
86,293,44414,1,0,1:0:0:0:
4,216,44570,2,0,P|39:207|94:196,1,76.4999976654053,6|2,1:3|1:2,0:0:0:0:
287,241,44880,1,10,0:2:0:0:
255,322,45036,6,0,P|242:216|228:148,1,170,6|2,1:2|1:2,0:0:0:0:
320,20,45502,2,0,P|325:58|336:114,1,85,10|0,0:2|3:0,0:0:0:0:
397,300,45813,1,2,1:2:0:0:
471,227,45969,1,2,1:2:0:0:
320,187,46124,1,8,0:0:0:0:
341,368,46279,6,0,P|421:378|490:306,1,170,2|2,1:2|1:2,0:0:0:0:
320,187,46746,1,10,0:2:0:0:
242,266,46901,2,0,P|205:273|139:283,1,85,2|0,3:2|1:0,0:0:0:0:
337,199,47212,2,0,P|344:235|354:302,1,85,0|8,1:0|0:0,0:0:0:0:
230,78,47523,5,0,3:0:0:0:
228,89,47601,1,0,3:0:0:0:
229,101,47678,1,0,3:0:0:0:
229,101,47989,2,0,P|165:100|106:50,1,136,14|0,1:2|0:0,0:0:0:0:
309,23,48456,2,0,P|340:78|326:155,1,136,14|0,1:2|0:0,0:0:0:0:
99,264,48922,6,0,B|129:234|157:217|157:217|194:219|254:229,1,152.999995330811,14|0,1:2|1:0,0:0:0:0:
393,358,49388,1,0,1:0:0:0:
393,358,49466,1,0,1:0:0:0:
393,358,49544,1,2,1:2:0:0:
257,254,49699,1,2,1:2:0:0:
450,138,49855,1,10,0:2:0:0:
369,215,50010,6,0,P|360:289|355:387,1,170,6|2,1:2|1:2,0:0:0:0:
107,329,50476,2,0,L|203:316,1,85,10|0,0:2|3:0,0:0:0:0:
189,326,50709,1,0,3:0:0:0:
186,337,50787,1,2,1:2:0:0:
257,254,50943,1,2,1:2:0:0:
143,187,51098,1,8,0:2:0:0:
220,92,51254,6,0,P|248:158|221:289,1,170,2|0,0:2|1:0,0:0:0:0:
393,358,51720,2,0,L|380:245,1,85,8|0,0:0|0:0,0:0:0:0:
444,46,52031,1,0,1:0:0:0:
512,128,52186,21,8,3:0:0:0:
510,137,52264,1,8,3:0:0:0:
506,146,52342,2,0,P|475:158|438:165,3,50.9999984436036,8|8|8|8,3:0|3:0|3:0|3:0,0:0:0:0:
451,158,52652,5,8,3:0:0:0:
451,158,52963,2,0,B|361:136|361:136|350:161|330:180,1,136,14|0,1:2|1:0,0:0:0:0:
374,277,53430,2,0,B|284:299|284:299|273:273|253:255,1,136,14|0,1:2|1:0,0:0:0:0:
103,206,53896,6,0,B|196:194|164:267|286:237,1,170,14|0,1:2|0:0,0:0:0:0:
348,11,54362,1,0,1:0:0:0:
254,55,54518,2,0,P|251:89|238:147,1,85,10|2,1:2|1:2,0:0:0:0:
120,359,54829,1,10,1:3:0:0:
44,297,54984,5,2,3:2:0:0:
44,297,55062,1,8,3:2:0:0:
44,297,55140,1,6,1:2:0:0:
109,368,55295,1,0,1:0:0:0:
206,323,55450,2,0,B|247:328|248:334|296:342,1,85,10|2,0:0|0:0,0:0:0:0:
512,204,55761,5,2,1:2:0:0:
447,275,55917,1,0,1:0:0:0:
350,230,56072,2,0,B|308:235|307:241|260:249,1,85,8|0,0:0|0:0,0:0:0:0:
66,161,56383,21,2,1:2:0:0:
103,77,56538,1,0,1:0:0:0:
190,95,56694,2,0,B|202:134|196:138|214:192,1,85,10|2,0:0|0:0,0:0:0:0:
447,275,57005,53,8,3:0:0:0:
429,286,57083,1,8,3:0:0:0:
409,293,57160,1,8,3:0:0:0:
388,295,57238,1,8,3:0:0:0:
367,291,57316,1,8,3:0:0:0:
347,283,57393,1,8,3:0:0:0:
331,270,57471,1,8,3:0:0:0:
318,253,57549,1,8,3:0:0:0:
309,234,57627,5,6,3:2:0:0:
39,133,58248,1,2,0:0:0:0:
228,362,58870,1,2,0:0:0:0:
333,52,59492,1,2,0:0:0:0:
232,149,59647,53,8,3:0:0:0:
232,149,59725,1,8,3:0:0:0:
232,149,59803,1,8,3:0:0:0:
232,149,60114,21,14,1:2:0:0:
154,89,60269,1,10,1:2:0:0:
149,97,60580,5,10,1:2:0:0:
315,96,60735,1,10,1:2:0:0:
324,105,61046,5,10,1:2:0:0:
73,134,61202,1,10,1:2:0:0:
64,129,61513,5,10,1:2:0:0:
369,170,61668,1,10,1:2:0:0:
378,166,61979,5,10,1:2:0:0:
315,96,62134,1,0,1:0:0:0:
232,149,62290,1,10,1:2:0:0:
299,221,62445,5,4,1:2:0:0:
256,192,62523,12,0,64155,0:0:0:0:
259,227,64777,6,0,L|251:169,1,42.5,8|0,0:0|0:0,0:0:0:0:
262,100,64932,6,0,P|232:142|262:260,1,170,6|0,1:2|1:0,0:0:0:0:
389,348,65399,2,0,P|344:342|294:332,1,85,10|2,0:0|0:0,0:0:0:0:
86,292,65709,1,2,1:2:0:0:
162,242,65865,1,0,0:0:0:0:
23,194,66020,1,8,0:0:0:0:
5,347,66176,6,0,P|90:331|181:327,1,170,2|0,1:2|1:0,0:0:0:0:
358,219,66642,2,0,P|348:267|346:332,1,85,10|2,0:0|0:0,0:0:0:0:
257,200,66953,1,2,1:2:0:0:
435,280,67108,1,0,1:0:0:0:
257,200,67264,1,8,0:0:0:0:
307,107,67419,6,0,P|354:59|467:63,1,170,6|2,1:2|1:2,0:0:0:0:
185,128,67886,2,0,P|142:122|92:95,1,85,10|2,0:2|0:2,0:0:0:0:
406,150,68197,2,0,P|414:184|423:252,1,85,2|2,1:2|0:2,0:0:0:0:
307,107,68507,1,8,0:0:0:0:
257,200,68663,6,0,B|174:210|195:264|96:260,1,170,2|2,0:2|0:0,0:0:0:0:
234,378,69129,2,0,P|256:344|253:288,1,85,10|2,0:0|0:0,0:0:0:0:
133,80,69440,1,2,1:2:0:0:
77,151,69595,1,0,1:0:0:0:
105,234,69751,1,8,0:0:0:0:
190,263,69906,6,0,P|270:268|373:286,1,170,4|2,1:2|0:3,0:0:0:0:
495,151,70373,2,0,P|460:146|396:136,1,85,8|2,0:0|0:3,0:0:0:0:
360,37,70684,2,0,P|304:94|319:213,1,170,0|8,1:0|0:0,0:0:0:0:
165,344,71150,1,2,0:3:0:0:
256,382,71305,6,0,P|261:338|271:291,1,85,0|2,1:0|0:3,0:0:0:0:
145,81,71616,2,0,P|130:176|112:265,1,170,8|0,0:0|1:0,0:0:0:0:
166,169,72083,1,2,0:3:0:0:
3,265,72238,1,8,0:0:0:0:
165,344,72393,22,0,P|247:327|337:313,1,170,4|0,1:2|1:0,0:0:0:0:
375,108,72860,1,8,0:0:0:0:
484,184,73015,2,0,P|439:196|381:204,1,85,4|0,1:2|0:0,0:0:0:0:
166,169,73326,1,0,1:0:0:0:
251,103,73481,1,8,0:0:0:0:
106,74,73637,6,0,P|75:116|83:244,1,170,4|0,1:2|1:0,0:0:0:0:
336,312,74103,1,8,0:0:0:0:
197,356,74259,1,0,0:0:0:0:
400,381,74414,37,8,3:0:0:0:
438,362,74492,1,8,3:0:0:0:
467,332,74570,1,8,3:0:0:0:
482,292,74647,1,8,3:0:0:0:
483,250,74725,1,8,3:0:0:0:
468,211,74803,1,8,3:0:0:0:
439,179,74880,6,0,L|410:368,1,170,6|2,1:2|1:2,0:0:0:0:
300,211,75347,2,0,P|303:247|306:309,1,85,10|2,0:0|0:0,0:0:0:0:
197,356,75658,2,0,P|92:346|69:272,1,170,2|8,1:2|0:0,0:0:0:0:
7,159,76124,6,0,B|96:157|87:218|192:203,1,170,2|2,0:0|0:2,0:0:0:0:
280,79,76590,1,10,0:2:0:0:
209,8,76746,1,2,0:2:0:0:
355,135,76901,2,0,P|371:94|367:43,1,85,2|0,1:2|1:0,0:0:0:0:
174,125,77212,1,8,0:0:0:0:
273,184,77368,6,0,P|357:182|448:162,1,170,4|8,1:2|3:0,0:0:0:0:
439,172,77756,1,8,3:0:0:0:
436,178,77834,1,8,3:0:0:0:
311,303,77989,5,8,3:0:0:0:
314,309,78067,1,8,3:0:0:0:
317,315,78145,2,0,B|311:266|311:266|299:247|299:247|293:194,2,113.333333333333,4|6|6,3:0|1:2|1:2,0:0:0:0:
202,384,78766,6,0,P|143:361|130:248,1,170,6|10,1:2|0:0,0:0:0:0:
179,78,79233,1,2,1:2:0:0:
179,78,79311,1,0,1:0:0:0:
179,78,79388,1,0,1:0:0:0:
43,185,79544,1,8,3:0:0:0:
43,185,79621,1,8,3:0:0:0:
43,185,79699,1,8,3:0:0:0:
130,4,79855,6,0,P|136:75|141:191,1,170,6|2,1:2|1:2,0:0:0:0:
213,287,80321,2,0,P|256:279|328:271,1,85,10|2,0:0|3:2,0:0:0:0:
489,96,80632,2,0,P|446:104|374:112,1,85,0|0,1:0|1:0,0:0:0:0:
253,194,80943,1,10,0:0:0:0:
289,72,81098,6,0,P|337:88|377:200,1,170,2|0,0:0|0:0,0:0:0:0:
339,368,81564,2,0,P|325:321|317:276,1,85,10|0,0:0|0:0,0:0:0:0:
258,88,81875,2,0,P|249:129|237:170,1,85,2|0,1:2|0:0,0:0:0:0:
89,292,82186,1,10,0:2:0:0:
0,254,82342,6,0,L|173:239,1,170,6|2,1:2|1:2,0:0:0:0:
264,301,82808,2,0,P|307:260|297:163,1,127.5,10|0,0:2|0:0,0:0:0:0:
302,187,83119,1,0,1:0:0:0:
377,111,83274,1,0,1:0:0:0:
512,214,83430,1,8,0:0:0:0:
465,72,83585,6,0,P|390:71|289:50,1,170,4|0,1:2|1:0,0:0:0:0:
55,151,84051,1,8,0:0:0:0:
120,70,84207,1,0,1:0:0:0:
212,113,84362,5,8,3:0:0:0:
239,136,84440,1,8,3:0:0:0:
260,164,84518,1,8,3:0:0:0:
273,197,84595,1,8,3:0:0:0:
278,232,84673,1,8,3:0:0:0:
275,267,84751,1,8,3:0:0:0:
263,301,84829,6,0,B|200:288|200:288|164:300|164:300|80:280,1,170,6|2,1:2|1:2,0:0:0:0:
7,191,85295,2,0,P|56:187|100:160,1,85,10|2,1:2|1:2,0:0:0:0:
351,225,85606,2,0,P|321:206|245:202,1,85,8|0,1:2|1:0,0:0:0:0:
176,373,85917,6,0,B|195:354|195:354|211:282,1,85,10|2,1:2|1:2,0:0:0:0:
129,66,86228,2,0,B|110:85|110:85|94:157,1,85,8|0,1:2|1:0,0:0:0:0:
32,296,86538,1,10,1:2:0:0:
162,214,86694,1,0,1:0:0:0:
332,318,86849,1,10,1:2:0:0:
435,244,87005,2,0,L|491:234,2,42.5,0|0|8,3:0|3:0|3:0,0:0:0:0:
424,255,87238,2,0,P|409:215|409:144,1,85,8|8,3:0|3:0,0:0:0:0:
405,173,87471,5,10,1:2:0:0:
243,238,87627,1,10,1:2:0:0:
235,245,87937,5,10,1:2:0:0:
476,316,88093,1,10,1:2:0:0:
483,306,88404,5,10,1:2:0:0:
183,159,88559,1,10,1:2:0:0:
