osu file format v14

[General]
AudioFilename: audio.mp3
AudioLeadIn: 0
PreviewTime: 64082
Countdown: 0
SampleSet: Soft
StackLeniency: 0.7
Mode: 0
LetterboxInBreaks: 0
WidescreenStoryboard: 1

[Editor]
DistanceSpacing: 1
BeatDivisor: 4
GridSize: 4
TimelineZoom: 2

[Metadata]
Title:Initial (TV Size)
TitleUnicode:イニシャル (TV Size)
Artist:Poppin'Party
ArtistUnicode:Poppin'Party
Creator:Doormat
Version:Easy
Source:BanG Dream! 3rd Season
Tags:Kyle73 Gaia StarrStyx バンドリ! ガールズバンドパーティ! Girls Band Party bandori garupa ガルパ popipa ポピパ ポッピンパーティ opening three third toyama kasumi 戸山香澄 terakawa aimi 寺川愛美 hanazono tae 花園たえ otsuka sae 大塚紗英 ushigome rimi 牛込りみ nishimoto rimi 西本りみ yamabuki saya saaya 山吹沙綾 ohashi ayaka 大橋彩香 ichigaya arisa 市ヶ谷有咲 itou ayasa 伊藤彩沙 anime video game japanese
BeatmapID:2279595
BeatmapSetID:1090496

[Difficulty]
HPDrainRate:3
CircleSize:3
OverallDifficulty:3.5
ApproachRate:4
SliderMultiplier:0.899999999999999
SliderTickRate:1

[Events]
//Background and Video events
0,0,"initial.jpg",0,0
Video,0,"opening.mp4"
//Break Periods
//Storyboard Layer 0 (Background)
//Storyboard Layer 1 (Fail)
//Storyboard Layer 2 (Pass)
//Storyboard Layer 3 (Foreground)
//Storyboard Layer 4 (Overlay)
//Storyboard Sound Samples

[TimingPoints]
425,310.880829015544,4,2,1,70,1,0
3222,-100,4,2,1,80,0,0
3300,-100,4,2,1,40,0,0
3689,-100,4,2,1,80,0,0
3766,-100,4,2,1,40,0,0
4155,-100,4,2,1,80,0,0
4233,-100,4,2,1,40,0,0
4777,-100,4,2,1,60,0,0
5243,-100,4,2,1,70,0,0
8197,-100,4,2,1,80,0,0
8274,-100,4,2,1,40,0,0
8663,-100,4,2,1,80,0,0
8741,-100,4,2,1,40,0,0
9129,-100,4,2,1,80,0,0
9207,-100,4,2,1,40,0,0
9595,-100,4,2,1,60,0,0
9751,-100,4,2,1,60,0,0
10217,-100,4,2,1,80,0,0
11927,-100,4,2,1,60,0,0
12860,-100,4,2,1,60,0,0
32756,-100,4,2,1,70,0,0
43015,-100,4,2,1,80,0,0
43093,-100,4,2,1,40,0,0
43481,-100,4,2,1,80,0,0
43559,-100,4,2,1,40,0,0
43948,-100,4,2,1,80,0,0
44026,-100,4,2,1,40,0,0
44414,-100,4,2,1,60,0,0
44570,-100,4,2,1,60,0,0
45036,-100,4,2,1,70,0,0
47989,-100,4,2,1,80,0,0
48067,-100,4,2,1,40,0,0
48456,-100,4,2,1,80,0,0
48533,-100,4,2,1,40,0,0
48922,-100,4,2,1,80,0,0
49000,-100,4,2,1,40,0,0
49388,-100,4,2,1,60,0,0
50010,-100,4,2,1,70,0,0
52963,-100,4,2,1,80,0,0
53041,-100,4,2,1,40,0,0
53274,-100,4,2,1,60,0,0
53430,-100,4,2,1,80,0,0
53507,-100,4,2,1,40,0,0
53741,-100,4,2,1,60,0,0
53896,-100,4,2,1,80,0,0
53974,-100,4,2,1,40,0,0
54518,-100,4,2,1,60,0,0
55140,-100,4,2,1,70,0,0
57627,-100,4,2,1,50,0,0
59647,-100,4,2,1,60,0,0
60114,-100,4,2,1,80,0,0
62445,-100,4,2,1,60,0,0
64777,-100,4,2,1,80,0,0
64855,-100,4,2,1,20,0,0
64932,-100,4,2,1,80,0,1
74803,-100,4,2,1,80,0,0
74880,-100,4,2,1,80,0,1
84751,-100,4,2,1,80,0,0
84829,-100,4,2,1,80,0,1
87471,-100,4,2,1,80,0,0

[Colours]
Combo1 : 180,150,220
Combo2 : 225,45,75
Combo3 : 30,135,240
Combo4 : 250,150,215
Combo5 : 245,230,115

[HitObjects]
136,228,425,6,0,P|88:192|16:224,2,135,12|8|8,3:2|3:2|3:2,0:0:0:0:
164,312,1668,2,0,B|271:268|271:268|368:333|368:333|492:281,1,360,8|8,3:2|3:0,0:0:0:0:
488,192,3222,5,14,1:2:0:0:
392,96,3689,1,14,1:2:0:0:
280,172,4155,2,0,P|196:194|135:134,1,180,14|2,1:2|0:0,0:0:0:0:
216,24,5243,6,0,L|360:40,1,135,6|10,1:2|0:0,0:0:0:0:
376,124,6020,2,0,L|520:108,2,135,2|2|10,1:2|1:2|0:2,0:0:0:0:
360,212,7264,2,0,P|301:274|220:246,1,180,0|8,1:0|3:0,0:0:0:0:
196,160,8197,5,14,1:2:0:0:
68,108,8663,1,14,1:2:0:0:
178,24,9129,2,0,B|232:0|272:24|272:24|308:48|350:30,1,180,14|10,1:2|1:3,0:0:0:0:
440,132,10217,6,0,L|417:265,1,135,6|10,1:2|0:0,0:0:0:0:
336,304,10994,2,0,P|244:228|192:252,1,180,6|6,1:2|1:2,0:0:0:0:
116,48,12860,6,0,L|304:20,1,180,4|0,1:2|0:0,0:0:0:0:
292,156,13948,2,0,L|153:176,1,135,0|2,0:0|0:3,0:0:0:0:
80,220,14725,1,0,0:0:0:0:
116,351,15191,6,0,P|168:310|232:323,1,135,0|2,1:3|0:3,0:0:0:0:
316,288,15969,2,0,P|367:328|431:315,2,135,0|0|2,0:0|0:0|0:3,0:0:0:0:
280,204,17212,1,0,0:0:0:0:
400,140,17678,6,0,P|442:90|422:29,1,135,2|6,0:0|1:3,0:0:0:0:
257,97,18766,1,6,1:3:0:0:
349,253,19388,1,6,1:3:0:0:
193,345,20010,1,6,1:3:0:0:
101,189,20632,5,6,1:3:0:0:
257,97,21254,2,0,L|317:109,1,45,6|4,1:3|1:2,0:0:0:0:
436,128,21875,1,12,1:2:0:0:
420,216,22186,2,0,L|400:316,1,89.9999999999999,8|8,1:2|1:3,0:0:0:0:
319,335,22808,6,0,P|283:310|239:309,1,89.9999999999999,4|2,1:2|1:2,0:0:0:0:
180,240,23430,2,0,P|143:265|56:248,2,135,2|2|0,1:2|1:2|1:2,0:0:0:0:
252,188,24673,1,2,1:2:0:0:
200,116,24984,1,2,1:2:0:0:
272,64,25295,6,0,P|320:76|372:80,1,89.9999999999999,0|2,1:2|1:2,0:0:0:0:
448,68,25917,2,0,P|451:117|463:168,1,89.9999999999999,2|2,1:2|1:2,0:0:0:0:
498,236,26538,1,0,1:2:0:0:
434,296,26849,1,0,1:2:0:0:
356,254,27160,2,0,P|312:240|268:268,1,89.9999999999999,0|0,1:2|1:2,0:0:0:0:
256,288,27627,6,0,L|240:148,1,135,12|2,0:2|1:2,0:0:0:0:
176,92,28404,2,0,P|110:99|61:56,2,135,2|2|2,1:2|1:2|1:2,0:0:0:0:
256,48,29647,1,2,1:2:0:0:
322,110,29958,1,2,1:2:0:0:
388,172,30269,6,0,L|480:156,1,89.9999999999999,0|2,1:2|1:2,0:0:0:0:
500,68,30891,2,0,P|472:32|376:40,2,135,2|14|8,1:2|1:2|1:2,0:0:0:0:
476,156,32134,2,0,L|487:245,1,89.9999999999999,8|8,1:2|1:2,0:0:0:0:
428,312,32756,5,4,1:2:0:0:
368,248,33067,2,0,L|308:268,1,45,10|2,0:2|0:0,0:0:0:0:
272,192,33533,2,0,L|212:212,1,45,2|10,1:2|0:2,0:0:0:0:
212,296,34000,2,0,L|152:316,1,45,2|2,1:2|1:2,0:0:0:0:
116,240,34466,2,0,L|56:260,1,45,2|2,1:2|1:2,0:0:0:0:
0,200,34932,1,10,0:2:0:0:
63,140,35243,6,0,P|92:106|91:62,1,89.9999999999999,0|10,0:0|0:2,0:0:0:0:
180,64,35865,2,0,P|220:115|205:178,2,135,2|2|8,1:2|1:2|0:0,0:0:0:0:
256,12,37108,2,0,L|360:28,1,89.9999999999999,0|8,1:0|0:0,0:0:0:0:
376,40,37575,6,0,B|360:100|360:100|388:148|388:148|372:209,1,180,4|2,1:2|1:2,0:0:0:0:
320,284,38507,1,2,1:2:0:0:
228,280,38818,2,0,P|179:236|187:171,1,135,2|10,1:2|0:2,0:0:0:0:
252,108,39595,2,0,P|266:66|255:23,1,89.9999999999999,2|8,1:2|0:0,0:0:0:0:
224,8,40062,6,0,L|91:32,1,135,4|10,1:2|0:2,0:0:0:0:
28,96,40839,1,2,1:2:0:0:
144,164,41305,2,0,P|173:326|21:261,1,405,2|8,1:2|3:0,0:0:0:0:
20,172,43015,5,14,1:2:0:0:
28,38,43481,1,14,1:2:0:0:
161,46,43948,2,0,P|246:60|310:1,1,180,14|6,1:2|1:3,0:0:0:0:
356,124,45036,6,0,L|336:272,1,135,6|10,1:2|0:2,0:0:0:0:
248,240,45813,2,0,L|229:106,2,135,2|2|10,1:2|1:2|0:2,0:0:0:0:
278,324,47057,1,0,1:0:0:0:
337,257,47368,2,0,L|425:270,1,89.9999999999999,8|0,0:0|3:0,0:0:0:0:
500,216,47989,5,14,1:2:0:0:
455,88,48456,1,14,1:2:0:0:
326,132,48922,2,0,P|241:132|201:56,1,180,14|2,1:2|1:2,0:0:0:0:
84,124,50010,6,0,P|97:190|100:257,1,135,6|10,1:2|0:2,0:0:0:0:
180,300,50787,2,0,P|197:258|221:220,1,89.9999999999999,2|8,1:2|0:2,0:0:0:0:
272,148,51409,2,0,P|230:130|192:106,1,89.9999999999999,2|8,0:0|0:0,0:0:0:0:
252,36,52031,2,0,B|312:20|312:20|360:48|360:48|421:32,1,180,0|8,1:0|3:0,0:0:0:0:
480,100,52963,5,14,1:2:0:0:
369,173,53430,1,14,1:2:0:0:
487,232,53896,2,0,P|525:274|461:378,1,180,14|10,1:2|1:2,0:0:0:0:
405,318,54829,1,10,1:3:0:0:
329,366,55140,6,0,B|275:390|235:366|235:366|199:342|157:360,1,180,6|2,1:2|1:2,0:0:0:0:
97,294,56072,1,8,0:0:0:0:
153,226,56383,2,0,L|137:126,1,89.9999999999999,2|10,1:2|0:0,0:0:0:0:
229,118,57005,2,0,L|245:218,1,89.9999999999999,8|8,3:0|3:0,0:0:0:0:
304,274,57627,6,0,P|375:222|459:244,1,180,6|2,3:2|0:0,0:0:0:0:
425,66,58870,2,0,P|354:117|270:95,1,180,2|2,0:0|0:0,0:0:0:0:
97,46,60114,6,0,L|107:89,1,45,14|10,1:2|1:2,0:0:0:0:
37,146,60580,2,0,L|47:189,1,45,10|10,1:2|1:2,0:0:0:0:
137,190,61046,2,0,L|147:233,1,45,10|10,1:2|1:2,0:0:0:0:
77,290,61513,2,0,L|87:333,1,45,10|10,1:2|1:2,0:0:0:0:
171,367,61979,2,0,P|206:311|271:299,1,135,10|4,1:2|1:2,0:0:0:0:
256,192,62601,12,2,63689,0:0:0:0:
376,68,64932,6,0,L|232:36,1,135,6|10,1:2|0:0,0:0:0:0:
168,84,65709,1,2,1:2:0:0:
264,180,66176,2,0,P|277:243|232:289,1,135,2|10,1:2|0:0,0:0:0:0:
336,332,66953,2,0,L|440:312,1,89.9999999999999,2|8,1:2|0:0,0:0:0:0:
452,332,67419,6,0,P|438:268|483:222,1,135,6|10,1:2|0:2,0:0:0:0:
484,132,68197,2,0,L|396:116,1,89.9999999999999,2|8,1:2|0:0,0:0:0:0:
324,60,68818,1,0,1:0:0:0:
248,110,69129,1,10,0:0:0:0:
272,197,69440,2,0,L|256:304,1,89.9999999999999,2|8,1:2|0:0,0:0:0:0:
258,318,69906,6,0,P|193:330|144:288,1,135,4|8,1:2|0:0,0:0:0:0:
116,204,70684,2,0,P|66:161|2:174,2,135,0|2|8,1:0|1:3|0:0,0:0:0:0:
152,288,71927,2,0,L|292:268,1,135,0|4,1:0|1:2,0:0:0:0:
276,88,73015,5,4,1:2:0:0:
96,100,73637,2,0,P|72:140|120:220,1,135,4|8,1:2|0:0,0:0:0:0:
192,240,74414,2,0,P|212:279|203:322,1,89.9999999999999,8|8,3:0|3:0,0:0:0:0:
189,351,74880,6,0,P|243:314|308:325,1,135,6|10,1:2|0:0,0:0:0:0:
392,360,75658,1,2,1:2:0:0:
372,228,76124,2,0,P|360:163|397:108,1,135,2|10,0:0|0:2,0:0:0:0:
348,32,76901,1,2,1:2:0:0:
216,64,77368,6,0,P|163:101|169:165,1,135,4|0,1:2|0:0,0:0:0:0:
180,256,78145,2,0,B|244:248|244:248|280:282|280:282|361:275,1,180,4|6,3:0|1:2,0:0:0:0:
420,328,79077,1,10,0:0:0:0:
468,252,79388,2,0,L|457:162,1,89.9999999999999,0|8,1:0|3:0,0:0:0:0:
456,130,79855,6,0,P|396:156|339:124,1,135,6|10,1:2|0:0,0:0:0:0:
255,157,80632,2,0,P|261:201|258:246,1,89.9999999999999,0|10,1:0|0:0,0:0:0:0:
180,292,81254,1,0,1:0:0:0:
100,246,81564,1,10,0:0:0:0:
20,200,81875,1,2,1:2:0:0:
44,68,82342,6,0,P|101:36|162:60,1,135,6|10,1:2|0:2,0:0:0:0:
236,115,83119,2,0,P|297:138|354:106,2,135,0|4|8,1:0|1:2|0:0,0:0:0:0:
188,192,84362,2,0,L|208:292,1,89.9999999999999,8|8,3:0|3:0,0:0:0:0:
216,312,84829,6,0,P|280:310|315:255,1,135,6|10,1:2|1:2,0:0:0:0:
340,168,85606,1,8,1:2:0:0:
295,88,85917,1,10,1:2:0:0:
207,63,86228,2,0,L|118:77,1,89.9999999999999,8|10,1:2|1:2,0:0:0:0:
116,168,86849,2,0,L|205:154,1,89.9999999999999,10|8,1:2|3:0,0:0:0:0:
272,216,87471,6,0,L|266:260,1,45,10|10,1:2|1:2,0:0:0:0:
356,276,87937,2,0,L|350:320,1,45,10|10,1:2|1:2,0:0:0:0:
440,336,88404,2,0,L|434:380,1,45,10|10,1:2|1:2,0:0:0:0:
