osu file format v14

[General]
AudioFilename: audio.mp3
AudioLeadIn: 0
PreviewTime: 155809
Countdown: 1
SampleSet: Soft
StackLeniency: 0.7
Mode: 0
LetterboxInBreaks: 0
WidescreenStoryboard: 0

[Editor]
DistanceSpacing: 0.8
BeatDivisor: 4
GridSize: 8
TimelineZoom: 2

[Metadata]
Title:Happy Happy Party!
TitleUnicode:Happy Happy Party!
Artist:Poppin'Party
ArtistUnicode:Poppin'Party
Creator:Terton
Version:Clapping! Jumping!
Source:バンドリ!ガールズバンドパーティ!
Tags:popipa ポピパ ポッピンパーティ bang dream! girls band party bandori garupa ガルパ toyama kasumi ichigaya arisa aimi
BeatmapID:2108696
BeatmapSetID:1007513

[Difficulty]
HPDrainRate:5
CircleSize:4
OverallDifficulty:8
ApproachRate:9
SliderMultiplier:1.4
SliderTickRate:1

[Events]
//Background and Video events
0,0,"Promised_Candy.png",0,0
//Break Periods
//Storyboard Layer 0 (Background)
//Storyboard Layer 1 (Fail)
//Storyboard Layer 2 (Pass)
//Storyboard Layer 3 (Foreground)
//Storyboard Layer 4 (Overlay)
//Storyboard Sound Samples

[TimingPoints]
667,428.571428571429,4,2,1,100,1,0
3667,-166.666666666667,4,2,1,100,0,0
4095,-100,4,2,1,100,0,0
10738,-125,4,2,1,100,0,0
12452,-200,4,2,1,100,0,0
13095,-66.6666666666667,4,2,1,100,0,0
14381,-100,4,2,1,100,0,0
17595,-200,4,2,1,100,0,0
18024,-100,4,2,1,100,0,0
19309,-200,4,2,1,100,0,0
19738,-100,4,2,1,100,0,0
24452,-200,4,2,1,100,0,0
24881,-100,4,2,1,100,0,0
26167,-200,4,2,1,100,0,0
26595,-100,4,2,1,100,0,0
27667,-66.6666666666667,4,2,1,100,0,0
28095,-100,4,2,1,100,0,0
53595,-200,4,2,1,100,0,0
62381,-133.333333333333,4,2,1,100,0,0
65809,-100,4,2,1,100,0,0
72024,-66.6666666666667,4,2,1,100,0,0
72667,-66.6666666666667,4,2,1,100,0,1
80595,-50,4,2,1,100,0,1
81024,-66.6666666666667,4,2,1,100,0,1
82202,-50,4,2,1,100,0,1
82417,-100,4,2,1,100,0,1
82738,-66.6666666666667,4,2,1,100,0,1
85952,-66.6666666666667,4,2,1,100,0,0
86381,-66.6666666666667,4,2,1,100,0,1
94309,-50,4,2,1,100,0,1
94738,-66.6666666666667,4,2,1,100,0,1
96024,-50,4,2,1,100,0,1
96238,-66.6666666666667,4,2,1,100,0,1
100095,-100,4,2,1,100,0,0
103309,-200,4,2,1,100,0,0
103738,-100,4,2,1,100,0,0
105024,-200,4,2,1,100,0,0
105452,-100,4,2,1,100,0,0
110167,-200,4,2,1,100,0,0
110595,-100,4,2,1,100,0,0
111881,-200,4,2,1,100,0,0
112309,-100,4,2,1,100,0,0
113381,-66.6666666666667,4,2,1,100,0,0
113809,-200,4,2,1,100,0,0
120452,-133.333333333333,4,2,1,100,0,0
127952,-100,4,2,1,100,0,0
128381,-66.6666666666667,4,2,1,100,0,0
129024,-100,4,2,1,100,0,0
131809,-66.6666666666667,4,2,1,100,0,0
132452,-100,4,2,1,100,0,0
135238,-66.6666666666667,4,2,1,100,0,0
135881,-100,4,2,1,100,0,0
139309,-200,4,2,1,100,0,0
142095,-133.333333333333,4,2,1,100,0,0
144881,-200,4,2,1,100,0,0
146381,-133.333333333333,4,2,1,100,0,0
148095,-100,4,2,1,100,0,0
156667,-66.6666666666667,4,2,1,100,0,0
158381,-66.6666666666667,4,2,1,100,0,1
166309,-50,4,2,1,100,0,1
166738,-66.6666666666667,4,2,1,100,0,1
168024,-50,4,2,1,100,0,1
168238,-100,4,2,1,100,0,1
168452,-66.6666666666667,4,2,1,100,0,1
171024,-50,4,2,1,100,0,1
171667,-100,4,2,1,100,0,0
172095,-66.6666666666667,4,2,1,100,0,1
180024,-50,4,2,1,100,0,1
180452,-66.6666666666667,4,2,1,100,0,1
181738,-50,4,2,1,100,0,1
181952,-66.6666666666667,4,2,1,100,0,1
185809,-83.3333333333333,4,2,1,100,0,0
191809,-50,4,2,1,100,0,0
193095,-83.3333333333333,4,2,1,100,0,0
198667,-50,4,2,1,100,0,0
199524,-66.6666666666667,4,2,1,100,0,1
207452,-33.3333333333333,4,2,1,100,0,1
207667,-100,4,2,1,100,0,1
207881,-66.6666666666667,4,2,1,100,0,1
209167,-33.3333333333333,4,2,1,100,0,1
209381,-100,4,2,1,100,0,1
209595,-100,4,2,1,100,0,1
210238,-66.6666666666667,4,2,1,100,0,1
211952,-50,4,2,1,100,0,1
213238,-66.6666666666667,4,2,1,100,0,0
213667,-100,4,2,1,100,0,1
214524,-66.6666666666667,4,2,1,100,0,1
219559,-50,4,2,1,100,0,1
220309,-66.6666666666667,4,2,1,100,0,1
224809,-50,4,2,1,100,0,1
225238,-40,4,2,1,100,0,1
228238,-66.6666666666667,4,2,1,100,0,1
228452,-100,4,2,1,100,0,0
229309,-50,4,2,1,100,0,0
230809,-100,4,2,1,100,0,0
238309,-50,4,2,1,100,0,0
238524,-66.6666666666667,4,2,1,100,0,0
239167,-100,4,2,1,100,0,0
240024,-50,4,2,1,100,0,0
240238,-66.6666666666667,4,2,1,100,0,0
243024,-50,4,2,1,100,0,0
244095,-66.6666666666667,4,2,1,100,0,1
247095,-33.3333333333333,4,2,1,100,0,1
247309,-66.6666666666667,4,2,1,100,0,1
252024,-50,4,2,1,100,0,1
252452,-66.6666666666667,4,2,1,100,0,1
253738,-50,4,2,1,100,0,1
253952,-66.6666666666667,4,2,1,100,0,1
257809,-100,4,2,1,100,0,0
261024,-200,4,2,1,100,0,0
263167,-100,4,2,1,100,0,0
267881,-200,4,2,1,100,0,0
270024,-100,4,2,1,100,0,0
271309,-200,4,2,1,100,0,0
274738,-80,4,2,1,100,0,0

[Colours]
Combo1 : 108,116,255
Combo2 : 255,192,140
Combo3 : 197,104,1
Combo4 : 180,157,255

[HitObjects]
383,123,667,5,0,2:0:0:0:
304,231,881,1,0,2:0:0:0:
304,231,1095,2,0,P|307:268|302:330,1,70,0|0,2:0|2:0,2:0:0:0:
167,163,1524,2,0,L|97:162,1,70,0|0,2:0|2:0,2:0:0:0:
4,43,1952,1,0,2:0:0:0:
7,264,2167,6,0,P|14:303|18:355,1,70,0|0,2:0|2:0,2:0:0:0:
167,163,2595,2,0,P|160:128|156:93,1,70,0|0,2:0|2:0,2:0:0:0:
287,226,3024,2,0,P|280:191|276:156,1,70,0|0,2:0|2:0,2:0:0:0:
422,23,3452,1,0,0:0:0:0:
475,257,3667,6,0,B|468:295|468:295|474:314|474:314|471:356,1,83.9999974365235
356,383,4309,1,0,0:0:0:0:
179,303,4524,2,0,L|100:294,1,70
287,226,4952,2,0,L|208:217,1,70
69,113,5381,1,0,0:0:0:0:
164,37,5595,6,0,P|197:35|240:43,1,70
356,229,6024,2,0,P|323:231|280:223,1,70
109,295,6452,2,0,P|76:297|33:289,1,70
167,139,6881,1,0,0:0:0:0:
247,378,7095,1,0,0:0:0:0:
286,225,7309,1,0,0:0:0:0:
397,305,7524,5,0,0:0:0:0:
501,223,7738,1,0,0:0:0:0:
501,223,7952,2,0,P|487:173|471:149,1,70
167,139,8381,2,0,P|181:189|197:213,1,70
247,378,8809,1,0,0:0:0:0:
366,226,9024,6,0,L|361:130,1,70
163,69,9452,2,0,L|168:165,1,70
401,296,9881,2,0,L|481:323,1,70
197,384,10309,1,0,0:0:0:0:
166,138,10524,1,0,0:0:0:0:
0,292,10738,6,0,B|4:275|4:275|-2:257|-2:257|3:217,1,56
179,119,11167,1,0,0:0:0:0:
56,46,11381,2,0,L|-23:44,1,56
179,119,11809,2,0,L|258:121,1,56
140,326,12238,1,0,0:0:0:0:
362,156,12452,6,0,B|403:136|428:167|472:141,1,105
485,289,13524,6,0,L|472:351,1,52.5000020027161
362,156,13738,2,0,L|375:94,1,52.5000020027161
264,193,13952,2,0,P|234:224|227:244,1,52.5000020027161
480,197,14167,2,0,B|498:195|510:166|517:146,1,52.5000020027161
254,76,14381,6,0,L|86:69,1,140
50,251,15024,1,0,0:0:0:0:
50,251,15131,1,0,0:0:0:0:
50,251,15238,1,0,0:0:0:0:
276,289,15452,2,0,P|313:277|360:276,1,70
512,158,15881,6,0,P|475:146|428:145,1,70
276,39,16309,2,0,P|313:27|360:26,1,70
512,158,16738,1,0,0:0:0:0:
511,192,16845,1,0,0:0:0:0:
511,227,16952,1,0,0:0:0:0:
511,262,17059,1,0,0:0:0:0:
511,297,17166,1,0,0:0:0:0:
327,358,17381,1,0,0:0:0:0:
294,208,17595,6,0,L|283:130,1,70
136,252,18238,2,0,L|60:277,1,70
284,138,18667,1,0,0:0:0:0:
423,331,18881,1,0,0:0:0:0:
512,233,19095,1,0,0:0:0:0:
284,138,19309,6,0,L|294:208,1,70
220,51,19952,2,0,L|133:16,1,70
294,208,20381,1,0,0:0:0:0:
499,142,20595,1,0,0:0:0:0:
395,38,20809,1,0,0:0:0:0:
472,234,21024,1,0,0:0:0:0:
294,208,21238,6,0,L|139:143,1,140
87,322,21881,1,0,0:0:0:0:
87,322,21988,1,0,0:0:0:0:
87,322,22095,1,0,0:0:0:0:
164,153,22309,2,0,L|190:76,1,70
278,23,22738,6,0,L|358:33,1,70
472,234,23167,2,0,L|471:317,1,70
225,342,23595,1,0,0:0:0:0:
190,336,23702,1,0,0:0:0:0:
155,331,23809,1,0,0:0:0:0:
121,326,23916,1,0,0:0:0:0:
86,321,24023,1,0,0:0:0:0:
184,219,24238,1,0,0:0:0:0:
50,138,24452,6,0,P|45:104|49:64,1,70
311,232,25095,2,0,L|389:235,1,70
512,51,25524,1,0,0:0:0:0:
277,156,25738,1,0,0:0:0:0:
209,52,25952,1,0,0:0:0:0:
47,68,26167,6,0,P|44:103|50:138,1,70
225,342,26809,2,0,L|250:256,1,70
400,200,27238,1,0,0:0:0:0:
209,52,27452,1,0,0:0:0:0:
121,212,27667,2,0,P|91:233|78:250,1,52.5000020027161
277,156,27881,2,0,P|307:135|320:118,1,52.5000020027161
209,52,28095,6,0,L|129:50,1,70
81,245,28524,1,0,0:0:0:0:
87,255,28952,1,0,0:0:0:0:
487,174,29595,6,0,L|410:152,1,70
502,297,30024,2,0,L|425:275,1,70
292,126,30452,2,0,L|293:197,1,70
214,350,30881,1,0,0:0:0:0:
156,220,31095,1,0,0:0:0:0:
73,371,31309,1,0,0:0:0:0:
20,52,31952,6,0,L|97:30,1,70
5,175,32381,2,0,L|82:153,1,70
388,86,33024,6,0,P|355:73|314:85,1,70
146,281,33452,2,0,P|179:268|201:231,1,70
220,39,33881,2,0,L|226:127,1,70
209,364,34309,1,0,0:0:0:0:
321,230,34524,1,0,0:0:0:0:
140,156,34738,1,0,0:0:0:0:
321,299,34952,6,0,L|414:322,1,70
452,148,35381,2,0,L|451:57,1,70
321,230,35809,2,0,L|322:321,1,70
76,338,36452,6,0,P|49:354|9:350,1,70
140,156,36881,2,0,P|155:128|192:112,1,70
8,115,37309,2,0,L|8:208,1,70
201,300,37738,1,0,0:0:0:0:
8,185,37952,1,0,0:0:0:0:
140,156,38167,1,0,0:0:0:0:
409,364,38809,5,0,0:0:0:0:
412,353,39238,1,0,0:0:0:0:
385,21,39667,1,0,0:0:0:0:
353,203,39881,1,0,0:0:0:0:
353,203,41167,5,0,0:0:0:0:
288,26,41381,1,0,0:0:0:0:
426,98,41595,1,0,0:0:0:0:
426,98,41702,1,0,0:0:0:0:
426,98,41809,1,0,0:0:0:0:
191,231,42024,5,0,0:0:0:0:
412,353,42238,2,0,L|487:359,1,70
191,231,42667,2,0,L|116:237,1,70
257,111,43095,1,0,0:0:0:0:
448,209,43309,6,0,L|532:245,1,70
426,98,43738,2,0,L|410:12,1,70
322,209,44167,1,0,0:0:0:0:
217,38,44381,1,0,0:0:0:0:
217,38,44488,1,0,0:0:0:0:
217,38,44595,1,0,0:0:0:0:
182,161,44809,2,0,L|191:237,1,70
312,358,45238,5,0,0:0:0:0:
322,209,45452,1,0,0:0:0:0:
190,230,45667,2,0,L|111:246,1,70
329,83,46095,2,0,L|408:67,1,70
250,140,46524,1,0,0:0:0:0:
207,65,46738,6,0,L|181:-1,1,70
75,69,47167,2,0,L|-4:51,1,70
25,168,47595,1,0,0:0:0:0:
24,202,47702,1,0,0:0:0:0:
23,237,47809,1,0,0:0:0:0:
22,272,47916,1,0,0:0:0:0:
22,307,48023,1,0,0:0:0:0:
265,305,48238,1,0,0:0:0:0:
177,204,48452,1,0,0:0:0:0:
327,185,48667,6,0,L|412:146,1,70
303,68,49095,2,0,L|289:0,1,70
162,135,49524,2,0,L|176:203,1,70
131,329,49952,1,0,0:0:0:0:
265,305,50167,6,0,P|303:340|309:363,1,70
176,203,50595,2,0,P|138:168|132:145,1,70
332,139,51024,1,0,0:0:0:0:
366,136,51131,1,0,0:0:0:0:
401,141,51238,1,0,0:0:0:0:
434,154,51345,1,0,0:0:0:0:
463,173,51452,1,0,0:0:0:0:
402,320,51667,1,0,0:0:0:0:
332,139,51881,1,0,0:0:0:0:
305,248,52095,5,0,0:0:0:0:
249,42,52309,1,0,0:0:0:0:
214,154,52524,2,0,P|187:139|170:101,1,70
305,248,52952,2,0,P|332:263|349:301,1,70
131,329,53381,1,0,0:0:0:0:
170,104,53595,6,0,B|174:76|162:67|170:28,1,70
188,280,54238,1,0,0:0:0:0:
332,139,54452,2,0,B|336:111|324:102|332:63,1,70
400,306,55095,1,0,0:0:0:0:
400,306,55202,1,0,0:0:0:0:
400,306,55309,1,0,0:0:0:0:
257,282,55524,6,0,L|185:279,1,70
12,113,56167,1,0,0:0:0:0:
113,190,56381,2,0,L|194:192,1,70
358,13,57238,2,0,P|329:22|287:52,1,70
374,126,57881,1,0,0:0:0:0:
177,41,58095,2,0,L|97:36,1,70
45,187,58952,6,0,P|78:180|114:190,1,70
142,374,59595,1,0,0:0:0:0:
221,288,59809,2,0,B|227:262|211:248|226:206,1,70
458,30,60667,2,0,B|452:56|468:70|453:112,1,70
453,253,61309,1,0,0:0:0:0:
396,331,61524,1,0,0:0:0:0:
344,222,61738,1,0,0:0:0:0:
269,355,61952,1,0,0:0:0:0:
196,177,62167,1,0,0:0:0:0:
117,342,62381,6,0,B|94:384|94:384|23:384,1,105.000004005432
0,227,63024,1,0,0:0:0:0:
157,257,63238,2,0,L|229:258,1,52.5000020027161
269,355,63667,1,0,0:0:0:0:
344,222,63881,1,0,0:0:0:0:
487,323,64095,6,0,P|509:275|512:216,1,105.000004005432
426,121,64738,1,0,0:0:0:0:
344,222,64952,1,0,0:0:0:0:
262,121,65167,1,0,0:0:0:0:
173,315,65381,1,0,0:0:0:0:
9,223,65595,5,0,0:0:0:0:
9,223,65702,1,0,0:0:0:0:
9,223,65809,2,0,L|4:133,1,70
76,37,66238,1,0,0:0:0:0:
131,158,66452,1,0,0:0:0:0:
187,8,66667,1,0,0:0:0:0:
187,8,66774,1,0,0:0:0:0:
187,8,66881,1,0,0:0:0:0:
254,100,67095,2,0,L|319:124,1,70
392,20,67524,5,0,0:0:0:0:
506,118,67738,1,0,0:0:0:0:
388,224,67952,2,0,L|323:200,1,70
281,352,68381,1,0,0:0:0:0:
281,352,68488,1,0,0:0:0:0:
281,352,68595,1,0,0:0:0:0:
143,290,68809,2,0,P|111:287|66:296,1,70
25,109,69238,6,0,L|52:200,1,70
86,19,69667,1,0,0:0:0:0:
167,149,69881,1,0,0:0:0:0:
167,149,69988,1,0,0:0:0:0:
167,149,70095,1,0,0:0:0:0:
299,77,70309,1,0,0:0:0:0:
276,173,70524,1,0,0:0:0:0:
503,4,70738,1,0,0:0:0:0:
503,4,72024,6,0,P|476:0|442:6,1,52.5000020027161
299,77,72238,2,0,P|326:73|360:79,1,52.5000020027161
503,156,72452,2,0,P|476:152|442:158,1,52.5000020027161
307,270,72667,6,0,P|252:271|207:242,1,105.000004005432
158,104,73095,1,0,0:0:0:0:
56,231,73309,1,0,0:0:0:0:
68,268,73416,1,0,0:0:0:0:
90,301,73523,1,0,0:0:0:0:
118,328,73630,1,0,0:0:0:0:
152,347,73737,1,0,0:0:0:0:
327,372,73952,2,0,L|306:267,1,105.000004005432
158,104,74381,6,0,P|106:87|52:108,1,105.000004005432
150,207,74702,1,0,0:0:0:0:
150,207,74809,2,0,P|162:154|156:99,1,105.000004005432
289,180,75238,1,0,0:0:0:0:
289,180,75345,1,0,0:0:0:0:
289,180,75452,1,0,0:0:0:0:
371,23,75667,2,0,L|363:138,1,105.000004005432
474,241,76095,6,0,P|482:187|463:129,1,105.000004005432
371,23,76417,1,0,0:0:0:0:
371,23,76524,2,0,L|257:37,1,105.000004005432
289,180,76952,1,0,0:0:0:0:
289,180,77059,1,0,0:0:0:0:
289,180,77167,1,0,0:0:0:0:
352,312,77381,2,0,P|386:296|461:305,1,105.000004005432
200,254,77702,5,0,0:0:0:0:
200,254,77809,2,0,P|166:238|91:247,1,105.000004005432
169,132,78238,1,0,0:0:0:0:
200,254,78452,1,0,0:0:0:0:
238,261,78559,1,0,0:0:0:0:
277,257,78666,1,0,0:0:0:0:
313,242,78773,1,0,0:0:0:0:
343,216,78880,1,0,0:0:0:0:
273,119,79095,2,0,L|151:134,1,105.000004005432
46,51,79524,6,0,P|97:34|153:42,1,105.000004005432
59,145,79952,1,0,0:0:0:0:
181,232,80167,2,0,P|184:172|162:122,1,105.000004005432
377,189,80595,2,0,P|394:213|392:253,1,70
285,313,80809,2,0,P|308:270|396:253,1,140
479,212,81238,6,0,L|355:184,1,105.000004005432
367,82,81667,1,0,0:0:0:0:
243,149,81881,2,0,P|234:106|261:54,1,105.000004005432
120,25,82309,2,0,L|120:95,1,70
174,326,82524,2,0,P|188:276|182:240,1,70
120,95,82952,6,0,P|68:84|6:78,1,105.000004005432
61,227,83381,1,0,0:0:0:0:
186,258,83595,2,0,P|213:251|296:259,1,105.000004005432
470,83,84024,2,0,P|443:76|360:84,1,105.000004005432
405,378,84452,6,0,L|414:272,1,105.000004005432
229,139,84881,2,0,P|202:127|122:139,1,105.000004005432
304,374,85309,2,0,P|331:386|411:374,1,105.000004005432
488,128,85738,1,0,0:0:0:0:
500,355,85952,1,0,0:0:0:0:
366,81,86167,5,0,0:0:0:0:
366,81,86274,1,0,0:0:0:0:
366,81,86381,2,0,P|347:93|298:188,1,105.000004005432
358,300,86809,1,0,0:0:0:0:
303,161,87024,1,0,0:0:0:0:
278,127,87131,1,0,0:0:0:0:
245,101,87238,1,0,0:0:0:0:
206,85,87345,1,0,0:0:0:0:
165,81,87452,1,0,0:0:0:0:
64,309,87667,2,0,L|90:194,1,105.000004005432
303,161,87988,5,0,0:0:0:0:
303,161,88095,2,0,L|277:276,1,105.000004005432
165,81,88524,1,0,0:0:0:0:
391,126,88738,1,0,0:0:0:0:
421,154,88845,1,0,0:0:0:0:
444,189,88952,1,0,0:0:0:0:
457,229,89059,1,0,0:0:0:0:
461,271,89166,1,0,0:0:0:0:
256,344,89381,2,0,L|152:332,1,105.000004005432
356,262,89702,5,0,0:0:0:0:
356,262,89809,2,0,L|470:271,1,105.000004005432
202,173,90131,1,0,0:0:0:0:
202,173,90238,2,0,L|98:161,1,105.000004005432
302,71,90559,1,0,0:0:0:0:
302,71,90666,2,0,L|416:80,1,105.000004005432
202,173,90988,1,0,0:0:0:0:
202,173,91095,2,0,L|98:161,1,105.000004005432
356,262,91417,5,0,0:0:0:0:
356,262,91524,2,0,L|460:270,1,105.000004005432
284,381,91952,1,0,0:0:0:0:
87,243,92167,2,0,P|74:271|68:295,1,52.5000020027161
202,173,92381,2,0,P|215:145|221:121,1,52.5000020027161
69,66,92595,2,0,L|59:134,1,52.5000020027161
191,307,92809,2,0,L|201:239,1,52.5000020027161
335,207,93024,2,0,L|392:230,1,52.5000020027161
220,124,93238,6,0,P|194:87|144:49,1,105.000004005432
0,357,93667,1,0,0:0:0:0:
99,285,93881,2,0,P|136:267|214:254,1,105.000004005432
313,143,94309,2,0,P|325:195|339:211,1,70
414,308,94524,2,0,P|393:244|318:204,1,140
220,124,94952,6,0,L|104:133,1,105.000004005432
188,263,95381,1,0,0:0:0:0:
220,124,95595,2,0,L|236:19,1,105.000004005432
488,71,96024,2,0,L|478:140,1,70
392,361,96238,2,0,P|389:330|421:259,1,105.000004005432
370,153,96667,6,0,P|339:157|266:128,1,105.000004005432
199,334,97095,1,0,0:0:0:0:
163,254,97309,2,0,P|154:213|171:140,1,105.000004005432
270,27,97738,2,0,L|271:140,1,105.000004005432
199,334,98167,6,0,L|95:322,1,105.000004005432
270,131,98595,2,0,L|391:146,1,105.000004005432
180,11,99024,2,0,L|206:128,1,105.000004005432
310,217,99452,2,0,P|340:217|369:239,1,52.5000020027161
221,336,99667,2,0,P|191:336|162:314,1,52.5000020027161
260,206,99881,2,0,P|290:206|319:228,1,52.5000020027161
171,325,100096,6,0,P|141:325|107:300,1,70
119,87,100524,1,0,0:0:0:0:
0,183,100738,1,0,0:0:0:0:
0,183,100845,1,0,0:0:0:0:
0,183,100952,1,0,0:0:0:0:
202,113,101167,2,0,L|272:118,1,70
204,290,101595,6,0,L|262:231,1,70
350,384,102024,2,0,L|356:293,1,70
504,216,102452,1,0,0:0:0:0:
504,216,102559,1,0,0:0:0:0:
504,216,102667,1,0,0:0:0:0:
282,119,102881,1,0,0:0:0:0:
272,343,103095,1,0,0:0:0:0:
413,169,103309,6,0,P|441:156|488:152,1,70
473,352,103952,2,0,P|440:339|413:317,1,70
277,234,104381,1,0,0:0:0:0:
284,44,104595,1,0,0:0:0:0:
135,114,104809,1,0,0:0:0:0:
413,169,105024,6,0,P|421:207|418:251,1,70
261,302,105667,2,0,L|180:323,1,70
5,253,106095,1,0,0:0:0:0:
5,253,106202,1,0,0:0:0:0:
5,253,106309,1,0,0:0:0:0:
51,29,106524,1,0,0:0:0:0:
107,209,106738,5,0,0:0:0:0:
107,209,106845,1,0,0:0:0:0:
107,209,106952,2,0,P|126:192|149:147,1,70
280,190,107381,1,0,0:0:0:0:
182,15,107595,1,0,0:0:0:0:
149,3,107702,1,0,0:0:0:0:
114,1,107809,1,0,0:0:0:0:
80,10,107916,1,0,0:0:0:0:
50,28,108023,1,0,0:0:0:0:
5,253,108238,1,0,0:0:0:0:
116,384,108452,6,0,L|187:335,1,70
318,248,108881,1,0,0:0:0:0:
183,146,109095,1,0,0:0:0:0:
333,48,109309,1,0,0:0:0:0:
333,48,109417,1,0,0:0:0:0:
333,48,109524,1,0,0:0:0:0:
473,162,109738,1,0,0:0:0:0:
449,345,109952,1,0,0:0:0:0:
318,248,110167,6,0,P|309:218|274:191,1,70
150,61,110809,2,0,L|53:51,1,70
10,229,111238,1,0,0:0:0:0:
149,352,111452,1,0,0:0:0:0:
152,151,111667,1,0,0:0:0:0:
318,248,111881,6,0,P|344:269|355:302,1,70
458,197,112524,2,0,L|450:122,1,70
305,23,112952,1,0,0:0:0:0:
239,201,113167,1,0,0:0:0:0:
449,253,113381,2,0,P|470:274|478:294,1,52.5000020027161
351,165,113595,2,0,P|330:144|322:124,1,52.5000020027161
450,127,113809,6,0,P|451:92|439:52,2,70
50,283,117667,6,0,P|49:318|61:358,1,70
261,15,120024,5,0,0:0:0:0:
302,238,120238,1,0,0:0:0:0:
302,238,120452,2,0,L|317:308,1,52.5000020027161
147,192,120881,1,0,0:0:0:0:
366,145,121095,2,0,L|431:127,1,52.5000020027161
201,101,121524,2,0,L|136:119,1,52.5000020027161
65,27,121952,1,0,0:0:0:0:
53,212,122167,5,0,0:0:0:0:
53,212,122381,2,0,L|57:272,1,52.5000020027161
158,369,122809,1,0,0:0:0:0:
135,182,123024,2,0,P|136:164|154:132,1,52.5000020027161
341,233,123452,1,0,0:0:0:0:
272,52,123667,1,0,0:0:0:0:
237,274,123881,1,0,0:0:0:0:
377,121,124095,5,0,0:0:0:0:
400,145,124202,1,0,0:0:0:0:
417,175,124309,1,0,0:0:0:0:
428,207,124416,1,0,0:0:0:0:
431,241,124523,5,0,0:0:0:0:
427,280,124631,1,0,0:0:0:0:
410,309,124738,1,0,0:0:0:0:
385,333,124845,1,0,0:0:0:0:
354,348,124952,5,0,0:0:0:0:
298,340,125059,1,0,0:0:0:0:
258,302,125166,1,0,0:0:0:0:
246,248,125273,1,0,0:0:0:0:
278,202,125381,1,0,0:0:0:0:
218,26,125595,1,0,0:0:0:0:
8,251,126238,6,0,P|56:230|97:262,1,105.000004005432
213,368,126881,1,0,0:0:0:0:
186,214,127095,1,0,0:0:0:0:
176,189,127202,1,0,0:0:0:0:
162,167,127309,1,0,0:0:0:0:
146,147,127416,1,0,0:0:0:0:
124,131,127524,5,0,0:0:0:0:
457,30,127952,2,0,P|470:66|465:109,1,70
404,307,128381,2,0,P|394:280|407:193,1,105.000004005432
106,96,129024,6,0,P|70:102|36:126,1,70
92,373,129452,2,0,L|114:284,1,70
48,189,129881,2,0,L|40:102,1,70
190,12,130309,1,0,0:0:0:0:
166,191,130524,1,0,0:0:0:0:
246,107,130738,6,0,P|269:82|310:63,1,70
55,354,131381,2,0,P|42:318|47:275,1,70
108,77,131810,2,0,P|118:104|105:191,1,105.000004005432
259,335,132452,6,0,P|302:382|316:389,1,70
325,214,132881,2,0,L|310:142,1,70
161,115,133309,1,0,0:0:0:0:
339,49,133524,1,0,0:0:0:0:
258,211,133738,1,0,0:0:0:0:
382,39,133952,1,0,0:0:0:0:
401,235,134167,5,0,0:0:0:0:
401,235,134274,1,0,0:0:0:0:
401,235,134381,2,0,P|389:289|378:312,1,70
146,269,134809,2,0,L|67:277,1,70
167,162,135238,2,0,P|194:158|281:176,1,105.000004005432
465,334,135881,6,0,P|475:283|473:258,1,70
376,171,136309,2,0,L|377:260,1,70
339,346,136738,2,0,P|305:349|271:323,1,70
276,217,137167,1,0,0:0:0:0:
178,321,137381,1,0,0:0:0:0:
234,98,137595,1,0,0:0:0:0:
155,175,137809,5,0,0:0:0:0:
434,20,138238,1,0,0:0:0:0:
397,239,138559,1,0,0:0:0:0:
379,208,138667,2,0,P|354:150|350:131,1,70
325,362,139095,5,0,0:0:0:0:
325,362,139202,1,0,0:0:0:0:
325,362,139309,2,0,P|325:319|311:281,1,70
229,146,139952,1,0,0:0:0:0:
170,285,140167,2,0,P|170:242|184:204,1,70
352,143,140809,1,0,0:0:0:0:
144,94,141024,5,0,0:0:0:0:
120,99,141131,1,0,0:0:0:0:
98,110,141238,2,0,P|63:126|35:155,1,70
104,274,141881,1,0,0:0:0:0:
195,91,142095,2,0,L|205:37,1,52.5000020027161
251,207,142524,1,0,0:0:0:0:
327,55,142738,6,0,P|346:39|429:33,1,105.000004005432
421,273,143595,1,0,0:0:0:0:
309,192,143809,2,0,P|275:186|244:197,1,52.5000020027161
468,135,144238,1,0,0:0:0:0:
309,77,144452,6,0,P|283:81|257:74,1,52.5000020027161
97,214,144881,2,0,P|125:183|133:145,1,70
96,58,145524,1,0,0:0:0:0:
87,88,145952,1,0,0:0:0:0:
52,344,146381,6,0,P|63:317|70:285,1,52.5000020027161
20,142,146809,2,0,P|9:169|2:201,1,52.5000020027161
211,262,147238,1,0,0:0:0:0:
244,269,147345,1,0,0:0:0:0:
276,279,147452,1,0,0:0:0:0:
363,180,147667,1,0,0:0:0:0:
431,360,147881,5,0,0:0:0:0:
443,328,147988,1,0,0:0:0:0:
457,292,148095,2,0,P|464:262|456:206,1,70
357,101,148524,2,0,P|321:103|289:126,1,70
204,323,148952,1,0,0:0:0:0:
207,288,149059,1,0,0:0:0:0:
211,253,149166,1,0,0:0:0:0:
188,104,149381,1,0,0:0:0:0:
357,101,149595,6,0,B|423:161|333:188|387:246,1,140
204,323,150238,1,0,0:0:0:0:
212,168,150452,2,0,P|204:134|179:92,1,70
83,124,150881,1,0,0:0:0:0:
48,131,150988,1,0,0:0:0:0:
19,150,151095,1,0,0:0:0:0:
0,178,151202,1,0,0:0:0:0:
0,212,151309,1,0,0:0:0:0:
0,246,151416,1,0,0:0:0:0:
11,278,151524,6,0,P|42:300|87:313,1,70
102,225,151952,1,0,0:0:0:0:
335,357,152167,1,0,0:0:0:0:
212,168,152381,1,0,0:0:0:0:
204,202,152488,1,0,0:0:0:0:
196,236,152595,1,0,0:0:0:0:
407,288,152809,1,0,0:0:0:0:
212,168,153024,6,0,P|155:177|101:238,1,140
459,9,153881,1,0,0:0:0:0:
382,177,154095,1,0,0:0:0:0:
382,177,154202,1,0,0:0:0:0:
382,177,154309,1,0,0:0:0:0:
329,74,154524,1,0,0:0:0:0:
251,263,154738,5,0,0:0:0:0:
251,263,154845,1,0,0:0:0:0:
251,263,154952,1,0,0:0:0:0:
198,162,155167,1,0,0:0:0:0:
131,331,155381,1,0,0:0:0:0:
96,324,155488,1,0,0:0:0:0:
66,306,155595,1,0,0:0:0:0:
45,279,155702,1,0,0:0:0:0:
33,246,155809,1,0,0:0:0:0:
67,127,156024,5,0,0:0:0:0:
152,213,156238,1,0,0:0:0:0:
291,32,156452,1,0,0:0:0:0:
291,32,157309,6,0,P|264:28|230:34,1,52.5000020027161
124,199,157524,2,0,P|148:187|173:163,1,52.5000020027161
386,101,157738,2,0,P|359:97|325:103,1,52.5000020027161
219,268,157953,2,0,P|243:256|268:232,1,52.5000020027161
481,170,158167,2,0,P|454:166|420:172,1,52.5000020027161
314,337,158382,6,0,P|338:325|366:240,1,105.000004005432
219,268,158809,2,0,P|175:285|117:346,1,105.000004005432
32,178,159238,1,0,0:0:0:0:
32,178,159345,1,0,0:0:0:0:
32,178,159452,2,0,L|137:165,1,105.000004005432
249,88,159881,6,0,P|303:85|361:116,1,105.000004005432
316,206,160202,1,0,0:0:0:0:
316,206,160309,2,0,L|322:328,1,105.000004005432
146,273,160738,1,0,0:0:0:0:
135,232,160845,1,0,0:0:0:0:
140,190,160952,1,0,0:0:0:0:
158,153,161059,1,0,0:0:0:0:
188,124,161166,1,0,0:0:0:0:
363,149,161381,2,0,L|487:156,1,105.000004005432
384,248,161702,5,0,0:0:0:0:
384,248,161809,2,0,P|376:311|386:358,1,105.000004005432
512,279,162238,1,0,0:0:0:0:
363,149,162452,1,0,0:0:0:0:
322,136,162559,1,0,0:0:0:0:
281,130,162666,1,0,0:0:0:0:
239,131,162773,1,0,0:0:0:0:
198,142,162881,1,0,0:0:0:0:
179,256,163095,2,0,P|229:275|288:250,1,105.000004005432
363,149,163524,6,0,L|367:36,1,105.000004005432
198,142,163952,1,0,0:0:0:0:
446,84,164167,1,0,0:0:0:0:
455,124,164274,1,0,0:0:0:0:
456,166,164381,1,0,0:0:0:0:
449,208,164488,1,0,0:0:0:0:
435,247,164595,1,0,0:0:0:0:
276,260,164809,2,0,P|222:245|165:268,1,105.000004005432
54,164,165238,6,0,L|43:43,1,105.000004005432
103,228,165667,1,0,0:0:0:0:
179,125,165881,2,0,P|228:96|286:96,1,105.000004005432
377,189,166309,2,0,P|394:213|392:253,1,70
285,313,166524,2,0,P|308:270|396:253,1,140
274,93,166952,6,0,L|278:222,1,105.000004005432
385,362,167381,1,0,0:0:0:0:
285,313,167595,2,0,P|230:294|178:306,1,105.000004005432
70,380,168024,2,0,L|61:290,1,70
108,77,168238,2,0,P|138:108|149:150,1,70
19,117,168667,6,0,L|8:-11,1,105.000004005432
63,190,169095,1,0,0:0:0:0:
147,132,169309,2,0,P|200:123|258:135,1,105.000004005432
343,246,169738,2,0,L|358:357,1,105.000004005432
423,132,170167,6,0,L|408:21,1,105.000004005432
455,235,170595,1,0,0:0:0:0:
330,77,170809,1,0,0:0:0:0:
244,255,171024,2,0,L|233:348,1,70
158,186,171238,2,0,L|169:93,1,70
65,253,171452,2,0,L|56:322,1,70
150,359,171667,1,0,0:0:0:0:
68,154,171881,5,0,0:0:0:0:
68,154,171988,1,0,0:0:0:0:
68,154,172095,2,0,P|60:90|79:29,1,105.000004005432
163,283,172524,1,0,0:0:0:0:
235,103,172738,1,0,0:0:0:0:
235,103,172845,1,0,0:0:0:0:
235,103,172952,2,0,P|245:53|278:6,1,105.000004005432
330,325,173381,1,0,0:0:0:0:
426,109,173595,5,0,0:0:0:0:
426,109,173702,1,0,0:0:0:0:
426,109,173809,2,0,P|477:107|522:143,1,105.000004005432
498,370,174238,1,0,0:0:0:0:
327,329,174452,1,0,0:0:0:0:
289,309,174559,1,0,0:0:0:0:
249,298,174666,1,0,0:0:0:0:
207,297,174773,1,0,0:0:0:0:
166,305,174880,1,0,0:0:0:0:
91,377,175095,2,0,P|62:334|61:258,1,105.000004005432
273,182,175524,6,0,L|392:178,1,105.000004005432
162,113,175845,1,0,0:0:0:0:
162,113,175952,2,0,L|45:104,1,105.000004005432
273,182,176274,1,0,0:0:0:0:
273,182,176381,2,0,P|287:231|266:293,1,105.000004005432
162,113,176702,1,0,0:0:0:0:
162,113,176809,2,0,P|148:64|169:2,1,105.000004005432
384,204,177131,5,0,0:0:0:0:
384,204,177238,2,0,L|446:298,1,105.000004005432
234,368,177667,1,0,0:0:0:0:
467,174,177881,1,0,0:0:0:0:
467,174,177988,1,0,0:0:0:0:
467,174,178095,2,0,P|466:119|491:62,1,105.000004005432
304,30,178417,1,0,0:0:0:0:
304,30,178524,2,0,L|195:30,1,105.000004005432
207,266,178952,6,0,L|238:383,1,105.000004005432
329,124,179381,1,0,0:0:0:0:
153,373,179595,1,0,0:0:0:0:
361,258,179809,1,0,0:0:0:0:
92,82,180024,2,0,P|104:134|118:150,1,70
193,247,180239,2,0,P|172:183|97:143,1,140
34,275,180667,6,0,L|47:382,1,105.000004005432
226,84,181095,1,0,0:0:0:0:
193,247,181309,2,0,L|206:354,1,105.000004005432
488,71,181738,2,0,L|478:140,1,70
392,361,181952,2,0,P|389:330|421:259,1,105.000004005432
256,155,182381,6,0,L|133:151,1,105.000004005432
278,356,182809,1,0,0:0:0:0:
89,221,183024,1,0,0:0:0:0:
89,221,183131,1,0,0:0:0:0:
89,221,183238,2,0,P|65:180|73:109,1,105.000004005432
185,2,183667,1,0,0:0:0:0:
135,323,183881,1,0,0:0:0:0:
131,339,184309,5,0,0:0:0:0:
261,159,184524,1,0,0:0:0:0:
261,159,184631,1,0,0:0:0:0:
261,159,184738,1,0,0:0:0:0:
257,286,184952,2,0,P|267:346|304:399,1,105.000004005432
351,164,185381,2,0,P|341:104|304:51,1,105.000004005432
128,115,185702,5,0,0:0:0:0:
128,115,185809,2,0,P|77:117|32:136,1,83.9999974365235
0,263,186238,1,0,0:0:0:0:
257,286,186452,1,0,0:0:0:0:
298,280,186559,1,0,0:0:0:0:
340,282,186666,1,0,0:0:0:0:
381,290,186773,1,0,0:0:0:0:
420,306,186880,1,0,0:0:0:0:
429,148,187095,2,0,L|397:47,1,83.9999974365235
340,282,187524,6,0,P|342:335|370:378,1,83.9999974365235
496,245,187952,1,0,0:0:0:0:
222,253,188167,1,0,0:0:0:0:
222,253,188274,1,0,0:0:0:0:
222,253,188381,2,0,L|128:254,1,83.9999974365235
195,139,188809,2,0,P|195:95|233:46,1,83.9999974365235
222,253,189238,6,0,P|222:297|184:346,1,83.9999974365235
293,183,189667,2,0,L|387:182,1,83.9999974365235
295,57,189988,1,0,0:0:0:0:
295,57,190095,2,0,P|250:51|192:74,1,83.9999974365235
23,177,190524,1,0,0:0:0:0:
293,183,190738,6,0,L|387:182,1,83.9999974365235
357,22,191167,1,0,0:0:0:0:
334,269,191381,1,0,0:0:0:0:
336,280,191809,2,0,P|348:320|381:355,1,70
459,160,192024,2,0,P|447:120|414:85,1,70
322,288,192238,2,0,P|330:321|350:350,1,70
342,156,192452,6,0,B|248:104|185:256|64:210,1,280
65,65,193095,2,0,P|117:61|168:80,1,83.9999974365235
199,288,193524,1,0,0:0:0:0:
199,288,193631,1,0,0:0:0:0:
199,288,193738,2,0,L|208:392,1,83.9999974365235
419,308,194167,1,0,0:0:0:0:
338,122,194381,5,0,0:0:0:0:
301,353,194595,1,0,0:0:0:0:
478,89,194809,1,0,0:0:0:0:
232,309,195024,2,0,B|169:296|156:389|52:351,1,167.999994873047
222,124,195667,1,0,0:0:0:0:
92,255,195881,6,0,L|6:256,1,83.9999974365235
90,36,196309,1,0,0:0:0:0:
210,242,196524,1,0,0:0:0:0:
287,96,196738,1,0,0:0:0:0:
287,96,196845,1,0,0:0:0:0:
287,96,196952,2,0,L|333:201,1,83.9999974365235
424,42,197381,1,0,0:0:0:0:
266,275,197595,1,0,0:0:0:0:
255,284,198667,6,0,L|326:282,1,70
387,162,198881,2,0,L|316:164,1,70
142,211,199095,2,0,L|213:209,1,70
255,91,199309,2,0,L|184:93,1,70
41,211,199524,6,0,L|45:340,1,105.000004005432
212,349,199952,1,0,0:0:0:0:
107,146,200167,1,0,0:0:0:0:
94,108,200274,1,0,0:0:0:0:
73,75,200381,1,0,0:0:0:0:
45,47,200488,1,0,0:0:0:0:
12,27,200595,1,0,0:0:0:0:
168,22,200809,2,0,P|224:32|295:7,1,105.000004005432
368,119,201238,6,0,P|354:175|373:238,1,105.000004005432
468,64,201667,1,0,0:0:0:0:
328,287,201881,1,0,0:0:0:0:
303,317,201988,1,0,0:0:0:0:
270,338,202095,1,0,0:0:0:0:
232,348,202202,1,0,0:0:0:0:
193,344,202309,1,0,0:0:0:0:
102,247,202524,2,0,P|115:196|106:145,1,105.000004005432
260,138,202952,6,0,L|261:263,1,105.000004005432
181,47,203381,1,0,0:0:0:0:
369,207,203595,1,0,0:0:0:0:
369,207,203702,1,0,0:0:0:0:
369,207,203809,2,0,P|426:221|481:195,1,105.000004005432
412,98,204238,2,0,P|355:84|300:110,1,105.000004005432
106,145,204667,6,0,L|-4:147,1,105.000004005432
106,284,205095,1,0,0:0:0:0:
211,93,205309,1,0,0:0:0:0:
211,93,205417,1,0,0:0:0:0:
211,93,205524,2,0,P|216:35|254:-4,1,105.000004005432
330,176,205952,2,0,P|325:234|287:273,1,105.000004005432
217,184,206274,5,0,0:0:0:0:
217,184,206381,2,0,L|221:316,1,105.000004005432
440,207,206809,2,0,L|436:75,1,105.000004005432
330,332,207238,1,0,0:0:0:0:
86,283,207452,2,0,P|130:338|175:331,1,105.000004005432
131,156,207667,2,0,P|147:193|164:158,1,70
96,47,208095,6,0,P|41:43|-3:77,1,105.000004005432
241,105,208524,2,0,P|296:109|340:75,1,105.000004005432
236,211,208952,1,0,0:0:0:0:
426,283,209167,2,0,P|382:338|337:331,1,105.000004005432
381,156,209382,2,0,P|365:193|348:158,1,70
80,236,209809,6,0,P|30:297|18:368,1,140
236,211,210452,1,0,0:0:0:0:
236,211,210559,1,0,0:0:0:0:
236,211,210667,2,0,L|237:96,1,105.000004005432
387,106,211095,1,0,0:0:0:0:
134,185,211309,1,0,0:0:0:0:
131,195,211738,5,0,0:0:0:0:
131,195,211845,1,0,0:0:0:0:
131,195,211952,2,0,L|139:281,1,70
250,224,212167,1,0,0:0:0:0:
250,224,212274,1,0,0:0:0:0:
250,224,212381,2,0,L|258:138,1,70
259,132,212595,1,0,0:0:0:0:
383,299,212809,1,0,0:0:0:0:
352,42,213024,5,0,0:0:0:0:
352,42,213131,1,0,0:0:0:0:
352,42,213238,2,0,P|292:27|226:52,1,105.000004005432
212,315,213667,6,0,L|231:406,1,70
384,200,214095,1,0,0:0:0:0:
387,227,214202,1,0,0:0:0:0:
389,254,214309,1,0,0:0:0:0:
180,235,214524,2,0,P|126:228|61:251,1,105.000004005432
167,108,214952,5,0,0:0:0:0:
167,108,215059,1,0,0:0:0:0:
167,108,215167,2,0,P|224:78|276:71,1,105.000004005432
256,182,215595,1,0,0:0:0:0:
263,220,215702,1,0,0:0:0:0:
264,259,215809,1,0,0:0:0:0:
258,298,215916,1,0,0:0:0:0:
247,336,216023,1,0,0:0:0:0:
345,235,216238,2,0,P|339:162|318:119,1,105.000004005432
131,290,216667,5,0,0:0:0:0:
131,290,216774,1,0,0:0:0:0:
131,290,216881,1,0,0:0:0:0:
344,328,217095,2,0,P|405:329|449:349,1,105.000004005432
470,272,217417,1,0,0:0:0:0:
470,272,217524,2,0,L|478:149,1,105.000004005432
345,235,217952,2,0,P|288:247|235:230,1,105.000004005432
142,121,218381,5,0,0:0:0:0:
142,121,218488,1,0,0:0:0:0:
142,121,218595,2,0,P|123:61|130:6,1,105.000004005432
263,384,219024,1,0,0:0:0:0:
268,345,219131,1,0,0:0:0:0:
267,305,219238,1,0,0:0:0:0:
258,267,219345,1,0,0:0:0:0:
243,231,219452,1,0,0:0:0:0:
45,188,219559,2,0,P|64:233|99:270,1,70
173,182,219774,2,0,P|154:137|119:100,1,70
39,219,219988,5,0,0:0:0:0:
39,219,220095,2,0,L|55:368,1,140
267,305,220524,2,0,B|319:291|319:291|370:306,1,105.000004005432
428,272,220845,1,0,0:0:0:0:
434,220,220952,1,0,0:0:0:0:
424,168,221059,1,0,0:0:0:0:
398,123,221166,1,0,0:0:0:0:
173,182,221381,2,0,L|54:189,1,105.000004005432
116,74,221702,5,0,0:0:0:0:
116,74,221809,2,0,P|173:60|221:73,1,105.000004005432
324,120,222238,1,0,0:0:0:0:
201,266,222452,1,0,0:0:0:0:
201,266,222559,1,0,0:0:0:0:
201,266,222667,2,0,L|238:368,1,105.000004005432
354,311,222988,1,0,0:0:0:0:
354,311,223095,2,0,P|378:237|375:187,1,105.000004005432
173,182,223524,6,0,P|117:154|185:171,1,210.000008010865
378,210,224167,1,0,0:0:0:0:
378,210,224274,1,0,0:0:0:0:
378,210,224381,2,0,L|471:212,2,70.0000026702882
181,309,224809,2,0,L|83:316,2,93.3333333333333
278,238,225238,6,0,P|287:183|272:124,2,116.666666666667
73,148,225667,2,0,P|64:93|79:34,2,116.666666666667
179,92,226095,1,0,0:0:0:0:
272,124,226238,1,0,0:0:0:0:
366,153,226381,1,0,0:0:0:0:
460,181,226524,2,0,B|506:240|416:300|473:365,1,175
311,352,226952,6,0,P|128:305|-25:352,1,350
39,185,227595,1,0,0:0:0:0:
39,185,227702,1,0,0:0:0:0:
39,185,227809,2,0,L|28:93,1,87.5
153,152,228024,1,0,0:0:0:0:
153,152,228131,1,0,0:0:0:0:
153,152,228238,2,0,P|214:139|271:152,1,105.000004005432
261,157,228881,5,0,0:0:0:0:
356,179,229095,1,0,0:0:0:0:
286,297,229309,2,0,P|305:352|318:369,1,70
261,157,229524,2,0,P|208:131|187:128,1,70
91,290,229738,2,0,L|105:372,1,70
86,170,229952,2,0,L|18:125,1,70
158,37,230167,1,0,0:0:0:0:
169,64,230381,5,0,0:0:0:0:
169,64,230809,2,0,P|244:76|310:62,1,140
465,7,231452,1,0,0:0:0:0:
362,110,231667,6,0,P|358:195|390:257,1,140
491,180,232309,1,0,0:0:0:0:
331,297,232524,2,0,P|267:278|194:301,1,140
32,327,233167,1,0,0:0:0:0:
210,195,233381,1,0,0:0:0:0:
52,239,233595,1,0,0:0:0:0:
31,130,233809,6,0,P|1:62|48:7,1,140
107,183,234452,2,0,P|137:251|90:306,1,140
106,103,235095,1,0,0:0:0:0:
206,18,235309,1,0,0:0:0:0:
229,204,235524,5,0,0:0:0:0:
101,9,235738,1,0,0:0:0:0:
325,24,235952,1,0,0:0:0:0:
261,290,236167,2,0,L|233:375,1,70
128,250,236595,1,0,0:0:0:0:
306,224,236809,2,0,P|338:184|340:134,1,70
161,152,237131,5,0,0:0:0:0:
161,152,237238,2,0,L|69:158,1,70
130,22,237667,1,0,0:0:0:0:
194,273,237881,1,0,0:0:0:0:
18,164,238095,1,0,0:0:0:0:
246,155,238309,2,0,P|275:125|281:73,1,70
194,273,238524,2,0,L|221:379,1,105.000004005432
43,265,238952,6,0,L|16:159,1,105.000004005432
106,37,239381,1,0,0:0:0:0:
310,209,239595,2,0,L|386:210,1,70
180,92,240024,2,0,P|161:130|169:174,1,70
290,356,240238,2,0,L|264:254,1,105.000004005432
29,243,240667,5,0,0:0:0:0:
265,137,240881,1,0,0:0:0:0:
6,98,241095,1,0,0:0:0:0:
121,333,241309,1,0,0:0:0:0:
150,36,241524,1,0,0:0:0:0:
232,260,241738,1,0,0:0:0:0:
100,170,241952,1,0,0:0:0:0:
125,173,242059,1,0,0:0:0:0:
151,177,242166,1,0,0:0:0:0:
161,190,243024,6,0,P|177:233|211:271,1,70
355,202,243238,2,0,L|344:118,1,70
171,26,243452,2,0,L|182:116,1,70
253,187,243667,1,0,0:0:0:0:
258,239,243774,1,0,0:0:0:0:
271,290,243881,1,0,0:0:0:0:
279,342,243988,1,0,0:0:0:0:
422,356,244095,6,0,P|444:290|446:128,1,210.000008010865
253,187,244738,1,0,0:0:0:0:
253,187,244845,1,0,0:0:0:0:
253,187,244952,2,0,L|144:194,1,105.000004005432
33,297,245381,2,0,P|56:343|124:359,1,105.000004005432
65,219,245702,5,0,0:0:0:0:
65,219,245809,2,0,L|56:92,1,105.000004005432
253,187,246238,1,0,0:0:0:0:
164,129,246452,1,0,0:0:0:0:
202,94,246559,1,0,0:0:0:0:
253,82,246666,1,0,0:0:0:0:
303,95,246773,1,0,0:0:0:0:
341,131,246880,1,0,0:0:0:0:
341,321,247095,2,0,P|250:365|162:316,1,210.000008010865
353,235,247417,5,0,0:0:0:0:
353,235,247524,2,0,P|407:249|467:244,1,105.000004005432
253,187,247845,1,0,0:0:0:0:
253,187,247952,2,0,P|199:201|139:196,1,105.000004005432
336,126,248274,1,0,0:0:0:0:
336,126,248381,2,0,P|390:140|450:135,1,105.000004005432
248,77,248702,1,0,0:0:0:0:
248,77,248809,2,0,P|194:91|134:86,1,105.000004005432
336,126,249131,5,0,0:0:0:0:
336,126,249238,2,0,P|390:140|450:135,1,105.000004005432
252,284,249667,1,0,0:0:0:0:
79,251,249881,2,0,L|101:318,1,52.5000020027161
232,182,250095,2,0,P|206:160|177:155,1,52.5000020027161
66,95,250309,2,0,L|82:165,1,52.5000020027161
186,232,250524,2,0,P|221:213|234:188,1,52.5000020027161
124,56,250738,2,0,P|89:75|76:100,1,52.5000020027161
186,232,250952,6,0,P|241:197|266:142,1,105.000004005432
400,39,251381,1,0,0:0:0:0:
390,258,251595,2,0,L|382:362,1,105.000004005432
164,168,252024,2,0,P|176:220|190:236,1,70
265,333,252238,2,0,P|244:269|169:229,1,140
41,201,252667,6,0,L|56:322,1,105.000004005432
80,97,253095,1,0,0:0:0:0:
253,130,253309,2,0,P|287:95|281:25,1,105.000004005432
80,93,253738,2,0,L|90:162,1,70
176,383,253952,2,0,P|179:352|147:281,1,105.000004005432
243,234,254381,6,0,B|347:166|353:277|465:202,1,210.000008010865
308,23,255024,2,0,P|301:86|317:126,1,105.000004005432
450,315,255452,2,0,P|457:252|441:212,1,105.000004005432
243,234,255881,6,0,L|131:250,1,105.000004005432
315,123,256309,1,0,0:0:0:0:
366,115,256416,1,0,0:0:0:0:
418,108,256523,1,0,0:0:0:0:
189,49,256738,1,0,0:0:0:0:
189,49,256845,1,0,0:0:0:0:
189,49,256952,2,0,P|134:42|76:61,1,105.000004005432
0,212,257381,1,0,0:0:0:0:
258,340,257595,5,0,0:0:0:0:
258,340,257702,1,0,0:0:0:0:
258,340,257809,2,0,P|298:333|347:342,1,70
434,229,258238,1,0,0:0:0:0:
233,244,258452,2,0,L|174:249,2,35
385,95,258881,1,0,0:0:0:0:
318,270,259095,1,0,0:0:0:0:
319,18,259309,1,0,0:0:0:0:
254,128,259524,5,0,0:0:0:0:
220,29,259738,2,0,P|167:70|154:154,1,140
60,56,260381,1,0,0:0:0:0:
79,224,260595,1,0,0:0:0:0:
79,224,260702,1,0,0:0:0:0:
79,224,260809,1,0,0:0:0:0:
302,194,261024,6,0,P|339:184|383:197,1,70
253,48,261667,1,0,0:0:0:0:
196,255,261881,1,0,0:0:0:0:
459,18,262095,1,0,0:0:0:0:
349,86,262309,1,0,0:0:0:0:
508,138,262524,1,0,0:0:0:0:
369,189,262738,6,0,P|335:184|302:194,1,70
121,131,263381,1,0,0:0:0:0:
151,330,263595,1,0,0:0:0:0:
227,58,263809,1,0,0:0:0:0:
198,220,264024,1,0,0:0:0:0:
57,48,264238,1,0,0:0:0:0:
39,281,264452,5,0,0:0:0:0:
39,281,264559,1,0,0:0:0:0:
39,281,264667,2,0,P|71:293|127:274,1,70
312,225,265095,1,0,0:0:0:0:
223,353,265309,2,0,L|164:358,2,35
443,192,265738,1,0,0:0:0:0:
376,367,265952,1,0,0:0:0:0:
377,115,266166,1,0,0:0:0:0:
312,225,266381,5,0,0:0:0:0:
258,104,266595,2,0,B|197:75|180:131|118:97,1,140
20,177,267238,1,0,0:0:0:0:
20,177,267345,1,0,0:0:0:0:
20,177,267452,2,0,L|25:260,1,70
141,313,267881,6,0,P|145:266|135:231,1,70
195,78,268524,1,0,0:0:0:0:
93,144,268738,1,0,0:0:0:0:
322,99,268952,1,0,0:0:0:0:
383,219,269167,1,0,0:0:0:0:
273,17,269381,1,0,0:0:0:0:
140,244,269595,6,0,P|145:278|141:313,1,70
321,293,270238,1,0,0:0:0:0:
255,160,270452,1,0,0:0:0:0:
401,148,270667,1,0,0:0:0:0:
273,17,270881,1,0,0:0:0:0:
426,12,271095,1,0,0:0:0:0:
321,293,271309,6,0,L|307:377,1,70
96,251,271952,2,0,L|83:210,1,35
183,171,272381,2,0,L|196:130,1,35
75,81,272809,1,0,0:0:0:0:
235,22,273024,6,0,L|279:20,1,35
367,104,273452,2,0,L|323:102,1,35
362,253,273881,1,0,0:0:0:0:
201,182,274095,1,0,0:0:0:0:
50,258,274309,1,0,0:0:0:0:
276,273,274524,1,0,0:0:0:0:
276,273,274738,6,0,B|264:296|264:296|201:256|201:256|136:288|136:288|124:216|124:216|72:160|72:160|156:116|156:116|203:56|203:56|249:121|249:121|331:155|331:155|282:212|282:212|276:273,1,787.5
