osu file format v14

[General]
AudioFilename: audio.mp3
AudioLeadIn: 0
PreviewTime: 64209
Countdown: 0
SampleSet: Normal
StackLeniency: 0.4
Mode: 2
LetterboxInBreaks: 0
EpilepsyWarning: 1
WidescreenStoryboard: 1

[Editor]
Bookmarks: 5565,15778
DistanceSpacing: 0.6
BeatDivisor: 4
GridSize: 32
TimelineZoom: 2.5

[Metadata]
Title:Double Rainbow
TitleUnicode:二重の虹(ダブル レインボウ)
Artist:Poppin'Party
ArtistUnicode:Poppin'Party
Creator:-Mikan
Version:Xetopia's Platter
Source:バンドリ!ガールズバンドパーティ!
Tags:Xetopia Scanter Alumetri DendyHere PantyDev Underdogs game size bang dream! girls band party bandori garupa ガルパ popipa ポピパ ポッピン パーティー nijuu no niji ダブル レインボウ 戸山香澄 Toyama Kasumi 愛美 Aimi 山吹 沙綾 Yamabuki Saaya 大橋彩香 Ohashi Ayaka 牛込 りみ Ushigome Rimi 西本 りみ Nishimoto 花園 たえ Hanazono Tae 大塚紗英 Otsuka Sae 大塚紗英 Ichigaya Arisa 伊藤 彩沙 Itou Ayasa
BeatmapID:1717467
BeatmapSetID:819149

[Difficulty]
HPDrainRate:5
CircleSize:3
OverallDifficulty:8
ApproachRate:8
SliderMultiplier:1.5
SliderTickRate:2

[Events]
//Background and Video events
0,0,"aaaaaa.jpg",0,0
//Break Periods
//Storyboard Layer 0 (Background)
Sprite,Background,Centre,"aaaaaa.jpg",320,240 M,0,31082,,320,240 F,0,31082,,0.4385454 S,19,31082,41295,0.53,0.45
Sprite,Background,Centre,"aaaaaa.jpg",320,240 M,0,84699,,320,240 F,0,84699,,0.4385454 S,19,84699,87252,0.45,0.53
//Storyboard Layer 1 (Fail)
//Storyboard Layer 2 (Pass)
//Storyboard Layer 3 (Foreground)
Sprite,Foreground,Centre,"sb\sprites\fKasumi02.png",320,240 F,0,25671,,0.5 C,0,25671,,0,0,0 S,0,25671,25990,0.412 M,0,25671,26310,325,259.5 S,2,25990,26310,0.412,0.534 R,2,25990,26310,0,0.0815 M,0,26310,,325,259.5 M,0,26310,27267,325,259.5 R,2,26310,31097,0.0815,-0.06 M,2,27267,27905,325,259.5,623.4727,259.5 M,0,27905,31097,623.4727,259.5
Sprite,Foreground,Centre,"sb\sprites\fKasumi02.png",320,240 S,0,25671,25990,0.412 M,0,25671,26310,320,254.5 S,2,25990,26310,0.412,0.534 R,2,25990,26310,0,0.0815 M,0,26310,,320,254.5 M,0,26310,27267,320,254.5 R,2,26310,31097,0.0815,-0.06 M,2,27267,27905,320,254.5,618.4727,254.5 M,0,27905,31097,618.4727,254.5
Sprite,Foreground,Centre,"sb\lyrics\Titles\diffnames\Xetopia_01.png",320,240 C,0,18331,,176,58,177 M,19,18331,18650,429.3818,540.8,413.0909,220.0728 S,0,18331,20884,0.55,0.614 M,0,18650,,413.0909,220.0728 R,0,18650,,0.2909093 M,0,18650,20565,413.0909,220.0728 M,2,20565,20884,413.0909,220.0728,-361.8909,220.0728
//Storyboard Sound Samples

[TimingPoints]
459,319.148936170213,4,2,1,40,1,0
459,-100,4,2,1,40,0,0
4927,-100,4,1,1,65,0,0
5565,-100,4,2,1,60,0,0
7480,-100,4,1,1,65,0,0
9395,-100,4,1,1,90,0,0
10671,-117.647058823529,4,2,1,50,0,0
13224,-111.111111111111,4,1,1,60,0,0
13544,-111.111111111111,4,1,1,45,0,0
13863,-111.111111111111,4,1,1,50,0,0
14182,-111.111111111111,4,1,1,55,0,0
14501,-100,4,1,1,60,0,0
14820,-100,4,1,1,60,0,0
14980,-100,4,1,1,70,0,0
15139,-100,4,1,1,80,0,0
15778,-100,4,1,1,70,0,1
15857,-100,4,1,1,70,0,0
25671,-100,4,1,1,85,0,0
25990,-100,4,1,1,70,0,0
30618,-100,4,3,2,70,0,0
30778,-100,4,1,1,70,0,0
31097,-100,4,1,1,40,0,0
31416,-100,4,2,1,50,0,0
40033,-100,4,1,1,50,0,0
40671,-100,4,1,1,65,0,0
40990,-100,4,1,1,65,0,0
41310,-100,4,1,1,60,0,0
48969,-100,4,1,1,60,0,0
51522,-100,4,1,1,70,0,0
55990,-100,4,3,2,60,0,0
56310,-100,4,1,1,60,0,0
56629,-100,4,1,1,60,0,0
57905,-100,4,1,1,60,0,0
59501,-100,4,1,1,60,0,0
61895,-100,4,1,1,50,0,0
62214,-100,4,1,1,60,0,0
62533,-100,4,1,1,65,0,0
62852,-100,4,1,1,70,0,0
63171,-100,4,1,1,75,0,0
64288,-100,4,1,1,80,0,1
73703,-100,4,3,2,80,0,1
73863,-100,4,1,1,80,0,1
74182,-100,4,1,1,80,0,0
74501,-100,4,1,1,80,0,1
84714,-100,4,2,1,40,0,0
86629,-100,4,3,2,60,0,0
87267,-100,4,1,1,70,0,0
92373,-100,4,1,1,85,0,1
100033,-125,4,2,1,80,0,0
100113,-100,4,2,1,60,0,0
102586,-125,4,2,1,60,0,0
102666,-125,4,2,1,20,0,0
105139,-125,4,2,1,5,0,0

[Colours]
Combo1 : 163,64,157
Combo2 : 240,73,80
Combo3 : 250,200,79
Combo4 : 24,143,241
Combo5 : 247,67,177

[HitObjects]
92,118,459,6,0,L|241:115,2,150,2|0|2,0:0|0:0|0:0,0:0:0:0:
301,343,1416,2,0,L|304:264,1,75,0|0,0:0|0:0,0:0:0:0:
153,258,1735,2,0,P|120:201|181:130,1,150,2|2,0:0|0:0,0:0:0:0:
370,44,2373,2,0,P|399:117|301:206,1,225,2|0,0:0|0:0,0:0:0:0:
140,342,3012,6,0,L|300:338,1,150,2|0,0:0|0:0,0:0:0:0:
78,77,3650,2,0,P|45:102|89:186,1,150,2|0,0:0|0:0,0:0:0:0:
337,271,4288,6,0,L|173:266,1,150,2|2,0:0|0:0,0:0:0:0:
411,133,4927,2,0,L|414:53,1,75,2|0,2:0|3:0,0:0:0:0:
310,96,5246,1,8,1:0:0:0:
410,59,5405,1,0,0:0:0:0:
157,43,5565,6,0,P|115:111|163:146,1,150,4|8,3:1|3:0,0:0:0:0:
235,208,6044,1,0,3:0:0:0:
393,316,6203,2,0,L|238:315,1,150,8|8,3:0|3:0,0:0:0:0:
163,312,6682,1,0,3:0:0:0:
327,232,6841,6,0,L|334:69,1,150,8|8,3:0|3:0,0:0:0:0:
151,44,7320,1,0,3:0:0:0:
148,81,7399,1,0,3:0:0:0:
146,118,7479,1,8,3:0:0:0:
261,43,7639,1,0,3:0:0:0:
263,80,7718,1,0,3:0:0:0:
265,117,7798,1,8,3:0:0:0:
85,272,7959,2,0,L|35:273,1,37.5,8|8,3:0|3:0,0:0:0:0:
85,272,8118,6,0,L|165:271,1,75,8|2,3:0|3:2,0:0:0:0:
356,332,8437,1,8,3:0:0:0:
369,297,8516,1,0,3:0:0:0:
359,262,8596,1,2,3:2:0:0:
330,239,8676,1,0,3:0:0:0:
293,238,8756,1,8,3:0:0:0:
263,260,8835,1,0,3:0:0:0:
252,295,8915,1,2,3:2:0:0:
264,330,8995,1,0,3:0:0:0:
302,345,9076,2,0,L|383:341,1,75,8|2,3:0|3:2,2:2:0:0:
90,222,9395,5,8,3:1:0:0:
437,296,10671,6,0,L|300:294,2,127.50000243187,6|2|0,0:0|0:0|0:0,0:0:0:0:
217,105,11629,2,0,L|139:107,1,63.7500012159348,2|0,0:0|0:0,0:0:0:0:
261,180,11948,6,0,L|406:184,2,127.50000243187,2|0|2,0:0|0:0|0:0,0:0:0:0:
93,299,12905,2,0,L|89:223,1,63.7500012159348,2|2,0:0|0:0,0:0:0:0:
228,151,13224,6,0,L|369:153,2,134.999995880127,0|0|2,3:0|3:0|3:2,0:0:0:0:
93,142,14182,1,2,3:2:0:0:
343,57,14501,6,0,P|362:119|303:171,1,150,4|8,3:1|3:0,0:0:0:0:
268,181,14899,1,8,3:0:0:0:
243,208,14979,1,8,3:0:0:0:
240,245,15059,1,8,3:0:0:0:
261,275,15139,1,10,3:0:0:0:
439,251,15299,6,2,L|483:254,2,37.5,8|8|2,3:0|3:0|3:2,0:0:0:0:
208,334,15778,6,0,L|359:331,2,150,4|8|2,3:1|0:0|3:2,0:0:0:0:
370,214,16735,2,0,L|375:138,1,75,10|2,0:0|1:2,0:0:0:0:
123,50,17054,6,0,P|77:115|128:140,1,150,2|10,3:2|0:0,0:0:0:0:
270,310,17693,2,0,L|273:234,1,75,2|0,3:2|3:0,0:0:0:0:
175,180,18012,2,0,L|89:185,1,75,10|2,0:0|0:0,0:0:0:0:
336,36,18331,6,0,L|494:41,1,150,2|8,3:2|0:0,0:0:0:0:
224,249,18969,1,0,3:0:0:0:
149,250,19128,1,0,3:0:0:0:
74,251,19288,1,10,0:0:0:0:
171,252,19447,1,2,0:0:0:0:
403,220,19607,6,0,L|411:56,1,150,4|10,3:1|0:0,0:0:0:0:
144,82,20246,2,0,L|220:79,1,75,4|0,3:1|3:0,0:0:0:0:
345,50,20565,2,0,L|349:131,1,75,10|2,0:0|0:0,0:0:0:0:
113,281,20884,6,0,L|33:278,2,75,4|0|8,3:1|0:0|0:0,0:0:0:0:
225,235,21363,2,0,L|229:155,1,75,0|0,3:0|0:0,0:0:0:0:
135,162,21682,1,0,0:0:0:0:
371,53,21841,6,0,L|458:51,2,75,8|0|0,3:1|0:0|0:0,0:0:0:0:
246,53,22320,2,0,L|241:133,1,75,0|8,3:0|0:0,0:0:0:0:
320,133,22639,1,2,0:0:0:0:
493,341,22799,2,0,L|404:338,2,75,0|2|8,3:0|0:0|0:0,0:0:0:0:
203,74,23437,6,0,L|361:76,2,150,12|8|8,0:0|0:0|0:0,0:0:0:0:
122,68,24235,1,0,3:0:0:0:
232,154,24395,2,0,L|310:155,1,75,8|0,0:0|3:0,0:0:0:0:
135,171,24714,5,8,0:0:0:0:
29,236,24873,1,8,3:0:0:0:
27,273,24952,1,8,3:0:0:0:
25,310,25032,1,8,3:0:0:0:
214,335,25193,2,0,P|246:276|138:175,1,225,0|4,3:0|3:0,0:0:0:0:
435,50,25990,6,0,L|445:207,1,150,4|8,3:1|0:0,0:0:0:0:
326,214,26469,2,0,L|250:210,2,75,2|0|0,0:0|3:0|3:0,0:0:0:0:
82,313,26948,6,0,P|59:263|111:193,1,150,10|0,1:0|3:0,0:0:0:0:
189,185,27427,1,2,3:1:0:0:
301,145,27586,2,0,L|305:64,1,75,8|0,0:0|3:0,0:0:0:0:
127,44,27905,5,2,3:2:0:0:
350,43,28224,1,10,0:0:0:0:
62,334,28544,6,0,P|64:323|159:231,1,150,4|8,3:1|0:0,0:0:0:0:
258,220,29022,2,0,L|352:214,2,75,2|0|0,0:0|3:0|3:0,0:0:0:0:
434,50,29501,6,0,L|450:208,1,150,10|0,0:0|3:0,0:0:0:0:
357,211,29980,1,2,3:2:0:0:
181,222,30139,2,0,L|174:300,1,75,10|0,0:0|3:0,0:0:0:0:
406,342,30459,2,0,L|484:343,2,75,10|0|2,0:0|3:1|3:1,0:0:0:0:
136,342,31097,6,0,L|134:185,1,150,6|10,3:1|0:0,0:0:0:0:
328,154,31735,1,2,0:0:0:0:
156,151,32054,1,8,0:0:0:0:
436,340,32373,2,0,L|444:178,1,150,2|8,0:0|0:0,0:0:0:0:
216,85,33012,2,0,L|128:86,2,75,2|2|10,0:0|0:0|0:0,0:0:0:0:
433,51,33650,6,0,P|480:100|415:149,1,150,2|8,0:0|0:0,0:0:0:0:
359,151,34129,1,0,0:0:0:0:
284,153,34288,1,2,0:0:0:0:
466,322,34607,1,8,0:0:0:0:
215,331,34927,6,0,L|369:327,1,150,2|8,0:0|0:0,0:0:0:0:
290,329,35405,1,2,0:0:0:0:
215,331,35564,1,2,0:0:0:0:
413,155,35884,1,8,0:0:0:0:
178,23,36203,6,0,L|171:190,1,150,2|8,0:0|0:0,0:0:0:0:
91,193,36682,1,0,0:0:0:0:
206,264,36841,2,0,L|375:272,1,150,2|10,0:0|0:0,0:0:0:0:
127,325,37480,6,0,P|77:283|132:222,1,150,2|8,0:0|0:0,0:0:0:0:
192,217,37959,1,2,0:0:0:0:
116,223,38118,1,0,0:0:0:0:
326,317,38437,2,0,L|403:318,1,75,10|2,0:0|0:0,0:0:0:0:
218,313,38756,6,0,L|67:310,1,150,2|10,0:0|0:0,0:0:0:0:
150,241,39235,1,2,0:0:0:0:
429,203,39714,2,0,L|434:115,1,75,10|2,0:0|0:0,0:0:0:0:
193,52,40033,6,0,P|136:95|206:207,1,225,6|0,3:2|0:0,0:0:0:0:
318,223,40671,2,0,L|320:302,1,75,2|2,0:2|0:2,0:0:0:0:
149,312,40990,2,0,L|65:317,1,75,8|0,0:0|0:0,0:0:0:0:
334,72,41310,6,0,L|418:70,1,75,4|0,3:0|0:0,0:0:0:0:
288,173,41629,2,0,L|130:169,2,150,0|0|0,3:0|3:0|3:0,0:0:0:0:
82,237,42586,2,0,P|42:209|95:141,1,150,0|0,3:0|3:0,0:0:0:0:
248,174,43224,2,0,L|333:178,1,75,0|0,3:0|0:0,0:0:0:0:
232,166,43544,2,0,L|230:85,1,75,0|2,3:0|0:0,0:0:0:0:
410,316,43863,6,0,P|461:264|392:221,1,150,0|0,3:0|3:0,0:0:0:0:
335,205,44341,1,0,0:0:0:0:
145,58,44501,2,0,L|298:56,1,150,0|0,3:0|3:0,0:0:0:0:
56,318,45139,6,0,L|43:155,1,150,0|0,3:0|3:0,0:0:0:0:
125,167,45618,1,0,0:0:0:0:
236,246,45778,2,0,L|251:171,1,75,0|2,3:0|0:3,0:0:0:0:
140,240,46097,2,0,L|124:165,1,75,0|2,3:0|0:3,0:0:0:0:
326,41,46416,6,0,L|477:46,1,150,0|4,3:0|3:0,0:0:0:0:
218,209,47054,2,0,L|65:218,1,150,0|8,3:0|3:0,0:0:0:0:
146,303,47533,1,0,3:0:0:0:
419,318,47693,5,8,0:0:0:0:
134,95,48969,6,0,L|56:99,2,75,6|2|8,3:1|0:0|0:0,0:0:0:0:
399,326,49607,2,0,L|485:332,2,75,2|2|8,3:2|3:2|0:0,0:0:0:0:
169,129,50086,2,0,P|129:203|175:224,1,150,4|2,3:0|3:2,0:0:0:0:
343,337,50565,2,0,L|188:336,2,150,10|0|8,0:0|3:0|0:0,0:0:0:0:
433,336,51363,1,0,0:0:0:0:
166,235,51522,6,0,L|164:157,1,75,4|0,3:2|3:0,0:0:0:0:
400,52,52161,2,0,L|480:55,2,75,0|0|8,3:0|3:0|0:0,0:0:0:0:
135,94,52639,6,0,P|89:136|145:187,1,150,4|0,3:0|3:0,0:0:0:0:
309,300,53118,2,0,L|225:303,1,75,8|0,0:0|0:0,0:0:0:0:
339,232,53437,2,0,L|341:156,1,75,0|0,3:0|3:0,0:0:0:0:
174,81,53756,2,0,L|93:83,1,75,8|0,0:0|0:0,0:0:0:0:
370,335,54076,6,0,L|447:338,1,75,4|0,3:2|3:0,0:0:0:0:
108,291,54714,2,0,L|31:293,2,75,0|0|8,3:0|3:0|0:0,0:0:0:0:
386,242,55193,6,0,L|389:85,1,150,4|0,3:0|3:0,0:0:0:0:
205,82,55671,2,0,L|125:86,1,75,8|0,0:0|3:0,0:0:0:0:
227,172,55990,2,0,L|307:178,1,75,0|0,0:0|3:0,0:0:0:0:
191,218,56310,2,0,L|184:294,1,75,10|0,0:0|0:0,0:0:0:0:
412,338,56629,6,0,P|462:292|397:255,1,150,4|0,3:0|3:0,0:0:0:0:
171,191,57267,1,10,0:0:0:0:
347,192,57586,1,0,3:0:0:0:
81,73,57905,6,0,L|73:151,1,75,4|8,3:0|0:0,0:0:0:0:
171,234,58224,2,0,L|321:231,2,150,0|8|8,3:0|0:0|0:0,0:0:0:0:
57,341,59022,1,0,0:0:0:0:
94,341,59101,1,0,0:0:0:0:
131,342,59181,1,0,3:0:0:0:
426,169,59501,6,0,L|275:167,2,150,6|2|2,0:0|0:0|0:0,0:0:0:0:
186,68,60459,2,0,L|104:70,2,75,0|0|8,3:0|3:0|0:0,0:0:0:0:
369,143,60937,2,0,P|414:203|368:264,1,150,4|0,0:0|0:0,0:0:0:0:
303,278,61416,1,0,3:0:0:0:
51,345,61576,6,0,P|49:267|108:228,1,150,4|0,3:0|3:0,0:0:0:0:
144,226,61974,1,0,3:0:0:0:
186,226,62054,1,8,3:0:0:0:
353,316,62214,6,0,L|401:315,2,37.5,0|0|8,3:0|3:0|3:0,0:0:0:0:
186,235,62533,5,0,3:0:0:0:
184,197,62612,1,0,3:0:0:0:
182,160,62692,1,8,3:0:0:0:
351,45,62852,2,0,L|399:42,1,37.5,0|0,3:0|3:0,0:0:0:0:
351,45,63012,6,0,L|275:48,1,75,8|0,3:0|3:0,0:0:0:0:
110,191,63331,1,8,3:0:0:0:
147,192,63410,1,0,3:0:0:0:
184,194,63490,1,0,3:0:0:0:
425,311,63650,5,0,3:0:0:0:
457,294,63729,1,0,3:0:0:0:
473,261,63809,1,0,3:0:0:0:
457,226,63889,1,0,3:0:0:0:
422,207,63969,1,8,0:0:0:0:
131,332,64288,6,0,L|290:327,2,150,4|8|0,3:0|0:0|3:0,0:0:0:0:
55,340,65086,1,0,3:0:0:0:
226,246,65246,2,0,L|317:243,2,75,8|0|0,0:0|0:0|3:0,0:0:0:0:
465,53,65884,6,0,L|305:54,1,150,8|0,0:0|3:0,0:0:0:0:
236,55,66363,1,0,3:0:0:0:
421,239,66522,2,0,L|425:165,1,75,10|2,0:0|3:2,0:0:0:0:
176,340,66841,6,0,P|128:293|183:247,1,150,4|8,3:0|0:0,0:0:0:0:
256,241,67320,1,0,0:0:0:0:
426,141,67480,2,0,L|265:143,2,150,0|8|0,3:0|0:0|3:0,0:0:0:0:
437,233,68278,1,0,3:0:0:0:
349,239,68437,6,0,L|262:241,1,75,8|0,0:0|3:0,0:0:0:0:
102,240,68756,2,0,L|203:242,1,75,12|0,0:0|3:0,0:0:0:0:
348,165,69076,2,0,L|353:88,1,75,12|0,0:0|3:0,0:0:0:0:
115,318,69395,6,0,B|73:318|57:274|57:274|75:304|121:294,1,150,4|8,3:0|0:0,0:0:0:0:
198,319,69873,1,0,0:0:0:0:
313,289,70033,2,0,L|320:127,1,150,0|8,3:0|0:0,0:0:0:0:
213,131,70512,1,0,0:0:0:0:
334,41,70671,6,0,L|342:196,1,150,0|8,3:0|0:0,0:0:0:0:
443,224,71150,1,2,0:0:0:0:
322,225,71310,2,0,L|223:227,1,75,2|2,3:2|3:2,0:0:0:0:
357,170,71629,2,0,L|435:168,1,75,10|0,0:0|3:0,0:0:0:0:
197,71,71948,6,0,L|35:68,2,150,12|8|8,0:0|0:0|0:0,0:0:0:0:
280,76,72746,1,0,3:0:0:0:
102,175,72905,2,0,L|96:252,1,75,8|0,0:0|3:0,0:0:0:0:
340,213,73224,5,8,0:0:0:0:
372,231,73303,1,0,0:0:0:0:
385,265,73383,1,8,3:0:0:0:
373,300,73463,1,8,3:0:0:0:
342,318,73543,1,8,3:0:0:0:
266,320,73703,1,0,0:0:0:0:
176,254,73863,2,0,L|173:335,1,75,0|0,3:0|3:0,0:0:0:0:
360,324,74182,2,0,L|444:327,1,75,4|0,3:0|0:0,0:0:0:0:
166,98,74501,6,0,L|13:104,2,150,4|8|0,3:0|0:0|3:0,0:0:0:0:
256,93,75299,1,0,3:0:0:0:
365,114,75459,2,0,L|370:38,1,75,8|0,0:0|0:0,0:0:0:0:
197,151,75778,6,0,P|162:233|205:250,1,150,0|8,3:0|0:0,0:0:0:0:
418,253,76416,1,0,3:0:0:0:
199,337,76735,2,0,L|197:247,1,75,10|2,0:0|0:0,0:0:0:0:
430,44,77054,6,0,P|478:99|415:122,1,150,4|8,3:0|0:0,0:0:0:0:
346,129,77533,1,0,0:0:0:0:
191,236,77693,2,0,L|190:75,1,150,0|10,3:0|0:0,0:0:0:0:
283,83,78171,1,0,0:0:0:0:
121,156,78331,6,0,L|278:152,2,150,0|8|12,3:0|0:0|0:0,0:0:0:0:
203,153,79129,1,0,3:0:0:0:
37,221,79288,2,0,L|30:302,1,75,12|0,0:0|3:0,0:0:0:0:
282,359,79607,6,0,P|330:334|280:276,1,150,4|8,3:0|0:0,0:0:0:0:
203,267,80086,1,0,0:0:0:0:
313,184,80246,2,0,L|401:182,2,75,0|2|10,3:0|3:2|0:0,0:0:0:0:
55,81,80884,6,0,L|224:80,1,150,0|8,3:0|0:0,0:0:0:0:
413,79,81522,2,0,L|330:78,1,75,0|0,3:0|3:0,0:0:0:0:
217,185,81841,2,0,L|133:188,1,75,8|2,0:0|3:2,0:0:0:0:
386,335,82161,6,0,L|392:165,1,150,4|8,3:0|0:0,0:0:0:0:
472,159,82639,1,2,0:0:0:0:
294,49,82799,2,0,L|213:52,1,75,0|0,3:0|3:0,0:0:0:0:
336,50,83118,2,0,L|418:52,1,75,8|0,0:0|0:0,0:0:0:0:
170,306,83437,6,0,L|3:311,2,150,4|10|2,3:0|0:0|3:2,0:0:0:0:
252,304,84235,1,0,3:0:0:0:
337,303,84395,2,0,L|341:213,1,75,10|0,0:0|0:0,0:0:0:0:
263,224,84714,5,2,0:0:0:0:
421,341,85990,2,0,L|423:289,1,37.5,2|2,0:0|0:0,0:0:0:0:
204,142,86629,1,0,0:0:0:0:
303,140,86841,1,0,0:0:0:0:
403,139,87054,1,0,0:0:0:0:
206,54,87267,6,0,L|50:54,2,150,4|8|0,3:0|0:0|3:0,0:0:0:0:
382,131,88224,2,0,L|384:208,1,75,10|2,0:0|0:0,0:0:0:0:
229,291,88544,6,0,L|400:293,2,150,2|10|0,3:2|0:0|3:0,0:0:0:0:
138,290,89341,1,2,3:2:0:0:
138,290,89501,1,8,0:0:0:0:
229,291,89661,1,0,0:0:0:0:
393,233,89820,6,0,L|476:234,2,75,4|0|8,3:0|3:0|0:0,0:0:0:0:
309,185,90299,6,0,L|308:110,1,75,0|2,3:0|3:0,0:0:0:0:
386,106,90618,1,0,3:0:0:0:
158,50,90778,6,0,L|81:53,2,75,8|0|2,0:0|0:0|3:0,0:0:0:0:
333,164,91256,2,0,L|384:167,2,37.5,8|8|8,3:0|3:0|3:0,0:0:0:0:
250,158,91576,1,0,0:0:0:0:
81,155,91735,5,10,3:0:0:0:
47,139,91814,1,0,0:0:0:0:
33,105,91894,1,8,3:0:0:0:
44,70,91974,1,8,3:0:0:0:
76,51,92054,1,0,3:0:0:0:
154,34,92214,1,8,3:0:0:0:
397,37,92373,6,0,L|486:40,2,75,4|0|8,0:0|3:0|0:0,0:0:0:0:
186,303,93012,2,0,L|184:137,1,150,8|8,0:0|0:0,0:0:0:0:
269,149,93490,1,0,3:0:0:0:
108,54,93650,6,0,L|269:52,2,150,12|8|8,0:0|0:0|0:0,0:0:0:0:
189,52,94448,1,0,3:0:0:0:
44,137,94607,2,0,L|39:215,1,75,8|0,0:0|3:0,0:0:0:0:
338,52,94927,6,0,L|502:56,2,150,12|8|8,0:0|0:0|0:0,0:0:0:0:
264,49,95724,1,0,3:0:0:0:
429,171,95884,2,0,L|436:253,1,75,8|0,0:0|3:0,0:0:0:0:
204,307,96203,6,0,L|34:313,1,150,12|8,0:0|0:0,0:0:0:0:
45,249,96682,1,0,3:0:0:0:
229,223,96841,2,0,L|235:71,1,150,8|8,0:0|0:0,0:0:0:0:
107,68,97320,1,0,3:0:0:0:
339,39,97480,6,8,L|499:42,2,150,12|8|8,0:0|3:3|3:0,3:3:0:0:
241,34,98278,1,8,3:0:0:0:
421,213,98437,1,12,3:0:0:0:
423,250,98516,1,8,3:0:0:0:
425,287,98596,1,8,3:0:0:0:
146,287,98756,5,12,3:0:0:0:
113,269,98835,1,8,3:0:0:0:
99,235,98915,1,8,3:0:0:0:
107,200,98995,1,8,3:0:0:0:
136,176,99076,2,0,L|235:172,1,75,8|8,3:0|3:0,0:0:0:0:
376,187,99395,5,4,3:1:0:0:
408,169,99474,1,0,3:0:0:0:
422,135,99554,1,0,3:0:0:0:
414,100,99634,1,0,3:0:0:0:
385,76,99715,2,0,L|286:71,1,75,2|0,3:1|3:0,0:0:0:0:
58,59,100033,6,0,P|31:110|101:38,1,480,4|2,3:1|0:0,0:0:0:0:
400,42,101948,1,2,0:0:0:0:
102,48,102586,1,2,0:0:0:0:
256,192,102746,12,0,105139,0:0:0:0:
