osu file format v14

[General]
AudioFilename: audio.mp3
AudioLeadIn: 0
PreviewTime: 64209
Countdown: 0
SampleSet: Soft
StackLeniency: 0.4
Mode: 2
LetterboxInBreaks: 0
EpilepsyWarning: 1
WidescreenStoryboard: 1

[Editor]
Bookmarks: 5550,15763
DistanceSpacing: 0.6
BeatDivisor: 4
GridSize: 32
TimelineZoom: 2.5

[Metadata]
Title:Double Rainbow
TitleUnicode:二重の虹(ダブル レインボウ)
Artist:Poppin'Party
ArtistUnicode:Poppin'Party
Creator:-Mikan
Version:Xetopia's Miracle
Source:バンドリ!ガールズバンドパーティ!
Tags:Xetopia Scanter Alumetri DendyHere PantyDev Underdogs game size bang dream! girls band party bandori garupa ガルパ popipa ポピパ ポッピン パーティー nijuu no niji ダブル レインボウ 戸山香澄 Toyama Kasumi 愛美 Aimi 山吹 沙綾 Yamabuki Saaya 大橋彩香 Ohashi Ayaka 牛込 りみ Ushigome Rimi 西本 りみ Nishimoto 花園 たえ Hanazono Tae 大塚紗英 Otsuka Sae 大塚紗英 Ichigaya Arisa 伊藤 彩沙 Itou Ayasa
BeatmapID:1717466
BeatmapSetID:819149

[Difficulty]
HPDrainRate:7
CircleSize:4.2
OverallDifficulty:9.3
ApproachRate:9.3
SliderMultiplier:1.92
SliderTickRate:2

[Events]
//Background and Video events
0,0,"aaaaaa.jpg",0,0
//Break Periods
//Storyboard Layer 0 (Background)
Sprite,Background,Centre,"aaaaaa.jpg",320,240 M,0,31082,,320,240 F,0,31082,,0.4385454 S,19,31082,41295,0.53,0.45
Sprite,Background,Centre,"aaaaaa.jpg",320,240 M,0,84699,,320,240 F,0,84699,,0.4385454 S,19,84699,87252,0.45,0.53
//Storyboard Layer 1 (Fail)
//Storyboard Layer 2 (Pass)
//Storyboard Layer 3 (Foreground)
Sprite,Foreground,Centre,"sb\sprites\fKasumi02.png",320,240 F,0,25671,,0.5 C,0,25671,,0,0,0 S,0,25671,25990,0.412 M,0,25671,26310,325,259.5 S,2,25990,26310,0.412,0.534 R,2,25990,26310,0,0.0815 M,0,26310,,325,259.5 M,0,26310,27267,325,259.5 R,2,26310,31097,0.0815,-0.06 M,2,27267,27905,325,259.5,623.4727,259.5 M,0,27905,31097,623.4727,259.5
Sprite,Foreground,Centre,"sb\sprites\fKasumi02.png",320,240 S,0,25671,25990,0.412 M,0,25671,26310,320,254.5 S,2,25990,26310,0.412,0.534 R,2,25990,26310,0,0.0815 M,0,26310,,320,254.5 M,0,26310,27267,320,254.5 R,2,26310,31097,0.0815,-0.06 M,2,27267,27905,320,254.5,618.4727,254.5 M,0,27905,31097,618.4727,254.5
Sprite,Foreground,Centre,"sb\lyrics\Titles\diffnames\Xetopia_03.png",320,240 C,0,18331,,176,58,177 M,19,18331,18650,429.3818,540.8,413.0909,220.0728 S,0,18331,20884,0.55,0.614 M,0,18650,,413.0909,220.0728 R,0,18650,,0.2909093 M,0,18650,20565,413.0909,220.0728 M,2,20565,20884,413.0909,220.0728,-361.8909,220.0728
//Storyboard Sound Samples

[TimingPoints]
459,319.148936170213,4,2,1,40,1,0
459,-100,4,2,1,40,0,0
4927,-100,4,1,1,65,0,0
5565,-100,4,2,1,60,0,0
7480,-100,4,1,1,65,0,0
9315,-100,4,1,1,85,0,0
9395,-100,4,1,1,90,0,0
10671,-117.647058823529,4,2,1,50,0,0
13224,-111.111111111111,4,2,1,60,0,0
13544,-111.111111111111,4,2,1,45,0,0
13863,-111.111111111111,4,2,1,50,0,0
14182,-111.111111111111,4,2,1,55,0,0
14501,-100,4,1,1,60,0,0
14820,-100,4,1,1,60,0,0
14980,-100,4,1,1,70,0,0
15139,-100,4,1,1,80,0,0
15459,-100,4,1,1,45,0,0
15498,-100,4,2,1,65,0,0
15778,-100,4,1,1,70,0,1
15857,-86.9565217391304,4,1,1,70,0,0
23437,-90.9090909090909,4,1,1,70,0,0
25671,-90.9090909090909,4,1,1,85,0,0
25990,-90.9090909090909,4,1,1,70,0,0
30618,-100,4,3,2,70,0,0
30778,-100,4,1,1,70,0,0
31097,-100,4,1,1,40,0,0
31416,-100,4,2,1,50,0,0
40033,-100,4,1,1,50,0,0
40671,-100,4,1,1,65,0,0
40990,-100,4,1,1,65,0,0
41230,-100,4,1,1,5,0,0
41310,-83.3333333333333,4,1,1,60,0,0
41629,-100,4,1,1,60,0,0
48650,-100,4,2,1,45,0,0
48889,-100,4,1,1,10,0,0
48969,-90.9090909090909,4,1,1,60,0,0
51522,-100,4,1,1,70,0,0
55990,-100,4,3,2,60,0,0
56310,-100,4,1,1,60,0,0
56549,-100,4,1,1,5,0,0
56629,-100,4,1,1,60,0,0
57826,-100,4,1,1,5,0,0
57905,-100,4,1,1,60,0,0
59501,-90.9090909090909,4,1,1,60,0,0
61496,-90.9090909090909,4,1,1,20,0,0
61576,-90.9090909090909,4,1,1,60,0,0
61895,-100,4,1,1,50,0,0
62214,-100,4,1,1,60,0,0
62533,-100,4,1,1,65,0,0
62852,-90.9090909090909,4,1,1,70,0,0
63012,-71.4285714285714,4,1,1,70,0,0
63171,-71.4285714285714,4,1,1,75,0,0
63650,-90.9090909090909,4,1,1,75,0,0
63969,-100,4,1,1,70,0,0
64209,-100,4,1,1,5,0,0
64288,-83.3333333333333,4,1,1,80,0,1
73703,-90.9090909090909,4,3,2,80,0,1
73863,-90.9090909090909,4,1,1,80,0,1
74182,-90.9090909090909,4,1,1,80,0,0
74501,-83.3333333333333,4,1,1,80,0,1
84634,-100,4,1,1,5,0,1
84714,-100,4,2,1,40,0,0
86629,-90.9090909090909,4,3,2,60,0,0
87267,-86.9565217391304,4,1,1,70,0,0
89820,-84.7457627118644,4,1,1,70,0,0
92373,-83.3333333333333,4,1,1,85,0,1
96203,-76.9230769230769,4,1,1,85,0,1
97480,-83.3333333333333,4,1,1,85,0,1
99395,-76.9230769230769,4,1,1,85,0,1
100033,-90.9090909090909,4,2,1,80,0,0
100113,-90.9090909090909,4,2,1,60,0,0
102586,-125,4,2,1,60,0,0
102666,-125,4,2,1,20,0,0
104900,-125,4,2,1,5,0,0

[Colours]
Combo1 : 163,64,157
Combo2 : 240,73,80
Combo3 : 250,200,79
Combo4 : 24,143,241
Combo5 : 247,67,177

[HitObjects]
175,62,459,6,0,L|172:159,1,96,2|0,0:0|0:0,0:0:0:0:
284,216,778,2,0,L|388:222,1,96,0|0,0:0|0:0,0:0:0:0:
233,313,1097,2,0,L|35:320,1,192,2|0,0:0|0:0,0:0:0:0:
141,229,1576,1,0,0:0:0:0:
425,68,1735,6,0,L|428:170,1,96,2|0,0:0|0:0,0:0:0:0:
310,234,2054,2,0,L|412:238,1,96,2|0,0:0|0:0,0:0:0:0:
265,344,2373,2,0,L|471:338,1,192,2|0,0:0|0:0,0:0:0:0:
357,248,2852,1,0,0:0:0:0:
73,39,3012,6,0,L|66:234,1,192,2|0,0:0|0:0,0:0:0:0:
277,345,3650,2,0,L|281:243,1,96,2|0,0:0|0:0,0:0:0:0:
161,194,3969,2,0,L|260:188,1,96,0|0,0:0|0:0,0:0:0:0:
497,42,4288,6,0,L|301:38,1,192,2|2,0:0|0:0,0:0:0:0:
403,133,4767,1,0,0:0:0:0:
133,343,4927,6,0,L|129:244,1,96,2|0,2:0|3:0,0:0:0:0:
387,68,5246,2,0,L|491:71,1,96,8|0,1:0|0:0,0:0:0:0:
194,36,5565,6,0,P|192:121|282:162,1,192,4|8,3:1|3:0,0:0:0:0:
404,153,6044,2,0,L|408:204,1,48,0|0,3:0|3:0,0:0:0:0:
158,342,6203,2,0,L|255:346,2,96,8|0|8,3:0|3:0|3:0,0:0:0:0:
30,265,6682,2,0,L|80:262,1,48,0|0,3:0|3:0,0:0:0:0:
311,215,6841,6,0,L|317:115,1,96,8|0,3:0|3:0,0:0:0:0:
171,53,7161,2,0,L|66:58,1,96,8|0,3:0|3:0,0:0:0:0:
123,88,7400,1,0,3:0:0:0:
342,330,7480,2,0,L|347:231,1,96,8|0,3:0|3:0,0:0:0:0:
274,243,7719,1,0,3:0:0:0:
444,113,7799,2,0,L|348:108,1,96,8|8,3:0|3:0,0:0:0:0:
286,106,8038,1,8,3:0:0:0:
48,279,8118,2,0,L|144:274,1,96,8|2,3:0|3:2,0:0:0:0:
206,269,8357,1,0,3:0:0:0:
400,341,8437,5,8,3:0:0:0:
416,296,8516,1,0,3:0:0:0:
399,253,8596,1,2,3:2:0:0:
357,231,8676,1,0,3:0:0:0:
271,199,8756,2,0,L|266:148,1,48,8|0,3:0|3:0,0:0:0:0:
405,113,8916,2,0,L|410:58,1,48,2|0,3:2|3:0,0:0:0:0:
217,48,9076,2,0,L|164:51,1,48,8|0,3:0|3:0,2:2:0:0:
402,132,9236,2,0,L|465:136,1,48,2|0,3:2|3:0,0:0:0:0:
95,41,9395,5,8,3:1:0:0:
226,75,10671,6,0,L|396:80,2,163.200003112793,6|2|0,0:0|0:0|0:0,0:0:0:0:
83,130,11469,2,0,L|77:212,1,81.6000015563965,2|2,0:0|0:0,0:0:0:0:
174,220,11788,1,0,0:0:0:0:
300,343,11948,6,0,L|382:338,2,81.6000015563965,2|2|0,0:0|0:0|0:0,0:0:0:0:
425,267,12427,1,2,0:0:0:0:
354,230,12586,1,2,0:0:0:0:
325,155,12746,1,2,0:0:0:0:
353,81,12905,1,2,0:0:0:0:
424,44,13065,1,2,0:0:0:0:
171,108,13224,6,0,L|169:197,1,86.3999973632813,0|0,3:0|2:0,0:0:0:0:
300,286,13544,2,0,L|212:289,1,86.3999973632813,0|0,3:0|2:0,0:0:0:0:
66,347,13863,2,0,L|154:352,1,86.3999973632813,2|0,3:2|2:0,0:0:0:0:
300,286,14182,2,0,L|212:288,1,86.3999973632813,2|0,3:2|2:0,0:0:0:0:
459,240,14501,6,0,L|463:91,1,144,4|8,3:1|3:0,0:0:0:0:
258,220,14820,1,8,3:0:0:0:
242,177,14899,1,8,3:0:0:0:
259,133,14979,1,8,3:0:0:0:
323,109,15059,1,8,3:0:0:0:
148,132,15139,2,0,L|88:129,1,48,10|8,3:0|3:0,0:0:0:0:
290,45,15299,2,0,L|350:50,1,48,8|8,3:0|3:0,0:0:0:0:
82,251,15459,2,2,L|76:285,6,24,2|2|2|2|2|2|2,3:2|0:0|0:0|0:0|0:0|0:0|0:0,0:0:0:0:
388,344,15778,6,0,L|491:348,1,96,4|0,3:1|0:0,0:0:0:0:
235,118,16097,2,0,L|60:120,1,165.600003158569,8|0,0:0|0:0,0:0:0:0:
282,335,16416,6,0,P|351:283|273:203,1,220.800004211426,2|10,3:2|0:0,0:0:0:0:
394,135,16895,1,2,1:2:0:0:
130,69,17054,2,0,L|121:183,1,110.400002105713,2|0,3:2|3:0,0:0:0:0:
413,329,17373,2,0,P|395:308|277:235,1,165.600003158569,10|0,0:0|0:0,0:0:0:0:
21,220,17693,6,0,P|46:196|219:107,1,220.800004211426,2|10,3:2|0:0,0:0:0:0:
78,44,18171,1,2,0:0:0:0:
319,253,18331,6,0,L|94:257,2,220.800004211426,2|8|0,3:2|0:0|3:0,0:0:0:0:
432,249,19129,1,0,3:0:0:0:
175,71,19288,2,0,L|167:186,1,110.400002105713,10|2,0:0|0:0,0:0:0:0:
440,345,19607,6,0,L|267:342,1,165.600003158569,4|0,3:1|0:0,0:0:0:0:
356,275,19927,1,10,0:0:0:0:
132,135,20086,1,2,0:0:0:0:
449,43,20246,6,0,P|442:64|320:147,1,165.600003158569,4|0,3:1|0:0,0:0:0:0:
161,326,20565,2,0,L|158:214,1,110.400002105713,10|2,0:0|0:0,0:0:0:0:
479,42,20884,5,4,3:1:0:0:
255,43,21044,2,0,L|243:154,1,110.400002105713,0|8,0:0|0:0,0:0:0:0:
21,192,21363,5,0,3:0:0:0:
252,170,21523,2,0,L|264:286,1,110.400002105713,0|0,0:0|0:0,0:0:0:0:
491,352,21841,5,8,3:1:0:0:
199,326,22001,2,0,L|324:327,1,110.400002105713,0|0,0:0|0:0,0:0:0:0:
83,320,22320,5,0,3:0:0:0:
322,240,22480,2,0,L|210:238,1,110.400002105713,8|2,0:0|0:0,0:0:0:0:
434,159,22799,2,0,L|442:48,1,110.400002105713,0|2,3:0|0:0,0:0:0:0:
157,154,23118,2,0,L|149:40,1,110.400002105713,8|0,0:0|0:0,0:0:0:0:
460,343,23437,6,0,L|341:339,1,105.600003222656,12|0,0:0|3:0,0:0:0:0:
98,331,23756,2,0,L|90:222,1,105.600003222656,8|0,0:0|3:0,0:0:0:0:
337,234,24076,2,0,L|345:125,1,105.600003222656,8|0,0:0|3:0,0:0:0:0:
70,318,24395,2,0,L|62:209,1,105.600003222656,8|0,0:0|3:0,0:0:0:0:
350,47,24714,5,8,0:0:0:0:
222,125,24873,1,8,3:0:0:0:
220,177,24952,1,8,3:0:0:0:
219,230,25032,1,8,3:0:0:0:
370,330,25193,5,0,3:0:0:0:
416,305,25272,1,0,3:0:0:0:
442,260,25352,1,0,3:0:0:0:
442,208,25432,1,0,3:0:0:0:
414,164,25512,1,0,3:0:0:0:
367,141,25591,1,0,3:0:0:0:
78,266,25671,6,0,L|72:102,1,158.400004833985,4|0,3:0|0:0,0:0:0:0:
390,38,25990,6,0,P|381:65|273:146,1,158.400004833985,4|0,3:1|0:0,0:0:0:0:
204,150,26310,1,8,0:0:0:0:
484,277,26469,1,2,0:0:0:0:
324,352,26629,2,0,L|319:245,1,105.600003222656,0|0,3:0|3:0,0:0:0:0:
35,52,26948,6,0,L|194:51,1,158.400004833985,10|0,1:0|0:0,0:0:0:0:
107,127,27267,1,0,3:0:0:0:
351,200,27427,1,2,3:1:0:0:
193,328,27586,1,8,0:0:0:0:
357,334,27746,1,0,3:0:0:0:
359,281,27825,1,0,3:0:0:0:
361,228,27905,5,2,3:2:0:0:
248,225,28065,1,0,3:0:0:0:
487,105,28224,2,0,L|495:217,1,105.600003222656,10|0,0:0|0:0,0:0:0:0:
173,179,28544,6,0,P|199:204|321:249,1,158.400004833985,4|0,3:1|0:0,0:0:0:0:
390,261,28864,1,8,0:0:0:0:
119,67,29022,1,2,0:0:0:0:
259,63,29182,1,0,3:0:0:0:
119,67,29341,1,0,3:0:0:0:
403,331,29501,6,0,L|245:333,1,158.400004833985,10|0,0:0|0:0,0:0:0:0:
332,264,29820,1,0,3:0:0:0:
93,185,29980,1,2,3:2:0:0:
343,65,30139,2,0,L|353:172,1,105.600003222656,10|0,0:0|3:0,0:0:0:0:
80,333,30459,2,0,L|186:333,1,105.600003222656,10|0,0:0|3:1,0:0:0:0:
354,324,30778,2,0,L|456:324,1,96,2|0,3:1|3:1,0:0:0:0:
190,127,31097,6,0,P|134:187|216:253,1,192,6|10,3:1|0:0,0:0:0:0:
296,260,31576,1,0,0:0:0:0:
150,41,31735,2,0,L|346:40,2,192,2|8|2,0:0|0:0|0:0,0:0:0:0:
406,42,32693,1,8,0:0:0:0:
178,267,33012,2,0,L|282:269,1,96,2|2,0:0|0:0,0:0:0:0:
147,146,33331,2,0,L|139:250,1,96,10|2,0:0|0:0,0:0:0:0:
313,337,33650,6,0,L|321:142,1,192,2|8,0:0|0:0,0:0:0:0:
186,140,34129,1,0,0:0:0:0:
320,145,34288,2,0,L|338:342,1,192,2|8,0:0|0:0,0:0:0:0:
66,354,34927,2,0,L|51:162,1,192,2|8,0:0|0:0,0:0:0:0:
352,64,35565,2,0,L|155:62,1,192,2|8,0:0|0:0,0:0:0:0:
423,300,36203,6,0,P|486:237|413:181,1,192,2|8,0:0|0:0,0:0:0:0:
328,169,36682,1,0,0:0:0:0:
183,96,36841,1,2,0:0:0:0:
416,39,37161,1,10,0:0:0:0:
143,229,37480,6,0,L|336:227,1,192,2|8,0:0|0:0,0:0:0:0:
431,226,37959,1,2,0:0:0:0:
307,130,38118,2,0,L|209:129,1,96,0|0,0:0|0:0,0:0:0:0:
367,47,38437,2,0,L|371:153,1,96,10|2,0:0|0:0,0:0:0:0:
99,338,38756,5,2,0:0:0:0:
47,251,38915,1,0,0:0:0:0:
102,164,39075,1,10,0:0:0:0:
212,46,39235,6,0,P|207:93|92:189,1,192,2|2,0:0|0:0,0:0:0:0:
248,266,39714,2,0,L|140:263,1,96,10|2,0:0|0:0,0:0:0:0:
396,344,40033,6,0,P|464:260|390:111,1,288,6|0,3:2|0:0,0:0:0:0:
252,53,40671,2,0,L|352:51,1,96,2|2,0:2|0:2,0:0:0:0:
77,42,40990,2,0,L|70:188,1,144,8|0,0:0|0:0,0:0:0:0:
309,324,41310,6,0,P|372:293|295:183,1,230.39999296875,4|0,3:0|3:0,0:0:0:0:
195,175,41788,1,0,0:0:0:0:
320,60,41948,2,0,L|223:58,1,96,0|0,3:0|0:0,0:0:0:0:
96,265,42267,2,0,L|194:259,1,96,0|0,3:0|0:0,0:0:0:0:
423,345,42586,6,0,L|429:249,1,96,0|0,3:0|0:0,0:0:0:0:
301,184,42905,2,0,L|399:182,1,96,0|0,3:0|0:0,0:0:0:0:
245,37,43224,1,0,3:0:0:0:
213,125,43383,1,0,0:0:0:0:
252,209,43543,1,0,3:0:0:0:
340,241,43702,1,2,0:0:0:0:
89,268,43863,6,0,P|29:207|96:142,1,192,0|0,3:0|3:0,0:0:0:0:
184,144,44341,1,0,0:0:0:0:
320,73,44501,2,0,L|220:73,1,96,0|0,3:0|0:0,0:0:0:0:
98,72,44820,2,0,L|93:168,1,96,0|2,3:0|0:0,0:0:0:0:
340,348,45139,5,0,3:0:0:0:
366,257,45298,1,0,0:0:0:0:
326,173,45458,1,0,3:0:0:0:
239,137,45617,1,0,0:0:0:0:
63,139,45778,2,0,L|59:37,1,96,0|2,3:0|0:3,0:0:0:0:
195,37,46097,1,0,3:0:0:0:
92,40,46256,1,2,0:3:0:0:
324,36,46416,6,0,L|328:136,1,96,0|0,3:0|0:0,0:0:0:0:
182,228,46735,2,0,L|280:233,1,96,4|0,3:0|0:0,0:0:0:0:
414,308,47054,2,0,L|314:312,1,96,0|0,3:0|3:0,0:0:0:0:
158,144,47373,2,0,L|154:40,1,96,8|0,3:0|3:0,3:3:0:0:
452,308,47693,5,8,0:0:0:0:
114,52,48650,2,0,L|107:200,1,144,2|0,0:0|0:0,0:0:0:0:
351,322,48969,6,0,L|240:324,1,105.600003222656,6|2,3:1|0:0,0:0:0:0:
394,257,49288,2,0,L|399:150,1,105.600003222656,8|0,0:0|0:0,0:0:0:0:
126,71,49607,1,2,3:2:0:0:
256,71,49767,1,2,3:2:0:0:
126,71,49927,1,8,0:0:0:0:
393,272,50086,6,0,L|175:269,1,211.200006445313,4|2,3:0|3:2,0:0:0:0:
415,46,50565,6,0,L|423:157,1,105.600003222656,10|0,0:0|0:0,0:0:0:0:
181,338,50884,2,0,L|71:336,1,105.600003222656,0|2,3:0|3:2,0:0:0:0:
306,218,51203,2,0,L|416:216,1,105.600003222656,8|0,0:0|0:0,0:0:0:0:
173,63,51522,5,4,3:2:0:0:
479,217,51682,2,0,L|276:217,1,192,0|0,3:0|0:0,0:0:0:0:
53,83,52161,5,0,3:0:0:0:
354,347,52320,2,0,L|359:238,1,96,0|8,3:0|0:0,0:0:0:0:
98,38,52639,5,4,3:0:0:0:
193,38,52798,1,0,0:0:0:0:
289,38,52958,1,0,3:0:0:0:
137,132,53118,2,0,L|132:230,1,96,8|0,0:0|0:0,0:0:0:0:
349,196,53437,2,0,L|448:199,1,96,0|0,3:0|3:0,0:0:0:0:
221,332,53756,2,0,L|112:336,1,96,8|0,0:0|0:0,0:0:0:0:
365,321,54076,5,4,3:2:0:0:
40,306,54235,2,0,L|237:307,1,192,0|0,3:0|0:0,0:0:0:0:
480,157,54714,5,0,3:0:0:0:
172,49,54873,2,0,L|168:154,1,96,0|8,3:0|0:0,0:0:0:0:
397,341,55193,6,0,P|457:272|387:217,1,192,4|0,3:0|3:0,0:0:0:0:
145,170,55671,2,0,L|249:172,1,96,8|0,0:0|3:0,0:0:0:0:
111,61,55990,2,0,L|102:158,1,96,0|0,0:0|3:0,0:0:0:0:
339,282,56310,2,0,L|492:287,1,144,10|0,0:0|0:0,0:0:0:0:
226,47,56629,6,0,P|170:90|241:170,1,192,4|0,3:0|3:0,0:0:0:0:
344,175,57107,1,0,0:0:0:0:
207,338,57267,2,0,L|204:233,1,96,10|2,0:0|3:2,0:0:0:0:
66,190,57586,2,0,L|172:188,1,96,0|0,3:0|0:0,0:0:0:0:
394,73,57905,6,0,L|286:76,1,96,4|8,3:0|0:0,0:0:0:0:
449,157,58224,2,0,L|451:266,1,96,0|0,3:0|3:0,0:0:0:0:
300,323,58544,2,0,L|395:320,1,96,8|0,0:0|3:0,0:0:0:0:
161,202,58863,1,8,0:0:0:0:
61,164,59022,1,0,0:0:0:0:
58,116,59101,1,0,0:0:0:0:
56,68,59181,1,0,3:0:0:0:
349,48,59501,6,0,L|242:50,1,105.600003222656,6|0,0:0|3:0,0:0:0:0:
398,108,59820,2,0,L|402:219,1,105.600003222656,2|0,0:0|3:0,0:0:0:0:
117,339,60139,2,0,L|223:341,1,105.600003222656,2|0,0:0|3:0,0:0:0:0:
479,218,60459,1,0,3:0:0:0:
354,222,60618,1,0,3:0:0:0:
479,218,60778,1,8,0:0:0:0:
196,68,60937,6,0,L|190:176,1,105.600003222656,4|0,0:0|0:0,0:0:0:0:
450,343,61256,2,0,L|290:346,1,158.400004833985,0|0,0:0|0:0,0:0:0:0:
52,302,61576,6,0,P|71:281|236:187,1,211.200006445313,4|0,3:0|3:0,0:0:0:0:
277,187,61974,1,0,3:0:0:0:
226,189,62054,1,8,3:0:0:0:
361,46,62214,5,0,3:0:0:0:
365,93,62293,1,0,3:0:0:0:
369,141,62373,1,8,3:0:0:0:
222,276,62533,5,0,3:0:0:0:
269,273,62612,1,0,3:0:0:0:
317,270,62692,1,8,3:0:0:0:
484,272,62852,2,0,L|421:267,1,52.8000016113282,0|0,3:0|3:0,0:0:0:0:
219,339,63012,5,8,3:0:0:0:
187,281,63091,1,0,3:0:0:0:
207,219,63171,1,0,3:0:0:0:
266,192,63251,1,0,3:0:0:0:
323,167,63331,1,8,3:0:0:0:
354,109,63410,1,0,3:0:0:0:
334,47,63490,1,0,3:0:0:0:
275,20,63570,1,0,3:0:0:0:
108,139,63650,6,0,L|104:84,1,52.8000016113282,0|0,3:0|3:0,0:0:0:0:
320,120,63810,2,0,L|376:121,1,52.8000016113282,0|0,3:0|3:0,0:0:0:0:
170,267,63969,2,0,L|27:270,1,144,8|0,0:0|0:0,0:0:0:0:
304,35,64288,6,0,P|334:43|488:35,1,172.799994726563,4|0,3:0|0:0,0:0:0:0:
252,108,64607,2,0,L|232:226,1,115.199996484375,8|0,0:0|0:0,0:0:0:0:
381,243,64927,2,0,L|400:359,1,115.199996484375,0|0,3:0|3:0,0:0:0:0:
165,336,65246,1,8,0:0:0:0:
284,340,65405,1,0,0:0:0:0:
25,75,65565,6,0,P|41:115|158:177,1,172.799994726563,0|0,3:0|3:0,0:0:0:0:
313,316,65884,2,0,L|328:198,1,115.199996484375,8|0,0:0|0:0,0:0:0:0:
141,310,66203,2,0,L|126:195,1,115.199996484375,0|0,3:0|3:0,0:0:0:0:
347,93,66522,1,10,0:0:0:0:
207,91,66682,1,2,3:2:0:0:
491,34,66841,6,0,P|468:68|292:151,1,230.39999296875,4|8,3:0|0:0,0:0:0:0:
418,217,67320,1,0,0:0:0:0:
262,321,67480,2,0,L|249:203,1,115.199996484375,0|0,3:0|3:0,0:0:0:0:
416,324,67799,2,0,L|427:207,1,115.199996484375,8|0,0:0|0:0,0:0:0:0:
200,160,68118,6,0,L|189:45,1,115.199996484375,0|0,3:0|3:0,0:0:0:0:
470,163,68437,2,0,L|481:48,1,115.199996484375,8|0,0:0|3:0,0:0:0:0:
190,46,68756,1,12,0:0:0:0:
324,47,68916,1,0,3:0:0:0:
34,45,69076,1,12,0:0:0:0:
254,48,69235,1,0,3:0:0:0:
470,321,69395,6,0,L|234:320,1,230.39999296875,4|8,3:0|0:0,0:0:0:0:
359,239,69873,1,0,0:0:0:0:
117,128,70033,5,0,3:0:0:0:
254,71,70193,2,0,L|264:190,1,115.199996484375,0|8,3:0|0:0,0:0:0:0:
397,202,70512,1,0,0:0:0:0:
145,339,70671,6,0,L|130:223,1,115.199996484375,0|0,3:0|3:0,0:0:0:0:
367,339,70990,2,0,L|383:217,1,115.199996484375,8|2,0:0|0:0,0:0:0:0:
144,45,71310,5,2,3:2:0:0:
267,45,71469,1,2,3:2:0:0:
114,111,71629,2,0,L|103:229,1,115.199996484375,10|0,0:0|3:0,0:0:0:0:
364,346,71948,6,0,L|486:347,1,115.199996484375,12|0,0:0|3:0,0:0:0:0:
206,263,72267,2,0,L|197:146,1,115.199996484375,8|0,0:0|3:0,0:0:0:0:
484,58,72586,2,0,L|365:60,1,115.199996484375,8|0,0:0|3:0,0:0:0:0:
143,302,72905,2,0,L|18:306,1,115.199996484375,8|0,0:0|3:0,0:0:0:0:
307,326,73224,5,8,0:0:0:0:
360,307,73303,1,0,0:0:0:0:
383,257,73383,1,8,3:0:0:0:
362,205,73463,1,8,3:0:0:0:
310,184,73544,1,8,3:0:0:0:
171,165,73703,1,0,0:0:0:0:
55,146,73863,2,0,L|52:41,1,105.600003222656,0|0,3:0|3:0,0:0:0:0:
333,342,74182,2,0,P|406:334|506:345,1,158.400004833985,4|0,3:0|0:0,0:0:0:0:
224,178,74501,6,0,P|148:169|26:180,1,172.799994726563,4|0,3:0|0:0,0:0:0:0:
277,30,74820,2,0,L|298:147,1,115.199996484375,8|0,0:0|0:0,0:0:0:0:
142,27,75139,2,0,L|118:141,1,115.199996484375,0|0,3:0|3:0,0:0:0:0:
356,342,75459,1,8,0:0:0:0:
222,340,75618,1,0,0:0:0:0:
485,299,75778,6,0,P|471:284|324:203,1,172.799994726563,0|0,3:0|0:0,0:0:0:0:
170,158,76097,2,0,L|155:42,1,115.199996484375,8|0,0:0|0:0,0:0:0:0:
426,162,76416,2,0,L|441:46,1,115.199996484375,0|0,3:0|3:0,0:0:0:0:
186,37,76735,1,10,0:0:0:0:
320,40,76895,1,2,0:0:0:0:
42,127,77054,6,0,P|57:143|255:224,1,230.39999296875,4|8,3:0|0:0,0:0:0:0:
123,272,77533,1,0,0:0:0:0:
401,212,77693,2,0,L|408:86,1,115.199996484375,0|0,3:0|3:0,0:0:0:0:
149,278,78012,2,0,L|27:280,1,115.199996484375,10|0,0:0|0:0,0:0:0:0:
277,238,78331,6,0,L|282:123,1,115.199996484375,0|0,3:0|3:0,0:0:0:0:
42,140,78650,2,0,L|38:24,1,115.199996484375,8|0,0:0|3:0,0:0:0:0:
323,37,78969,1,12,0:0:0:0:
198,38,79129,1,0,3:0:0:0:
483,40,79288,1,12,0:0:0:0:
258,38,79448,1,0,3:0:0:0:
32,333,79607,6,0,P|44:319|246:210,1,230.39999296875,4|8,3:0|0:0,0:0:0:0:
109,142,80086,1,0,0:0:0:0:
367,178,80246,6,0,L|378:294,1,115.199996484375,0|2,3:0|3:2,0:0:0:0:
98,53,80565,2,0,L|87:173,1,115.199996484375,10|2,0:0|3:2,0:0:0:0:
378,245,80884,6,0,P|409:240|368:110,1,230.39999296875,0|8,3:0|0:0,0:0:0:0:
256,111,81363,1,0,0:0:0:0:
415,42,81522,6,0,L|423:164,1,115.199996484375,0|0,3:0|3:0,0:0:0:0:
140,42,81841,2,0,L|132:162,1,115.199996484375,8|2,0:0|3:2,0:0:0:0:
469,346,82161,6,0,P|451:327|263:241,1,230.39999296875,4|8,3:0|0:0,0:0:0:0:
149,227,82639,1,2,0:0:0:0:
469,240,82799,6,0,L|484:120,1,115.199996484375,0|0,3:0|3:0,0:0:0:0:
247,44,83118,1,8,0:0:0:0:
375,42,83278,1,0,0:0:0:0:
126,113,83437,6,0,P|59:151|141:246,1,230.39999296875,4|10,3:0|0:0,0:0:0:0:
13,316,83916,1,0,0:0:0:0:
293,77,84076,2,0,L|298:258,1,172.799994726563,2|0,3:2|0:0,0:0:0:0:
194,72,84395,2,0,L|185:254,1,172.799994726563,10|0,0:0|0:0,0:0:0:0:
281,249,84714,5,2,0:0:0:0:
424,38,85990,2,0,L|427:95,1,48,2|2,0:0|0:0,0:0:0:0:
44,314,86629,2,0,L|198:316,2,140.800004296875,0|0|0,0:0|0:0|0:0,0:0:0:0:
381,206,87267,6,0,L|493:209,1,110.400002105713,4|0,3:0|0:0,0:0:0:0:
255,50,87586,2,0,L|78:52,1,165.600003158569,8|0,0:0|0:0,0:0:0:0:
321,149,87905,2,0,L|327:326,1,165.600003158569,0|0,3:0|0:0,0:0:0:0:
236,316,88224,1,10,0:0:0:0:
458,348,88384,1,2,0:0:0:0:
172,234,88544,6,0,L|166:120,1,110.400002105713,2|0,3:2|3:0,0:0:0:0:
383,47,88863,2,0,L|496:45,1,110.400002105713,10|2,0:0|0:0,0:0:0:0:
324,46,89182,2,0,L|210:43,1,110.400002105713,0|2,3:0|3:2,0:0:0:0:
373,120,89501,2,0,L|381:234,1,110.400002105713,8|0,0:0|0:0,0:0:0:0:
67,338,89820,5,4,3:0:0:0:
300,345,89980,2,0,L|386:266,1,113.279996024414,0|8,3:0|0:0,0:0:0:0:
150,339,90299,5,0,3:0:0:0:
383,268,90459,2,0,L|392:154,1,113.279996024414,2|0,3:0|3:0,0:0:0:0:
162,228,90778,5,8,0:0:0:0:
391,155,90937,2,0,L|299:71,1,113.279996024414,0|2,0:0|3:0,0:0:0:0:
51,114,91256,2,0,L|46:50,1,56.6399980122071,8|8,3:0|3:0,0:0:0:0:
234,111,91416,6,0,L|240:173,3,56.6399980122071,8|0|0|0,3:0|0:0|0:0|0:0,0:0:0:0:
37,188,91735,2,0,L|30:258,1,56.6399980122071,10|0,3:0|0:0,0:0:0:0:
255,351,91895,5,8,3:0:0:0:
301,323,91974,1,8,3:0:0:0:
324,273,92054,1,0,3:0:0:0:
315,220,92134,1,0,3:0:0:0:
278,180,92214,1,8,3:0:0:0:
225,169,92293,1,8,3:0:0:0:
448,43,92373,6,0,L|455:158,1,115.199996484375,4|0,0:0|3:0,0:0:0:0:
198,307,92693,2,0,L|80:307,1,115.199996484375,8|0,0:0|3:0,0:0:0:0:
314,235,93012,1,8,0:0:0:0:
453,235,93171,1,0,3:0:0:0:
314,235,93331,1,8,0:0:0:0:
453,235,93490,1,0,3:0:0:0:
187,65,93650,6,0,L|66:64,1,115.199996484375,12|0,0:0|3:0,0:0:0:0:
306,125,93969,2,0,L|311:243,1,115.199996484375,8|0,0:0|3:0,0:0:0:0:
44,351,94288,1,8,0:0:0:0:
183,351,94447,1,0,3:0:0:0:
44,351,94607,1,8,0:0:0:0:
183,351,94766,1,0,3:0:0:0:
464,216,94927,6,0,L|346:211,1,115.199996484375,12|0,0:0|3:0,0:0:0:0:
92,190,95246,2,0,L|87:69,1,115.199996484375,8|0,0:0|3:0,0:0:0:0:
339,75,95565,1,8,0:0:0:0:
478,75,95724,1,0,3:0:0:0:
339,75,95884,1,8,0:0:0:0:
478,75,96043,1,0,3:0:0:0:
180,53,96203,6,0,L|46:53,1,124.79999428711,12|0,0:0|3:0,0:0:0:0:
345,320,96522,2,0,L|480:325,1,124.79999428711,8|0,0:0|3:0,0:0:0:0:
145,339,96841,2,0,L|143:206,1,124.79999428711,8|0,0:0|3:0,0:0:0:0:
367,291,97161,1,8,0:0:0:0:
143,214,97320,2,0,L|142:145,1,62.3999971435548,0|0,3:0|0:0,0:0:0:0:
383,340,97480,5,12,0:0:0:0:
414,293,97559,1,0,0:0:0:0:
399,239,97639,1,8,3:0:0:0:
349,215,97719,1,8,3:0:0:0:
184,36,97799,5,8,3:3:0:0:
153,83,97878,1,8,3:0:0:0:
168,137,97958,1,8,3:0:0:0:
218,161,98038,1,8,3:0:0:0:
281,182,98118,1,8,3:0:0:0:
282,239,98197,1,8,3:0:0:0:
284,297,98277,1,8,3:0:0:0:
285,354,98357,1,8,3:0:0:0:
104,331,98437,2,8,L|170:333,1,57.5999982421876,12|8,3:0|3:0,3:3:0:0:
357,223,98597,2,8,L|297:224,1,57.5999982421876,8|8,3:0|3:0,3:3:0:0:
111,46,98756,5,12,3:0:0:0:
68,83,98835,1,8,3:0:0:0:
55,138,98915,1,8,3:0:0:0:
76,191,98995,1,8,3:0:0:0:
123,222,99075,1,8,3:0:0:0:
180,220,99154,1,8,3:0:0:0:
101,278,99235,2,0,L|42:280,1,57.5999982421876,8|8,3:0|3:0,0:0:0:0:
261,206,99395,6,0,L|324:206,1,62.3999971435548,4|0,3:1|3:0,0:0:0:0:
475,165,99554,2,0,L|477:102,1,62.3999971435548,0|0,3:0|3:0,0:0:0:0:
251,206,99714,2,0,L|185:205,1,62.3999971435548,2|0,3:1|3:0,0:0:0:0:
37,165,99873,2,0,L|35:102,1,62.3999971435548,0|0,3:0|3:0,0:0:0:0:
390,49,100033,6,0,P|434:131|124:49,1,844.800025781251,4|2,3:1|0:0,0:0:0:0:
431,45,101948,1,2,0:0:0:0:
95,44,102586,5,2,0:0:0:0:
256,192,102746,12,0,105139,0:0:0:0:
