osu file format v14

[General]
AudioFilename: audio.mp3
AudioLeadIn: 0
PreviewTime: 64209
Countdown: 0
SampleSet: Soft
StackLeniency: 0.4
Mode: 0
LetterboxInBreaks: 0
EpilepsyWarning: 1
WidescreenStoryboard: 1

[Editor]
Bookmarks: 41310,56310
DistanceSpacing: 0.1
BeatDivisor: 4
GridSize: 4
TimelineZoom: 1.9

[Metadata]
Title:Double Rainbow
TitleUnicode:二重の虹(ダブル レインボウ)
Artist:Poppin'Party
ArtistUnicode:Poppin'Party
Creator:-Mikan
Version:Dendy's Extra
Source:バンドリ!ガールズバンドパーティ!
Tags:Xetopia Scanter Alumetri DendyHere PantyDev Underdogs game size bang dream! girls band party bandori garupa ガルパ popipa ポピパ ポッピン パーティー nijuu no niji ダブル レインボウ 戸山香澄 Toyama Kasumi 愛美 Aimi 山吹 沙綾 Yamabuki Saaya 大橋彩香 Ohashi Ayaka 牛込 りみ Ushigome Rimi 西本 りみ Nishimoto 花園 たえ Hanazono Tae 大塚紗英 Otsuka Sae 大塚紗英 Ichigaya Arisa 伊藤 彩沙 Itou Ayasa
BeatmapID:1717457
BeatmapSetID:819149

[Difficulty]
HPDrainRate:6
CircleSize:3.5
OverallDifficulty:8.5
ApproachRate:9.2
SliderMultiplier:1.88
SliderTickRate:1

[Events]
//Background and Video events
0,0,"rimi4ka.jpg",0,0
//Break Periods
2,31298,39464
2,84915,86060
//Storyboard Layer 0 (Background)
Sprite,Background,Centre,"rimi4ka.jpg",320,240 M,0,31082,,320,240 F,0,31082,,0.4385454 S,19,31082,41295,0.53,0.45
Sprite,Background,Centre,"rimi4ka.jpg",320,240 M,0,84699,,320,240 F,0,84699,,0.4385454 S,19,84699,87252,0.45,0.53
//Storyboard Layer 1 (Fail)
//Storyboard Layer 2 (Pass)
//Storyboard Layer 3 (Foreground)
Sprite,Foreground,Centre,"sb\sprites\fRimi01.png",320,240 F,0,25671,,0.5 C,0,25671,,0,0,0 S,0,25671,25990,0.412 M,0,25671,26310,325,259.5 S,2,25990,26310,0.412,0.534 R,2,25990,26310,0,0.0815 M,0,26310,,325,259.5 M,0,26310,27267,325,259.5 R,2,26310,31097,0.0815,-0.06 M,2,27267,27905,325,259.5,623.4727,259.5 M,0,27905,31097,623.4727,259.5
Sprite,Foreground,Centre,"sb\sprites\fRimi01.png",320,240 S,0,25671,25990,0.412 M,0,25671,26310,320,254.5 S,2,25990,26310,0.412,0.534 R,2,25990,26310,0,0.0815 M,0,26310,,320,254.5 M,0,26310,27267,320,254.5 R,2,26310,31097,0.0815,-0.06 M,2,27267,27905,320,254.5,618.4727,254.5 M,0,27905,31097,618.4727,254.5
Sprite,Foreground,Centre,"sb\lyrics\Titles\diffnames\Dendy.png",320,240 C,0,18331,,176,58,177 M,19,18331,18650,429.3818,540.8,413.0909,220.0728 S,0,18331,20884,0.55,0.614 M,0,18650,,413.0909,220.0728 R,0,18650,,0.2909093 M,0,18650,20565,413.0909,220.0728 M,2,20565,20884,413.0909,220.0728,-361.8909,220.0728
//Storyboard Sound Samples

[TimingPoints]
459,319.148936170213,4,2,1,40,1,0
459,-200,4,2,1,40,0,0
4927,-200,4,1,1,65,0,0
7480,-200,4,1,1,65,0,0
8118,-100,4,1,1,65,0,0
9076,-250,4,1,1,65,0,0
9315,-250,4,1,1,85,0,0
9395,-250,4,1,1,90,0,0
9714,-250,4,1,1,60,0,0
10591,-250,4,1,1,5,0,0
10671,-142.857142857143,4,2,1,50,0,0
12586,-333.333333333333,4,2,1,50,0,0
13145,-333.333333333333,4,2,1,5,0,0
13224,-100,4,1,1,60,0,0
14501,-166.666666666667,4,1,1,60,0,0
14581,-166.666666666667,4,1,1,5,0,0
14661,-166.666666666667,4,1,1,40,0,0
14820,-1000,4,1,1,60,0,0
14900,-500,4,1,1,20,0,0
14980,-333.333333333333,4,1,1,70,0,0
15060,-250,4,1,1,40,0,0
15139,-200,4,1,1,80,0,0
15219,-166.666666666667,4,1,1,60,0,0
15299,-142.857142857143,4,1,1,70,0,0
15379,-125,4,1,1,80,0,0
15459,-111.111111111111,4,1,1,90,0,0
15498,-100,4,2,1,15,0,0
15778,-100,4,1,1,70,0,0
19607,-83.3333333333333,4,1,1,70,0,0
19847,-83.3333333333333,4,1,1,5,0,0
19927,-111.111111111111,4,1,1,70,0,0
20166,-83.3333333333333,4,1,1,5,0,0
20246,-83.3333333333333,4,1,1,70,0,0
20485,-83.3333333333333,4,1,1,5,0,0
20565,-111.111111111111,4,1,1,70,0,0
20804,-83.3333333333333,4,1,1,5,0,0
20884,-111.111111111111,4,1,1,70,0,0
25671,-100,4,1,1,85,0,0
25990,-100,4,1,1,70,0,0
30618,-100,4,3,2,70,0,0
30778,-100,4,1,1,70,0,0
31416,-100,4,2,1,50,0,0
40033,-100,4,1,1,50,0,0
40073,-100,4,1,1,5,0,0
40671,-100,4,1,1,65,0,0
40990,-100,4,1,1,65,0,0
41230,-100,4,1,1,5,0,0
41310,-111.111111111111,4,1,1,60,0,0
47134,-111.111111111111,4,1,1,5,0,0
47214,-111.111111111111,4,1,1,60,0,0
48012,-111.111111111111,4,2,1,30,0,0
48650,-111.111111111111,4,2,1,45,0,0
48889,-111.111111111111,4,1,1,10,0,0
48969,-111.111111111111,4,1,1,60,0,0
55990,-111.111111111111,4,3,2,60,0,0
56150,-100,4,1,1,60,0,0
56549,-111.111111111111,4,1,1,5,0,0
56629,-125,4,1,1,60,0,0
57826,-125,4,1,1,5,0,0
57905,-125,4,1,1,60,0,0
59182,-125,4,1,1,60,0,0
59501,-111.111111111111,4,1,1,60,0,0
60379,-111.111111111111,4,1,1,5,0,0
60459,-111.111111111111,4,1,1,60,0,0
61895,-111.111111111111,4,1,1,50,0,0
62214,-111.111111111111,4,1,1,60,0,0
62533,-111.111111111111,4,1,1,65,0,0
62852,-111.111111111111,4,1,1,70,0,0
63171,-111.111111111111,4,1,1,75,0,0
64288,-83.3333333333333,4,1,1,80,0,1
73304,-100,4,1,1,5,0,1
73384,-83.3333333333333,4,1,1,80,0,1
73703,-100,4,3,2,80,0,1
73863,-83.3333333333333,4,1,1,80,0,1
79528,-83.3333333333333,4,1,1,5,0,1
79607,-83.3333333333333,4,1,1,80,0,1
84395,-83.3333333333333,4,1,1,80,0,1
84634,-83.3333333333333,4,1,1,5,0,1
84714,-83.3333333333333,4,2,1,40,0,0
86629,-142.857142857143,4,3,2,60,0,0
86735,-142.857142857143,4,1,1,5,0,0
86841,-142.857142857143,4,3,2,60,0,0
86948,-142.857142857143,4,1,1,5,0,0
87054,-142.857142857143,4,3,2,60,0,0
87161,-142.857142857143,4,1,1,5,0,0
87267,-100,4,1,1,70,0,0
92373,-100,4,1,1,85,0,1
100033,-100,4,2,1,80,0,0
100113,-100,4,2,1,60,0,0
102586,-100,4,2,1,60,0,0
104820,-100,4,2,1,5,0,0

[Colours]
Combo1 : 163,64,157
Combo2 : 240,73,80
Combo3 : 250,200,79
Combo4 : 24,143,241
Combo5 : 247,67,177

[HitObjects]
90,76,4928,6,0,L|143:86,1,47,2|0,2:0|3:0,0:0:0:0:
210,47,5247,1,8,1:0:0:0:
126,261,5566,5,4,3:1:0:0:
176,165,5725,1,0,2:0:0:0:
228,298,5885,1,8,3:0:0:0:
178,152,6044,1,0,3:0:0:0:
340,195,6204,5,8,3:0:0:0:
228,298,6364,1,0,3:0:0:0:
228,298,6444,1,0,3:0:0:0:
228,298,6523,1,8,3:0:0:0:
210,47,6683,1,0,3:0:0:0:
342,180,6842,5,8,3:0:0:0:
392,0,7002,1,0,3:0:0:0:
392,0,7082,1,0,3:0:0:0:
392,0,7162,1,8,3:0:0:0:
512,143,7321,1,0,3:0:0:0:
342,180,7481,5,8,3:0:0:0:
445,323,7640,1,0,3:0:0:0:
344,165,7800,5,8,3:0:0:0:
309,375,7959,1,8,3:0:0:0:
198,161,8119,6,0,P|160:191|97:196,1,94,8|2,3:0|3:2,0:0:0:0:
50,47,8438,1,8,3:0:0:0:
83,79,8517,1,0,3:0:0:0:
101,122,8597,1,2,3:2:0:0:
100,168,8677,1,0,3:0:0:0:
80,211,8757,5,8,3:0:0:0:
63,254,8836,1,0,3:0:0:0:
67,301,8916,1,2,3:2:0:0:
91,341,8996,1,0,3:0:0:0:
130,366,9077,2,0,P|131:334|139:307,1,56.4,8|0,3:0|3:0,2:2:0:0:
151,294,9396,1,8,3:1:0:0:
226,73,9715,5,0,2:0:0:0:
226,73,10034,1,0,2:0:0:0:
226,73,10353,2,0,P|250:88|289:90,1,56.4,0|0,2:0|0:0,0:0:0:0:
359,54,10672,6,0,B|331:199|450:153|413:317,2,263.199991967774,6|0|2,0:0|0:0|0:0,0:0:0:0:
315,265,12587,2,0,P|276:232|226:226,1,98.6999969879151,2|0,0:0|0:0,0:0:0:0:
213,233,13225,5,0,3:0:0:0:
142,280,13545,1,0,3:0:0:0:
201,292,13864,1,2,3:2:0:0:
154,221,14182,1,2,3:2:0:0:
143,48,14502,6,0,P|187:50|224:70,1,84.599997418213,4|8,3:1|3:0,0:0:0:0:
272,123,14821,1,8,3:0:0:0:
280,127,14901,1,8,3:0:0:0:
293,130,14981,1,8,3:0:0:0:
311,132,15061,1,8,3:0:0:0:
333,127,15140,1,10,3:0:0:0:
360,120,15220,1,8,3:0:0:0:
392,118,15300,1,8,3:0:0:0:
425,134,15380,1,8,3:0:0:0:
450,168,15460,6,0,P|428:229|458:301,1,126.899996127319,2|2,3:2|0:0,0:0:0:0:
493,361,15779,6,0,B|459:391|399:359|399:359|335:325|290:367,2,188,4|8|2,3:1|0:0|3:2,0:0:0:0:
310,223,16577,1,0,3:0:0:0:
310,223,16736,1,10,0:0:0:0:
198,332,16896,1,2,1:2:0:0:
100,131,17055,6,0,B|96:204|96:204|112:242|112:242|107:324,2,188,2|10|2,3:2|0:0|3:2,0:0:0:0:
149,55,17853,1,0,3:0:0:0:
263,184,18013,2,0,P|220:175|182:122,1,94,10|2,0:0|0:0,0:0:0:0:
362,206,18332,6,0,P|310:275|203:267,1,188,2|8,3:2|0:0,0:0:0:0:
263,184,18811,1,0,0:0:0:0:
330,48,18970,1,0,3:0:0:0:
340,80,19130,1,0,3:0:0:0:
451,32,19289,1,10,0:0:0:0:
433,151,19449,1,2,0:0:0:0:
195,125,19608,6,0,P|245:99|351:164,1,169.199994836426,4|0,3:1|0:0,0:0:0:0:
370,225,19928,2,0,P|316:228|256:163,1,126.899996127319,10|0,0:0|0:0,0:0:0:0:
135,47,20247,6,0,B|168:93|168:93|156:226,1,169.199994836426,4|0,3:1|0:0,0:0:0:0:
69,240,20566,2,0,L|82:114,1,126.899996127319,10|0,0:0|0:0,0:0:0:0:
135,47,20885,5,4,3:1:0:0:
157,205,21045,1,0,0:0:0:0:
157,205,21204,1,8,0:0:0:0:
240,142,21364,2,0,P|259:182|255:244,1,84.599997418213,0|0,3:0|0:0,0:0:0:0:
193,297,21683,1,0,0:0:0:0:
222,43,21842,2,0,P|266:46|317:81,1,84.599997418213,8|0,3:1|0:0,0:0:0:0:
326,165,22162,5,0,0:0:0:0:
456,86,22321,2,0,P|372:99|323:192,1,169.199994836426,0|2,3:0|0:0,0:0:0:0:
382,310,22800,2,0,P|401:270|394:220,1,84.599997418213,0|2,3:0|0:0,0:0:0:0:
235,281,23119,2,0,P|260:317|306:336,1,84.599997418213,8|0,0:0|0:0,0:0:0:0:
325,164,23438,6,0,P|283:166|248:189,1,84.599997418213,12|0,0:0|3:0,0:0:0:0:
162,349,23757,1,8,0:0:0:0:
115,158,23917,1,0,3:0:0:0:
67,321,24077,5,8,0:0:0:0:
209,185,24235,1,0,3:0:0:0:
24,220,24396,5,8,0:0:0:0:
252,286,24554,1,0,3:0:0:0:
423,121,24715,6,0,L|407:224,1,84.599997418213,8|8,0:0|3:0,0:0:0:0:
333,308,24954,1,8,3:0:0:0:
333,308,25034,2,0,P|334:270|301:221,1,84.599997418213,8|0,3:0|3:0,0:0:0:0:
210,289,25353,6,0,L|261:285,1,42.2999987091065,0|0,3:0|3:0,0:0:0:0:
213,299,25513,2,0,L|264:295,1,42.2999987091065,0|0,3:0|3:0,0:0:0:0:
136,362,25672,2,0,P|117:319|138:227,1,141,4|0,3:0|0:0,0:0:0:0:
190,166,25991,6,0,P|152:196|99:193,1,94,4|0,3:1|0:0,0:0:0:0:
32,115,26311,1,8,0:0:0:0:
166,0,26470,2,0,P|141:81|207:177,1,188,2|0,0:0|3:0,0:0:0:0:
310,5,26949,2,0,P|266:28|243:73,1,94,10|0,1:0|0:0,0:0:0:0:
266,147,27268,5,0,3:0:0:0:
475,164,27428,2,0,P|421:95|326:91,1,188,2|0,3:1|3:0,0:0:0:0:
267,263,27827,1,0,3:0:0:0:
267,263,27906,2,0,P|332:244|379:168,1,141,2|0,3:2|2:0,2:0:0:0:
255,131,28225,2,0,P|238:196|280:275,1,141,10|0,0:0|2:0,2:0:0:0:
344,334,28545,6,0,P|309:307|250:305,1,94,4|0,3:1|0:0,0:0:0:0:
150,365,28864,1,8,0:0:0:0:
293,177,29023,2,0,L|96:224,1,188,2|0,0:0|3:0,0:0:0:0:
50,158,29502,2,0,P|28:202|32:260,1,94,10|0,0:0|0:0,0:0:0:0:
86,310,29821,5,0,3:0:0:0:
24,57,29981,2,0,P|121:85|150:190,1,188,2|0,3:2|3:0,0:0:0:0:
240,293,30380,1,0,0:0:0:0:
240,293,30460,2,0,P|235:245|262:184,1,94,10|0,0:0|3:1,0:0:0:0:
418,118,30779,2,0,P|378:146|312:153,1,94,2|0,3:1|3:1,0:0:0:0:
177,51,31098,1,6,3:1:0:0:
376,85,40034,6,0,L|381:115,1,23.5,6|0,3:2|0:0,0:0:0:0:
93,138,40672,5,2,0:2:0:0:
93,138,40832,1,2,0:2:0:0:
77,222,40991,1,8,0:0:0:0:
93,138,41311,5,4,3:0:0:0:
93,138,41630,2,0,P|134:159|181:160,1,84.599997418213,0|0,3:0|0:0,0:0:0:0:
326,73,41949,2,0,B|259:66|259:66|228:42|228:42|143:32,2,169.199994836426,0|0|0,3:0|3:0|3:0,0:0:0:0:
404,13,42747,1,0,0:0:0:0:
404,13,42906,6,0,P|421:48|420:106,1,84.599997418213,0|0,3:0|0:0,0:0:0:0:
348,188,43225,1,0,3:0:0:0:
319,267,43385,1,0,0:0:0:0:
338,353,43545,2,0,P|377:331|401:287,1,84.599997418213,0|2,3:0|0:0,0:0:0:0:
223,162,43784,1,2,0:0:0:0:
223,162,43864,6,0,L|244:338,1,169.199994836426,0|0,3:0|3:0,0:0:0:0:
168,369,44342,1,0,0:0:0:0:
68,268,44502,2,0,P|104:237|166:220,1,84.599997418213,0|0,3:0|0:0,0:0:0:0:
223,162,44821,2,0,P|184:145|152:117,1,84.599997418213,0|2,3:0|0:0,0:0:0:0:
65,11,45140,6,0,L|235:42,1,169.199994836426,0|0,3:0|3:0,0:0:0:0:
294,117,45619,1,0,0:0:0:0:
409,7,45779,1,0,3:0:0:0:
409,7,45938,2,0,P|389:38|381:89,2,84.599997418213,2|0|2,0:3|3:0|0:3,0:0:0:0:
446,190,46417,5,0,3:0:0:0:
280,209,46736,2,0,L|384:197,1,84.599997418213,4|0,3:0|0:0,0:0:0:0:
218,298,47055,2,0,L|114:286,1,84.599997418213,0|0,3:0|3:0,0:0:0:0:
62,358,47374,1,8,3:0:0:0:
43,225,47534,1,0,3:0:0:0:
326,309,47694,5,8,0:0:0:0:
331,84,48013,1,0,2:0:0:0:
331,84,48172,2,0,B|419:75|400:141|506:126,2,169.199994836426,0|2|0,2:0|0:0|0:0,0:0:0:0:
260,163,48970,5,6,3:1:0:0:
233,78,49130,1,2,0:0:0:0:
191,223,49289,2,0,P|176:192|175:135,1,84.599997418213,8|0,0:0|0:0,0:0:0:0:
54,26,49608,2,0,P|84:90|66:200,1,169.199994836426,2|8,3:2|0:0,0:0:0:0:
1,314,50087,6,0,B|41:290|87:318|87:318|131:346|182:321,1,169.199994836426,4|2,3:0|3:2,0:0:0:0:
183,184,50566,2,0,P|153:210|133:267,1,84.599997418213,10|0,0:0|0:0,0:0:0:0:
161,328,50885,1,0,3:0:0:0:
67,198,51045,1,2,3:2:0:0:
232,269,51204,5,8,0:0:0:0:
203,58,51364,1,0,0:0:0:0:
318,277,51523,5,4,3:2:0:0:
67,198,51683,1,0,3:0:0:0:
64,207,52162,5,0,3:0:0:0:
318,277,52320,1,0,3:0:0:0:
323,281,52481,1,8,0:0:0:0:
391,144,52640,6,0,P|327:202|329:296,1,169.199994836426,4|0,3:0|3:0,0:0:0:0:
233,360,53119,2,0,P|242:318|219:268,1,84.599997418213,8|0,0:0|0:0,0:0:0:0:
82,293,53438,2,0,P|157:322|241:250,1,169.199994836426,0|8,3:0|0:0,0:0:0:0:
206,49,54077,5,4,3:2:0:0:
259,208,54236,1,0,3:0:0:0:
317,14,54715,5,0,3:0:0:0:
189,275,54874,1,0,3:0:0:0:
189,275,55034,1,8,0:0:0:0:
317,336,55194,6,0,P|255:347|188:272,1,169.199994836426,4|0,3:0|3:0,0:0:0:0:
107,126,55672,2,0,P|129:166|123:225,1,84.599997418213,8|0,0:0|3:0,0:0:0:0:
26,90,55991,2,0,B|95:81|95:81|125:93|125:93|213:79,1,169.199994836426,0|10,0:0|0:0,0:0:0:0:
438,43,56630,5,4,3:0:0:0:
334,330,56949,2,0,P|312:293|315:239,1,75.2,0|0,3:0|0:0,0:0:0:0:
384,276,57268,2,0,P|365:307|331:331,1,75.2,10|2,0:0|3:2,0:0:0:0:
309,261,57587,2,0,P|351:260|385:277,1,75.2,0|0,3:0|0:0,0:0:0:0:
74,43,57906,5,4,3:0:0:0:
178,330,58225,2,0,P|200:293|197:239,1,75.2,0|0,3:0|3:0,0:0:0:0:
128,276,58544,2,0,P|147:307|181:331,1,75.2,8|0,0:0|3:0,0:0:0:0:
203,261,58863,2,0,P|161:260|127:277,1,75.2,8|0,0:0|0:0,0:0:0:0:
257,61,59183,5,0,3:0:0:0:
257,61,59502,1,6,0:0:0:0:
327,232,59662,1,0,3:0:0:0:
256,36,59821,5,2,0:0:0:0:
201,280,59981,1,0,3:0:0:0:
257,18,60140,2,0,P|198:50|104:40,1,126.899996127319,2|0,0:0|0:0,0:0:0:0:
77,13,60460,6,0,P|96:50|91:111,1,84.599997418213,0|0,3:0|3:0,0:0:0:0:
29,203,60779,1,8,0:0:0:0:
281,281,60938,1,4,0:0:0:0:
281,281,61257,1,0,0:0:0:0:
316,354,61577,6,0,B|221:388|247:307|142:335,1,169.199994836426,4|0,3:0|3:0,0:0:0:0:
74,365,62055,1,8,3:0:0:0:
138,153,62215,1,0,3:0:0:0:
149,170,62294,1,0,3:0:0:0:
156,190,62374,1,8,3:0:0:0:
59,84,62534,5,0,3:0:0:0:
62,58,62614,1,0,3:0:0:0:
72,35,62694,1,8,3:0:0:0:
273,60,62853,5,0,3:0:0:0:
243,61,62932,1,0,3:0:0:0:
213,63,63012,1,8,3:0:0:0:
349,175,63172,5,0,3:0:0:0:
384,177,63251,1,0,3:0:0:0:
419,178,63331,1,8,3:0:0:0:
250,279,63491,5,0,3:0:0:0:
224,245,63570,1,0,3:0:0:0:
209,205,63650,1,0,3:0:0:0:
207,163,63730,1,0,3:0:0:0:
218,123,63810,1,0,3:0:0:0:
240,87,63889,1,0,3:0:0:0:
272,59,63969,1,8,3:0:0:0:
81,17,64289,6,0,P|99:57|91:132,1,112.799996557617,4|0,3:0|0:0,0:0:0:0:
3,296,64608,2,0,P|-5:257|23:182,1,112.799996557617,8|0,0:0|0:0,0:0:0:0:
196,264,64928,2,0,P|211:306|193:383,1,112.799996557617,0|0,3:0|3:0,0:0:0:0:
40,374,65247,1,8,0:0:0:0:
160,177,65406,1,0,0:0:0:0:
307,283,65566,6,0,L|191:263,1,112.799996557617,0|0,3:0|3:0,0:0:0:0:
194,94,65885,2,0,L|316:73,1,112.799996557617,8|0,0:0|0:0,0:0:0:0:
453,184,66204,2,0,P|392:173|356:134,1,112.799996557617,0|0,3:0|3:0,0:0:0:0:
397,30,66523,1,10,0:0:0:0:
358,137,66683,1,2,3:2:0:0:
268,266,66842,6,0,P|308:208|470:192,1,225.599993115235,4|8,3:0|0:0,0:0:0:0:
294,352,67321,1,0,0:0:0:0:
294,352,67481,2,0,P|241:350|190:312,1,112.799996557617,0|0,3:0|3:0,0:0:0:0:
139,130,67800,2,0,L|127:253,1,112.799996557617,8|0,0:0|0:0,0:0:0:0:
112,364,68119,5,0,3:0:0:0:
40,196,68279,1,0,3:0:0:0:
193,316,68438,5,8,0:0:0:0:
230,65,68598,1,0,3:0:0:0:
386,147,68757,5,12,0:0:0:0:
214,202,68917,1,0,3:0:0:0:
456,248,69077,5,12,0:0:0:0:
137,134,69235,1,0,3:0:0:0:
265,369,69396,6,0,B|330:311|294:215|294:215|285:256|244:284,1,225.599993115235,4|8,3:0|0:0,0:0:0:0:
51,83,69874,1,0,0:0:0:0:
51,83,70034,2,0,B|9:224|112:180|78:321,1,225.599993115235,0|8,3:0|0:0,0:0:0:0:
178,329,70513,1,0,0:0:0:0:
194,220,70672,6,0,P|120:242|86:378,1,225.599993115235,0|8,3:0|0:0,0:0:0:0:
288,356,71151,1,2,0:0:0:0:
288,356,71311,2,0,L|161:325,1,112.799996557617,2|2,3:2|3:2,0:0:0:0:
340,259,71630,2,0,P|367:282|391:367,1,112.799996557617,10|0,0:0|3:0,0:0:0:0:
281,169,71949,5,12,0:0:0:0:
415,193,72108,1,0,3:0:0:0:
232,81,72268,5,8,0:0:0:0:
491,121,72427,1,0,3:0:0:0:
235,263,72587,5,8,0:0:0:0:
328,81,72747,1,0,3:0:0:0:
365,300,72906,5,8,0:0:0:0:
206,39,73066,1,0,3:0:0:0:
152,241,73225,6,0,P|185:199|273:184,1,112.799996557617,8|8,0:0|3:0,0:0:0:0:
126,341,73465,1,8,3:0:0:0:
126,341,73545,2,0,P|133:296|111:223,1,112.799996557617,8|0,3:0|0:0,0:0:0:0:
0,104,73864,5,0,3:0:0:0:
2,114,74023,1,0,3:0:0:0:
98,64,74183,2,0,P|52:81|2:144,1,112.799996557617,4|0,3:0|0:0,0:0:0:0:
316,188,74502,6,0,P|213:140|76:202,1,225.599993115235,4|8,3:0|0:0,0:0:0:0:
72,291,74981,1,0,0:0:0:0:
217,368,75140,2,0,P|200:336|209:249,1,112.799996557617,0|0,3:0|3:0,0:0:0:0:
384,55,75460,1,8,0:0:0:0:
388,159,75619,1,0,0:0:0:0:
294,112,75779,6,0,P|320:76|405:57,1,112.799996557617,0|0,3:0|3:0,0:0:0:0:
388,159,76098,2,0,P|343:154|284:90,1,112.799996557617,8|0,0:0|0:0,0:0:0:0:
184,16,76417,2,0,P|203:68|202:141,1,112.799996557617,0|0,3:0|3:0,0:0:0:0:
135,225,76736,1,10,0:0:0:0:
106,117,76896,1,2,0:0:0:0:
278,280,77055,6,0,B|157:334|179:219|44:257,1,225.599993115235,4|8,3:0|0:0,0:0:0:0:
86,345,77534,1,0,0:0:0:0:
20,180,77694,2,0,P|-14:228|-11:301,1,112.799996557617,0|0,3:0|3:0,0:0:0:0:
194,137,78013,2,0,P|189:81|156:36,1,112.799996557617,10|0,0:0|0:0,0:0:0:0:
100,243,78332,5,0,3:0:0:0:
257,268,78491,1,0,3:0:0:0:
82,240,78651,1,8,0:0:0:0:
274,270,78810,1,0,3:0:0:0:
63,237,78970,1,12,0:0:0:0:
293,273,79129,1,0,3:0:0:0:
219,188,79289,2,0,P|189:238|212:362,1,169.199994836426,12|0,0:0|0:0,0:0:0:0:
214,361,79608,6,0,P|257:331|277:268,1,112.799996557617,4|0,3:0|0:0,0:0:0:0:
176,90,79928,2,0,P|180:142|225:191,1,112.799996557617,8|0,0:0|0:0,0:0:0:0:
427,100,80247,1,0,3:0:0:0:
361,143,80406,1,2,3:2:0:0:
330,216,80566,1,10,0:0:0:0:
341,293,80725,1,2,3:2:0:0:
222,368,80885,6,0,P|252:323|255:250,1,112.799996557617,0|0,3:0|3:0,0:0:0:0:
96,179,81204,2,0,P|101:234|132:281,1,112.799996557617,8|0,0:0|0:0,0:0:0:0:
162,84,81523,1,0,3:0:0:0:
1,113,81683,1,0,3:0:0:0:
96,179,81842,1,8,0:0:0:0:
67,18,82002,1,2,3:2:0:0:
270,96,82162,6,0,P|218:103|147:72,1,112.799996557617,4|0,3:0|0:0,0:0:0:0:
328,22,82481,2,0,P|380:15|451:46,1,112.799996557617,8|2,0:0|0:0,0:0:0:0:
338,253,82800,1,0,3:0:0:0:
271,187,82960,1,0,3:0:0:0:
270,96,83119,1,8,0:0:0:0:
328,22,83279,1,0,0:0:0:0:
253,290,83438,6,0,P|244:239|284:175,1,112.799996557617,4|0,3:0|3:0,0:0:0:0:
450,265,83757,2,0,L|311:249,1,112.799996557617,10|0,0:0|0:0,0:0:0:0:
185,146,84077,1,2,3:2:0:0:
253,290,84236,1,0,3:0:0:0:
92,269,84396,2,0,B|188:246|157:337|273:305,1,169.199994836426,10|0,0:0|0:0,0:0:0:0:
253,290,84715,5,2,0:0:0:0:
0,71,86630,6,0,L|60:64,1,43.8666653279623,0|0,0:0|2:0,0:0:0:0:
130,108,86842,2,0,L|191:100,1,43.8666653279623,0|0,0:0|2:0,0:0:0:0:
260,136,87055,2,0,L|321:128,1,43.8666653279623,0|0,0:0|2:0,0:0:0:0:
316,37,87268,6,0,L|300:148,1,94,4|0,3:0|0:0,0:0:0:0:
184,268,87587,2,0,P|220:237|276:229,1,94,8|0,0:0|0:0,0:0:0:0:
355,355,87906,2,0,L|243:328,1,94,0|0,3:0|3:0,0:0:0:0:
80,115,88225,1,10,0:0:0:0:
127,203,88385,1,2,0:0:0:0:
97,289,88545,6,0,P|101:245|138:195,1,94,2|0,3:2|3:0,0:0:0:0:
298,157,88864,2,0,L|196:140,1,94,10|2,0:0|0:0,0:0:0:0:
80,115,89183,1,0,3:0:0:0:
80,115,89342,2,0,L|59:16,2,94,2|8|0,3:2|0:0|0:0,0:0:0:0:
43,238,89821,5,4,3:0:0:0:
43,238,89981,2,0,P|79:211|136:205,1,94,0|8,3:0|0:0,0:0:0:0:
143,104,90300,1,0,3:0:0:0:
143,104,90460,2,0,P|184:121|218:168,1,94,2|0,3:0|3:0,0:0:0:0:
304,123,90779,1,8,0:0:0:0:
304,123,90937,2,0,P|309:167|286:220,1,94,0|2,0:0|3:0,0:0:0:0:
217,279,91257,5,8,3:0:0:0:
217,279,91337,1,8,3:0:0:0:
217,279,91417,1,8,3:0:0:0:
314,363,91577,5,0,0:0:0:0:
311,349,91656,1,0,0:0:0:0:
311,330,91736,1,10,3:0:0:0:
315,306,91816,1,0,0:0:0:0:
326,280,91896,1,8,3:0:0:0:
342,257,91975,1,8,3:0:0:0:
369,238,92055,1,0,3:0:0:0:
394,215,92135,1,0,3:0:0:0:
409,179,92215,1,8,3:0:0:0:
406,141,92295,1,8,3:0:0:0:
392,106,92373,6,0,P|353:69|285:45,1,94,4|0,0:0|3:0,0:0:0:0:
156,216,92693,1,8,0:0:0:0:
211,51,92852,1,0,3:0:0:0:
252,270,93012,5,8,0:0:0:0:
217,68,93171,1,0,3:0:0:0:
162,328,93331,5,8,0:0:0:0:
225,90,93490,1,0,3:0:0:0:
344,326,93650,5,12,0:0:0:0:
156,216,93811,1,0,3:0:0:0:
372,197,93970,5,8,0:0:0:0:
145,339,94130,1,0,3:0:0:0:
48,93,94289,2,0,P|75:139|75:205,1,94,8|0,0:0|3:0,0:0:0:0:
42,276,94608,2,0,P|84:226|185:228,1,141,8|0,0:0|0:0,0:0:0:0:
171,224,94928,5,12,0:0:0:0:
130,28,95087,1,0,3:0:0:0:
270,303,95247,5,8,0:0:0:0:
279,111,95406,1,0,3:0:0:0:
397,243,95566,5,8,0:0:0:0:
373,28,95725,1,0,3:0:0:0:
502,259,95885,2,0,P|468:238|396:236,1,94,8|0,0:0|3:0,0:0:0:0:
329,354,96204,6,0,B|289:293|289:293|317:168,1,188,12|8,0:0|0:0,0:0:0:0:
473,50,96683,1,0,3:0:0:0:
473,50,96842,2,0,B|402:61|402:61|368:49|368:49|278:67,1,188,8|8,0:0|0:0,0:0:0:0:
88,51,97321,1,0,3:0:0:0:
88,51,97481,6,0,L|101:101,3,47,12|0|8|8,0:0|0:0|3:0|3:0,0:0:0:0:
189,142,97800,2,0,L|176:192,3,47,8|8|8|8,3:3|3:0|3:0|3:0,3:3:0:0:
72,240,98119,5,8,3:0:0:0:
82,255,98199,1,8,3:0:0:0:
96,267,98279,1,8,3:0:0:0:
111,277,98358,1,8,3:0:0:0:
128,284,98438,5,12,3:0:0:0:
151,281,98518,1,8,3:0:0:0:
178,276,98598,1,8,3:0:0:0:
210,280,98678,1,8,3:0:0:0:
240,301,98757,6,0,L|306:319,3,47,12|8|8|8,3:0|3:0|3:0|3:0,3:3:0:0:
409,234,99077,2,0,L|343:252,3,47,8|8|8|8,3:0|3:0|3:0|3:0,0:0:0:0:
230,139,99396,5,4,3:1:0:0:
243,104,99475,1,0,3:0:0:0:
265,79,99555,1,0,3:0:0:0:
289,64,99635,1,0,3:0:0:0:
311,56,99715,1,2,3:1:0:0:
329,55,99795,1,0,3:0:0:0:
342,55,99874,1,0,3:0:0:0:
351,57,99954,1,0,3:0:0:0:
355,58,100034,5,4,3:1:0:0:
256,192,100114,12,2,102587,0:0:0:0:
256,192,102667,12,0,105139,0:0:0:0:
