osu file format v14

[General]
AudioFilename: audio.mp3
AudioLeadIn: 0
PreviewTime: 5261
Countdown: 0
SampleSet: Soft
StackLeniency: 0.7
Mode: 2
LetterboxInBreaks: 0
WidescreenStoryboard: 1

[Editor]
Bookmarks: 5370,31674,45587,61239,78630,92543,108195
DistanceSpacing: 1.1
BeatDivisor: 4
GridSize: 32
TimelineZoom: 1.9

[Metadata]
Title:Christmas no Uta
TitleUnicode:クリスマスのうた
Artist:Poppin'Party
ArtistUnicode:Poppin'Party
Creator:Benita
Version:Salad
Source:バンドリ! ガールズバンドパーティ!
Tags:Xetopia Our Christmas Song Kurisumasu BanG Dream! Bandori! Girls Band Party! ガルパ Garupa 8th single insert song Bandori project PoPiPa Girl Party Garupa! 戸山香澄 Toyama Kasumi 愛美 Aimi 山吹 沙綾 Yamabuki Saaya 大橋彩香 Ohashi Ayaka 牛込 りみ Ushigome Rimi 西本 りみ Nishimoto 花園 たえ Hanazono Tae 大塚紗英 Otsuka Sae 大塚紗英 Ichigaya Arisa 伊藤 彩沙 Itou Ayasa
BeatmapID:1852895
BeatmapSetID:886360

[Difficulty]
HPDrainRate:4
CircleSize:2.5
OverallDifficulty:7
ApproachRate:7
SliderMultiplier:1.4
SliderTickRate:1

[Events]
//Background and Video events
0,0,"Merry_Surprise!_T.jpg",0,0
//Break Periods
2,14908,16860
//Storyboard Layer 0 (Background)
//Storyboard Layer 1 (Fail)
//Storyboard Layer 2 (Pass)
//Storyboard Layer 3 (Foreground)
//Storyboard Sound Samples

[TimingPoints]
5375,666.666666666667,4,2,0,30,1,0
16041,-100,4,2,0,10,0,0
17760,434.782608695652,4,2,0,50,1,0
24716,-100,4,2,1,60,0,0
29281,-100,4,2,2,60,0,0
29933,-100,4,2,0,60,0,0
31673,-100,4,2,2,70,0,0
32651,-100,4,2,1,70,0,0
32759,-100,4,2,2,70,0,0
40477,-100,4,2,1,70,0,0
40586,-100,4,2,2,70,0,0
43846,-100,4,2,1,70,0,0
44064,-100,4,2,2,70,0,0
45586,-100,4,2,2,60,0,0
57542,-100,4,2,2,60,0,0
57759,-100,4,2,1,60,0,0
57977,-100,4,2,2,60,0,0
58194,-100,4,2,2,55,0,0
58629,-100,4,2,2,60,0,0
59064,-100,4,2,2,65,0,0
59499,-100,4,2,2,70,0,0
60368,-100,4,2,2,70,0,0
61238,-100,4,2,2,60,0,0
73412,-100,4,2,1,60,0,0
73629,-100,4,2,2,60,0,0
76890,-100,4,2,2,50,0,0
77325,-100,4,2,2,60,0,0
77759,-100,4,2,2,70,0,0
78194,-100,4,2,0,30,0,0
78629,-100,4,2,2,70,0,1
90803,-100,4,2,1,70,0,1
91020,-100,4,2,2,70,0,1
106455,-100,4,2,1,70,0,1
106673,-100,4,2,2,70,0,1
108194,-100,4,2,2,60,0,0
119499,-100,4,2,1,60,0,0
119716,-100,4,2,2,60,0,0
120368,-100,4,2,1,60,0,0
120586,-100,4,2,2,60,0,0
122325,-100,4,2,2,100,0,0
125586,-100,4,2,2,90,0,0
126020,-100,4,2,2,85,0,0
126455,-100,4,2,2,70,0,0
126890,-100,4,2,2,50,0,0
127325,-100,4,2,2,20,0,0
127759,-100,4,2,2,5,0,0

[Colours]
Combo1 : 225,230,70
Combo2 : 230,72,72
Combo3 : 228,149,69
Combo4 : 30,172,33

[HitObjects]
322,304,5375,6,0,P|367:273|310:160,1,210,2|0,0:0|0:0,0:0:0:0:
169,164,6708,2,0,L|406:165,1,210,2|0,0:0|0:0,0:0:0:0:
239,246,8041,6,0,P|196:218|249:82,1,210,2|0,0:0|0:0,0:0:0:0:
371,92,9375,2,0,L|140:95,1,210,2|0,0:0|0:0,0:0:0:0:
301,194,10708,6,0,L|307:286,1,70,2|0,0:0|0:0,0:0:0:0:
165,272,11375,2,0,L|152:368,1,70,0|0,0:0|0:0,0:0:0:0:
297,343,12041,2,0,L|211:340,1,70,2|0,0:0|0:0,0:0:0:0:
367,234,12708,2,0,L|468:227,1,70,0|0,0:0|0:0,0:0:0:0:
297,159,13375,6,0,L|208:152,2,70,2|0|0,0:0|0:0|0:0,0:0:0:0:
367,168,14375,1,0,0:0:0:0:
191,232,14708,1,2,0:0:0:0:
307,307,17760,6,0,P|341:242|291:197,1,140,2|0,0:0|0:0,0:0:0:0:
92,207,18629,2,0,P|56:177|90:97,1,140,2|0,0:0|0:0,0:0:0:0:
202,78,19281,1,0,0:0:0:0:
320,89,19499,2,0,L|465:100,1,140,2|0,0:0|0:0,0:0:0:0:
249,186,20368,2,0,L|77:166,1,140,2|0,0:0|0:0,0:0:0:0:
425,263,21238,6,0,P|459:198|409:153,1,140,2|0,0:0|0:0,0:0:0:0:
210,154,22107,2,0,L|375:150,1,140,2|0,0:0|0:0,0:0:0:0:
467,139,22759,1,0,0:0:0:0:
349,150,22977,2,0,L|204:161,1,140,2|0,0:0|0:0,0:0:0:0:
418,285,23846,2,0,P|455:230|417:158,1,140,2|2,0:0|0:0,0:0:0:0:
106,165,24716,6,0,L|90:255,1,70,2|0,0:0|0:0,0:0:0:0:
269,239,25368,2,0,L|273:314,1,70,2|2,0:0|0:0,0:0:0:0:
62,308,26020,1,0,0:0:0:0:
272,308,26455,6,0,L|346:305,1,70,2|0,0:0|0:0,0:0:0:0:
163,213,27107,2,0,L|152:128,1,70,2|2,0:0|0:0,0:0:0:0:
367,98,27759,1,0,0:0:0:0:
183,109,28194,6,0,L|179:201,1,70,2|0,0:0|0:0,0:0:0:0:
358,194,28846,1,2,0:0:0:0:
444,266,29064,1,2,0:0:0:0:
444,266,29281,1,2,0:0:0:0:
358,194,29499,1,8,0:0:0:0:
147,182,29716,5,4,0:0:0:0:
270,186,30151,1,0,0:0:0:0:
160,212,30368,2,0,L|178:304,1,70,2|0,0:0|0:0,0:0:0:0:
278,283,30803,2,0,L|274:364,1,70,0|0,0:0|0:0,0:0:0:0:
163,352,31238,2,0,L|156:271,1,70,0|0,0:0|0:0,0:0:0:0:
368,250,31673,6,0,P|409:200|362:125,1,140,6|2,0:0|0:0,0:0:0:0:
291,118,32325,1,8,0:0:0:0:
120,246,32759,2,0,L|265:238,2,140,8|8|8,0:0|0:0|0:0,0:0:0:0:
65,232,33846,2,0,L|64:141,1,70,2|8,0:0|0:0,0:0:0:0:
416,195,34499,2,0,P|428:144|375:74,1,140,8|8,0:0|0:0,0:0:0:0:
323,68,35151,5,2,0:0:0:0:
113,211,35586,1,2,0:0:0:0:
174,211,35803,2,0,L|318:207,1,140,8|8,0:0|0:0,0:0:0:0:
399,205,36455,1,2,0:0:0:0:
303,174,36673,6,0,P|252:143|292:60,1,140,8|8,0:0|0:0,0:0:0:0:
361,42,37325,1,8,0:0:0:0:
252,36,37542,2,0,P|199:54|264:223,1,280,2|8,0:0|0:0,0:0:0:0:
454,254,38629,6,0,P|483:283|442:364,1,140,6|2,0:0|0:0,0:0:0:0:
370,359,39281,1,8,0:0:0:0:
206,342,39716,2,0,L|353:314,2,140,8|8|8,0:0|0:0|0:0,0:0:0:0:
131,341,40803,2,0,L|70:288,1,70,2|8,0:0|0:0,0:0:0:0:
289,139,41455,1,8,0:0:0:0:
170,160,41673,2,0,L|169:255,1,70,2|8,0:0|0:0,0:0:0:0:
378,269,42107,6,0,L|401:191,1,70,2|8,0:0|0:0,0:0:0:0:
308,175,42542,2,0,L|306:96,1,70,2|8,0:0|0:0,0:0:0:0:
485,46,43194,2,0,L|491:122,1,70,2|2,0:0|0:0,0:0:0:0:
280,149,43629,6,0,L|139:143,1,140,8|8,0:0|0:0,0:0:0:0:
45,139,44281,2,0,L|43:217,1,70,8|8,0:0|0:0,0:0:0:0:
254,243,44716,1,6,0:0:0:0:
100,211,45151,2,0,L|92:133,1,70,8|8,0:0|0:0,0:0:0:0:
304,134,45586,5,6,0:0:0:0:
384,140,45803,2,0,P|423:163|408:256,1,140,8|8,0:0|0:0,0:0:0:0:
331,251,46455,2,0,L|171:242,1,140,2|2,0:0|0:0,0:0:0:0:
331,193,47325,5,2,0:0:0:0:
254,184,47542,2,0,L|111:158,2,140,8|8|8,0:0|0:0|0:0,0:0:0:0:
367,208,48629,2,0,L|375:302,1,70,2|8,0:0|0:0,0:0:0:0:
158,296,49064,5,2,0:0:0:0:
305,218,49499,1,2,0:0:0:0:
120,200,49933,2,0,P|85:174|163:50,1,210,2|8,0:0|0:0,0:0:0:0:
234,52,50803,2,0,L|266:124,1,70,2|8,0:0|0:0,0:0:0:0:
164,142,51238,2,0,L|148:231,1,70,2|8,0:0|0:0,0:0:0:0:
345,214,51890,6,0,L|351:302,1,70,8|8,0:0|0:0,0:0:0:0:
44,301,52542,5,6,0:0:0:0:
127,281,52759,2,0,P|163:258|124:164,1,140,8|8,0:0|0:0,0:0:0:0:
46,150,53412,2,0,L|199:145,1,140,2|2,0:0|0:0,0:0:0:0:
391,134,54281,5,2,0:0:0:0:
222,203,54716,2,0,L|215:285,1,70,2|8,0:0|0:0,0:0:0:0:
417,275,55368,2,0,L|425:355,1,70,8|2,0:0|0:0,0:0:0:0:
115,340,56020,5,2,0:0:0:0:
293,263,56455,1,2,0:0:0:0:
116,231,56890,2,0,P|75:208|118:119,1,140,8|8,0:0|0:0,0:0:0:0:
303,113,57542,5,6,0:0:0:0:
116,196,57977,2,0,L|123:279,1,70,8|8,0:0|0:0,0:0:0:0:
292,276,58629,2,0,P|343:249|328:163,1,140,8|8,0:0|0:0,0:0:0:0:
269,137,59281,1,8,0:0:0:0:
139,176,59499,2,0,L|145:265,1,70,8|8,0:0|0:0,0:0:0:0:
265,256,59933,2,0,L|267:350,1,70,12|8,0:0|0:0,0:0:0:0:
125,339,60368,5,8,0:0:0:0:
224,283,60586,2,0,L|223:202,1,70,2|8,0:0|0:0,0:0:0:0:
127,175,61020,1,8,0:0:0:0:
341,159,61238,6,0,P|365:127|331:31,1,140,12|8,0:0|0:0,0:0:0:0:
157,99,62107,2,0,L|325:91,1,140,8|8,0:0|0:0,0:0:0:0:
386,89,62759,1,2,0:0:0:0:
228,134,63194,5,2,0:0:0:0:
119,194,63412,2,0,L|124:284,1,70,8|2,0:0|0:0,0:0:0:0:
230,280,63846,2,0,L|399:274,1,140,8|8,0:0|0:0,0:0:0:0:
59,224,64716,6,0,P|35:192|69:96,1,140,8|8,0:0|0:0,0:0:0:0:
243,164,65585,2,0,L|75:156,1,140,8|8,0:0|0:0,0:0:0:0:
14,154,66237,1,2,0:0:0:0:
263,126,66673,6,0,P|297:167|252:237,1,140,2|2,0:0|0:0,0:0:0:0:
153,258,67324,2,0,L|322:252,1,140,8|8,0:0|0:0,0:0:0:0:
389,246,67977,1,2,0:0:0:0:
177,218,68194,6,0,P|131:194|166:104,1,140,6|8,0:0|0:0,0:0:0:0:
233,106,68846,2,0,L|391:111,1,140,4|2,0:0|0:0,0:0:0:0:
284,251,69499,1,8,0:0:0:0:
73,259,69716,6,0,P|60:211|139:133,1,140,4|2,0:0|0:0,0:0:0:0:
210,125,70368,1,8,0:0:0:0:
327,136,70586,2,0,L|482:181,1,140,4|2,0:0|0:0,0:0:0:0:
393,273,71238,1,8,0:0:0:0:
291,305,71455,1,0,0:0:0:0:
80,277,71673,6,0,P|48:255|92:167,1,140,8|8,0:0|0:0,0:0:0:0:
263,150,72542,2,0,L|101:128,1,140,8|2,0:0|0:0,0:0:0:0:
334,88,73194,2,0,P|367:149|340:220,1,140,12|2,0:0|0:0,0:0:0:0:
250,228,73846,1,8,0:0:0:0:
167,252,74064,2,0,L|326:242,1,140,2|8,0:0|0:0,0:0:0:0:
221,200,74716,2,0,L|210:126,1,70,8|8,0:0|0:0,0:0:0:0:
424,96,75151,6,0,L|503:86,2,70,8|8|8,0:0|0:0|0:0,0:0:0:0:
111,186,76020,2,0,L|41:181,2,70,8|8|8,0:0|0:0|0:0,0:0:0:0:
426,242,76890,2,0,L|440:161,1,70,8|8,0:0|0:0,0:0:0:0:
342,158,77325,2,0,L|328:80,1,70,8|8,0:0|0:0,0:0:0:0:
439,77,77759,1,8,0:0:0:0:
317,75,77977,2,0,L|241:72,2,70,8|2|2,0:0|0:0|0:0,0:0:0:0:
106,167,78629,6,0,P|70:199|108:289,1,140,6|2,0:0|0:0,0:0:0:0:
179,305,79281,1,8,0:0:0:0:
359,262,79716,2,0,L|199:249,2,140,8|8|8,0:0|0:0|0:0,0:0:0:0:
243,216,80803,2,0,L|235:140,1,70,2|8,0:0|0:0,0:0:0:0:
349,121,81238,2,0,L|367:81,1,35,2|0,0:0|0:0,0:0:0:0:
322,81,81455,2,0,L|182:75,1,140,8|8,0:0|0:0,0:0:0:0:
398,156,82107,5,2,0:0:0:0:
497,188,82325,2,0,L|513:276,1,70,8|2,0:0|0:0,0:0:0:0:
404,277,82759,2,0,L|249:273,1,140,8|8,0:0|0:0,0:0:0:0:
158,269,83412,1,2,0:0:0:0:
372,234,83629,6,0,P|414:194|364:121,1,140,8|8,0:0|0:0,0:0:0:0:
161,140,84499,2,0,L|314:135,1,140,8|8,0:0|0:0,0:0:0:0:
389,135,85151,1,8,0:0:0:0:
71,173,85586,6,0,L|62:255,1,70,6|8,0:0|0:0,0:0:0:0:
166,276,86020,1,2,0:0:0:0:
281,231,86238,2,0,L|137:218,2,140,8|8|8,0:0|0:0|0:0,0:0:0:0:
77,172,87325,5,2,0:0:0:0:
147,103,87542,2,0,L|245:99,1,70,8|2,0:0|0:0,0:0:0:0:
348,103,87977,2,0,P|393:133|358:213,1,140,8|8,0:0|0:0,0:0:0:0:
155,272,88846,6,0,L|79:258,2,70,8|2|8,0:0|0:0|0:0,0:0:0:0:
356,234,89716,2,0,L|185:215,1,140,8|8,0:0|0:0,0:0:0:0:
104,201,90368,1,10,0:0:0:0:
317,172,90586,2,0,P|350:132|304:58,1,140,6|2,0:0|0:0,0:0:0:0:
103,99,91238,2,0,L|86:183,1,70,8|2,0:0|0:0,0:0:0:0:
190,176,91673,2,0,L|200:249,1,70,8|8,0:0|0:0,0:0:0:0:
99,268,92107,2,0,L|89:348,1,70,8|8,0:0|0:0,0:0:0:0:
304,339,92542,6,0,L|457:331,1,140,6|2,0:0|0:0,0:0:0:0:
226,241,93412,2,0,L|219:151,1,70,2|8,0:0|0:0,0:0:0:0:
409,135,94064,2,0,L|243:123,1,140,8|8,0:0|0:0,0:0:0:0:
179,114,94716,1,2,0:0:0:0:
74,105,94933,1,8,0:0:0:0:
260,94,95368,2,0,L|348:92,1,70,8|2,0:0|0:0,0:0:0:0:
113,158,95803,6,0,P|79:196|117:266,1,140,8|8,0:0|0:0,0:0:0:0:
311,273,96673,2,0,L|465:275,1,140,8|8,0:0|0:0,0:0:0:0:
366,189,97325,1,2,0:0:0:0:
249,186,97542,6,0,L|87:180,1,140,8|8,0:0|0:0,0:0:0:0:
172,123,98194,1,2,0:0:0:0:
385,125,98412,2,0,P|419:163|383:239,1,140,8|8,0:0|0:0,0:0:0:0:
266,237,99064,2,0,L|170:232,1,70,2|8,0:0|0:0,0:0:0:0:
403,186,99499,6,0,P|436:155|384:79,1,140,6|2,0:0|0:0,0:0:0:0:
199,173,100368,2,0,L|192:83,1,70,2|8,0:0|0:0,0:0:0:0:
409,135,101020,2,0,L|243:123,1,140,8|8,0:0|0:0,0:0:0:0:
366,82,101672,1,2,0:0:0:0:
460,50,101889,1,8,0:0:0:0:
278,77,102325,1,8,0:0:0:0:
178,107,102542,2,0,L|169:188,1,70,2|8,0:0|0:0,0:0:0:0:
379,225,102977,6,0,P|417:195|372:104,1,140,2|2,0:0|0:0,0:0:0:0:
288,102,103629,2,0,L|442:104,1,140,8|8,0:0|0:0,0:0:0:0:
366,189,104281,1,2,0:0:0:0:
156,190,104498,6,0,P|79:174|88:115,1,140,8|8,0:0|0:0,0:0:0:0:
189,158,105151,2,0,L|200:240,1,70,2|8,0:0|0:0,0:0:0:0:
92,251,105586,2,0,L|90:333,1,70,2|8,0:0|0:0,0:0:0:0:
206,340,106020,1,2,0:0:0:0:
418,339,106238,2,0,P|457:288|400:221,1,140,12|8,0:0|0:0,0:0:0:0:
318,219,106890,2,0,L|316:142,1,70,8|8,0:0|0:0,0:0:0:0:
417,112,107325,1,8,0:0:0:0:
108,162,107759,1,8,0:0:0:0:
446,170,108194,6,0,P|482:202|444:292,1,140,6|2,0:0|0:0,0:0:0:0:
366,295,108846,1,8,0:0:0:0:
169,294,109281,2,0,L|9:281,1,140,8|8,0:0|0:0,0:0:0:0:
213,231,110151,1,8,0:0:0:0:
327,199,110368,2,0,L|335:123,1,70,2|8,0:0|0:0,0:0:0:0:
25,133,111020,2,0,L|165:127,1,140,8|8,0:0|0:0,0:0:0:0:
268,128,111672,5,2,0:0:0:0:
109,218,112107,1,2,0:0:0:0:
222,258,112325,2,0,P|261:223|225:143,1,140,8|8,0:0|0:0,0:0:0:0:
139,124,112977,1,2,0:0:0:0:
350,146,113194,6,0,L|511:187,1,140,8|8,0:0|0:0,0:0:0:0:
386,220,113846,1,2,0:0:0:0:
284,215,114064,2,0,L|60:206,1,210,8|2,0:0|0:0,0:0:0:0:
162,92,114933,1,8,0:0:0:0:
371,200,115151,6,0,L|380:282,1,70,2|8,0:0|0:0,0:0:0:0:
283,282,115585,1,2,0:0:0:0:
391,320,115803,2,0,L|251:332,1,140,8|8,0:0|0:0,0:0:0:0:
79,235,116673,2,0,L|231:229,1,140,8|8,0:0|0:0,0:0:0:0:
329,228,117325,1,2,0:0:0:0:
202,133,117542,2,0,P|157:163|192:243,1,140,8|8,0:0|0:0,0:0:0:0:
360,211,118412,1,8,0:0:0:0:
147,247,118629,6,0,L|77:256,2,70,6|2|8,0:0|0:0|0:0,0:0:0:0:
254,238,119281,2,0,L|425:219,1,140,4|2,0:0|0:0,0:0:0:0:
323,183,119933,1,8,0:0:0:0:
110,178,120151,2,0,L|271:169,1,140,6|2,0:0|0:0,0:0:0:0:
381,127,120803,2,0,L|241:122,2,140,8|8|8,0:0|0:0|0:0,0:0:0:0:
53,172,122107,5,6,0:0:0:0:
256,192,122542,12,0,127759,0:0:0:0:
