osu file format v14

[General]
AudioFilename: audio.mp3
AudioLeadIn: 0
PreviewTime: 222500
Countdown: 0
SampleSet: Soft
StackLeniency: 0.3
Mode: 0
LetterboxInBreaks: 0
WidescreenStoryboard: 1

[Editor]
Bookmarks: 26740,40653,56305,73696,103261,117174,132826,150218,179783,193696,207609,223261,252826,266740
DistanceSpacing: 1
BeatDivisor: 6
GridSize: 8
TimelineZoom: 3.399999

[Metadata]
Title:Christmas no Uta
TitleUnicode:クリスマスのうた
Artist:Poppin'Party
ArtistUnicode:Poppin'Party
Creator:-Mikan
Version:Ducky-'s Insane
Source:バンドリ!ガールズバンドパーティ!
Tags:Kazato asa Shizuku- Djulus keeVY Ducky- Daycore BanG Dream! Girls Band Party! Garupa Bandori! ガルパ!single popipa ポピパ ポッピン パーティー 戸山香澄 Toyama Kasumi 愛美 Aimi 山吹 沙綾 Yamabuki Saaya 大橋彩香 Ohashi Ayaka 牛込 りみ Ushigome Rimi 西本 りみ Nishimoto 花園 たえ Hanazono Tae 大塚紗英 Otsuka Sae 大塚紗英 Ichigaya Arisa 伊藤 彩沙 Itou Ayasa Japanese Anime Video Game xmas santa
BeatmapID:2248332
BeatmapSetID:888123

[Difficulty]
HPDrainRate:5
CircleSize:4
OverallDifficulty:8.5
ApproachRate:9
SliderMultiplier:2.09999990463257
SliderTickRate:1

[Events]
//Background and Video events
0,0,"2.jpg",0,0
//Break Periods
2,11275,12227
2,179983,191357
2,207808,218313
//Storyboard Layer 0 (Background)
//Storyboard Layer 1 (Fail)
//Storyboard Layer 2 (Pass)
//Storyboard Layer 3 (Foreground)
//Storyboard Layer 4 (Overlay)
//Storyboard Sound Samples

[TimingPoints]
409,666.666666666667,4,2,2,35,1,0
409,-133.333333333333,4,2,2,35,0,0
7075,-181.818181818181,4,2,2,35,0,0
7242,-181.818181818181,4,2,2,5,0,0
7408,-181.818181818181,4,2,2,35,0,0
7409,-181.818181818181,4,2,2,35,0,0
7575,-181.818181818181,4,2,2,5,0,0
7742,-181.818181818181,4,2,2,35,0,0
7909,-181.818181818181,4,2,2,5,0,0
8075,-181.818181818181,4,2,2,35,0,0
8242,-181.818181818181,4,2,2,5,0,0
8409,-181.818181818181,4,2,2,35,0,0
9742,-666.666666666667,4,2,2,35,0,0
11075,-666.666666666667,4,2,2,35,0,0
12827,434.782608695652,4,2,1,60,1,0
19674,-100,4,2,1,5,0,0
19783,-100,4,2,1,60,0,0
24131,-181.818181818182,4,2,1,60,0,0
26740,-66.6666666666667,4,2,1,70,0,0
28261,-66.6666666666667,4,2,1,70,0,0
39022,-66.6666666666667,4,2,1,5,0,0
39131,-66.6666666666667,4,2,1,70,0,0
39783,-83.3333333333333,4,2,1,70,0,0
40000,-83.3333333333333,4,2,1,30,0,0
40109,-83.3333333333333,4,2,1,50,0,0
40218,-83.3333333333333,4,2,1,70,0,0
40653,-100,4,2,1,60,0,0
51087,-76.9230769230769,4,2,1,60,0,0
51522,-90.9090909090909,4,2,1,60,0,0
52609,-181.818181818181,4,2,1,60,0,0
52935,-181.818181818181,4,2,1,5,0,0
53044,-153.846153846153,4,2,1,20,0,0
53261,-133.333333333333,4,2,1,30,0,0
53479,-117.647058823529,4,2,1,40,0,0
53696,-105.263157894737,4,2,1,50,0,0
53913,-95.2380952380951,4,2,1,60,0,0
54131,-86.9565217391304,4,2,1,60,0,0
54348,-80,4,2,1,70,0,0
54566,-74.0740740740741,4,2,1,70,0,0
54783,-68.9655172413793,4,2,1,80,0,0
55000,-64.5161290322581,4,2,1,90,0,0
55653,-64.5161290322581,4,2,1,65,0,0
56305,-100,4,2,1,60,0,0
63261,-80,4,2,1,60,0,0
63913,-100,4,2,1,60,0,0
64783,-133.333333333333,4,2,1,60,0,0
65653,-200,4,2,1,60,0,0
66740,-125,4,2,1,60,0,0
68261,-100,4,2,1,60,0,0
69348,-125,4,2,1,60,0,0
70218,-83.3333333333333,4,2,1,60,0,0
73261,-125,4,2,1,60,0,0
73696,-66.6666666666667,4,2,1,80,0,1
83913,-133.333333333333,4,2,1,80,0,1
84131,-66.6666666666667,4,2,1,80,0,1
85653,-133.333333333333,4,2,1,80,0,1
86305,-83.3333333333333,4,2,1,80,0,1
87609,-66.6666666666667,4,2,1,80,0,1
89131,-83.3333333333333,4,2,1,80,0,1
89566,-66.6666666666667,4,2,1,80,0,1
96087,-83.3333333333333,4,2,1,80,0,1
96522,-66.6666666666667,4,2,1,80,0,1
100000,-100,4,2,1,80,0,1
100218,-90.9090909090909,4,2,1,80,0,1
100435,-83.3333333333333,4,2,1,80,0,1
100653,-76.9230769230769,4,2,1,80,0,1
100870,-71.4285714285714,4,2,1,80,0,1
101087,-76.9230769230769,4,2,1,80,0,1
101305,-100,4,2,1,80,0,1
101740,-76.9230769230769,4,2,1,80,0,1
102174,-62.5,4,2,1,80,0,1
103261,-66.6666666666667,4,2,1,70,0,0
115218,-133.333333333333,4,2,1,70,0,0
115653,-66.6666666666667,4,2,1,70,0,0
117826,-66.6666666666667,4,2,1,50,0,0
118044,-133.333333333333,4,2,1,50,0,0
118913,-133.333333333333,4,2,1,70,0,0
120000,-105.263157894737,4,2,1,70,0,0
120653,-133.333333333333,4,2,1,60,0,0
124131,-100,4,2,1,70,0,0
127826,-83.3333333333333,4,2,1,70,0,0
129131,-125,4,2,1,70,0,0
130435,-100,4,2,1,70,0,0
130653,-83.3333333333333,4,2,1,70,0,0
130870,-71.4285714285714,4,2,1,70,0,0
132392,-100,4,2,1,70,0,0
132609,-142.857142857143,4,2,1,70,0,0
132826,-76.9230769230769,4,2,1,70,0,0
134348,-90.9090909090909,4,2,1,70,0,0
134783,-125,4,2,1,70,0,0
136305,-76.9230769230769,4,2,1,70,0,0
137826,-90.9090909090909,4,2,1,70,0,0
141305,-111.111111111111,4,2,1,70,0,0
142174,-166.666666666667,4,2,1,70,0,0
143261,-83.3333333333333,4,2,1,70,0,0
146740,-66.6666666666667,4,2,1,70,0,0
148479,-83.3333333333333,4,2,1,70,0,0
149783,-111.111111111111,4,2,1,70,0,0
150218,-66.6666666666667,4,2,1,80,0,1
160435,-133.333333333333,4,2,1,80,0,1
160653,-66.6666666666667,4,2,1,80,0,1
162174,-100,4,2,1,80,0,1
162826,-76.9230769230769,4,2,1,80,0,1
164131,-66.6666666666667,4,2,1,80,0,1
176522,-100,4,2,1,80,0,1
176740,-90.9090909090909,4,2,1,80,0,1
177826,-100,4,2,1,80,0,1
178479,-80,4,2,1,80,0,1
178696,-66.6666666666667,4,2,1,80,0,1
178913,-57.1428571428571,4,2,1,80,0,1
179783,-57.1428571428571,4,2,1,60,0,0
186305,-57.1428571428571,4,2,1,70,0,0
191957,-181.818181818182,4,2,1,50,0,0
192174,-181.818181818182,4,2,1,60,0,0
192392,-100,4,2,1,70,0,0
192609,-100,4,2,1,80,0,0
193696,-66.6666666666667,4,2,1,80,0,1
204783,-100,4,2,1,80,0,1
205218,-66.6666666666667,4,2,1,80,0,1
206522,-142.857142857143,4,2,1,80,0,1
207609,-57.1428571428571,4,2,1,50,0,0
216957,-57.1428571428571,4,2,1,60,0,0
219566,-57.1428571428571,4,2,1,70,0,0
221522,-57.1428571428571,4,2,1,80,0,0
223261,-66.6666666666667,4,2,1,90,0,1
235218,-83.3333333333333,4,2,1,90,0,1
235653,-100,4,2,1,90,0,1
235870,-76.9230769230769,4,2,1,90,0,1
237174,-66.6666666666667,4,2,1,90,0,1
238696,-83.3333333333333,4,2,1,90,0,1
239131,-66.6666666666667,4,2,1,90,0,1
249566,-100,4,2,1,90,0,1
249783,-90.9090909090909,4,2,1,90,0,1
250000,-83.3333333333333,4,2,1,90,0,1
250218,-76.9230769230769,4,2,1,90,0,1
250435,-71.4285714285714,4,2,1,90,0,1
250653,-76.9230769230769,4,2,1,90,0,1
250870,-90.9090909090909,4,2,1,90,0,1
251305,-76.9230769230769,4,2,1,90,0,1
251740,-66.6666666666667,4,2,1,90,0,1
252826,-66.6666666666667,4,2,1,80,0,0
258261,-57.1428571428571,4,2,1,80,0,0
258913,-66.6666666666667,4,2,1,80,0,0
262500,-100,4,2,1,80,0,0
262826,-76.9230769230769,4,2,1,80,0,0
263261,-66.6666666666667,4,2,1,80,0,0
264783,-133.333333333333,4,2,1,80,0,0
265435,-66.6666666666667,4,2,1,80,0,0
266305,-66.6666666666667,4,2,1,90,0,0
266740,-200,4,2,1,100,0,0
272120,-133.333333333333,4,2,1,5,0,0
272174,-133.333333333333,4,2,1,40,0,0
272500,-133.333333333333,4,2,1,5,0,0

[Colours]
Combo1 : 192,98,249
Combo2 : 255,32,32
Combo3 : 0,118,236
Combo4 : 255,255,28
Combo5 : 255,121,188

[HitObjects]
117,82,409,6,0,P|86:55|41:41,2,78.8287494242192,2|2|2,0:0|0:1|0:1,0:0:0:0:
133,189,1409,1,2,0:1:0:0:
133,189,1742,2,0,P|158:156|196:144,1,78.8287494242192,2|0,0:0|0:0,0:0:0:0:
370,105,2742,1,2,0:1:0:0:
370,105,3075,6,0,P|397:74|411:29,2,78.8287494242192,2|2|2,0:0|0:1|0:1,0:0:0:0:
263,121,4075,1,2,0:1:0:0:
263,121,4409,2,0,P|295:146|307:184,1,78.592499434948,2|0,0:0|0:0,0:0:0:0:
343,306,5409,1,2,0:1:0:0:
343,306,5742,6,0,P|374:333|419:347,2,78.8287494242192,2|2|2,0:0|0:1|0:1,0:0:0:0:
327,199,6742,1,2,0:1:0:0:
327,199,7075,2,0,P|301:231|263:243,1,57.8077491371632,2|2,0:0|0:0,0:0:0:0:
244,315,7742,2,0,P|211:289|199:251,1,57.8077491371632,2|2,0:0|0:0,0:0:0:0:
128,232,8409,2,0,P|153:199|191:187,1,57.8077491371632,2|2,0:0|0:1,0:0:0:0:
211,116,9075,2,0,P|243:141|255:179,1,57.8077491371632,2|2,0:1|0:1,0:0:0:0:
327,199,9742,6,0,P|302:229|279:242,1,63.0157452156546,2|0,0:0|0:0,0:0:0:0:
478,358,12827,5,2,0:0:0:0:
478,358,13044,1,0,0:0:0:0:
349,321,13261,1,2,0:1:0:0:
349,321,13479,1,0,0:0:0:0:
466,266,13696,6,0,P|455:197|407:159,2,105.188995223045,2|0|2,0:0|0:0|0:1,0:0:0:0:
388,79,14348,1,0,0:0:0:0:
388,79,14566,2,0,P|333:123|324:183,2,105.188995223045,2|0|2,0:0|0:0|0:1,0:0:0:0:
266,241,15218,1,0,0:0:0:0:
266,241,15435,2,0,P|319:265|376:251,2,105.430495212078,0|0|2,0:0|0:0|0:1,0:0:0:0:
164,303,16087,1,0,0:0:0:0:
166,133,16305,5,2,0:0:0:0:
166,133,16522,1,0,0:0:0:0:
266,241,16740,1,2,0:1:0:0:
266,241,16957,1,0,0:0:0:0:
293,141,17174,6,0,L|158:153,2,105.188995223045,2|0|2,0:0|0:0|0:1,0:0:0:0:
367,214,17827,1,0,0:0:0:0:
367,214,18044,2,0,L|424:91,2,105.188995223045,2|0|2,0:0|0:0|0:1,0:0:0:0:
266,241,18696,1,0,0:0:0:0:
266,241,18913,2,0,L|343:351,1,105.188995223045,2|0,0:0|0:0,0:0:0:0:
191,354,19348,1,2,0:1:0:0:
191,354,19566,1,0,0:0:0:0:
105,265,19783,5,0,3:0:0:0:
60,192,20000,1,0,0:0:0:0:
70,107,20218,1,2,0:1:0:0:
153,123,20435,1,0,3:0:0:0:
153,123,20653,1,0,3:0:0:0:
223,75,20870,1,0,0:0:0:0:
306,107,21087,1,2,0:1:0:0:
304,206,21305,5,0,0:0:0:0:
225,166,21522,1,0,3:0:0:0:
163,228,21740,1,0,0:0:0:0:
203,306,21957,1,2,0:1:0:0:
290,293,22174,1,0,3:0:0:0:
290,293,22392,1,0,3:0:0:0:
362,346,22609,1,0,0:0:0:0:
439,300,22826,1,2,0:1:0:0:
441,209,23044,1,0,0:0:0:0:
467,118,23261,5,0,3:0:0:0:
372,126,23479,1,0,0:0:0:0:
296,70,23696,1,2,0:1:0:0:
214,113,23913,1,0,3:0:0:0:
125,96,24131,6,0,L|84:108,1,29.0597995615006,8|0,3:0|0:0,0:0:0:0:
38,166,24348,2,0,L|2:161,2,19.2499997132619,0|0|8,3:0|3:0|0:0,0:0:0:0:
47,184,24566,2,0,P|67:214|74:247,1,57.8539491350651,8|4,0:0|3:2,0:0:0:0:
86,315,25218,5,0,0:0:0:0:
168,295,25435,1,0,0:0:0:0:
250,275,25653,1,0,0:0:0:0:
332,255,25870,1,2,0:0:0:0:
414,235,26087,2,0,P|448:240|469:243,2,38.4999994265239
455,161,26522,1,0,0:0:0:0:
455,161,26595,1,0,0:0:0:0:
455,161,26667,1,0,0:0:0:0:
455,161,26740,6,0,P|401:124|357:126,1,79.2539994049072,4|0,3:2|0:0,0:0:0:0:
359,41,26957,2,0,P|299:69|279:108,1,79.2539994049072,10|0,0:0|0:0,0:0:0:0:
207,64,27174,2,0,P|201:129|225:166,1,79.2539994049072,0|0,3:0|0:0,0:0:0:0:
348,222,27392,6,0,L|135:262,1,157.783498842716,10|0,0:0|3:0,0:0:0:0:
160,384,27718,1,0,0:0:0:0:
160,384,27826,2,0,L|231:179,1,157.783498842716,10|0,0:0|3:0,0:0:0:0:
113,140,28153,1,0,0:0:0:0:
113,140,28261,2,0,L|254:304,1,157.783498842716,10|0,0:0|3:0,0:0:0:0:
315,365,28696,6,0,P|320:331|347:286,1,78.7499994277954,10|0,0:0|0:0,0:0:0:0:
468,322,28913,2,0,P|463:288|436:243,1,78.7499994277954,2|0,3:2|0:0,0:0:0:0:
381,182,29131,6,0,P|400:79|415:21,1,157.499998855591,10|0,0:0|3:0,0:0:0:0:
319,72,29566,2,0,L|203:59,1,79.2539994049072,10|0,0:0|0:0,0:0:0:0:
206,76,29783,1,0,3:0:0:0:
210,187,30000,2,0,L|117:166,1,79.2539994049072,8|0,0:0|0:0,0:0:0:0:
80,63,30218,6,0,B|99:1|99:1|122:146,1,157.783498842716,4|8,3:2|0:0,0:0:0:0:
26,215,30653,1,2,3:2:0:0:
119,279,30870,2,0,P|134:245|38:262,1,157.783498842716,10|0,0:0|3:0,0:0:0:0:
22,379,31305,6,0,P|63:376|132:390,1,79.2539994049072,10|0,0:0|0:0,0:0:0:0:
188,337,31522,2,0,P|172:295|148:258,1,79.2539994049072,2|0,3:2|0:0,0:0:0:0:
316,312,31740,2,0,P|297:348|250:401,1,79.2539994049072,10|0,0:0|0:0,0:0:0:0:
254,243,31957,1,0,3:0:0:0:
254,243,32066,1,0,3:0:0:0:
254,243,32174,6,0,L|237:130,1,79.2539994049072,10|0,0:0|0:0,0:0:0:0:
142,45,32392,2,0,L|155:133,1,79.2539994049072,10|0,0:0|0:0,0:0:0:0:
19,244,32609,1,0,3:0:0:0:
19,244,32718,1,0,3:0:0:0:
19,244,32826,2,0,L|151:228,1,79.2539994049072,10|0,0:0|0:0,0:0:0:0:
207,284,33044,6,0,L|311:269,1,79.2539994049072,0|0,3:0|3:0,0:0:0:0:
319,243,33261,1,8,0:0:0:0:
339,210,33370,1,8,0:0:0:0:
336,172,33479,1,8,0:0:0:0:
316,139,33587,1,8,0:0:0:0:
284,141,33696,6,0,L|191:128,1,79.2539994049072,4|0,3:2|0:0,0:0:0:0:
148,204,33913,2,0,L|112:116,1,79.2539994049072,12|0,0:0|0:0,0:0:0:0:
25,117,34131,2,0,L|82:42,1,79.2539994049072,4|0,3:2|0:0,0:0:0:0:
165,0,34348,2,0,P|199:60|276:15,1,157.783498842716,12|0,0:0|3:0,0:0:0:0:
421,105,34674,1,0,0:0:0:0:
421,105,34783,2,0,P|387:165|310:120,1,157.783498842716,10|0,0:0|3:0,0:0:0:0:
148,204,35109,1,0,0:0:0:0:
148,204,35218,2,0,P|182:264|259:219,1,157.783498842716,12|0,0:0|3:0,0:0:0:0:
376,192,35653,6,0,L|365:289,1,78.7499994277954,10|0,0:0|0:0,0:0:0:0:
492,384,35870,2,0,L|500:305,1,78.7499994277954,0|0,3:0|0:0,0:0:0:0:
417,287,36087,6,0,L|239:321,1,157.783498842716,12|0,0:0|3:0,0:0:0:0:
174,384,36522,2,0,B|184:374|201:345|192:319|192:319|172:312,1,79.2539994049072,10|0,0:0|0:0,0:0:0:0:
148,295,36740,1,2,3:2:0:0:
47,349,36957,1,10,0:0:0:0:
0,220,37174,6,0,L|104:231,1,79.2539994049072,2|0,3:2|0:0,0:0:0:0:
167,144,37392,2,0,L|63:155,1,79.2539994049072,10|0,0:0|0:0,0:0:0:0:
8,88,37609,1,10,0:0:0:0:
103,36,37826,1,2,3:2:0:0:
103,36,37935,1,8,0:0:0:0:
103,36,38044,1,8,0:0:0:0:
164,127,38261,2,0,P|195:107|224:72,1,79.2539994049072,8|0,3:0|3:0,0:0:0:0:
299,24,38479,2,0,P|312:61|315:101,1,79.2539994049072,8|0,3:0|3:0,0:0:0:0:
254,202,38696,1,4,3:2:0:0:
254,202,39131,5,12,0:0:0:0:
364,244,39348,1,12,0:0:0:0:
322,355,39566,1,12,0:0:0:0:
211,312,39783,2,0,L|63:328,1,126.22679042244,12|8,0:0|0:0,0:0:0:0:
19,372,40109,1,8,0:0:0:0:
19,372,40218,5,8,0:0:0:0:
38,342,40326,1,8,0:0:0:0:
18,302,40435,1,8,0:0:0:0:
47,266,40544,1,8,0:0:0:0:
21,235,40653,6,0,L|14:173,1,52.8359976005555,4|0,3:2|0:0,0:0:0:0:
125,68,40870,2,0,P|120:129|116:172,1,105.188995223046,8|0,0:0|3:0,0:0:0:0:
254,224,41305,1,8,0:0:0:0:
254,224,41522,2,0,P|238:207|227:176,1,52.8359976005555,0|0,3:0|0:0,0:0:0:0:
154,119,41740,2,0,P|174:101|198:92,1,52.8359976005555,8|0,0:0|0:0,0:0:0:0:
259,19,41957,2,0,P|277:39|286:63,1,52.8359976005555,0|0,3:0|0:0,0:0:0:0:
359,124,42174,2,0,P|339:142|315:151,1,52.8359976005555,8|0,0:0|0:0,0:0:0:0:
170,139,42392,5,0,3:0:0:0:
136,258,42609,2,0,L|279:237,1,105.188995223046,8|0,0:0|3:0,0:0:0:0:
168,351,43044,2,0,L|64:366,1,105.188995223046,8|0,0:0|3:0,0:0:0:0:
25,275,43479,1,8,0:0:0:0:
25,275,43696,2,0,P|42:234|59:206,1,52.8359976005555,0|0,3:0|0:0,0:0:0:0:
5,147,43913,2,0,P|49:141|81:141,1,52.8359976005555,8|0,0:0|0:0,0:0:0:0:
188,232,44131,6,0,P|162:163|138:197,1,157.541992845536,0|0,3:0|0:0,0:0:0:0:
28,296,44566,2,0,B|2:326|2:326|132:296,1,157.541992845536,0|0,3:0|0:0,0:0:0:0:
204,384,45000,2,0,P|201:362|248:288,2,105.188995223046,0|8|0,3:0|0:0|3:0,0:0:0:0:
349,339,45653,1,8,0:0:0:0:
349,339,45870,6,0,P|340:311|325:285,1,52.8359976005555,0|0,3:0|0:0,0:0:0:0:
423,237,46087,2,0,P|394:230|364:230,1,52.8359976005555,8|0,0:0|0:0,0:0:0:0:
371,121,46305,2,0,P|351:142|336:168,1,52.8359976005555,0|0,3:0|0:0,0:0:0:0:
278,224,46522,2,0,L|171:210,1,105.188995223046,8|0,0:0|0:0,0:0:0:0:
72,284,46957,2,0,L|80:222,1,52.8359976005555,8|0,0:0|0:0,0:0:0:0:
178,131,47174,2,0,L|171:183,1,52.8359976005555,0|8,3:0|0:0,0:0:0:0:
91,111,47392,1,8,0:0:0:0:
91,111,47500,1,8,0:0:0:0:
91,111,47609,6,0,L|97:58,1,52.8359976005555,4|0,3:2|0:0,0:0:0:0:
0,14,47826,2,0,L|122:29,1,105.188995223046,8|0,0:0|3:0,0:0:0:0:
200,76,48261,1,8,0:0:0:0:
299,36,48479,2,0,L|375:42,1,52.8359976005555,0|0,3:0|0:0,0:0:0:0:
420,126,48696,2,0,L|367:121,1,52.8359976005555,8|0,0:0|0:0,0:0:0:0:
287,191,48913,2,0,L|363:197,1,52.8359976005555,0|0,3:0|0:0,0:0:0:0:
420,266,49131,1,8,0:0:0:0:
352,384,49348,6,0,P|349:329|343:263,1,105.188995223046,0|8,3:0|0:0,0:0:0:0:
287,229,49783,1,0,3:0:0:0:
156,323,50000,2,0,P|211:320|277:314,1,105.188995223046,8|0,0:0|3:0,0:0:0:0:
287,229,50435,1,8,0:0:0:0:
196,142,50653,2,0,P|199:197|205:263,1,105.188995223046,0|8,3:0|0:0,0:0:0:0:
113,166,51087,6,0,P|114:129|125:89,1,68.6867937564854,4|0,3:2|0:0,0:0:0:0:
291,149,51305,2,0,P|280:113|259:77,1,68.6867937564854,8|0,0:0|0:0,0:0:0:0:
187,26,51522,2,0,L|196:147,1,115.707898270131,2|8,3:0|0:0,0:0:0:0:
118,255,51957,6,0,P|123:198|60:265,1,231.41579654026,10|8,3:2|3:0,0:0:0:0:
1,360,52609,2,0,L|92:351,1,86.6480987086296,4|0,3:2|0:0,0:0:0:0:
176,350,53044,6,0,P|175:367|173:384,1,34.3433968782427,8|0,0:0|0:0,0:0:0:0:
254,352,53261,2,0,P|257:332|260:313,1,39.6269997024536,8|0,0:0|0:0,0:0:0:0:
342,290,53479,2,0,P|340:312|338:335,1,44.9105988116264,8|0,0:0|0:0,0:0:0:0:
420,321,53696,2,0,P|424:296|426:272,1,50.1941963887216,8|0,0:0|0:0,0:0:0:0:
512,246,53913,6,0,P|511:273|508:301,1,55.4777957983018,8|0,0:0|0:0,0:0:0:0:
428,179,54131,2,0,P|424:149|423:119,1,60.7613983922005,8|0,0:0|0:0,0:0:0:0:
412,272,54348,6,0,P|410:305|407:338,1,66.0449970006943,8|0,0:0|0:0,0:0:0:0:
336,204,54566,2,0,P|332:169|331:134,1,71.3285970311165,8|0,0:0|0:0,0:0:0:0:
311,300,54783,6,0,P|309:338|304:376,1,76.612198843956,8|0,0:0|0:0,0:0:0:0:
235,232,55000,2,0,P|230:191|229:151,1,82.6444468677044,12|0,0:0|0:0,0:0:0:0:
153,301,55218,6,0,P|151:342|147:383,1,81.8957969017029,0|0,3:0|3:0,0:0:0:0:
110,210,55435,1,12,0:0:0:0:
20,185,55653,1,0,3:0:0:0:
20,185,55761,1,8,0:0:0:0:
20,185,55870,2,0,P|30:141|80:116,1,81.8957969017029,8|8,3:2|3:0,0:0:0:0:
28,39,56087,2,0,P|71:25|117:56,1,81.8957969017029,4|0,3:0|0:0,0:0:0:0:
196,117,56305,6,0,B|295:120|295:120|326:141|326:141|408:143,2,210.136490457058,14|10|10,0:0|0:0|0:0,0:0:0:0:
196,117,57609,1,8,0:0:0:0:
361,66,57826,2,0,L|485:70,1,105.188995223046,0|8,3:0|0:0,0:0:0:0:
480,226,58261,1,0,3:0:0:0:
480,226,58479,2,0,P|458:186|395:187,1,105.188995223046,8|0,0:0|3:0,0:0:0:0:
434,308,58913,2,0,P|383:306|357:263,1,105.188995223046,8|0,0:0|3:0,0:0:0:0:
333,185,59348,1,8,0:0:0:0:
270,357,59566,1,0,3:0:0:0:
270,357,59674,1,0,3:0:0:0:
270,357,59783,6,0,B|296:293|281:250|242:269|201:205|247:143,2,210.136490457058,10|10|10,0:0|0:0|0:0,0:0:0:0:
270,357,61087,1,8,0:0:0:0:
333,185,61305,2,0,L|312:44,1,105.188995223046,0|8,3:0|0:0,0:0:0:0:
151,27,61740,2,0,L|135:130,1,105.188995223046,0|8,3:0|0:0,0:0:0:0:
227,254,62174,1,0,3:0:0:0:
160,156,62392,6,0,P|105:159|55:174,1,105.188995223046,8|0,0:0|3:0,0:0:0:0:
29,300,62826,1,8,0:0:0:0:
121,246,63044,1,8,0:0:0:0:
121,246,63153,1,8,0:0:0:0:
121,246,63261,6,0,B|158:262|158:262|185:382,1,131.486244028807,4|0,3:2|3:0,0:0:0:0:
331,369,63696,1,10,0:0:0:0:
333,269,63913,2,0,P|283:280|249:319,1,105.188995223046,4|0,3:2|0:0,0:0:0:0:
421,357,64348,1,0,3:0:0:0:
473,285,64566,1,10,0:0:0:0:
413,207,64783,2,0,L|427:106,1,78.8917494213581,4|0,3:2|0:0,0:0:0:0:
324,132,65218,2,0,L|285:37,1,78.8917494213581,0|10,3:0|0:0,0:0:0:0:
209,111,65653,6,0,P|166:87|90:88,1,105.188995223046,4|0,3:2|3:0,0:0:0:0:
132,182,66305,1,10,0:0:0:0:
16,118,66522,1,0,3:0:0:0:
48,243,66740,6,0,L|150:222,1,84.1511961784363,12|0,0:0|3:0,0:0:0:0:
285,286,67174,2,0,L|202:302,1,84.1511961784363,12|0,0:0|3:0,0:0:0:0:
356,361,67609,2,0,L|439:345,1,84.1511961784363,8|8,0:0|3:0,0:0:0:0:
464,220,68044,1,0,3:0:0:0:
464,220,68261,2,0,P|473:167|386:219,1,210.377990446091,4|0,3:2|3:0,0:0:0:0:
404,293,68913,5,8,0:0:0:0:
307,240,69131,1,0,3:0:0:0:
210,187,69348,2,0,L|216:131,1,42.2687980804444,8|0,0:0|0:0,0:0:0:0:
203,108,69566,1,8,0:0:0:0:
176,81,69674,1,8,0:0:0:0:
139,71,69783,1,8,0:0:0:0:
101,74,69892,1,8,3:0:0:0:
67,91,70000,1,0,3:0:0:0:
49,124,70109,1,0,3:0:0:0:
40,167,70218,6,0,L|54:240,1,63.4031951980592,10|0,0:0|0:0,0:0:0:0:
159,246,70435,2,0,L|147:307,1,63.4031951980592,10|0,0:0|0:0,0:0:0:0:
66,368,70653,1,12,0:0:0:0:
472,167,71087,6,0,L|458:240,1,63.4031951980592,10|0,0:0|0:0,0:0:0:0:
353,246,71305,2,0,L|364:307,1,62.8235952243806,10|0,0:0|0:0,0:0:0:0:
446,368,71522,1,12,0:0:0:0:
176,32,71957,6,0,L|199:110,1,63.4031951980592,8|0,3:2|0:0,0:0:0:0:
336,32,72174,2,0,L|313:110,1,63.4031951980592,0|8,3:0|0:0,0:0:0:0:
256,168,72392,1,8,3:2:0:0:
256,208,72500,1,8,0:0:0:0:
232,240,72609,1,8,3:2:0:0:
195,250,72718,1,8,0:0:0:0:
159,237,72826,2,0,B|141:210|141:210|145:166,1,63.4031951980592,8|0,0:0|0:0,0:0:0:0:
90,69,73044,5,8,0:0:0:0:
52,74,73153,1,8,3:0:0:0:
35,112,73261,2,0,L|38:132,9,13.9999993642171,4|2|2|2|2|2|2|2|2|2,3:0|0:2|0:2|0:2|0:2|0:2|0:2|0:2|0:2|0:2,0:2:0:0:
55,235,73696,6,0,P|44:273|42:324,1,79.2539994049072,4|0,3:2|0:0,0:0:0:0:
156,384,73913,2,0,P|153:344|142:307,1,79.2539994049072,8|0,0:0|0:0,0:0:0:0:
261,241,74131,2,0,P|250:279|248:330,1,79.2539994049072,0|0,3:0|0:0,0:0:0:0:
329,375,74348,2,0,P|406:356|496:355,1,157.783498842716,10|0,0:0|3:0,0:0:0:0:
422,265,74674,1,0,0:0:0:0:
422,265,74783,2,0,P|367:207|321:130,1,157.783498842716,10|0,0:0|3:0,0:0:0:0:
281,240,75109,1,0,0:0:0:0:
281,240,75218,2,0,P|258:316|214:394,1,157.783498842716,10|0,0:0|3:0,0:0:0:0:
70,356,75544,1,0,0:0:0:0:
70,356,75653,6,0,B|53:345|53:345|60:269,1,79.2539994049072,8|0,0:0|0:0,0:0:0:0:
130,237,75870,2,0,B|147:226|147:226|140:150,1,79.2539994049072,0|0,3:0|0:0,0:0:0:0:
66,131,76087,2,0,B|49:120|49:120|56:44,1,79.2539994049072,8|0,0:0|0:0,0:0:0:0:
174,53,76305,1,0,3:0:0:0:
174,53,76413,1,0,3:0:0:0:
174,53,76522,2,0,L|355:42,2,157.783498842716,8|2|8,0:0|3:2|0:0,0:0:0:0:
293,142,77174,5,4,3:2:0:0:
371,236,77392,2,0,L|450:224,1,79.2539994049072,8|0,0:0|0:0,0:0:0:0:
337,321,77609,2,0,L|258:333,1,79.2539994049072,0|0,3:0|0:0,0:0:0:0:
190,225,77826,2,0,P|260:173|284:218,1,157.783498842716,10|0,0:0|3:0,0:0:0:0:
185,384,78153,1,0,0:0:0:0:
185,384,78261,6,0,B|200:364|200:364|188:297,1,79.2539994049072,8|0,0:0|0:0,0:0:0:0:
94,255,78479,2,0,B|79:235|79:235|91:168,1,79.2539994049072,0|0,3:0|0:0,0:0:0:0:
13,88,78696,2,0,L|204:107,1,157.783498842716,12|0,0:0|3:0,0:0:0:0:
321,21,79131,2,0,B|297:30|297:30|283:96,1,79.2539994049072,8|0,0:0|0:0,0:0:0:0:
295,108,79348,1,8,0:0:0:0:
450,217,79566,2,0,P|391:174|342:226,1,157.783498842716,0|8,3:0|0:0,0:0:0:0:
445,326,80000,2,0,B|429:303|429:303|371:315,1,79.2539994049072,4|0,3:2|0:0,0:0:0:0:
298,362,80218,1,8,0:0:0:0:
266,359,80326,1,8,0:0:0:0:
234,357,80435,1,8,0:0:0:0:
202,356,80544,1,8,0:0:0:0:
170,356,80653,6,0,L|154:237,1,79.2539994049072,4|0,3:2|0:0,0:0:0:0:
264,197,80870,2,0,L|253:275,1,79.2539994049072,8|0,0:0|0:0,0:0:0:0:
162,180,81087,2,0,L|151:101,1,79.2539994049072,0|0,3:0|0:0,0:0:0:0:
209,35,81305,2,0,B|318:46|241:102|353:118,1,157.499998855591,10|0,0:0|3:0,0:0:0:0:
445,141,81631,1,0,0:0:0:0:
445,141,81740,2,0,P|368:125|354:195,1,157.499998855591,10|0,0:0|3:0,0:0:0:0:
275,241,82066,1,0,0:0:0:0:
275,241,82174,2,0,P|243:221|266:196,1,78.7499994277954,8|0,0:0|0:0,0:0:0:0:
404,267,82392,5,0,3:0:0:0:
404,266,82609,6,0,P|400:304|393:356,1,79.2539994049072,8|0,0:0|0:0,0:0:0:0:
285,369,82826,2,0,P|279:329|275:290,1,79.2539994049072,0|0,3:0|0:0,0:0:0:0:
185,242,83044,2,0,B|143:228|88:316|138:389,2,157.499998855591,12|0|10,0:0|3:0|0:0,0:0:0:0:
41,237,83696,2,0,L|31:130,1,79.2539994049072,0|0,3:0|0:0,0:0:0:0:
2,3,83913,2,0,P|-1:42|3:63,1,39.6269997024536,8|0,0:0|0:0,0:0:0:0:
30,70,84131,6,0,L|130:82,1,79.2539994049072,4|0,3:2|0:0,0:0:0:0:
183,26,84348,2,0,L|283:38,1,79.2539994049072,8|0,0:0|0:0,0:0:0:0:
301,108,84566,2,0,L|401:120,1,79.2539994049072,0|0,3:0|0:0,0:0:0:0:
483,26,84783,2,0,P|467:138|467:194,1,157.783498842716,10|0,0:0|3:0,0:0:0:0:
512,290,85109,1,0,3:0:0:0:
512,290,85218,2,0,P|484:268|441:262,1,79.2539994049072,8|8,3:0|3:0,0:0:0:0:
380,336,85435,2,0,P|348:359|310:364,1,79.2539994049072,4|4,3:0|3:0,0:0:0:0:
224,304,85653,2,0,P|233:240|241:178,1,118.156499140262,4|0,3:2|0:0,0:0:0:0:
266,168,86087,2,0,L|264:104,1,39.6269997024536,0|0,3:0|0:0,0:0:0:0:
146,34,86305,6,0,L|155:113,1,63.4031951980592,12|0,0:0|0:0,0:0:0:0:
39,162,86522,2,0,L|46:99,1,63.4031951980592,0|0,3:0|3:0,0:0:0:0:
144,198,86740,2,0,L|153:277,1,63.4031951980592,8|0,0:0|0:0,0:0:0:0:
13,384,86957,5,8,0:0:0:0:
41,371,87066,1,8,0:0:0:0:
70,359,87174,1,8,0:0:0:0:
99,346,87283,1,8,0:0:0:0:
128,335,87392,2,0,L|191:354,1,63.4031951980592,8|8,0:0|0:0,0:0:0:0:
304,384,87609,6,0,P|279:309|284:290,1,79.2539994049072,4|0,3:2|0:0,0:0:0:0:
297,285,87826,1,10,0:0:0:0:
439,347,88044,2,0,P|474:294|453:262,1,79.2539994049072,0|0,3:0|0:0,0:0:0:0:
454,265,88261,1,10,0:0:0:0:
300,199,88479,2,0,P|312:126|354:46,2,157.783498842716,0|10|0,3:0|0:0|3:0,0:0:0:0:
438,183,89131,2,0,P|442:160|438:107,1,63.4031951980592,12|0,0:0|0:0,0:0:0:0:
427,100,89348,5,0,3:0:0:0:
278,93,89566,2,0,L|182:103,1,79.2539994049072,10|0,0:0|0:0,0:0:0:0:
76,11,89783,2,0,L|132:89,1,79.2539994049072,0|0,3:0|0:0,0:0:0:0:
130,162,90000,2,0,B|114:202|114:202|135:342,1,157.783498842716,10|0,0:0|3:0,0:0:0:0:
224,373,90326,1,2,0:0:0:0:
224,373,90435,2,0,P|241:344|280:317,1,79.2539994049072,10|0,0:0|0:0,0:0:0:0:
258,233,90653,2,0,P|291:233|334:253,1,79.2539994049072,2|0,3:2|0:0,0:0:0:0:
422,346,90870,1,8,0:0:0:0:
422,346,90979,1,0,0:0:0:0:
422,346,91087,6,0,P|426:295|434:257,1,79.2539994049072,0|0,3:0|0:0,0:0:0:0:
512,168,91305,2,0,B|486:184|486:184|498:242,1,79.2539994049072,8|0,0:0|0:0,0:0:0:0:
366,157,91522,2,0,B|386:179|386:179|360:232,1,79.2539994049072,2|0,3:2|0:0,0:0:0:0:
234,138,91740,6,0,L|397:122,1,157.783498842716,8|0,0:0|3:0,0:0:0:0:
279,9,92066,1,0,0:0:0:0:
279,9,92174,2,0,L|296:100,1,79.2539994049072,10|0,0:0|0:0,0:0:0:0:
159,105,92392,2,0,L|173:27,1,79.2539994049072,0|0,3:0|0:0,0:0:0:0:
20,42,92609,2,0,P|56:131|67:214,1,157.783498842716,10|0,0:0|3:0,0:0:0:0:
21,298,92935,5,0,0:0:0:0:
21,298,93044,2,0,P|49:283|104:274,1,79.2539994049072,8|0,0:0|0:0,0:0:0:0:
149,192,93261,2,0,P|175:208|211:251,1,79.2539994049072,2|0,3:2|0:0,0:0:0:0:
173,342,93479,2,0,L|333:325,1,157.783498842716,12|0,0:0|3:0,0:0:0:0:
432,373,93805,1,0,0:0:0:0:
432,373,93913,2,0,P|416:340|400:290,1,79.2539994049072,10|0,0:0|0:0,0:0:0:0:
483,256,94131,2,0,P|499:223|515:173,1,79.2539994049072,0|8,3:0|0:0,0:0:0:0:
454,95,94348,1,8,0:0:0:0:
434,73,94457,1,8,0:0:0:0:
428,40,94566,6,0,B|394:9|394:9|340:41,1,79.2539994049072,4|0,3:2|0:0,0:0:0:0:
341,61,94783,1,10,0:0:0:0:
319,226,95000,2,0,B|362:211|362:211|353:157,1,79.2539994049072,0|0,3:0|0:0,0:0:0:0:
348,149,95218,1,10,0:0:0:0:
221,148,95435,2,0,B|204:35|204:35|229:0,2,157.783498842716,0|10|0,3:0|0:0|3:0,0:0:0:0:
241,268,96087,2,0,P|237:254|187:243,1,63.4031951980592,12|0,0:0|0:0,0:0:0:0:
162,247,96305,5,0,3:0:0:0:
112,157,96522,2,0,P|100:108|80:64,1,79.2539994049072,10|0,0:0|0:0,0:0:0:0:
22,195,96740,2,0,P|7:231|0:270,1,79.2539994049072,0|0,3:0|0:0,0:0:0:0:
36,359,96957,2,0,L|220:338,1,157.783498842716,10|0,0:0|3:0,0:0:0:0:
228,251,97283,1,0,0:0:0:0:
228,251,97392,2,0,P|315:238|320:372,1,236.312998280525,8|0,0:0|0:0,0:0:0:0:
309,367,97826,2,0,P|359:350|404:349,1,79.2539994049072,10|0,0:0|0:0,0:0:0:0:
512,363,98044,6,0,B|501:295|501:295|513:273|513:273|499:175,1,157.783498842716,4|8,3:2|0:0,0:0:0:0:
418,144,98370,1,0,0:0:0:0:
418,144,98479,2,0,P|370:137|313:134,1,79.2539994049072,0|0,3:0|0:0,0:0:0:0:
255,215,98696,6,0,P|257:136|250:49,1,157.783498842716,10|0,0:0|3:0,0:0:0:0:
166,17,99022,1,0,0:0:0:0:
166,17,99131,2,0,P|117:31|79:32,1,79.2539994049072,10|0,0:0|0:0,0:0:0:0:
0,107,99348,2,0,P|49:121|87:122,1,79.2539994049072,0|0,3:0|0:0,0:0:0:0:
234,127,99566,2,0,P|150:194|155:257,1,157.783498842716,12|0,0:0|3:0,0:0:0:0:
69,341,99892,1,0,0:0:0:0:
69,341,100000,6,0,L|163:322,1,52.8359976005555,10|0,0:0|0:0,0:0:0:0:
201,384,100218,2,0,L|295:365,1,58.1195991230011,2|0,3:2|0:0,0:0:0:0:
93,324,100435,6,0,L|187:305,1,63.4031951980592,10|0,0:0|0:0,0:0:0:0:
225,367,100653,2,0,L|319:348,1,68.6867937564854,2|0,3:2|0:0,0:0:0:0:
117,307,100870,6,0,L|211:288,1,73.9703943977358,8|0,3:0|0:0,0:0:0:0:
249,350,101087,2,0,L|343:331,1,69.3146937279705,8|0,3:0|0:0,0:0:0:0:
141,290,101305,6,0,L|325:252,1,157.541992845536,4|0,3:2|0:0,0:0:0:0:
415,148,101740,6,0,L|397:216,1,68.2499937763218,0|0,3:0|0:0,0:0:0:0:
320,145,101957,2,0,L|301:73,1,68.6867937564854,0|0,3:0|0:0,0:0:0:0:
434,148,102174,6,0,L|411:236,1,84.5375961608887,8|0,0:0|0:0,0:0:0:0:
301,144,102392,2,0,L|275:44,1,83.7647961959839,12|0,0:0|0:0,0:0:0:0:
198,27,102609,1,0,3:0:0:0:
172,35,102718,1,8,0:0:0:0:
140,38,102826,1,8,0:0:0:0:
104,22,102935,1,8,0:0:0:0:
55,34,103044,1,8,0:0:0:0:
29,76,103153,1,8,0:0:0:0:
45,128,103261,6,0,P|77:159|96:200,1,79.2539994049072,4|0,3:2|0:0,0:0:0:0:
190,187,103479,2,0,P|179:230|153:267,1,79.2539994049072,10|0,0:0|0:0,0:0:0:0:
211,342,103696,2,0,P|168:353|123:349,1,79.2539994049072,0|0,3:0|0:0,0:0:0:0:
28,355,103913,2,0,P|15:295|95:276,1,157.783498842716,10|0,0:0|3:0,0:0:0:0:
254,267,104240,1,0,0:0:0:0:
254,267,104348,2,0,P|267:207|187:188,1,157.783498842716,10|0,0:0|3:0,0:0:0:0:
131,85,104674,1,0,0:0:0:0:
131,85,104783,2,0,L|325:96,1,157.783498842716,10|0,0:0|3:0,0:0:0:0:
341,16,105109,5,0,0:0:0:0:
341,16,105218,2,0,B|360:33|360:33|375:90,1,79.2539994049072,10|0,0:0|0:0,0:0:0:0:
466,148,105435,2,0,B|479:96|479:96|498:79,1,79.2539994049072,2|0,3:2|0:0,0:0:0:0:
375,237,105653,6,0,P|360:160|298:193,1,157.783498842716,10|0,0:0|3:0,0:0:0:0:
141,206,106087,2,0,P|165:217|194:271,1,79.2539994049072,10|0,0:0|0:0,0:0:0:0:
183,292,106305,1,0,3:0:0:0:
321,374,106522,2,0,P|367:369|415:360,1,79.2539994049072,8|0,0:0|0:0,0:0:0:0:
433,384,106740,6,0,P|453:295|487:218,1,157.783498842716,4|8,3:2|0:0,0:0:0:0:
427,158,107066,1,0,0:0:0:0:
427,158,107174,2,0,P|417:111|425:74,1,79.2539994049072,2|0,3:2|0:0,0:0:0:0:
340,28,107392,2,0,P|267:61|303:120,1,157.783498842716,10|0,0:0|3:0,0:0:0:0:
342,217,107718,1,0,0:0:0:0:
342,217,107826,2,0,P|313:201|255:192,1,79.2539994049072,10|0,0:0|0:0,0:0:0:0:
244,109,108044,2,0,P|215:126|178:171,1,79.2539994049072,2|0,3:2|0:0,0:0:0:0:
48,113,108261,6,0,B|84:97|106:157|106:157|129:249,1,157.783498842716,10|0,0:0|3:0,0:0:0:0:
26,322,108587,1,0,3:0:0:0:
26,322,108696,2,0,L|116:301,1,79.2539994049072,12|0,0:0|0:0,0:0:0:0:
256,351,108913,2,0,L|179:368,1,79.2539994049072,12|0,0:0|0:0,0:0:0:0:
288,237,109131,2,0,P|327:237|351:272,1,79.2539994049072,0|0,3:0|3:0,0:0:0:0:
366,305,109348,1,12,0:0:0:0:
440,208,109566,1,0,3:0:0:0:
432,187,109674,1,0,3:0:0:0:
465,165,109783,1,8,0:0:0:0:
483,130,109892,1,8,0:0:0:0:
481,90,110000,1,8,0:0:0:0:
470,51,110109,1,8,0:0:0:0:
443,34,110218,6,0,P|407:30|362:55,1,79.2539994049072,4|0,3:2|0:0,0:0:0:0:
243,20,110435,2,0,P|257:53|301:79,1,79.2539994049072,12|0,0:0|0:0,0:0:0:0:
330,200,110653,2,0,P|351:170|352:119,1,79.2539994049072,4|0,3:2|0:0,0:0:0:0:
219,174,110870,2,0,L|251:350,1,157.783498842716,12|0,0:0|3:0,0:0:0:0:
360,351,111196,1,0,0:0:0:0:
360,351,111305,2,0,L|191:290,1,157.783498842716,10|0,0:0|3:0,0:0:0:0:
136,384,111631,1,0,0:0:0:0:
136,384,111740,2,0,L|272:268,1,157.783498842716,12|0,0:0|3:0,0:0:0:0:
368,255,112174,6,0,P|407:265|466:294,1,79.2539994049072,8|0,0:0|0:0,0:0:0:0:
512,159,112392,2,0,P|473:169|437:184,1,79.2539994049072,2|0,3:2|0:0,0:0:0:0:
355,145,112609,2,0,P|377:67|315:47,1,157.783498842716,12|0,0:0|3:0,0:0:0:0:
252,120,112935,1,0,0:0:0:0:
252,120,113044,2,0,P|227:118|197:67,1,79.2539994049072,10|0,0:0|0:0,0:0:0:0:
105,10,113261,2,0,P|115:32|86:84,1,79.2539994049072,2|0,3:2|0:0,0:0:0:0:
83,192,113479,2,0,P|97:171|156:170,1,79.2539994049072,10|0,0:0|0:0,0:0:0:0:
67,285,113696,6,0,P|42:283|12:232,1,79.2539994049072,4|0,3:2|0:0,0:0:0:0:
156,252,113913,2,0,P|166:274|137:326,1,79.2539994049072,8|0,0:0|0:0,0:0:0:0:
83,192,114131,2,0,P|97:171|156:170,1,79.2539994049072,0|0,3:0|0:0,0:0:0:0:
267,228,114348,1,8,0:0:0:0:
320,213,114457,1,8,0:0:0:0:
370,236,114566,1,8,3:0:0:0:
384,263,114674,1,0,3:0:0:0:
384,294,114783,1,8,3:0:0:0:
359,334,114892,1,0,3:0:0:0:
389,370,115000,2,0,P|434:356|486:348,1,79.2539994049072,4|0,3:0|0:0,0:0:0:0:
502,362,115218,6,0,P|483:275|487:215,1,118.156499140262,4|0,3:2|0:0,0:0:0:0:
506,161,115653,2,0,P|490:126|442:107,1,79.2539994049072,12|0,0:0|0:0,0:0:0:0:
441,23,115870,2,0,P|402:19|362:51,1,79.2539994049072,12|0,0:0|0:0,0:0:0:0:
288,11,116087,2,0,P|265:42|273:93,1,79.2539994049072,12|0,0:0|0:0,0:0:0:0:
319,157,116305,2,0,P|334:135|355:205,1,157.783498842716,12|0,0:0|3:0,0:0:0:0:
296,269,116631,1,8,0:0:0:0:
264,233,116740,2,0,P|247:243|238:270,1,39.6269997024536,8|0,0:0|0:0,0:0:0:0:
219,204,116848,2,0,P|212:222|222:249,1,39.6269997024536,8|0,3:0|0:0,0:0:0:0:
171,227,116957,2,0,P|177:245|202:259,1,39.6269997024536,8|0,3:0|0:0,0:0:0:0:
164,279,117066,2,0,P|181:288|209:283,1,39.6269997024536,0|0,3:0|0:0,0:0:0:0:
184,318,117174,5,8,0:0:0:0:
445,77,117826,5,2,0:0:0:0:
434,204,118044,2,0,P|444:146|279:86,1,275.939997982979,2|0,0:0|0:0,0:0:0:0:
345,161,118913,6,0,B|328:179|328:179|253:168,1,78.8917494213581,4|0,3:2|3:0,0:0:0:0:
182,121,119240,1,8,3:0:0:0:
182,121,119348,2,0,B|202:134|202:134|198:164,1,39.6269997024536,4|0,3:0|0:0,0:0:0:0:
151,215,119566,1,4,3:2:0:0:
13,62,119783,5,0,0:0:0:0:
13,62,119892,1,8,0:0:0:0:
13,62,120000,2,0,L|80:66,1,50.1941963887216,2|0,3:2|0:0,0:0:0:0:
131,14,120218,2,0,L|198:18,1,50.1941963887216,8|8,0:0|3:0,0:0:0:0:
244,79,120435,2,0,L|311:83,1,50.1941963887216,4|0,3:0|0:0,0:0:0:0:
438,84,120653,6,0,P|446:35|388:76,2,157.602373850942,0|2|10,3:0|0:0|0:0,0:0:0:0:
359,164,121957,1,2,0:0:0:0:
359,164,122174,2,0,P|369:216|389:256,1,78.8917494213581,0|2,3:0|3:2,0:0:0:0:
488,279,122609,6,0,L|433:287,1,39.6269997024536,8|0,0:0|0:0,0:0:0:0:
407,359,122826,2,0,L|352:367,1,39.6269997024536,2|0,0:0|0:0,0:0:0:0:
304,308,123044,2,0,L|249:316,1,39.6269997024536,0|0,3:0|0:0,0:0:0:0:
181,371,123261,1,10,0:0:0:0:
80,268,123479,6,0,L|90:214,1,39.6269997024536,0|8,3:0|3:0,0:0:0:0:
42,151,123696,1,8,3:0:0:0:
36,111,123805,1,0,0:0:0:0:
67,87,123913,1,0,3:0:0:0:
106,89,124022,1,0,3:0:0:0:
132,105,124131,6,0,L|214:101,1,52.8359976005555,4|0,3:2|0:0,0:0:0:0:
300,21,124348,2,0,L|247:23,1,52.8359976005555,8|0,0:0|0:0,0:0:0:0:
279,156,124566,6,0,P|282:124|293:97,1,52.8359976005555,0|0,3:0|0:0,0:0:0:0:
379,152,124783,2,0,P|387:176|388:203,1,52.8359976005555,8|0,0:0|0:0,0:0:0:0:
304,249,125000,6,0,L|218:240,1,52.8359976005555,0|0,3:0|0:0,0:0:0:0:
134,198,125218,2,0,P|157:251|163:305,1,105.188995223046,8|0,0:0|3:0,0:0:0:0:
47,352,125544,1,0,0:0:0:0:
47,352,125653,2,0,P|61:321|70:287,1,52.8359976005555,8|0,0:0|0:0,0:0:0:0:
19,204,125870,6,0,P|33:136|82:147,1,105.188995223046,0|8,3:0|0:0,0:0:0:0:
174,74,126196,1,0,0:0:0:0:
174,74,126305,2,0,L|29:55,2,105.188995223046,0|8|0,3:0|0:0|3:0,0:0:0:0:
245,140,126848,1,0,0:0:0:0:
245,140,126957,2,0,L|313:130,1,52.8359976005555,8|0,0:0|0:0,0:0:0:0:
361,73,127174,2,0,P|399:55|439:107,1,105.188995223046,0|8,3:0|0:0,0:0:0:0:
416,177,127500,1,0,0:0:0:0:
416,177,127609,6,0,L|414:230,1,52.8359976005554,4|0,3:2|0:0,0:0:0:0:
465,316,127826,2,0,L|393:313,1,63.4031951980593,8|0,0:0|0:0,0:0:0:0:
306,375,128044,2,0,L|309:303,1,63.4031951980593,10|0,0:0|0:0,0:0:0:0:
245,140,128261,1,8,0:0:0:0:
245,140,128370,1,8,0:0:0:0:
245,140,128479,2,0,P|290:201|267:260,1,126.22679042244,8|8,3:2|3:0,0:0:0:0:
174,327,128805,1,0,0:0:0:0:
174,327,128913,2,0,P|184:282|193:233,1,63.4031951980593,0|0,3:0|0:0,0:0:0:0:
107,214,129131,6,0,B|96:151|96:151|79:133|79:133|65:51,1,168.302392356873,4|0,3:2|0:0,0:0:0:0:
180,19,129783,5,0,0:0:0:0:
259,130,130000,1,0,0:0:0:0:
310,15,130218,1,8,0:0:0:0:
438,69,130435,6,0,L|367:57,1,52.8359976005555,8|0,0:0|0:0,0:0:0:0:
259,130,130653,2,0,L|330:118,1,62.9999952163698,8|0,0:0|0:0,0:0:0:0:
472,168,130870,2,0,L|393:154,1,73.9703943977358,8|0,0:0|0:0,0:0:0:0:
275,235,131087,6,0,L|353:221,1,73.9703943977358,8|0,0:0|0:0,0:0:0:0:
472,255,131305,1,0,3:0:0:0:
460,325,131413,1,0,3:0:0:0:
398,360,131522,2,0,L|323:347,1,73.9703943977358,0|0,3:0|0:0,0:0:0:0:
232,366,131740,2,0,P|247:275|253:197,1,147.26458882618,8|0,0:0|3:0,0:0:0:0:
272,92,132174,1,8,3:0:0:0:
272,92,132392,2,0,L|261:163,1,52.8359976005555,0|0,3:0|0:0,0:0:0:0:
175,219,132609,2,0,L|166:167,1,36.9851971988679,0|0,3:0|0:0,0:0:0:0:
158,74,132826,6,0,B|96:24|96:24|61:78|61:78|-2:75|-2:75|1:153,2,272.999975105287,10|10|10,0:0|0:0|0:0,0:0:0:0:
437,130,134131,1,8,0:1:0:0:
346,18,134348,2,0,P|329:107|330:163,1,115.707898270131,8|0,0:0|0:0,0:0:0:0:
415,285,134783,6,0,L|475:274,1,42.2687980804444,8|0,0:0|0:0,0:0:0:0:
349,341,135000,2,0,L|388:387,1,42.2687980804444,8|0,0:1|0:0,0:0:0:0:
267,311,135218,2,0,L|246:368,1,42.2687980804444,0|8,3:1|0:1,0:0:0:0:
251,225,135435,2,0,L|191:235,1,42.2687980804444,8|8,0:0|0:1,0:0:0:0:
109,368,135653,1,8,0:1:0:0:
109,368,135761,1,8,0:1:0:0:
109,368,135870,2,0,P|111:257|124:210,1,126.033594276428,8|0,0:1|0:0,0:1:0:0:
221,156,136305,6,0,P|152:126|272:48,2,273.177425097228,10|10|10,0:0|0:0|0:0,0:0:0:0:
432,124,137609,1,8,0:0:0:0:
485,34,137826,2,0,P|393:43|333:69,1,115.707898270131,8|8,0:1|0:1,0:0:0:0:
355,160,138261,2,0,P|347:188|332:213,1,58.1195991230011,8|0,0:1|0:0,0:0:0:0:
382,293,138479,2,0,P|353:300|325:300,1,58.1195991230011,8|0,0:1|0:0,0:0:0:0:
279,383,138696,2,0,P|259:362|246:337,1,58.1195991230011,8|8,0:1|0:1,0:0:0:0:
149,338,138913,2,0,P|157:311|174:287,1,58.1195991230011,8|0,0:0|0:0,0:0:0:0:
61,373,139131,2,0,P|46:345|20:320,1,58.1195991230011,4|0,3:2|0:0,0:0:0:0:
43,232,139348,1,8,3:0:0:0:
43,232,139457,1,0,3:0:0:0:
43,232,139566,2,0,P|74:233|108:223,1,58.1195991230011,0|0,3:0|3:0,0:0:0:0:
168,155,139783,6,0,L|154:0,1,115.707898270131,4|0,3:2|3:0,0:0:0:0:
362,86,140218,1,8,0:0:0:0:
490,38,140435,2,0,P|430:44|322:71,1,115.707898270131,4|0,3:2|0:0,0:0:0:0:
331,254,140870,5,8,3:0:0:0:
422,159,141087,1,8,0:0:0:0:
439,295,141305,2,0,L|314:278,1,94.6700928168299,4|0,3:2|0:0,0:0:0:0:
201,349,141740,1,0,3:0:0:0:
299,233,141957,1,8,0:0:0:0:
217,116,142174,6,0,L|231:203,1,63.1133952112199,4|0,3:2|0:0,0:0:0:0:
116,245,142500,1,8,0:0:0:0:
116,245,142609,2,0,L|126:182,1,63.1133952112199,0|8,3:0|0:0,0:0:0:0:
156,79,143044,1,8,0:0:0:0:
156,79,143153,1,8,0:0:0:0:
156,79,143261,6,0,P|123:50|38:54,1,126.22679042244,4|0,3:2|3:0,0:0:0:0:
356,79,143696,2,0,P|389:50|474:54,1,126.22679042244,12|0,0:0|3:0,0:0:0:0:
256,264,144131,2,0,L|256:138,1,126.22679042244,8|0,3:0|3:0,0:0:0:0:
301,25,144566,1,4,3:0:0:0:
512,155,144783,6,0,B|497:88|421:67|367:108|367:108|408:131|413:181,1,252.45358084488,4|0,3:2|3:0,0:0:0:0:
318,314,145435,2,0,P|324:251|335:189,1,126.22679042244,8|0,0:0|3:0,0:0:0:0:
487,240,145870,1,12,0:0:0:0:
487,240,146087,2,0,P|478:236|425:257,1,63.4031951980592,8|0,3:0|3:0,0:0:0:0:
318,314,146305,2,0,P|344:329|375:324,1,63.4031951980592,8|0,3:0|3:0,0:0:0:0:
267,227,146522,1,8,3:0:0:0:
267,227,146740,6,0,B|255:143,1,79.2539994049072,10|0,0:0|0:0,0:0:0:0:
133,107,146957,2,0,B|144:184,1,79.2539994049072,10|0,0:0|0:0,0:0:0:0:
230,64,147174,1,12,0:0:0:0:
230,64,147609,6,0,L|329:73,1,79.2539994049072,10|0,0:0|0:0,0:0:0:0:
429,7,147826,2,0,L|350:0,1,79.2539994049072,10|0,0:0|0:0,0:0:0:0:
406,108,148044,1,12,0:0:0:0:
406,108,148479,6,0,P|432:133|448:168,1,63.4031951980592,8|0,0:0|0:0,3:0:0:0:
334,242,148696,2,0,P|342:206|364:175,1,63.4031951980592,0|0,3:0|0:0,3:0:0:0:
487,238,148913,2,0,P|452:248|414:244,1,63.4031951980592,0|0,3:0|0:0,0:0:0:0:
258,163,149131,2,0,L|266:206,2,41.9999968109132,0|0|0,3:0|3:0|3:0,3:0:0:0:
281,151,149348,2,0,L|290:61,1,62.9999952163698,8|0,0:0|0:0,0:0:0:0:
202,34,149566,2,0,L|241:19,2,41.9999968109132,0|0|0,3:0|3:0|3:0,0:0:0:0:
181,24,149783,2,0,P|192:95|114:109,1,141.787789235115,10|2,0:0|0:0,0:0:0:0:
18,59,150218,6,0,P|29:97|31:148,1,79.2539994049072,4|0,3:2|0:0,0:0:0:0:
123,195,150435,2,0,P|126:155|137:118,1,79.2539994049072,8|0,0:0|0:0,0:0:0:0:
29,218,150653,2,0,P|40:256|42:307,1,79.2539994049072,0|0,3:0|0:0,0:0:0:0:
123,195,150870,2,0,P|142:272|143:362,1,157.783498842716,10|0,0:0|3:0,0:0:0:0:
233,288,151196,1,0,0:0:0:0:
233,288,151305,2,0,P|291:233|368:187,1,157.783498842716,10|0,0:0|3:0,0:0:0:0:
258,147,151631,1,0,0:0:0:0:
258,147,151740,2,0,P|182:124|104:80,1,157.783498842716,10|0,0:0|3:0,0:0:0:0:
190,12,152066,1,0,0:0:0:0:
190,12,152174,6,0,P|226:-2|302:17,1,79.2539994049072,8|0,0:0|0:0,0:0:0:0:
294,76,152392,2,0,P|324:100|345:175,1,79.2539994049072,0|0,3:0|0:0,0:0:0:0:
290,198,152609,2,0,P|284:236|229:292,1,79.2539994049072,8|0,0:0|0:0,0:0:0:0:
162,366,152826,1,0,3:0:0:0:
162,366,152935,1,0,3:0:0:0:
162,366,153044,2,0,L|151:185,2,157.783498842716,8|2|8,0:0|3:2|0:0,0:0:0:0:
55,108,153696,5,4,3:2:0:0:
0,224,153913,2,0,L|79:212,1,79.9784993720054,8|0,0:0|0:0,0:0:0:0:
136,129,154131,2,0,L|215:117,1,79.2539994049072,0|0,3:0|0:0,0:0:0:0:
290,212,154348,2,0,P|304:128|308:40,1,157.783498842716,10|0,0:0|3:0,0:0:0:0:
392,11,154674,5,0,0:0:0:0:
392,11,154783,2,0,L|481:21,1,79.2539994049072,8|0,0:0|0:0,0:0:0:0:
512,110,155000,2,0,L|423:120,1,79.2539994049072,0|0,3:0|0:0,0:0:0:0:
370,196,155218,2,0,L|403:356,1,157.783498842716,12|0,0:0|3:0,0:0:0:0:
237,375,155653,6,0,P|239:334|259:289,1,79.2539994049072,10|0,0:0|0:0,0:0:0:0:
286,280,155870,1,10,0:0:0:0:
180,183,156087,6,0,P|145:119|77:146,1,158.507998809815,0|10,3:0|0:0,0:0:0:0:
31,351,156522,2,0,B|23:328|23:328|86:340,1,79.2539994049072,4|0,3:2|0:0,0:0:0:0:
214,362,156740,1,8,0:0:0:0:
246,359,156848,1,8,0:0:0:0:
278,357,156957,1,8,0:0:0:0:
310,356,157066,1,8,0:0:0:0:
342,355,157174,6,0,P|354:314|359:274,1,79.9784993720054,4|0,3:2|0:0,0:0:0:0:
280,222,157392,2,0,P|268:181|263:141,1,79.2539994049072,8|0,0:0|0:0,0:0:0:0:
369,82,157609,2,0,L|267:62,1,78.7499994277954,0|0,3:0|0:0,0:0:0:0:
183,30,157826,2,0,P|100:42|98:115,1,158.507998809815,10|0,0:0|3:0,0:0:0:0:
8,142,158153,1,0,0:0:0:0:
8,142,158261,2,0,P|60:208|125:173,1,158.507998809815,10|0,0:0|3:0,0:0:0:0:
213,124,158587,1,0,0:0:0:0:
213,124,158696,2,0,P|201:169|194:219,1,79.2539994049072,10|0,0:0|0:0,0:0:0:0:
93,220,158913,2,0,P|116:260|146:300,1,79.2539994049072,0|0,3:0|0:0,0:0:0:0:
224,371,159131,6,0,L|234:283,1,79.2539994049072,8|0,0:0|0:0,0:0:0:0:
350,216,159348,2,0,L|341:294,1,79.2539994049072,0|0,3:0|0:0,0:0:0:0:
425,371,159566,2,0,P|496:328|464:260,2,157.783498842716,12|0|10,0:0|3:0|0:0,0:0:0:0:
269,206,160218,2,0,P|285:170|287:130,1,79.2539994049072,2|0,3:2|0:0,0:0:0:0:
203,87,160435,6,0,L|146:80,1,39.6269997024536,8|0,0:0|0:0,0:0:0:0:
25,53,160653,6,0,P|48:93|58:144,1,79.2539994049072,4|0,3:2|0:0,0:0:0:0:
168,159,160870,2,0,P|145:199|135:250,1,79.2539994049072,8|0,0:0|0:0,0:0:0:0:
36,261,161087,2,0,P|59:301|69:352,1,79.2539994049072,0|0,3:0|0:0,0:0:0:0:
127,383,161305,2,0,P|239:367|295:367,1,157.783498842716,10|0,0:0|3:0,0:0:0:0:
393,347,161631,1,0,3:0:0:0:
393,347,161740,2,0,P|415:319|421:276,1,79.2539994049072,8|0,3:0|0:0,0:0:0:0:
319,235,161957,2,0,P|296:203|291:165,1,79.2539994049072,8|8,0:0|0:0,0:0:0:0:
367,87,162174,2,0,P|303:78|241:70,1,105.671995201111,4|0,3:2|0:0,0:0:0:0:
149,6,162609,6,0,L|150:58,1,52.8359976005555,0|0,3:0|0:0,0:0:0:0:
192,152,162826,6,0,L|92:143,1,68.6867937564854,12|0,0:0|0:0,0:0:0:0:
33,238,163044,2,0,L|133:229,1,68.6867937564854,0|0,3:0|3:0,0:0:0:0:
207,326,163261,2,0,L|107:317,1,68.6867937564854,8|0,0:0|0:0,0:0:0:0:
219,245,163479,5,2,3:2:0:0:
247,232,163587,1,10,0:0:0:0:
276,220,163696,1,10,0:2:0:0:
305,207,163805,1,8,0:0:0:0:
334,196,163913,2,0,L|397:215,1,69.0878949398996,10|10,0:0|0:0,0:0:0:0:
469,280,164131,6,0,P|494:205|489:186,1,79.2539994049072,4|0,3:2|0:0,0:0:0:0:
476,181,164348,1,8,0:0:0:0:
374,104,164566,2,0,P|339:51|360:19,1,79.2539994049072,0|0,3:0|0:0,0:0:0:0:
359,22,164783,1,8,0:0:0:0:
227,64,165000,2,0,P|169:43|75:21,2,158.145748826265,0|8|0,3:0|0:0|3:0,0:0:0:0:
72,202,165653,2,0,P|67:175|72:114,1,78.7499994277954,12|0,0:0|0:0,0:0:0:0:
85,100,165870,5,0,3:0:0:0:
234,93,166087,2,0,P|269:84|330:103,1,79.9784993720054,8|0,0:0|0:0,0:0:0:0:
436,11,166305,2,0,P|398:37|380:89,1,79.2539994049072,0|0,3:0|0:0,0:0:0:0:
375,153,166522,2,0,B|369:221|369:221|380:241|380:241|372:332,1,157.783498842716,10|0,0:0|3:0,0:0:0:0:
288,373,166848,1,2,0:0:0:0:
288,373,166957,2,0,P|271:344|232:317,1,79.2539994049072,10|2,0:0|0:0,0:0:0:0:
254,233,167174,2,0,P|221:233|178:253,1,79.9784993720054,2|2,3:2|0:0,0:0:0:0:
90,346,167392,1,10,0:0:0:0:
90,346,167500,1,0,0:0:0:0:
90,346,167609,6,0,P|86:295|78:257,1,79.2539994049072,0|0,3:0|0:0,0:0:0:0:
0,168,167826,2,0,B|26:184|26:184|14:242,1,78.7499994277954,8|0,0:0|0:0,0:0:0:0:
146,157,168044,2,0,B|126:179|126:179|152:232,1,78.7499994277954,0|0,3:0|0:0,0:0:0:0:
254,233,168261,6,0,P|250:140|238:76,1,158.507998809815,8|0,0:0|3:0,0:0:0:0:
313,16,168587,1,0,0:0:0:0:
313,16,168696,2,0,L|404:33,1,79.2539994049072,10|0,0:0|0:0,0:0:0:0:
488,103,168913,2,0,L|397:120,1,79.2539994049072,0|0,3:0|0:0,0:0:0:0:
337,172,169131,6,0,P|362:245|371:328,1,157.783498842716,8|0,0:0|3:0,0:0:0:0:
279,296,169457,5,0,0:0:0:0:
279,296,169566,2,0,P|251:281|196:272,1,79.2539994049072,12|0,0:0|0:0,0:0:0:0:
151,190,169783,2,0,P|125:206|89:249,1,79.2539994049072,0|0,3:0|3:0,0:0:0:0:
26,361,170000,2,0,P|12:278|4:176,1,158.507998809815,12|0,0:0|3:0,0:0:0:0:
74,142,170326,1,2,0:0:0:0:
74,142,170435,2,0,P|90:109|106:59,1,79.2539994049072,8|0,0:0|0:0,0:0:0:0:
201,21,170653,2,0,P|213:58|230:93,1,79.2539994049072,0|0,3:0|3:0,0:0:0:0:
330,125,170870,5,8,0:0:0:0:
368,119,170979,1,8,0:0:0:0:
413,115,171087,6,0,P|437:91|434:36,1,79.2539994049072,4|0,3:2|0:0,0:0:0:0:
415,25,171305,1,8,0:0:0:0:
232,184,171522,2,0,P|208:160|211:105,1,78.7499994277954,0|0,3:0|0:0,0:0:0:0:
230,94,171740,1,8,0:0:0:0:
329,160,171957,2,0,B|346:273|346:273|321:308,2,157.783498842716,0|10|0,3:0|0:0|3:0,0:0:0:0:
512,180,172609,2,0,P|508:166|443:161,1,78.7499994277954,12|0,0:0|0:0,0:0:0:0:
428,182,172826,5,0,3:0:0:0:
390,75,173044,2,0,P|378:26|358:-18,1,79.2539994049072,10|0,0:0|0:0,0:0:0:0:
259,52,173261,2,0,P|274:88|281:127,1,79.9784993720054,0|0,3:0|0:0,0:0:0:0:
165,135,173479,2,0,L|-19:114,1,157.783498842716,10|0,0:0|3:0,0:0:0:0:
235,240,173805,1,0,0:0:0:0:
235,240,173913,2,0,P|148:227|143:361,1,237.037498247623,8|0,0:0|0:0,0:0:0:0:
161,371,174348,2,0,P|211:354|256:353,1,79.2539994049072,8|0,0:0|0:0,0:0:0:0:
325,384,174566,6,0,B|336:316|336:316|324:294|324:294|338:196,1,157.783498842716,6|8,3:2|0:0,0:0:0:0:
444,163,174892,1,0,0:0:0:0:
444,163,175000,2,0,P|396:156|339:153,1,79.9784993720054,0|0,3:0|0:0,0:0:0:0:
282,167,175218,6,0,P|284:88|277:1,1,157.783498842716,8|0,0:0|3:0,0:0:0:0:
166,17,175544,1,0,0:0:0:0:
166,17,175653,2,0,P|117:31|79:32,1,79.2539994049072,8|0,0:0|0:0,0:0:0:0:
0,107,175870,2,0,P|49:121|87:122,1,79.2539994049072,0|0,3:0|0:0,0:0:0:0:
161,160,176087,2,0,P|160:265|165:328,1,158.507998809815,12|0,0:0|3:0,0:0:0:0:
252,379,176413,1,0,0:0:0:0:
252,379,176522,6,0,P|263:344|298:319,1,52.8359976005555,10|0,0:0|0:0,0:0:0:0:
254,252,176740,2,0,P|289:244|328:261,1,58.1195991230011,2|0,3:2|0:0,0:0:0:0:
395,307,176957,1,8,0:0:0:0:
433,295,177066,1,8,0:0:0:0:
450,259,177174,1,0,3:0:0:0:
450,218,177283,1,0,3:0:0:0:
427,184,177392,5,0,3:0:0:0:
376,173,177500,1,0,3:0:0:0:
323,179,177609,2,0,L|232:189,1,58.6508990988732,0|0,3:0|3:0,0:0:0:0:
201,273,177826,6,0,B|154:242|154:242|14:257,1,158.024992823601,4|0,3:2|0:0,0:0:0:0:
97,85,178261,6,0,L|113:148,1,53.318997578621,10|0,0:0|0:0,0:0:0:0:
192,82,178479,2,0,L|211:10,1,65.651243894339,10|0,0:0|0:0,0:0:0:0:
78,85,178696,6,0,L|101:173,1,79.4324963927269,10|0,0:0|0:0,0:0:0:0:
211,81,178913,2,0,L|237:-19,1,92.1952458131314,10|0,0:0|0:0,0:0:0:0:
334,24,179131,1,0,3:0:0:0:
360,32,179240,1,0,3:0:0:0:
392,35,179348,1,8,3:0:0:0:
512,0,179566,1,4,3:0:0:0:
459,121,179783,5,6,3:2:0:0:
173,156,191957,6,0,L|183:115,1,28.8749995698929,2|0,3:2|0:0,0:0:0:0:
350,239,192174,2,0,L|360:280,1,28.8749995698929,0|0,3:0|0:0,0:0:0:0:
161,151,192392,6,0,L|180:73,1,52.4999976158143,10|0,0:0|0:0,0:0:0:0:
338,244,192609,2,0,L|357:321,1,52.4999976158143,8|0,0:0|0:0,0:0:0:0:
149,146,192826,5,10,0:0:0:0:
326,249,193044,1,8,0:0:0:0:
373,246,193153,1,8,0:0:0:0:
419,243,193261,1,8,0:0:0:0:
458,216,193370,1,8,0:0:0:0:
474,171,193479,1,8,0:0:0:0:
460,125,193587,1,8,0:0:0:0:
419,103,193696,6,0,B|384:67|336:88|348:98|299:127|265:97,2,157.499998855591,6|8|0,3:2|0:0|3:0,0:0:0:0:
256,17,194348,2,0,P|165:20|177:100,1,157.499998855591,8|0,0:0|3:0,0:0:0:0:
221,171,194674,1,0,0:0:0:0:
221,171,194783,2,0,P|232:206|241:259,1,78.7499994277954,10|0,0:0|0:0,0:0:0:0:
113,329,195000,2,0,P|120:290|131:252,1,78.7499994277954,2|0,3:2|0:0,0:0:0:0:
227,348,195218,1,10,0:0:0:0:
227,348,195326,1,0,0:0:0:0:
227,348,195435,2,0,P|285:346|409:382,2,157.499998855591,0|10|2,3:0|0:0|3:2,0:0:0:0:
350,256,196087,6,0,P|428:255|504:235,1,157.499998855591,10|0,0:0|3:0,0:0:0:0:
464,138,196413,1,0,0:0:0:0:
464,138,196522,2,0,P|441:102|427:67,1,78.7499994277954,8|0,0:0|0:0,0:0:0:0:
353,0,196740,2,0,P|333:37|310:67,1,78.7499994277954,0|0,3:0|3:0,0:0:0:0:
289,166,196957,2,0,P|331:164|368:169,1,78.7499994277954,8|0,0:0|0:0,0:0:0:0:
243,264,197174,6,0,P|203:268|164:266,1,78.7499994277954,0|0,3:0|0:0,0:0:0:0:
89,196,197392,1,10,0:0:0:0:
49,172,197500,1,2,0:0:0:0:
36,126,197609,1,2,3:2:0:0:
50,80,197718,1,2,0:0:0:0:
93,58,197826,2,0,L|195:78,1,78.7499994277954,10|2,0:0|0:0,0:0:0:0:
212,147,198044,2,0,L|289:132,1,78.7499994277954,2|0,3:2|0:0,0:0:0:0:
352,76,198261,2,0,P|359:19|372:-7,1,78.7499994277954,10|0,0:0|0:0,0:0:0:0:
469,46,198479,2,0,P|482:82|484:121,1,78.7499994277954,2|0,3:2|0:0,0:0:0:0:
394,161,198696,6,0,P|350:218|439:217,1,157.499998855591,10|0,0:0|3:0,0:0:0:0:
496,333,199022,1,0,0:0:0:0:
496,333,199131,2,0,L|399:324,1,78.7499994277954,10|0,0:0|0:0,0:0:0:0:
335,384,199348,2,0,L|238:375,1,78.7499994277954,2|0,3:2|3:0,0:0:0:0:
187,336,199566,2,0,P|257:313|235:235,1,157.499998855591,10|2,0:0|3:2,0:0:0:0:
88,199,200000,6,0,P|83:149|72:119,1,78.7499994277954,10|0,0:0|0:0,0:0:0:0:
51,45,200218,2,0,P|90:42|127:30,1,78.7499994277954,2|0,3:2|3:0,0:0:0:0:
205,9,200435,2,0,P|210:59|221:89,1,78.7499994277954,10|0,0:0|0:0,0:0:0:0:
242,161,200653,6,0,P|292:156|322:145,1,78.7499994277954,6|0,3:2|0:0,0:0:0:0:
412,129,200870,2,0,P|403:167|386:202,1,78.7499994277954,10|0,0:0|0:0,0:0:0:0:
493,97,201087,2,0,P|471:64|443:38,1,78.7499994277954,2|0,3:2|0:0,0:0:0:0:
334,4,201305,6,0,B|300:39|300:39|318:147,1,157.499998855591,10|0,0:0|3:0,0:0:0:0:
382,205,201631,1,0,0:0:0:0:
382,205,201740,2,0,P|335:194|295:195,1,78.7499994277954,10|0,0:0|0:0,0:0:0:0:
200,314,201957,2,0,P|233:278|252:243,1,78.7499994277954,2|0,3:2|0:0,0:0:0:0:
196,101,202174,2,0,P|209:147|230:181,1,78.7499994277954,10|0,0:0|0:0,0:0:0:0:
272,375,202392,6,0,P|244:347|223:313,1,78.7499994277954,2|0,3:2|0:0,0:0:0:0:
399,110,202609,2,0,P|388:148|369:183,1,78.7499994277954,10|0,0:0|0:0,0:0:0:0:
106,133,202826,2,0,P|152:122|192:122,1,78.7499994277954,2|0,3:2|0:0,0:0:0:0:
156,239,203044,6,0,L|-11:218,1,157.499998855591,10|2,0:0|3:2,0:0:0:0:
42,18,203479,2,0,P|76:27|94:68,1,78.7499994277954,10|2,0:0|0:0,0:0:0:0:
183,121,203697,2,0,P|205:90|197:53,1,78.7499994277954,2|2,3:2|3:2,0:0:0:0:
242,202,203914,2,0,P|215:228|177:225,1,78.7499994277954,10|0,0:0|0:0,0:0:0:0:
316,122,204131,6,0,P|427:90|524:69,2,157.499998855591,6|2|8,3:2|3:2|0:0,0:0:0:0:
397,206,204783,2,0,P|395:246|400:282,1,52.4999976158143,6|0,3:2|0:0,0:0:0:0:
428,285,205000,1,8,0:0:0:0:
324,336,205218,6,0,P|276:336|226:321,1,78.7499994277954,8|8,0:3|0:3,0:0:0:0:
127,362,205435,2,0,P|151:320|188:284,1,78.7499994277954,8|8,0:3|0:3,0:0:0:0:
295,249,205653,2,0,P|298:140|250:251,1,314.999997711182,6|2,3:2|3:2,0:0:0:0:
96,215,206305,1,8,0:0:0:0:
96,215,206413,1,8,0:0:0:0:
96,215,206522,6,0,B|49:160|92:96|156:78|215:113|232:138|208:141|223:180|270:216|310:172|310:172|285:178|259:157,1,367.499972095491,6|2,3:2|0:0,0:0:0:0:
141,194,218913,5,8,3:0:0:0:
223,30,219348,5,4,3:0:0:0:
158,219,219566,1,6,3:2:0:0:
158,219,220000,5,0,3:0:0:0:
298,152,220217,1,10,0:0:0:0:
171,232,220435,5,0,3:0:0:0:
355,245,220652,1,14,0:0:0:0:
176,253,220870,5,0,3:0:0:0:
360,377,221087,1,10,0:0:0:0:
435,192,221305,1,8,0:0:0:0:
435,192,221413,1,8,0:0:0:0:
435,192,221522,6,0,P|399:146|449:18,1,183.749993407726,6|0,3:2|0:0,0:0:0:0:
486,109,221848,2,0,P|348:135|288:169,1,183.749993407726,6|0,3:2|0:0,0:0:0:0:
295,202,222174,1,6,3:2:0:0:
295,202,222609,5,8,0:0:0:0:
267,226,222718,1,8,0:0:0:0:
233,210,222826,1,8,0:0:0:0:
185,233,222935,1,8,0:0:0:0:
116,227,223044,1,8,0:0:0:0:
78,167,223153,1,8,0:0:0:0:
120,109,223261,6,0,P|126:64|138:15,1,78.7499994277954,4|0,3:2|0:0,0:0:0:0:
238,15,223479,2,0,P|248:59|254:105,1,78.7499994277954,8|0,0:0|0:0,0:0:0:0:
365,91,223696,2,0,P|371:46|383:-3,1,78.7499994277954,0|0,3:0|0:0,0:0:0:0:
506,138,223913,6,0,P|421:172|421:255,1,157.499998855591,10|0,0:0|3:0,0:0:0:0:
330,384,224240,1,0,0:0:0:0:
330,384,224348,2,0,P|343:293|271:251,1,157.499998855591,10|0,0:0|3:0,0:0:0:0:
204,108,224675,1,0,0:0:0:0:
204,108,224783,2,0,P|275:164|347:123,1,157.499998855591,10|0,0:0|3:0,0:0:0:0:
405,17,225109,1,0,0:0:0:0:
405,17,225218,6,0,P|413:76|419:113,1,78.7499994277954,8|0,0:0|0:0,0:0:0:0:
494,215,225435,2,0,P|499:175|505:137,1,78.7499994277954,0|0,3:0|0:0,0:0:0:0:
394,220,225653,2,0,P|402:279|408:316,1,78.7499994277954,8|0,0:0|0:0,0:0:0:0:
474,373,225870,1,0,3:0:0:0:
474,373,225979,1,0,3:0:0:0:
474,373,226087,2,0,P|385:338|303:337,2,157.499998855591,8|2|8,0:0|3:2|0:0,0:0:0:0:
248,367,226740,5,4,3:2:0:0:
291,254,226957,2,0,P|285:207|276:169,1,78.7499994277954,8|0,0:0|0:0,0:0:0:0:
191,112,227174,2,0,P|182:150|178:189,1,78.7499994277954,0|0,3:0|0:0,0:0:0:0:
209,287,227392,2,0,L|27:266,1,157.499998855591,10|0,0:0|3:0,0:0:0:0:
16,178,227718,1,0,0:0:0:0:
16,178,227826,2,0,P|54:171|96:145,1,78.7499994277954,8|0,0:0|0:0,0:0:0:0:
106,57,228044,2,0,P|144:64|178:83,1,78.7499994277954,0|0,3:0|0:0,0:0:0:0:
293,12,228261,2,0,L|265:176,1,157.499998855591,12|0,0:0|3:0,0:0:0:0:
450,256,228696,6,0,B|415:207|416:176,1,78.7499994277954,8|0,0:0|0:0,0:0:0:0:
434,158,228913,1,8,0:0:0:0:
313,261,229131,2,0,L|127:237,1,157.499998855591,0|8,3:0|0:0,0:0:0:0:
47,297,229457,5,0,3:0:0:0:
47,297,229566,2,0,B|35:267|35:267|50:199,1,78.7499994277954,4|0,3:2|3:0,0:0:0:0:
122,157,229783,2,0,B|151:85|122:12|122:12|146:61|219:72,1,236.249998283386,8|8,0:0|0:0,0:0:0:0:
336,19,230218,6,0,L|221:7,1,78.7499994277954,4|0,3:2|0:0,0:0:0:0:
385,96,230435,2,0,L|463:104,1,78.7499994277954,8|0,0:0|0:0,0:0:0:0:
315,162,230653,2,0,L|200:150,1,78.7499994277954,0|0,3:0|0:0,0:0:0:0:
401,183,230870,6,0,B|386:206|386:206|413:347,1,157.499998855591,10|0,0:0|3:0,0:0:0:0:
319,384,231196,1,0,0:0:0:0:
319,384,231305,2,0,B|306:359|306:359|183:316,1,157.499998855591,10|0,0:0|3:0,0:0:0:0:
186,212,231631,1,0,0:0:0:0:
186,212,231740,2,0,B|199:212|199:212|248:170,1,78.7499994277954,8|0,0:0|0:0,0:0:0:0:
159,33,231957,6,0,L|175:128,1,78.7499994277954,0|0,3:0|0:0,0:0:0:0:
43,181,232174,2,0,L|56:103,1,78.7499994277954,8|0,0:0|0:0,0:0:0:0:
156,232,232392,2,0,L|170:310,1,78.7499994277954,0|0,3:0|0:0,0:0:0:0:
65,369,232609,2,0,L|281:347,1,157.499998855591,12|0,0:0|3:0,0:0:0:0:
331,206,232935,1,0,0:0:0:0:
331,206,233044,2,0,P|314:231|298:287,1,78.7499994277954,10|0,0:0|0:0,0:0:0:0:
437,363,233261,2,0,P|426:325|405:292,1,78.7499994277954,0|0,3:0|0:0,0:0:0:0:
452,188,233479,1,8,0:0:0:0:
452,188,233587,1,0,0:0:0:0:
452,188,233696,6,0,P|460:133|479:93,1,78.7499994277954,4|0,3:2|0:0,0:0:0:0:
349,17,233913,2,0,P|361:54|365:93,1,78.7499994277954,8|0,0:0|0:0,0:0:0:0:
258,146,234131,1,4,3:2:0:0:
249,107,234240,1,0,3:0:0:0:
216,84,234348,1,10,3:0:0:0:
177,90,234457,1,8,0:0:0:0:
146,114,234566,2,0,L|60:129,1,78.7499994277954,8|0,3:0|3:0,0:0:0:0:
49,241,234783,1,8,0:0:0:0:
21,268,234892,1,8,0:0:0:0:
23,307,235000,2,0,L|44:413,1,78.7499994277954,8|8,0:0|0:0,0:0:0:0:
175,366,235218,6,0,P|179:305|197:205,1,125.99999043274,4|0,3:2|3:0,0:0:0:0:
314,175,235653,2,0,L|380:185,1,52.4999976158143,0|0,3:0|0:0,0:0:0:0:
452,129,235870,2,0,P|456:96|439:51,1,68.2499937763218,12|0,0:0|0:0,0:0:0:0:
289,2,236087,1,0,3:0:0:0:
289,2,236196,1,0,3:0:0:0:
289,2,236305,2,0,P|274:38|278:77,1,68.2499937763218,8|0,0:0|0:0,0:0:0:0:
361,167,236522,1,0,3:0:0:0:
341,201,236631,1,8,0:0:0:0:
292,227,236740,1,0,3:0:0:0:
255,215,236848,1,8,0:0:0:0:
212,231,236957,1,8,0:0:0:0:
182,207,237066,1,8,0:0:0:0:
147,196,237174,6,0,P|131:231|138:285,1,78.7499994277954,4|0,3:2|0:0,0:0:0:0:
167,304,237392,1,10,0:0:0:0:
0,334,237609,2,0,P|22:365|72:386,1,78.7499994277954,0|0,3:0|0:0,0:0:0:0:
103,370,237826,1,10,0:0:0:0:
269,338,238044,6,0,B|311:309|363:344|344:352|383:380|434:358,2,157.499998855591,0|10|0,3:0|0:0|3:0,0:0:0:0:
465,172,238696,6,0,P|468:212|457:258,1,62.9999952163698,12|0,0:0|0:0,0:0:0:0:
431,272,238913,1,0,3:0:0:0:
289,224,239131,2,0,P|246:203|196:196,1,78.7499994277954,10|0,0:0|0:0,0:0:0:0:
348,91,239348,2,0,P|351:138|370:185,1,78.7499994277954,0|0,3:0|0:0,0:0:0:0:
204,107,239566,2,0,P|243:80|162:9,1,157.499998855591,10|0,0:0|3:0,0:0:0:0:
63,21,239892,5,2,0:0:0:0:
63,21,240000,1,10,0:0:0:0:
63,21,240109,1,2,0:0:0:0:
63,21,240218,2,0,P|73:61|85:105,1,78.7499994277954,2|2,3:2|0:0,0:0:0:0:
27,208,240435,2,0,P|63:177|172:208,1,157.499998855591,8|4,0:0|3:2,0:0:0:0:
88,333,240761,5,0,0:0:0:0:
88,333,240870,2,0,L|99:243,1,78.7499994277954,8|0,0:0|0:0,0:0:0:0:
207,301,241088,2,0,L|216:379,1,78.7499994277954,2|0,3:2|0:0,0:0:0:0:
298,279,241305,6,0,P|229:199|155:246,1,157.499998855591,8|0,0:0|3:0,0:0:0:0:
132,106,241631,1,0,0:0:0:0:
132,106,241740,2,0,P|137:54|164:19,1,78.7499994277954,10|0,0:0|0:0,0:0:0:0:
254,44,241957,2,0,P|253:83|235:117,1,78.7499994277954,0|0,3:0|0:0,0:0:0:0:
190,207,242174,6,0,L|359:180,1,157.499998855591,10|0,0:0|3:0,0:0:0:0:
398,95,242500,1,0,0:0:0:0:
398,95,242609,2,0,P|409:42|404:13,1,78.7499994277954,8|0,0:0|0:0,0:0:0:0:
491,141,242826,2,0,P|487:180|498:217,1,78.7499994277954,2|0,3:2|3:0,0:0:0:0:
430,318,243044,6,0,P|424:254|353:286,1,157.499998855591,12|0,0:0|3:0,0:0:0:0:
292,367,243370,1,0,0:0:0:0:
292,367,243479,2,0,L|204:355,1,78.7499994277954,10|0,0:0|0:0,0:0:0:0:
124,282,243696,2,0,L|202:271,1,78.7499994277954,0|0,3:0|3:0,0:0:0:0:
308,187,243913,1,8,0:0:0:0:
319,157,244022,1,8,0:0:0:0:
313,125,244131,6,0,P|261:116|222:129,1,78.7499994277954,4|0,3:2|0:0,0:0:0:0:
209,159,244348,1,10,0:0:0:0:
124,6,244566,6,0,P|90:46|81:86,1,78.7499994277954,0|0,3:0|0:0,0:0:0:0:
101,113,244783,1,10,0:0:0:0:
53,291,245000,6,0,B|43:227|119:199|119:199|138:241,2,157.499998855591,0|10|0,3:0|0:0|3:0,0:0:0:0:
226,362,245653,2,0,P|254:340|305:350,1,78.7499994277954,12|0,0:0|0:0,0:0:0:0:
327,372,245870,5,0,3:0:0:0:
349,253,246087,6,0,P|327:209|304:183,1,78.7499994277954,10|0,0:0|0:0,0:0:0:0:
142,175,246305,2,0,P|191:177|225:171,1,78.7499994277954,0|0,3:0|0:0,0:0:0:0:
277,38,246522,2,0,P|328:110|358:73,1,157.499998855591,10|0,0:0|3:0,0:0:0:0:
435,16,246848,1,0,0:0:0:0:
435,16,246957,2,0,B|449:118|449:118|432:153|432:153|448:264,1,236.249998283386,8|0,0:0|0:0,0:0:0:0:
341,371,247392,2,0,P|353:323|358:283,1,78.7499994277954,10|0,0:0|0:0,0:0:0:0:
338,179,247609,6,0,B|296:171|260:203|270:216|232:248|180:228,1,157.499998855591,4|8,3:2|0:0,0:0:0:0:
122,114,247935,1,0,0:0:0:0:
122,114,248044,2,0,P|174:132|194:161,1,78.7499994277954,0|0,3:0|0:0,0:0:0:0:
98,350,248261,2,0,L|121:158,1,157.499998855591,10|0,0:0|3:0,0:0:0:0:
21,109,248587,1,0,0:0:0:0:
21,109,248696,2,0,L|32:208,1,78.7499994277954,10|0,0:0|0:0,0:0:0:0:
130,91,248913,2,0,L|138:12,1,78.7499994277954,0|0,3:0|0:0,0:0:0:0:
187,167,249131,6,0,P|222:147|356:144,1,157.499998855591,12|0,0:0|3:0,0:0:0:0:
443,158,249457,1,0,0:0:0:0:
443,158,249566,6,0,L|433:245,1,52.4999976158143,10|0,0:0|0:0,0:0:0:0:
338,180,249783,2,0,L|328:267,1,57.7499991397858,2|0,3:2|0:0,0:0:0:0:
431,174,250000,6,0,L|421:261,1,62.9999952163698,10|8,0:0|0:0,0:0:0:0:
326,196,250218,2,0,L|316:283,1,68.2499937763218,2|8,3:2|3:0,0:0:0:0:
419,190,250436,6,0,L|409:277,1,73.4999944190981,8|0,3:0|0:0,0:0:0:0:
314,212,250653,2,0,L|304:299,1,68.2499937763218,8|0,3:0|0:0,0:0:0:0:
407,206,250870,6,0,L|385:396,1,173.249997419357,4|0,3:2|0:0,0:0:0:0:
234,337,251305,6,0,P|268:316|309:317,1,68.2499937763218,8|0,0:0|0:0,0:0:0:0:
134,232,251522,2,0,P|100:228|72:208,1,68.2499937763218,8|0,0:0|0:0,0:0:0:0:
230,361,251740,6,0,P|270:335|319:337,1,78.7499994277954,8|0,0:0|0:0,0:0:0:0:
120,251,251957,2,0,P|79:246|46:223,1,78.7499994277954,12|0,0:0|0:0,0:0:0:0:
93,45,252174,6,0,L|104:151,1,78.7499994277954,0|8,3:0|0:0,0:0:0:0:
228,220,252392,2,0,L|246:44,1,157.499998855591,8|0,0:0|0:0,0:0:0:0:
343,42,252718,1,0,0:0:0:0:
343,42,252826,6,0,P|392:33|437:14,1,78.7499994277954,4|0,3:2|0:0,0:0:0:0:
512,132,253044,2,0,P|462:123|417:104,1,78.7499994277954,10|0,0:0|0:0,0:0:0:0:
345,227,253261,2,0,P|394:218|439:199,1,78.7499994277954,0|0,3:0|0:0,0:0:0:0:
335,358,253479,6,0,P|296:316|161:260,1,157.499998855591,10|0,0:0|3:0,0:0:0:0:
204,112,253805,1,0,0:0:0:0:
204,112,253913,2,0,P|187:166|206:311,1,157.499998855591,10|0,0:0|3:0,0:0:0:0:
57,347,254240,1,0,0:0:0:0:
57,347,254348,2,0,P|112:334|228:245,1,157.499998855591,10|0,0:0|3:0,0:0:0:0:
341,240,254674,1,0,0:0:0:0:
341,240,254783,2,0,P|330:192|298:159,1,78.7499994277954,10|0,0:0|0:0,0:0:0:0:
347,87,255000,2,0,P|299:72|255:83,1,78.7499994277954,2|0,3:2|0:0,0:0:0:0:
183,138,255218,6,0,L|-1:118,1,157.499998855591,10|0,0:0|3:0,0:0:0:0:
5,0,255653,2,0,P|41:15|52:75,1,78.7499994277954,10|0,0:0|0:0,0:0:0:0:
33,93,255870,1,0,3:0:0:0:
88,217,256087,2,0,L|179:226,1,78.7499994277954,8|0,0:0|0:0,0:0:0:0:
221,369,256305,6,0,P|247:288|287:175,1,157.499998855591,4|8,3:2|0:0,0:0:0:0:
235,101,256631,1,0,0:0:0:0:
235,101,256740,2,0,P|254:121|305:139,1,78.7499994277954,2|0,3:2|0:0,0:0:0:0:
387,196,256957,2,0,P|374:101|354:12,1,157.499998855591,10|0,0:0|3:0,0:0:0:0:
509,28,257283,1,0,0:0:0:0:
509,28,257392,2,0,P|490:65|481:109,1,78.7499994277954,10|0,0:0|0:0,0:0:0:0:
403,183,257609,2,0,P|421:217|430:256,1,78.7499994277954,2|0,3:2|0:0,0:0:0:0:
512,370,257826,6,0,P|441:355|316:347,1,157.499998855591,10|0,0:0|3:0,0:0:0:0:
248,376,258153,1,0,3:0:0:0:
248,376,258261,6,0,L|263:279,1,91.8749967038632,12|0,0:0|0:0,0:0:0:0:
156,115,258479,2,0,L|141:205,1,91.8749967038632,12|0,0:0|0:0,0:0:0:0:
51,250,258696,1,0,3:0:0:0:
51,250,258805,1,0,3:0:0:0:
50,249,258913,2,0,P|78:275|112:295,1,78.7499994277954,12|0,0:0|0:0,0:0:0:0:
151,384,259131,1,0,3:0:0:0:
149,384,259239,2,0,P|186:372|220:353,1,78.7499994277954,8|0,0:0|3:0,0:0:0:0:
258,240,259457,1,8,0:0:0:0:
245,194,259566,1,8,0:0:0:0:
264,151,259674,1,8,0:0:0:0:
270,104,259783,6,0,L|391:89,1,78.7499994277954,4|0,3:2|0:0,0:0:0:0:
451,173,260000,2,0,L|372:163,1,78.7499994277954,12|0,0:0|0:0,0:0:0:0:
248,92,260218,2,0,L|369:77,1,78.7499994277954,4|0,3:2|0:0,0:0:0:0:
457,5,260435,6,0,L|436:195,1,157.499998855591,12|0,0:0|3:0,0:0:0:0:
364,317,260761,1,0,0:0:0:0:
364,317,260870,2,0,L|346:160,1,157.499998855591,10|0,0:0|3:0,0:0:0:0:
267,0,261196,1,0,0:0:0:0:
267,0,261305,2,0,L|246:190,1,157.499998855591,12|0,0:0|3:0,0:0:0:0:
212,284,261631,5,0,0:0:0:0:
212,284,261740,2,0,P|202:252|157:229,1,78.7499994277954,8|0,0:0|0:0,0:0:0:0:
26,186,261957,2,0,P|58:193|101:165,1,78.7499994277954,2|0,3:2|0:0,0:0:0:0:
159,72,262174,2,0,P|226:128|236:75,1,157.499998855591,12|0,0:0|3:0,0:0:0:0:
319,37,262500,5,0,0:0:0:0:
319,37,262609,2,0,P|356:40|396:51,1,52.4999976158143,8|8,3:0|3:0,0:0:0:0:
455,119,262826,2,0,P|418:122|378:133,1,68.2499937763218,4|4,3:0|3:0,0:0:0:0:
318,220,263044,1,2,3:2:0:0:
318,220,263153,1,0,3:0:0:0:
318,220,263261,6,0,P|355:223|395:234,1,78.7499994277954,4|0,3:2|0:0,0:0:0:0:
270,307,263479,2,0,P|248:337|219:366,1,78.7499994277954,2|0,3:2|0:0,0:0:0:0:
218,221,263696,2,0,P|202:187|191:147,1,78.7499994277954,8|0,0:0|0:0,0:0:0:0:
279,45,263913,6,0,L|87:69,1,157.499998855591,4|0,3:2|0:0,0:0:0:0:
332,141,264240,1,0,0:0:0:0:
332,141,264348,2,0,L|524:165,1,157.499998855591,2|8,3:2|0:0,0:0:0:0:
256,217,264674,1,0,0:0:0:0:
256,217,264783,6,0,L|64:241,1,157.499998855591,12|0,0:0|3:0,0:0:0:0:
28,157,265326,1,0,0:0:0:0:
28,157,265435,6,0,P|34:127|47:77,1,78.7499994277954,10|0,0:0|0:0,0:0:0:0:
157,35,265653,2,0,P|167:73|175:111,1,78.7499994277954,0|0,3:0|0:0,0:0:0:0:
117,239,265870,1,8,0:0:0:0:
137,205,265979,1,8,0:0:0:0:
174,193,266087,1,8,0:0:0:0:
212,200,266196,1,8,0:0:0:0:
242,224,266305,1,8,0:0:0:0:
251,261,266413,1,8,0:0:0:0:
235,297,266522,1,8,0:0:0:0:
231,336,266631,1,8,0:0:0:0:
261,336,266740,6,0,B|276:338|276:338|283:358|283:358|348:298|348:298|364:382|364:382|378:362|378:362|411:372|411:372|396:217|396:217|426:237|483:276|483:276|462:221|503:175|503:175|435:188|396:195|396:195|397:163|397:163|376:158|376:158|363:178|363:178|326:163|281:111|281:111|281:169|242:211|242:211|304:200|348:202|348:202|260:327,1,1299.3749409914,6|0,3:2|0:0,0:0:0:0:
198,297,272174,6,0,P|151:296|186:317,1,118.124999141693
