osu file format v14

[General]
AudioFilename: audio.mp3
AudioLeadIn: 0
PreviewTime: 222500
Countdown: 0
SampleSet: Soft
StackLeniency: 0.5
Mode: 0
LetterboxInBreaks: 0
WidescreenStoryboard: 0

[Editor]
Bookmarks: 40653,56305,73696,103261,117174,132826,150218,179783,193696,207609,223261,252826,266740
DistanceSpacing: 1
BeatDivisor: 4
GridSize: 32
TimelineZoom: 1.5

[Metadata]
Title:Christmas no Uta
TitleUnicode:クリスマスのうた
Artist:Poppin'Party
ArtistUnicode:Poppin'Party
Creator:-Mikan
Version:Daycore's Easy
Source:バンドリ!ガールズバンドパーティ!
Tags:Kazato asa Shizuku- Djulus keeVY Ducky- Daycore BanG Dream! Girls Band Party! Garupa Bandori! ガルパ!single popipa ポピパ ポッピン パーティー 戸山香澄 Toyama Kasumi 愛美 Aimi 山吹 沙綾 Yamabuki Saaya 大橋彩香 Ohashi Ayaka 牛込 りみ Ushigome Rimi 西本 りみ Nishimoto 花園 たえ Hanazono Tae 大塚紗英 Otsuka Sae 大塚紗英 Ichigaya Arisa 伊藤 彩沙 Itou Ayasa Japanese Anime Video Game xmas santa
BeatmapID:2254277
BeatmapSetID:888123

[Difficulty]
HPDrainRate:3
CircleSize:3
OverallDifficulty:3
ApproachRate:3
SliderMultiplier:0.99999990463257
SliderTickRate:1

[Events]
//Background and Video events
0,0,"73558268caeb22914d748f0096cded1be83e4941_s2_n1.jpg",0,0
//Break Periods
2,179983,190517
2,207808,221522
//Storyboard Layer 0 (Background)
//Storyboard Layer 1 (Fail)
//Storyboard Layer 2 (Pass)
//Storyboard Layer 3 (Foreground)
//Storyboard Layer 4 (Overlay)
//Storyboard Sound Samples

[TimingPoints]
409,666.666666666667,4,2,2,35,1,0
7075,-100,4,2,2,35,0,0
7242,-100,4,2,2,5,0,0
7409,-100,4,2,2,35,0,0
7575,-100,4,2,2,5,0,0
7742,-100,4,2,2,35,0,0
7909,-100,4,2,2,5,0,0
8075,-100,4,2,2,35,0,0
8242,-100,4,2,2,5,0,0
8409,-100,4,2,2,35,0,0
12827,434.782608695652,4,2,1,60,1,0
19348,-100,4,2,1,60,0,0
19674,-100,4,2,1,5,0,0
19783,-100,4,2,1,60,0,0
21522,-100,4,2,1,60,0,0
23261,-100,4,2,1,60,0,0
26087,-100,4,2,1,60,0,0
26740,-100,4,2,1,70,0,0
38587,-100,4,2,1,70,0,0
39022,-100,4,2,1,5,0,0
39131,-100,4,2,1,70,0,0
40000,-100,4,2,1,30,0,0
40109,-100,4,2,1,50,0,0
40218,-100,4,2,1,70,0,0
40653,-100,4,2,1,60,0,0
51087,-100,4,2,1,60,0,0
51522,-100,4,2,1,60,0,0
52609,-100,4,2,1,60,0,0
52935,-100,4,2,1,5,0,0
53044,-100,4,2,1,20,0,0
53261,-100,4,2,1,30,0,0
53479,-100,4,2,1,40,0,0
53696,-100,4,2,1,50,0,0
53913,-100,4,2,1,60,0,0
54131,-100,4,2,1,60,0,0
54348,-100,4,2,1,70,0,0
54566,-100,4,2,1,70,0,0
54783,-100,4,2,1,80,0,0
55000,-100,4,2,1,90,0,0
55653,-100,4,2,1,65,0,0
56305,-100,4,2,1,60,0,0
63261,-100,4,2,1,60,0,0
63913,-100,4,2,1,60,0,0
64783,-100,4,2,1,60,0,0
65653,-100,4,2,1,60,0,0
66522,-100,4,2,1,60,0,0
70218,-100,4,2,1,60,0,0
70653,-100,4,2,1,60,0,0
71087,-100,4,2,1,60,0,0
71522,-100,4,2,1,60,0,0
71957,-100,4,2,1,60,0,0
73261,-100,4,2,1,60,0,0
73696,-100,4,2,1,80,0,1
103261,-100,4,2,1,70,0,0
117826,-100,4,2,1,50,0,0
118913,-100,4,2,1,70,0,0
120653,-100,4,2,1,60,0,0
124131,-100,4,2,1,70,0,0
150218,-100,4,2,1,80,0,1
179783,-100,4,2,1,60,0,0
186305,-100,4,2,1,70,0,0
191957,-100,4,2,1,50,0,0
192174,-100,4,2,1,60,0,0
192392,-100,4,2,1,70,0,0
192609,-100,4,2,1,80,0,0
207609,-100,4,2,1,50,0,0
216957,-100,4,2,1,60,0,0
219566,-100,4,2,1,70,0,0
221522,-100,4,2,1,80,0,0
223261,-100,4,2,1,90,0,1
252826,-100,4,2,1,80,0,0
266305,-100,4,2,1,90,0,0
266740,-100,4,2,1,100,0,0
272174,-100,4,2,1,5,0,0

[Colours]
Combo1 : 192,98,249
Combo2 : 255,32,32
Combo3 : 0,118,236
Combo4 : 255,255,28
Combo5 : 255,121,188

[HitObjects]
216,29,19783,6,0,B|195:101|195:101|216:146|216:146|216:267,1,199.999980926514,0|0,3:0|3:0,0:0:0:0:
280,284,21087,1,2,0:1:0:0:
280,284,21522,2,0,B|196:274|196:274|153:290|153:290|57:275,1,199.999980926514,0|0,3:0|3:0,0:0:0:0:
69,190,22826,1,2,0:1:0:0:
69,190,23261,6,0,P|123:155|84:18,1,199.999980926514,0|8,3:0|3:0,0:0:0:0:
49,101,24566,2,0,L|0:93,1,49.9999952316285,8|4,0:0|3:2,0:0:0:0:
86,60,26740,6,0,B|145:60|145:60|177:74|177:74|269:72,1,149.999985694886,4|10,3:2|0:0,0:0:0:0:
309,23,27826,2,0,P|324:75|306:126,1,99.999990463257,10|10,0:0|0:0,0:0:0:0:
286,204,28696,1,10,0:0:0:0:
304,292,29131,2,0,B|263:279|257:313|195:301,1,99.999990463257,10|10,0:0|0:0,0:0:0:0:
75,326,30218,6,0,B|86:305|72:272|72:272|81:246|81:246|64:208|94:146,1,149.999985694886,4|10,3:2|0:0,0:0:0:0:
44,98,31305,1,10,0:0:0:0:
109,36,31740,2,0,P|161:29|210:57,1,99.999990463257,10|10,0:0|0:0,0:0:0:0:
234,81,32392,2,0,P|286:88|335:60,1,99.999990463257,10|10,0:0|0:0,0:0:0:0:
412,39,33261,1,8,0:0:0:0:
467,109,33696,6,0,B|502:135|502:135|498:259,1,149.999985694886,4|12,3:2|0:0,0:0:0:0:
456,320,34783,1,10,0:0:0:0:
366,330,35218,2,0,L|247:322,1,99.999990463257,12|10,0:0|0:0,0:0:0:0:
210,252,36087,2,0,L|91:260,1,99.999990463257,12|10,0:0|0:0,0:0:0:0:
75,175,36957,1,10,0:0:0:0:
16,106,37392,6,0,P|65:85|130:100,1,99.999990463257,10|2,0:0|3:2,0:0:0:0:
148,113,38044,2,0,P|197:134|262:119,1,99.999990463257,8|8,0:0|3:0,0:0:0:0:
279,103,38696,1,4,3:2:0:0:
367,119,39131,6,0,L|367:301,1,149.999985694886,12|12,0:0|0:0,0:0:0:0:
299,329,40218,1,8,0:0:0:0:
217,290,40653,5,4,3:2:0:0:
217,290,41087,2,0,B|146:278|146:278|121:236|121:236|18:215,1,199.999980926514,2|2,3:2|3:2,0:0:0:0:
12,135,42392,2,0,L|113:112,1,99.999990463257,2|0,3:2|3:0,0:0:0:0:
186,66,43261,2,0,L|287:89,1,99.999990463257,2|0,3:2|3:0,0:0:0:0:
363,46,44131,5,2,3:2:0:0:
363,46,44566,2,0,B|391:159|309:137|330:238,1,199.999980926514,2|0,3:2|3:0,0:0:0:0:
278,309,45870,2,0,P|351:328|398:304,2,99.999990463257,2|2|2,3:2|3:2|0:2,0:0:0:0:
218,241,47174,1,2,3:2:0:0:
134,274,47609,5,4,3:2:0:0:
134,274,48044,2,0,P|168:231|72:120,1,199.999980926514,2|2,3:2|3:2,0:0:0:0:
35,63,49348,2,0,B|78:34|78:34|161:35,1,99.999990463257,2|0,3:2|3:0,0:0:0:0:
211,62,50218,2,0,B|259:62|259:62|302:33,1,99.999990463257,2|0,3:2|3:0,0:0:0:0:
390,18,51087,5,4,3:2:0:0:
390,18,51522,2,0,B|400:53|372:89|372:89|385:128|385:128|353:159|362:233,1,199.999980926514,2|8,3:0|3:0,0:0:0:0:
378,245,52609,1,4,3:2:0:0:
256,192,52826,12,8,54565,0:0:0:0:
161,101,56305,6,0,P|228:79|279:92,2,99.999990463257,14|10|10,0:0|0:0|0:0,0:0:0:0:
155,190,57609,1,8,0:0:0:0:
155,190,58044,2,0,B|157:260|157:260|187:299|187:299|187:389,1,199.999980926514,8|8,0:0|0:0,0:0:0:0:
276,370,59348,1,8,0:0:0:0:
320,291,59783,6,0,B|356:326|356:326|368:390,2,99.999990463257,10|10|10,0:0|0:0|0:0,0:0:0:0:
269,216,61087,1,8,0:0:0:0:
269,216,61522,2,0,P|350:248|410:138,1,199.999980926514,8|8,0:0|0:0,0:0:0:0:
429,83,62826,1,8,0:0:0:0:
364,20,63261,5,4,3:2:0:0:
241,75,63913,2,0,L|113:83,1,99.999990463257,4|0,3:2|3:0,0:0:0:0:
124,169,64783,2,0,L|223:175,1,99.999990463257,4|0,3:2|3:0,0:0:0:0:
256,259,65653,2,0,L|156:265,1,99.999990463257,4|0,3:2|3:0,0:0:0:0:
65,365,66740,5,12,0:0:0:0:
65,365,67174,2,0,B|90:368|113:348|113:348|143:341|166:355,1,99.999990463257,12|8,0:0|0:0,0:0:0:0:
293,366,68261,1,4,3:2:0:0:
421,325,68913,2,0,L|410:200,1,99.999990463257,8|8,0:0|0:0,0:0:0:0:
468,155,69783,1,8,0:0:0:0:
395,102,70218,6,0,L|394:46,2,49.9999952316285,10|10|12,0:0|0:0|0:0,0:0:0:0:
306,119,71087,2,0,L|305:63,2,49.9999952316285,10|10|12,0:0|0:0|0:0,0:0:0:0:
217,137,71957,2,0,L|216:81,2,49.9999952316285,8|0|8,3:2|3:0|3:2,0:0:0:0:
128,154,72826,2,0,B|120:200|120:200|127:221|127:221|130:285,1,99.999990463257,8|4,0:0|3:0,0:0:0:0:
163,335,73696,5,4,3:2:0:0:
295,306,74348,2,0,B|316:289|349:290|349:290|411:304,1,99.999990463257,10|10,0:0|0:0,0:0:0:0:
452,364,75218,2,0,P|430:282|432:174,1,149.999985694886,10|0,0:0|3:0,0:0:0:0:
409,128,76305,1,0,3:0:0:0:
456,51,76740,1,2,3:2:0:0:
377,6,77174,5,4,3:2:0:0:
254,62,77826,2,0,B|168:61|201:110|96:108,1,149.999985694886,10|0,0:0|3:0,0:0:0:0:
74,87,78696,2,0,P|70:140|77:217,1,99.999990463257,12|8,0:0|0:0,0:0:0:0:
100,222,79348,1,8,0:0:0:0:
55,300,79783,2,0,P|120:311|164:291,1,99.999990463257,8|8,0:0|0:0,0:0:0:0:
223,246,80653,5,4,3:2:0:0:
296,359,81305,2,0,B|292:304|292:304|313:268|313:268|309:204,1,149.999985694886,10|0,0:0|3:0,0:0:0:0:
259,140,82392,2,0,P|327:126|382:154,1,99.999990463257,0|0,3:0|3:0,0:0:0:0:
382,170,83044,2,0,L|362:9,1,149.999985694886,12|0,0:0|3:0,0:0:0:0:
274,8,84131,5,4,3:2:0:0:
139,18,84783,2,0,P|77:48|71:138,1,149.999985694886,10|4,0:0|3:0,0:0:0:0:
81,164,85653,1,4,3:2:0:0:
61,297,86305,2,0,P|137:290|182:290,1,99.999990463257,12|8,0:0|0:0,0:0:0:0:
246,316,87174,1,8,0:0:0:0:
319,263,87609,6,0,L|444:265,1,99.999990463257,4|0,3:2|3:0,0:0:0:0:
447,178,88479,1,0,3:0:0:0:
325,118,89131,2,0,B|297:122|275:102|275:102|240:94|192:122,1,99.999990463257,12|10,0:0|0:0,0:0:0:0:
152,59,90000,2,0,P|189:106|117:179,1,149.999985694886,10|2,0:0|3:2,0:0:0:0:
60,196,91087,5,0,3:0:0:0:
19,324,91740,2,0,B|84:298|84:298|154:326,1,99.999990463257,8|10,0:0|0:0,0:0:0:0:
188,355,92609,2,0,B|215:366|215:366|280:340,1,99.999990463257,10|8,0:0|0:0,0:0:0:0:
362,301,93479,1,12,0:0:0:0:
451,294,93913,2,0,P|421:233|366:213,1,99.999990463257,10|8,0:0|0:0,0:0:0:0:
352,202,94566,6,0,L|364:86,1,99.999990463257,4|0,3:2|3:0,0:0:0:0:
276,74,95435,1,0,3:0:0:0:
276,74,95653,2,0,L|264:190,1,99.999990463257,10|12,0:0|0:0,0:0:0:0:
278,262,96522,2,0,P|231:257|179:206,1,99.999990463257,10|10,0:0|0:0,0:0:0:0:
157,141,97392,1,8,0:0:0:0:
35,82,98044,6,0,B|18:132|18:132|36:185,1,99.999990463257,4|0,3:2|3:0,0:0:0:0:
21,311,99131,2,0,P|70:317|120:293,1,99.999990463257,10|12,0:0|0:0,0:0:0:0:
169,225,100000,1,10,0:0:0:0:
225,155,100435,2,0,P|270:135|319:141,1,99.999990463257,10|8,0:0|3:0,0:0:0:0:
389,197,101305,6,0,P|353:143|510:103,1,299.999971389771,4|0,3:2|3:0,0:0:0:0:
488,227,103261,6,0,B|468:255|454:275|454:275|424:293|424:293|393:340,1,149.999985694886,4|10,3:2|0:0,0:0:0:0:
306,362,104348,2,0,L|189:354,1,99.999990463257,10|10,0:0|0:0,0:0:0:0:
182,268,105218,1,10,0:0:0:0:
112,210,105653,2,0,P|155:182|233:198,1,99.999990463257,10|10,0:0|0:0,0:0:0:0:
315,107,106740,6,0,B|361:96|394:132|394:132|397:173|449:209,1,149.999985694886,4|10,3:2|0:0,0:0:0:0:
460,267,107826,1,10,0:0:0:0:
408,340,108261,2,0,P|356:347|307:319,1,99.999990463257,10|12,0:0|0:0,0:0:0:0:
277,301,108913,2,0,P|225:294|176:322,1,99.999990463257,12|12,0:0|0:0,0:0:0:0:
99,347,109783,1,8,0:0:0:0:
45,275,110218,6,0,B|36:250|8:239|8:239|33:188|14:125,1,149.999985694886,4|12,3:2|0:0,0:0:0:0:
53,61,111305,1,10,0:0:0:0:
146,54,111740,2,0,L|265:62,1,99.999990463257,12|8,0:0|0:0,0:0:0:0:
330,30,112609,2,0,L|449:22,1,99.999990463257,12|10,0:0|0:0,0:0:0:0:
473,102,113479,1,10,0:0:0:0:
452,189,113913,6,0,P|403:168|338:183,1,99.999990463257,8|8,0:0|0:0,0:0:0:0:
342,215,114566,2,0,P|293:236|228:221,1,99.999990463257,8|4,3:0|3:0,0:0:0:0:
216,198,115218,1,4,3:2:0:0:
143,144,115653,6,0,B|124:180|124:180|143:326,1,149.999985694886,12|12,0:0|0:0,0:0:0:0:
216,333,116740,1,8,0:0:0:0:
303,312,117174,5,8,0:0:0:0:
303,312,118913,2,0,L|286:153,2,149.999985694886,4|4|8,3:2|3:2|0:0,0:0:0:0:
391,329,120653,6,0,L|367:112,1,199.999980926514,0|10,3:0|0:0,0:0:0:0:
436,70,121957,1,2,0:0:0:0:
436,70,122392,2,0,B|319:94|358:17|220:44,1,199.999980926514,2|10,3:2|0:0,0:0:0:0:
175,98,123696,1,8,3:0:0:0:
91,63,124131,5,4,3:2:0:0:
91,63,124566,2,0,P|88:120|220:181,1,199.999980926514,2|2,3:2|3:2,0:0:0:0:
287,190,125870,2,0,P|338:180|397:205,1,99.999990463257,2|0,3:2|3:0,0:0:0:0:
426,273,126740,2,0,P|375:283|316:258,1,99.999990463257,2|0,3:2|3:0,0:0:0:0:
246,302,127609,5,4,3:2:0:0:
246,302,128044,2,0,L|262:98,1,199.999980926514,10|0,0:0|3:0,0:0:0:0:
238,63,129131,1,4,3:2:0:0:
256,192,129348,12,8,131087,0:0:0:0:
86,90,132826,6,0,L|92:209,2,99.999990463257,10|10|10,0:0|0:0|0:0,0:0:0:0:
219,67,134348,2,0,B|262:84|305:66|305:66|353:69|377:120,1,149.999985694886,8|8,0:0|0:1,0:0:0:0:
413,163,135435,2,0,P|395:218|390:262,1,99.999990463257,8|8,0:0|0:1,0:0:0:0:
339,334,136305,6,0,B|389:357|389:357|452:328,2,99.999990463257,10|10|10,0:0|0:0|0:0,0:0:0:0:
240,241,137826,2,0,P|166:220|87:275,1,149.999985694886,8|8,0:1|0:1,0:0:0:0:
37,311,138913,2,0,P|14:261|28:203,1,99.999990463257,8|8,0:0|3:0,0:0:0:0:
21,127,139783,5,4,3:2:0:0:
127,44,140435,2,0,L|265:54,1,99.999990463257,4|8,3:2|3:0,0:0:0:0:
287,117,141305,2,0,L|425:107,1,99.999990463257,4|0,3:2|3:0,0:0:0:0:
456,52,142174,2,0,P|477:103|467:158,1,99.999990463257,4|0,3:2|3:0,0:0:0:0:
405,264,143261,5,4,3:2:0:0:
405,264,143696,2,0,L|292:255,1,99.999990463257,12|8,0:0|3:0,0:0:0:0:
177,210,144783,1,4,3:2:0:0:
50,256,145435,2,0,P|41:202|61:157,1,99.999990463257,8|12,0:0|0:0,0:0:0:0:
70,72,146305,1,8,3:0:0:0:
155,39,146740,6,0,L|220:20,2,49.9999952316285,10|10|12,0:0|0:0|0:0,0:0:0:0:
210,110,147609,2,0,L|275:91,2,49.9999952316285,10|10|12,0:0|0:0|0:0,0:0:0:0:
267,179,148479,2,0,L|332:160,2,49.9999952316285,8|0|0,0:0|3:0|3:0,3:0:0:0:
323,249,149348,2,0,L|442:215,1,99.999990463257,8|10,0:0|0:0,0:0:0:0:
448,136,150218,5,4,3:2:0:0:
336,60,150870,2,0,P|290:84|219:72,1,99.999990463257,10|10,0:0|0:0,0:0:0:0:
172,26,151740,2,0,B|174:68|201:90|201:90|178:120|192:203,1,149.999985694886,10|0,0:0|3:0,0:0:0:0:
125,230,152826,1,0,3:0:0:0:
198,281,153261,1,2,3:2:0:0:
147,355,153696,5,4,3:2:0:0:
280,371,154348,2,0,B|366:372|333:323|438:325,1,149.999985694886,10|0,0:0|3:0,0:0:0:0:
451,293,155218,2,0,P|455:240|448:163,1,99.999990463257,12|10,0:0|0:0,0:0:0:0:
419,162,155870,1,10,0:0:0:0:
462,83,156305,2,0,B|411:70|411:70|353:92,1,99.999990463257,10|8,0:0|0:0,0:0:0:0:
291,136,157174,5,4,3:2:0:0:
196,39,157826,2,0,B|179:14|149:13|149:13|152:125,1,149.999985694886,10|0,0:0|3:0,0:0:0:0:
110,187,158913,2,0,P|178:173|233:201,1,99.999990463257,0|0,3:0|3:0,0:0:0:0:
247,198,159566,2,0,L|267:359,1,149.999985694886,12|2,0:0|3:2,0:0:0:0:
352,368,160653,5,4,3:2:0:0:
464,293,161305,2,0,P|445:228|474:140,1,149.999985694886,10|8,0:0|0:0,0:0:0:0:
498,119,162174,1,4,3:2:0:0:
424,7,162826,2,0,P|366:-6|303:14,1,99.999990463257,12|8,0:0|0:0,0:0:0:0:
266,68,163696,1,10,0:2:0:0:
193,121,164131,6,0,L|68:119,1,99.999990463257,4|0,3:2|3:0,0:0:0:0:
65,206,165000,1,0,3:0:0:0:
187,266,165653,2,0,L|301:259,1,99.999990463257,12|8,0:0|0:0,0:0:0:0:
355,318,166522,2,0,P|318:271|390:198,1,149.999985694886,10|2,0:0|3:2,0:0:0:0:
452,188,167609,5,0,3:0:0:0:
496,60,168261,2,0,P|445:73|388:48,1,99.999990463257,8|10,0:0|0:0,0:0:0:0:
317,24,169131,2,0,P|266:11|209:36,1,99.999990463257,8|12,0:0|0:0,0:0:0:0:
150,80,170000,1,12,0:0:0:0:
60,91,170435,2,0,P|90:152|145:172,1,99.999990463257,8|8,0:0|0:0,0:0:0:0:
159,180,171087,6,0,B|141:222|141:222|147:296,1,99.999990463257,4|0,3:2|3:0,0:0:0:0:
216,331,171957,1,0,3:0:0:0:
216,331,172174,2,0,B|234:289|234:289|228:215,1,99.999990463257,10|12,0:0|0:0,0:0:0:0:
265,151,173044,2,0,P|324:157|364:207,1,99.999990463257,10|10,0:0|0:0,0:0:0:0:
357,273,173913,1,8,0:0:0:0:
460,359,174566,6,0,B|454:322|454:322|466:298|466:298|456:238,1,99.999990463257,6|0,3:2|3:0,0:0:0:0:
487,130,175653,2,0,P|438:124|388:148,1,99.999990463257,8|12,0:0|0:0,0:0:0:0:
304,163,176522,1,10,0:0:0:0:
272,247,176957,2,0,P|227:267|178:261,1,99.999990463257,8|0,0:0|3:0,0:0:0:0:
116,326,177826,6,0,B|151:266|165:119|87:93|-27:157|53:253,1,349.999966621399,4|8,3:2|3:0,0:0:0:0:
16,330,179783,1,6,3:2:0:0:
256,192,191957,12,6,193696,3:2:0:0:
207,189,195218,6,0,P|193:248|226:302,1,99.999990463257,10|10,0:0|0:0,0:0:0:0:
159,359,196087,2,0,L|316:283,1,149.999985694886,10|0,0:0|3:0,0:0:0:0:
380,317,197174,6,0,P|376:253|341:213,1,99.999990463257,0|2,3:0|3:2,0:0:0:0:
278,179,198044,1,2,3:2:0:0:
308,47,198696,2,0,B|262:45|262:45|251:51|251:51|190:48,1,99.999990463257,10|10,0:0|0:0,0:0:0:0:
121,30,199566,2,0,P|170:69|142:168,1,149.999985694886,10|2,0:0|3:2,0:0:0:0:
128,232,200653,6,0,B|118:284|118:284|175:372,1,149.999985694886,6|10,3:2|0:0,0:0:0:0:
260,354,201740,2,0,L|361:338,1,99.999990463257,10|10,0:0|0:0,0:0:0:0:
400,321,202392,2,0,L|501:337,2,99.999990463257,2|2|2,3:2|3:2|3:2,0:0:0:0:
408,231,203696,1,2,3:2:0:0:
439,143,204131,6,0,P|390:139|347:163,1,99.999990463257,6|8,3:2|0:0,0:0:0:0:
303,149,204783,2,0,L|322:297,1,149.999985694886,6|8,3:2|0:3,0:0:0:0:
306,340,205653,1,6,3:2:0:0:
394,356,206087,1,2,3:2:0:0:
464,300,206522,6,0,B|508:263|521:193|517:149|408:127|410:224,1,249.999976158143,6|2,3:2|0:0,0:0:0:0:
60,120,223261,5,4,3:2:0:0:
32,252,223913,2,0,B|82:259|82:259|139:229,1,99.999990463257,10|10,0:0|0:0,0:0:0:0:
185,168,224783,2,0,P|165:234|192:333,1,149.999985694886,10|0,0:0|3:0,0:0:0:0:
269,321,225870,1,0,3:0:0:0:
339,264,226305,1,2,3:2:0:0:
417,308,226740,5,4,3:2:0:0:
473,185,227392,2,0,B|411:134|401:192|313:124,1,149.999985694886,10|0,0:0|3:0,0:0:0:0:
295,115,228261,2,0,P|308:162|298:235,1,99.999990463257,12|8,0:0|0:0,0:0:0:0:
308,302,229131,2,0,B|291:305|266:296|266:296|247:301|247:301|223:294|196:298,1,99.999990463257,0|4,3:0|3:2,0:0:0:0:
143,179,230218,5,4,3:2:0:0:
29,105,230870,2,0,P|16:163|70:243,1,149.999985694886,10|0,0:0|3:0,0:0:0:0:
140,278,231957,2,0,P|208:264|263:292,1,99.999990463257,0|0,3:0|3:0,0:0:0:0:
261,235,232609,2,0,L|281:396,1,149.999985694886,12|0,0:0|3:0,0:0:0:0:
369,376,233696,5,4,3:2:0:0:
503,377,234348,2,0,P|484:312|513:224,1,149.999985694886,10|8,3:0|0:0,0:0:0:0:
504,189,235218,1,4,3:2:0:0:
453,63,235870,2,0,P|395:50|332:70,1,99.999990463257,12|8,0:0|0:0,0:0:0:0:
266,68,236740,1,0,3:0:0:0:
193,121,237174,6,0,L|68:119,1,99.999990463257,4|0,3:2|3:0,0:0:0:0:
65,206,238044,1,0,3:0:0:0:
187,266,238696,2,0,L|301:259,1,99.999990463257,12|10,0:0|0:0,0:0:0:0:
347,327,239566,2,0,P|379:257|324:172,1,149.999985694886,10|2,0:0|3:2,0:0:0:0:
256,172,240653,5,4,3:2:0:0:
239,37,241305,2,0,P|286:22|333:35,1,99.999990463257,8|10,0:0|0:0,0:0:0:0:
395,104,242174,2,0,P|442:118|489:105,1,99.999990463257,10|8,0:0|0:0,0:0:0:0:
442,28,243044,1,12,0:0:0:0:
353,14,243479,2,0,L|232:11,1,99.999990463257,10|8,0:0|0:0,0:0:0:0:
211,29,244131,6,0,P|214:86|195:140,1,99.999990463257,4|0,3:2|3:0,0:0:0:0:
133,184,245000,1,0,3:0:0:0:
124,318,245653,2,0,B|179:323|179:323|217:288,1,99.999990463257,12|10,0:0|0:0,0:0:0:0:
244,208,246522,2,0,P|269:220|303:291,1,99.999990463257,10|8,0:0|0:0,0:0:0:0:
460,359,247609,6,0,B|454:322|454:322|466:298|466:298|456:238,1,99.999990463257,4|0,3:2|3:0,0:0:0:0:
487,130,248696,2,0,P|438:124|388:148,1,99.999990463257,10|12,0:0|0:0,0:0:0:0:
304,163,249566,1,10,0:0:0:0:
272,247,250000,2,0,P|227:267|178:261,1,99.999990463257,10|8,0:0|3:0,0:0:0:0:
104,313,250870,2,0,B|68:267|68:201|100:154|151:142|186:145|200:158|200:158|176:183|141:170,1,299.999971389771,4|0,3:2|3:0,0:0:0:0:
285,172,252826,6,0,B|281:233|281:233|296:273|296:273|277:329,1,149.999985694886,4|10,3:2|0:0,0:0:0:0:
206,367,253913,2,0,P|191:315|209:264,1,99.999990463257,10|10,0:0|0:0,0:0:0:0:
187,183,254783,1,10,0:0:0:0:
203,94,255218,2,0,L|91:96,1,99.999990463257,10|10,0:0|0:0,0:0:0:0:
1,184,256305,6,0,B|59:174|59:174|94:188|94:188|196:186,1,149.999985694886,4|10,3:2|0:0,0:0:0:0:
233,220,257392,1,10,0:0:0:0:
269,302,257826,2,0,P|217:309|168:281,1,99.999990463257,10|12,0:0|0:0,0:0:0:0:
137,264,258479,2,0,P|85:257|36:285,1,99.999990463257,12|12,0:0|0:0,0:0:0:0:
103,344,259348,1,0,3:0:0:0:
137,264,259783,6,0,B|162:237|153:206|153:206|98:186|80:128,1,149.999985694886,4|12,3:2|0:0,0:0:0:0:
62,64,260870,1,10,0:0:0:0:
146,54,261305,2,0,L|265:62,1,99.999990463257,12|8,0:0|0:0,0:0:0:0:
302,132,262174,2,0,L|421:124,1,99.999990463257,12|8,0:0|3:0,0:0:0:0:
448,252,263261,6,0,L|284:240,2,149.999985694886,4|4|8,3:2|3:2|0:0,0:0:0:0:
481,281,264783,1,12,0:0:0:0:
511,196,265218,2,0,L|503:146,1,49.9999952316285,0|10,3:0|0:0,0:0:0:0:
440,81,265870,2,0,P|410:119|341:116,1,99.999990463257,8|8,0:0|0:0,0:0:0:0:
274,83,266740,5,6,3:2:0:0:
256,192,266957,12,0,272174,0:0:0:0:
