osu file format v14

[General]
AudioFilename: audio.mp3
AudioLeadIn: 0
PreviewTime: 72998
Countdown: 0
SampleSet: Soft
StackLeniency: 0.7
Mode: 0
LetterboxInBreaks: 0
WidescreenStoryboard: 1

[Editor]
Bookmarks: 93524
DistanceSpacing: 0.9
BeatDivisor: 4
GridSize: 32
TimelineZoom: 3.3

[Metadata]
Title:Cherry Bomb
TitleUnicode:チェリボム
Artist:Poppin'Party
ArtistUnicode:Poppin'Party
Creator:STaLeRGooD
Version:Yasai's Hard
Source:バンドリ! ガールズバンドパーティ!
Tags:Vaeviv -Hakurei- lit120 Xehn Xen Xenon- [_l_u_k_a_s_] lukas Captain Yasaija 714 SquareTude Bang Dream! Girls Band Party bandori garupa ガルパ popipa ポピパ ポッピンパーティ cover Silent Siren game size toyama kasumi 戸山香澄 terakawa aimi 寺川愛美 hanazono tae 花園たえ otsuka sae 大塚紗英 ushigome rimi 牛込りみ nishimoto 西本りみ yamabuki saya saaya 山吹沙綾 ohashi ayaka 大橋彩香 ichigaya arisa 市ヶ谷有咲 itou ayasa 伊藤彩沙 anime video japanese
BeatmapID:2071495
BeatmapSetID:971051

[Difficulty]
HPDrainRate:5
CircleSize:4
OverallDifficulty:7
ApproachRate:8
SliderMultiplier:1.3
SliderTickRate:1

[Events]
//Background and Video events
0,0,"bg.jpg",0,0
//Break Periods
//Storyboard Layer 0 (Background)
//Storyboard Layer 1 (Fail)
//Storyboard Layer 2 (Pass)
//Storyboard Layer 3 (Foreground)
//Storyboard Layer 4 (Overlay)
//Storyboard Sound Samples

[TimingPoints]
1291,315.789473684211,4,2,12,40,1,0
12659,-90.9090909090909,4,2,12,80,0,1
12896,-90.9090909090909,4,2,12,80,0,1
12975,-90.9090909090909,4,2,12,80,0,1
13212,-90.9090909090909,4,2,12,80,0,1
13291,-90.9090909090909,4,2,12,80,0,1
13527,-90.9090909090909,4,2,12,80,0,1
13606,-90.9090909090909,4,2,12,80,0,1
15422,-90.9090909090909,4,2,12,80,0,1
15501,-90.9090909090909,4,2,12,80,0,1
15738,-90.9090909090909,4,2,12,80,0,1
15817,-90.9090909090909,4,2,12,80,0,1
16054,-90.9090909090909,4,2,12,80,0,1
16133,-90.9090909090909,4,2,12,80,0,1
17948,-90.9090909090909,4,2,12,80,0,1
18027,-90.9090909090909,4,2,12,80,0,1
18896,-90.9090909090909,4,2,12,80,0,1
18975,-90.9090909090909,4,2,12,80,0,1
19212,-90.9090909090909,4,2,12,80,0,1
19291,-90.9090909090909,4,2,12,80,0,1
20159,-90.9090909090909,4,2,12,80,0,1
20238,-90.9090909090909,4,2,12,80,0,1
21501,-100,4,2,12,80,0,0
22527,-100,4,2,12,80,0,0
22606,-100,4,2,12,80,0,0
22764,-90.9090909090909,4,2,12,80,0,1
23001,-90.9090909090909,4,2,12,80,0,1
23080,-90.9090909090909,4,2,12,80,0,1
23317,-90.9090909090909,4,2,12,80,0,1
23396,-90.9090909090909,4,2,12,80,0,1
23633,-90.9090909090909,4,2,12,80,0,1
23712,-90.9090909090909,4,2,12,80,0,1
28054,-90.9090909090909,4,2,12,80,0,1
28133,-90.9090909090909,4,2,12,80,0,1
28369,-90.9090909090909,4,2,12,80,0,1
28448,-90.9090909090909,4,2,12,80,0,1
28685,-90.9090909090909,4,2,12,80,0,1
28764,-90.9090909090909,4,2,12,80,0,1
29001,-90.9090909090909,4,2,12,80,0,1
29080,-100,4,2,12,80,0,0
29317,-100,4,2,12,80,0,0
29396,-100,4,2,12,80,0,0
29712,-100,4,2,12,80,0,0
30343,-100,4,2,12,80,0,0
30580,-100,4,2,12,80,0,0
30659,-100,4,2,12,80,0,0
33185,-100,4,2,12,80,0,0
35632,-100,4,2,12,80,0,0
35711,-100,4,2,12,80,0,0
38238,-100,4,2,12,80,0,0
40369,-100,4,2,12,80,0,0
40448,-100,4,2,12,80,0,0
40685,-100,4,2,12,80,0,0
40764,-100,4,2,12,80,0,0
41159,-100,4,2,12,80,0,0
41238,-100,4,2,12,80,0,0
41633,-100,4,2,12,80,0,0
41711,-100,4,2,12,80,0,0
41712,-100,4,2,12,70,0,0
42343,-100,4,2,12,70,0,0
42659,-100,4,2,12,60,0,0
42896,-100,4,2,12,60,0,0
42975,-100,4,2,12,60,0,0
43212,-100,4,2,12,60,0,0
43291,-100,4,2,12,60,0,0
45422,-100,4,2,12,60,0,0
45501,-100,4,2,12,60,0,0
45738,-100,4,2,12,60,0,0
45817,-100,4,2,12,60,0,0
47948,-100,4,2,12,60,0,0
48027,-100,4,2,12,60,0,0
48264,-100,4,2,12,5,0,0
48343,-100,4,2,12,60,0,0
48580,-100,4,2,12,60,0,0
48659,-100,4,2,12,60,0,0
49212,-100,4,2,12,60,0,0
49291,-100,4,2,12,60,0,0
50475,-100,4,2,12,60,0,0
50554,-100,4,2,12,60,0,0
51738,-100,4,2,12,60,0,0
51817,-100,4,2,12,70,0,0
52527,-100,4,2,12,70,0,0
52606,-100,4,2,12,70,0,0
53080,-100,4,2,12,70,0,0
53317,-100,4,2,12,70,0,0
53396,-100,4,2,12,70,0,0
55527,-100,4,2,12,70,0,0
55606,-100,4,2,12,70,0,0
55843,-100,4,2,12,70,0,0
55922,-100,4,2,12,70,0,0
58054,-100,4,2,12,70,0,0
58133,-100,4,2,12,70,0,0
58369,-100,4,2,12,70,0,0
58448,-100,4,2,12,70,0,0
60580,-100,4,2,12,70,0,0
60659,-100,4,2,12,70,0,0
60896,-100,4,2,12,70,0,0
60975,-100,4,2,12,70,0,0
61843,-100,4,2,12,70,0,0
61922,-100,4,2,12,70,0,0
62791,-100,4,2,12,5,0,0
62869,-100,4,2,12,70,0,0
63185,-125,4,2,12,60,0,0
65633,-125,4,2,12,60,0,0
65712,-125,4,2,12,60,0,0
66896,-125,4,2,12,60,0,0
66975,-125,4,2,12,60,0,0
68080,-100,4,2,12,70,0,0
68317,-100,4,2,12,70,0,0
68396,-100,4,2,12,70,0,0
68791,-100,4,2,12,5,0,0
68869,-100,4,2,12,70,0,0
72975,-142.857142857143,4,2,12,100,0,0
73212,-142.857142857143,4,2,12,100,0,0
73291,-90.9090909090909,4,2,12,80,0,1
73527,-90.9090909090909,4,2,12,80,0,1
73606,-90.9090909090909,4,2,12,80,0,1
73843,-90.9090909090909,4,2,12,80,0,1
73922,-90.9090909090909,4,2,12,80,0,1
74159,-90.9090909090909,4,2,12,80,0,1
74238,-90.9090909090909,4,2,12,80,0,1
76054,-90.9090909090909,4,2,12,80,0,1
76133,-90.9090909090909,4,2,12,80,0,1
76369,-90.9090909090909,4,2,12,80,0,1
76448,-90.9090909090909,4,2,12,80,0,1
76685,-90.9090909090909,4,2,12,80,0,1
76764,-90.9090909090909,4,2,12,80,0,1
78580,-90.9090909090909,4,2,12,80,0,1
78659,-90.9090909090909,4,2,12,80,0,1
79527,-90.9090909090909,4,2,12,80,0,1
79606,-90.9090909090909,4,2,12,80,0,1
79843,-90.9090909090909,4,2,12,80,0,1
79922,-90.9090909090909,4,2,12,80,0,1
80791,-90.9090909090909,4,2,12,80,0,1
80869,-90.9090909090909,4,2,12,80,0,1
82133,-100,4,2,12,80,0,0
83317,-100,4,2,12,80,0,0
83396,-86.9565217391304,4,2,12,80,0,1
83633,-86.9565217391304,4,2,12,80,0,1
83712,-86.9565217391304,4,2,12,80,0,1
83948,-86.9565217391304,4,2,12,80,0,1
84027,-86.9565217391304,4,2,12,80,0,1
84264,-86.9565217391304,4,2,12,5,0,1
84343,-86.9565217391304,4,2,12,80,0,1
88685,-86.9565217391304,4,2,12,80,0,1
88764,-86.9565217391304,4,2,12,80,0,1
89001,-86.9565217391304,4,2,12,80,0,1
89080,-86.9565217391304,4,2,12,80,0,1
89317,-86.9565217391304,4,2,12,80,0,1
89396,-86.9565217391304,4,2,12,80,0,1
89633,-86.9565217391304,4,2,12,80,0,1
89712,-100,4,2,12,80,0,0
89948,-100,4,2,12,80,0,0
90027,-100,4,2,12,80,0,0
90343,-100,4,2,12,80,0,0
90975,-90.9090909090909,4,2,12,80,0,1
91212,-90.9090909090909,4,2,12,80,0,1
91291,-90.9090909090909,4,2,12,80,0,1
96264,-90.9090909090909,4,2,12,80,0,1
96343,-90.9090909090909,4,2,12,80,0,1
98791,-90.9090909090909,4,2,12,80,0,1
98869,-90.9090909090909,4,2,12,80,0,1
101080,-100,4,2,12,80,0,1
101317,-100,4,2,12,80,0,1
101396,-100,4,2,12,80,0,1
101791,-100,4,2,12,80,0,1
101869,-100,4,2,12,80,0,1
102264,-100,4,2,12,80,0,1
102343,-100,4,2,12,70,0,1
102896,-100,4,2,12,70,0,1
102975,-100,4,2,12,60,0,1
103606,-100,4,2,12,70,0,0

[Colours]
Combo1 : 125,141,255
Combo2 : 253,151,49
Combo3 : 241,75,67

[HitObjects]
77,142,1922,5,2,0:2:0:0:
157,227,2238,1,2,0:2:0:0:
241,145,2554,6,0,P|237:198|249:294,2,130,6|10|2,3:2|0:0|3:2,0:0:0:0:
310,95,3343,2,0,L|382:105,1,65,2|8,3:2|0:0,0:0:0:0:
494,160,3659,6,0,P|422:172|372:225,1,130,2|2,0:2|0:2,0:0:0:0:
322,274,4133,1,8,0:0:0:0:
322,274,4291,2,0,P|250:262|200:209,1,130,8|2,0:3|3:2,0:0:0:0:
154,157,4764,2,0,P|125:185|84:198,1,65,10|8,0:0|0:3,0:0:0:0:
14,154,5080,5,4,0:3:0:0:
53,326,5396,1,10,0:2:0:0:
53,326,5554,1,8,0:0:0:0:
134,286,5712,2,0,L|128:360,2,65,2|2|8,3:2|3:2|0:0,0:0:0:0:
67,218,6185,6,0,P|113:192|195:213,1,130,2|2,0:2|3:2,0:0:0:0:
252,259,6659,1,8,0:0:0:0:
252,259,6817,2,0,L|269:349,1,65,8|0,0:3|3:2,0:0:0:0:
343,356,7133,2,0,L|355:292,2,65,2|10|4,3:2|0:0|0:3,0:0:0:0:
256,192,7606,12,6,11396,3:2:0:0:
102,93,12027,6,2,P|114:126|130:181,1,65,10|10,0:2|0:2,0:2:0:0:
199,191,12343,2,2,P|208:159|219:129,1,65,10|10,0:2|0:2,0:2:0:0:
288,46,12659,6,0,P|367:80|443:72,2,143.000004364014,6|10|2,3:2|0:0|3:2,0:0:0:0:
189,6,13448,1,0,0:0:0:0:
122,91,13606,2,0,L|125:173,1,71.5000021820069,10|2,0:0|0:0,0:0:0:0:
208,252,13922,6,0,B|301:233|301:233|260:271,1,143.000004364014,2|10,3:2|0:2,0:0:0:0:
177,331,14396,2,0,P|136:296|125:260,1,71.5000021820069,2|0,0:2|3:2,0:0:0:0:
157,178,14712,1,2,0:2:0:0:
157,178,14869,2,0,L|240:161,1,71.5000021820069,10|2,0:2|0:2,0:0:0:0:
350,123,15185,6,0,B|320:192|378:194|342:282,2,143.000004364014,2|10|2,3:2|0:2|3:2,0:0:0:0:
436,55,15975,1,0,0:0:0:0:
510,134,16133,2,0,P|461:136|424:156,1,71.5000021820069,10|2,0:2|0:0,0:0:0:0:
487,273,16448,6,0,P|390:278|344:259,1,143.000004364014,2|8,3:2|0:0,0:0:0:0:
258,200,16922,1,2,0:2:0:0:
258,200,17080,2,0,P|245:137|234:105,1,71.5000021820069,2|2,3:2|0:0,0:0:0:0:
136,157,17396,2,0,P|126:191|120:226,1,71.5000021820069,10|2,0:2|0:2,0:0:0:0:
213,320,17712,6,0,B|253:289|253:289|300:311|345:306,2,143.000004364014,2|10|2,3:2|0:2|3:2,0:0:0:0:
115,377,18501,1,2,0:2:0:0:
48,279,18659,2,0,P|26:235|22:199,1,71.5000021820069,10|2,0:2|0:2,0:0:0:0:
106,116,18975,6,2,L|184:124,1,71.5000021820069,2|0,3:2|0:0,0:0:0:0:
251,204,19291,2,0,L|329:196,1,71.5000021820069,10|0,0:0|0:0,0:0:0:0:
449,186,19606,6,0,L|445:271,1,71.5000021820069,2|2,3:2|0:2,0:0:0:0:
445,257,19843,1,2,0:2:0:0:
445,257,19922,1,10,0:2:0:0:
359,313,20080,1,0,0:0:0:0:
322,196,20238,6,0,P|251:240|171:233,1,143.000004364014,2|10,3:2|0:0,0:0:0:0:
164,134,20712,1,2,0:0:0:0:
164,134,20869,2,0,P|235:90|315:97,1,143.000004364014,2|10,3:2|0:2,0:0:0:0:
322,196,21343,1,2,0:0:0:0:
404,110,21501,6,0,P|442:101|484:124,1,65,2|14,3:2|0:2,0:0:0:0:
469,227,21817,2,0,P|431:236|389:213,1,65,14|2,0:2|3:2,0:0:0:0:
306,144,22133,2,0,B|292:178|292:178|307:260,1,97.5,8|8,0:0|3:3,0:0:0:0:
316,285,22448,2,0,B|284:278|284:278|242:300,1,65,12|8,0:0|0:0,0:0:0:0:
145,352,22764,6,0,P|154:267|148:187,2,143.000004364014,6|10|2,3:2|0:0|3:2,0:0:0:0:
62,280,23554,1,0,0:0:0:0:
151,209,23712,2,0,P|207:216|232:217,1,71.5000021820069,10|2,0:2|0:0,0:0:0:0:
324,143,24027,6,0,P|345:89|285:10,1,143.000004364014,2|10,3:2|0:2,0:0:0:0:
200,93,24501,2,0,P|236:99|269:87,1,71.5000021820069,2|0,0:2|3:2,0:0:0:0:
373,54,24817,1,2,0:2:0:0:
373,54,24975,2,0,L|364:140,1,71.5000021820069,10|2,0:2|0:2,0:0:0:0:
318,245,25291,6,0,B|276:244|248:233|248:233|225:258|187:277,2,143.000004364014,2|10|2,3:2|0:0|3:2,0:0:0:0:
405,185,26080,1,2,0:0:0:0:
481,264,26238,2,0,P|466:316|461:345,1,71.5000021820069,10|2,0:0|0:2,0:0:0:0:
348,384,26554,6,0,P|341:315|314:235,1,143.000004364014,0|8,3:2|0:0,0:0:0:0:
251,158,27027,1,2,0:2:0:0:
251,158,27185,2,0,P|198:167|150:167,1,71.5000021820069,2|2,3:2|0:2,0:0:0:0:
205,64,27501,2,0,P|258:55|306:55,1,71.5000021820069,10|2,0:2|0:2,0:0:0:0:
389,105,27817,6,0,L|381:181,1,71.5000021820069,2|0,3:2|0:0,0:0:0:0:
487,193,28133,2,0,L|494:121,1,71.5000021820069,10|0,0:2|0:0,0:0:0:0:
377,91,28448,2,0,L|369:167,1,71.5000021820069,2|0,3:2|0:0,0:0:0:0:
475,179,28764,2,0,L|482:107,1,71.5000021820069,10|0,0:2|0:0,0:0:0:0:
401,6,29080,5,8,0:2:0:0:
236,106,29396,1,8,0:0:0:0:
37,64,30343,6,2,B|65:105|65:105|56:196,1,130,14|8,0:2|0:0,0:2:0:0:
33,280,30817,2,2,P|74:268|106:263,1,65,2|8,0:2|0:2,0:2:0:0:
192,284,31133,1,2,3:2:0:0:
192,284,31291,2,0,L|182:205,1,65,10|2,0:2|3:2,0:0:0:0:
241,139,31606,6,0,P|311:121|380:161,1,130,8|10,0:2|0:0,0:0:0:0:
441,200,32080,1,2,3:2:0:0:
441,200,32238,2,0,P|434:252|438:285,2,65,8|0|10,0:0|3:2|0:2,0:0:0:0:
272,263,32869,6,0,P|261:187|232:123,1,130,10|10,0:2|0:2,0:2:0:0:
162,84,33343,2,2,B|73:96|73:96|103:64,1,130,2|2,0:2|3:2,0:2:0:0:
181,6,33817,1,10,0:2:0:0:
181,6,33975,2,2,L|317:27,1,130,2|0,3:2|3:2,0:2:0:0:
388,88,34448,2,0,P|338:105|314:121,1,65,10|2,0:2|3:2,0:0:0:0:
236,192,34764,6,0,L|147:180,1,65,10|2,0:2|3:2,0:0:0:0:
161,307,35080,2,0,L|250:319,1,65,10|2,0:2|3:2,0:0:0:0:
345,289,35396,6,2,P|326:196|325:130,1,130,14|8,0:2|0:0,0:2:0:0:
388,88,35869,2,2,P|426:97|457:98,1,65,2|8,0:2|0:2,0:2:0:0:
509,187,36185,1,2,3:2:0:0:
509,187,36343,2,0,P|476:189|445:197,1,65,10|2,0:2|3:2,0:0:0:0:
368,260,36659,6,0,P|310:233|238:217,1,130,8|10,0:2|0:2,0:0:0:0:
153,260,37133,1,2,3:2:0:0:
153,260,37291,2,0,L|147:330,2,65,8|0|10,0:0|3:2|0:2,0:0:0:0:
76,89,37922,6,2,B|110:62|110:62|205:78,1,130,10|8,0:2|0:2,0:2:0:0:
266,142,38396,2,2,L|402:112,1,130,2|2,0:2|3:2,0:2:0:0:
432,209,38869,1,8,0:2:0:0:
432,209,39027,2,2,L|305:237,1,130,2|0,3:2|3:2,0:2:0:0:
214,281,39501,1,10,0:2:0:0:
214,281,39659,2,0,P|190:229|176:213,1,65,2|8,3:2|0:0,0:0:0:0:
117,150,39975,2,0,P|99:177|88:207,2,65,2|10|2,3:2|0:2|3:2,0:0:0:0:
220,114,40448,6,2,P|308:136|367:118,1,130,14|0,0:2|3:2,0:2:0:0:
443,52,40922,2,2,P|355:30|296:48,1,130,14|0,0:2|3:2,0:2:0:0:
220,114,41396,2,2,L|233:195,1,65,14|0,0:2|0:2,0:2:0:0:
258,293,41712,1,6,3:2:0:0:
256,192,41869,12,6,42975,3:2:0:0:
60,110,43291,6,0,P|80:160|92:249,1,130,10|2,0:2|0:2,0:0:0:0:
91,326,43764,1,0,3:2:0:0:
91,326,43922,2,0,P|126:316|171:312,1,65,10|2,0:2|0:2,0:0:0:0:
246,357,44238,6,0,L|254:284,1,65,0|2,3:2|3:2,0:0:0:0:
185,222,44554,2,0,L|192:157,1,65,8|2,0:0|3:2,0:0:0:0:
270,97,44869,2,0,L|277:32,2,65,2|2|10,0:2|3:2|0:0,0:0:0:0:
405,240,45501,6,2,P|330:222|266:220,2,130,2|10|2,3:2|0:2|0:2,0:2:0:0:
477,296,46291,1,2,3:2:0:0:
477,296,46448,2,0,L|466:369,1,65,10|2,0:2|0:2,0:0:0:0:
375,375,46764,6,0,P|334:358|300:358,1,65,2|2,3:2|3:2,0:0:0:0:
218,368,47080,2,0,P|185:363|156:349,1,65,10|2,0:2|3:2,0:0:0:0:
83,284,47396,2,0,P|42:267|8:267,2,65,2|2|10,0:2|3:2|0:2,0:0:0:0:
225,136,48027,6,2,P|217:214|220:288,2,130,2|10|2,3:2|0:2|0:2,0:2:0:0:
285,71,48817,1,0,3:2:0:0:
285,71,48975,2,0,L|355:78,1,65,10|0,0:2|0:0,0:0:0:0:
448,143,49291,6,0,P|407:157|371:181,1,65,2|0,3:2|3:2,0:0:0:0:
335,238,49606,2,0,P|306:222|275:213,1,65,10|0,0:2|3:2,0:0:0:0:
190,182,49922,2,0,L|208:317,1,130,2|10,0:2|0:2,0:0:0:0:
141,370,50396,1,0,0:0:0:0:
88,299,50554,6,2,P|149:282|206:310,1,130,2|8,3:2|0:2,0:2:0:0:
279,360,51027,1,2,0:2:0:0:
279,360,51185,2,0,P|336:331|397:348,1,130,0|10,0:0|0:2,0:0:0:0:
466,161,51817,6,0,P|422:176|392:196,1,65,2|0,3:2|3:2,0:0:0:0:
326,242,52133,1,8,0:0:0:0:
326,242,52291,2,2,L|310:169,1,65,14|0,0:2|0:0,0:2:0:0:
224,148,52606,1,0,3:2:0:0:
224,148,52764,2,0,L|208:221,1,65,8|8,0:0|0:0,0:0:0:0:
121,270,53080,6,2,P|73:193|86:134,2,130,4|10|2,3:2|0:2|0:2,0:2:0:0:
206,321,53869,1,0,3:2:0:0:
274,253,54027,1,10,0:2:0:0:
348,320,54185,6,0,B|397:299|397:299|495:337,1,130,2|2,0:2|3:2,0:0:0:0:
509,237,54659,2,0,P|509:184|499:158,1,65,8|2,0:0|3:2,0:0:0:0:
440,102,54975,2,0,L|360:120,2,65,2|2|10,0:2|3:2|0:2,0:0:0:0:
251,49,55606,6,0,P|281:148|286:202,2,130,2|10|2,3:2|0:2|0:2,0:0:0:0:
161,14,56396,1,0,3:2:0:0:
93,81,56554,2,0,P|86:120|83:166,1,65,10|2,0:2|0:2,0:0:0:0:
126,237,56869,6,0,L|197:223,2,65,0|2|10,3:2|3:2|0:2,0:0:0:0:
63,314,57343,1,2,3:2:0:0:
63,314,57501,2,0,L|-8:300,2,65,2|2|10,0:2|3:2|0:2,0:0:0:0:
255,368,58133,6,2,B|246:337|246:337|253:301,1,65,6|0,3:2|0:2,0:2:0:0:
313,229,58448,2,0,B|322:198|322:198|315:162,1,65,10|2,0:2|0:2,0:0:0:0:
249,97,58764,2,0,P|173:109|108:109,1,130,2|10,0:2|0:2,0:0:0:0:
33,61,59238,1,2,0:2:0:0:
17,168,59396,6,0,L|32:240,1,65,2|0,3:2|3:2,0:0:0:0:
119,274,59712,2,0,L|132:210,1,65,10|2,0:2|3:2,0:0:0:0:
222,165,60027,2,0,B|238:228|238:228|221:312,2,130,2|10|6,0:2|0:2|3:2,0:0:0:0:
391,64,60975,5,8,0:2:0:0:
391,64,61133,2,0,L|379:149,1,65,2|0,0:2|3:2,0:0:0:0:
335,218,61448,1,0,3:2:0:0:
335,218,61606,2,0,L|347:303,1,65,10|0,0:0|0:0,0:0:0:0:
406,362,61922,6,0,P|367:360|329:365,1,65,2|2,3:2|3:2,0:0:0:0:
265,305,62238,2,0,P|226:307|188:302,1,65,10|2,0:2|3:2,0:0:0:0:
98,279,62554,6,0,B|116:242|116:242|96:163,1,97.5,10|0,0:2|0:0,0:0:0:0:
78,159,62869,2,0,L|94:79,1,65,8|4,0:3|0:3,0:0:0:0:
165,44,63185,6,0,P|229:74|276:76,2,104,6|8|0,3:2|0:0|3:2,0:0:0:0:
84,9,63975,1,2,0:2:0:0:
84,9,64133,2,0,L|88:69,1,52,10|2,0:2|0:2,0:0:0:0:
137,136,64448,6,0,P|123:198|116:254,1,104,2|10,3:2|0:2,0:0:0:0:
168,311,64922,2,0,B|220:327|218:290|291:309,1,104,2|2,0:2|3:2,0:0:0:0:
353,340,65396,1,10,0:2:0:0:
467,210,65712,6,0,B|486:185|486:185|401:198,1,104,2|10,3:2|0:2,0:0:0:0:
337,239,66185,2,0,L|228:208,1,104,2|2,0:2|3:2,0:0:0:0:
174,143,66659,1,10,0:2:0:0:
21,217,66975,6,0,L|32:280,1,52,2|2,3:2|3:2,0:0:0:0:
113,295,67291,2,0,L|121:243,1,52,10|2,0:2|3:2,0:0:0:0:
174,143,67606,1,8,0:0:0:0:
174,143,67764,2,0,P|222:157|230:158,1,52,8|4,0:3|0:3,0:0:0:0:
322,94,68080,6,2,B|302:134|302:134|314:229,1,130,14|2,0:2|3:2,0:2:0:0:
420,183,68554,2,0,L|407:289,1,97.5,10|0,0:2|0:0,0:0:0:0:
376,317,68869,2,0,P|334:302|297:302,1,65,10|0,0:2|3:2,0:0:0:0:
237,242,69185,2,0,P|204:245|174:258,1,65,10|0,0:2|3:2,0:0:0:0:
58,321,69501,6,2,L|82:172,1,130,10|10,0:2|0:2,0:2:0:0:
135,109,69975,1,0,3:2:0:0:
214,165,70133,2,0,B|245:156|245:156|288:167,2,65,10|2|8,0:2|3:2|0:0,0:0:0:0:
184,73,70606,6,2,B|246:55|246:55|322:77,1,130,2|2,3:2|3:2,0:2:0:0:
386,140,71080,2,2,P|377:186|376:213,1,65,10|2,0:2|3:2,0:2:0:0:
285,255,71396,2,0,P|282:222|274:190,1,65,10|2,0:2|3:2,0:0:0:0:
192,141,71712,1,0,3:2:0:0:
192,276,71869,6,0,B|148:265|148:265|53:292,1,130,10|10,0:2|0:2,0:0:0:0:
17,375,72343,1,2,3:2:0:0:
125,355,72501,1,10,0:0:0:0:
38,266,72659,2,0,L|26:216,2,32.5,10|8|4,0:2|0:3|0:3,0:0:0:0:
168,253,72975,6,0,L|182:173,1,68.2499979171754,12|0,0:2|0:0,0:0:0:0:
190,140,73291,6,0,B|234:133|234:133|270:161|270:161|340:142,2,143.000004364014,6|10|2,3:2|0:2|3:2,0:2:0:0:
84,170,74080,1,0,0:0:0:0:
46,68,74238,2,0,P|83:53|125:52,1,71.5000021820069,10|2,0:2|0:2,0:2:0:0:
190,140,74554,6,0,P|181:218|185:298,1,143.000004364014,2|8,3:2|0:2,0:2:0:0:
278,340,75027,2,0,B|311:329|311:329|350:342,1,71.5000021820069,2|0,0:2|3:2,0:0:0:0:
452,357,75343,1,2,0:2:0:0:
452,357,75501,2,0,L|432:280,1,71.5000021820069,10|2,0:2|0:2,0:0:0:0:
444,165,75817,6,0,P|361:201|304:193,2,143.000004364014,2|10|2,3:2|3:2|3:2,0:0:0:0:
459,55,76606,1,0,0:0:0:0:
355,16,76764,2,0,P|372:54|373:91,1,71.5000021820069,10|2,0:2|0:2,0:0:0:0:
258,117,77080,6,0,L|177:108,2,71.5000021820069,2|0|8,3:2|0:0|0:0,0:0:0:0:
331,202,77554,1,2,0:2:0:0:
331,202,77712,2,0,L|412:193,2,71.5000021820069,2|2|10,3:2|0:0|0:2,0:0:0:0:
246,273,78185,1,2,0:2:0:0:
142,186,78343,6,0,B|127:230|127:230|145:273|141:345,2,143.000004364014,2|10|2,3:2|0:2|3:2,0:0:0:0:
221,113,79133,1,2,0:2:0:0:
138,44,79291,2,0,L|57:52,1,71.5000021820069,10|2,0:2|0:2,0:0:0:0:
3,157,79606,6,2,P|46:152|78:165,1,71.5000021820069,2|0,3:2|0:0,0:0:0:0:
160,232,79922,2,0,P|203:237|235:224,1,71.5000021820069,10|0,0:2|0:0,0:0:0:0:
336,169,80238,6,0,L|340:81,1,71.5000021820069,2|2,3:2|0:0,0:0:0:0:
339,97,80475,1,2,0:0:0:0:
339,97,80554,1,10,0:2:0:0:
439,50,80712,1,0,0:0:0:0:
511,129,80869,6,0,L|504:271,1,143.000004364014,2|10,3:2|0:2,0:0:0:0:
423,342,81343,1,2,0:2:0:0:
423,342,81501,2,0,L|280:335,1,143.000004364014,2|10,3:2|0:2,0:0:0:0:
210,253,81975,1,2,0:0:0:0:
285,173,82133,6,0,P|296:126|280:92,1,65,2|2,3:2|3:2,0:0:0:0:
165,96,82448,2,0,P|154:143|170:177,1,65,10|2,0:2|3:2,0:0:0:0:
210,253,82764,2,0,B|145:248|145:248|107:265,1,97.5,10|0,0:2|3:2,0:0:0:0:
78,293,83080,2,0,P|93:355|95:379,1,65,12|0,0:0|3:0,0:0:0:0:
0,234,83396,6,0,B|-12:187|-12:187|7:84,2,149.500002851486,6|10|2,3:2|0:2|3:2,0:0:0:0:
99,174,84185,1,0,0:0:0:0:
180,250,84343,2,0,P|223:271|258:269,1,74.7500014257431,10|2,0:2|0:0,0:0:0:0:
354,212,84659,6,0,B|369:165|369:165|339:54,1,149.500002851486,2|8,3:2|0:0,0:0:0:0:
227,51,85133,2,0,L|250:139,1,74.7500014257431,2|0,0:2|3:2,0:0:0:0:
148,180,85448,1,2,0:2:0:0:
148,180,85606,2,0,L|129:107,1,74.7500014257431,10|2,0:2|0:2,0:0:0:0:
22,196,85922,6,0,P|94:263|156:260,2,149.500002851486,2|10|2,3:2|0:2|3:2,0:0:0:0:
53,90,86712,1,2,0:2:0:0:
153,138,86869,2,0,P|198:109|234:105,1,74.7500014257431,10|2,0:2|0:2,0:0:0:0:
336,153,87185,6,0,B|320:189|320:189|326:312,1,149.500002851486,2|10,3:2|0:2,0:0:0:0:
430,347,87659,1,2,0:2:0:0:
430,347,87817,2,0,P|485:358|506:348,1,74.7500014257431,2|2,3:2|0:2,0:0:0:0:
505,235,88133,2,0,P|450:224|429:234,1,74.7500014257431,10|2,0:2|0:2,0:0:0:0:
325,298,88448,6,0,L|229:306,1,74.7500014257431,6|0,3:2|0:0,0:2:0:0:
212,181,88764,2,0,L|286:174,1,74.7500014257431,10|0,0:2|0:0,0:2:0:0:
340,314,89080,2,0,L|244:322,1,74.7500014257431,2|0,3:2|0:0,0:2:0:0:
227,197,89396,2,0,L|301:190,1,74.7500014257431,10|0,0:2|0:0,0:2:0:0:
152,270,89712,5,10,0:2:0:0:
256,62,90027,1,10,0:2:0:0:
45,174,90975,6,2,P|116:201|182:182,1,143.000004364014,6|8,3:2|0:0,0:2:0:0:
271,131,91448,2,2,P|270:172|281:213,1,71.5000021820069,2|8,0:2|0:2,0:2:0:0:
342,293,91764,1,2,3:2:0:0:
342,293,91922,2,0,L|425:284,1,71.5000021820069,10|2,0:2|3:2,0:0:0:0:
494,213,92238,6,0,P|512:149|478:69,1,143.000004364014,8|10,0:2|0:2,0:0:0:0:
389,30,92712,1,2,3:2:0:0:
311,102,92869,2,0,P|269:95|235:93,2,71.5000021820069,10|2|10,0:2|3:2|0:2,0:0:0:0:
101,38,93501,6,2,P|173:14|261:10,1,143.000004364014,10|8,0:2|0:0,0:2:0:0:
311,102,93975,2,2,P|293:184|340:253,1,143.000004364014,2|2,0:2|3:2,0:2:0:0:
401,163,94448,1,8,0:2:0:0:
401,163,94606,2,2,B|501:183|501:183|450:222,1,143.000004364014,2|2,3:2|3:2,0:2:0:0:
395,283,95080,2,0,P|337:270|302:272,1,71.5000021820069,10|2,0:2|3:2,0:0:0:0:
197,318,95396,6,0,L|210:234,1,71.5000021820069,10|2,0:2|3:2,0:0:0:0:
304,171,95712,2,0,L|291:87,1,71.5000021820069,10|2,0:2|3:2,0:0:0:0:
193,29,96027,6,2,P|102:57|40:61,1,143.000004364014,14|8,0:2|0:0,0:2:0:0:
0,155,96501,2,2,P|38:156|90:170,1,71.5000021820069,2|8,0:2|0:0,0:2:0:0:
151,240,96817,1,2,3:2:0:0:
151,240,96975,2,0,P|113:241|61:255,1,71.5000021820069,10|2,0:2|3:2,0:0:0:0:
6,346,97291,6,0,B|45:321|45:321|145:339,1,143.000004364014,8|10,0:0|0:2,0:0:0:0:
249,359,97764,1,2,3:2:0:0:
249,359,97922,2,0,P|236:307|237:283,2,71.5000021820069,8|0|10,0:0|3:2|0:2,0:0:0:0:
333,166,98554,6,2,P|341:104|313:11,1,143.000004364014,14|8,0:2|0:0,0:2:0:0:
232,86,99027,2,2,B|124:76|124:76|165:96,1,143.000004364014,2|2,0:2|3:2,0:2:0:0:
241,174,99501,1,8,0:2:0:0:
241,174,99659,2,2,P|233:236|261:329,1,143.000004364014,2|0,3:2|3:2,0:2:0:0:
350,362,100133,2,0,L|431:347,1,71.5000021820069,10|2,0:2|3:2,0:0:0:0:
490,268,100448,2,0,L|477:215,3,35.7500010910034,8|8|10|8,0:0|0:0|0:2|0:0,0:0:0:0:
455,191,100764,1,10,0:2:0:0:
494,98,100922,1,4,0:3:0:0:
428,20,101080,6,2,P|338:44|284:42,1,130,6|8,3:2|0:0,0:2:0:0:
213,121,101554,2,2,P|277:124|339:144,1,130,6|8,3:2|0:0,0:2:0:0:
438,209,102027,2,2,L|422:301,1,65,6|0,3:2|0:2,0:2:0:0:
349,362,102343,1,14,0:2:0:0:
256,192,102501,12,10,103606,0:2:0:0:
