osu file format v14

[General]
AudioFilename: audio.mp3
AudioLeadIn: 0
PreviewTime: 72998
Countdown: 0
SampleSet: Soft
StackLeniency: 0.7
Mode: 0
LetterboxInBreaks: 0
WidescreenStoryboard: 1

[Editor]
DistanceSpacing: 1.1
BeatDivisor: 4
GridSize: 8
TimelineZoom: 2.9

[Metadata]
Title:Cherry Bomb
TitleUnicode:チェリボム
Artist:Poppin'Party
ArtistUnicode:Poppin'Party
Creator:STaLeRGooD
Version:Vaeviv's Insane
Source:バンドリ! ガールズバンドパーティ!
Tags:Vaeviv -Hakurei- lit120 Xehn Xen Xenon- [_l_u_k_a_s_] lukas Captain Yasaija 714 SquareTude Bang Dream! Girls Band Party bandori garupa ガルパ popipa ポピパ ポッピンパーティ cover Silent Siren game size toyama kasumi 戸山香澄 terakawa aimi 寺川愛美 hanazono tae 花園たえ otsuka sae 大塚紗英 ushigome rimi 牛込りみ nishimoto 西本りみ yamabuki saya saaya 山吹沙綾 ohashi ayaka 大橋彩香 ichigaya arisa 市ヶ谷有咲 itou ayasa 伊藤彩沙 anime video japanese
BeatmapID:2039519
BeatmapSetID:971051

[Difficulty]
HPDrainRate:5
CircleSize:4
OverallDifficulty:8
ApproachRate:9
SliderMultiplier:1.8
SliderTickRate:1

[Events]
//Background and Video events
0,0,"bg.jpg",0,0
//Break Periods
2,2754,7006
//Storyboard Layer 0 (Background)
//Storyboard Layer 1 (Fail)
//Storyboard Layer 2 (Pass)
//Storyboard Layer 3 (Foreground)
//Storyboard Layer 4 (Overlay)
//Storyboard Sound Samples

[TimingPoints]
1291,315.789473684211,4,2,12,40,1,0
1922,-100,4,2,12,40,0,0
2554,-100,4,2,12,50,0,0
2791,-100,4,2,12,50,0,0
2869,-100,4,2,12,50,0,0
2948,-100,4,2,12,50,0,0
3027,-100,4,2,12,50,0,0
3106,-100,4,2,12,50,0,0
3185,-100,4,2,12,50,0,0
4685,-100,4,2,12,50,0,0
4764,-100,4,2,12,50,0,0
4843,-100,4,2,12,50,0,0
4922,-100,4,2,12,50,0,0
5001,-100,4,2,12,50,0,0
5080,-100,4,2,12,50,0,0
5475,-100,4,2,12,50,0,0
5554,-100,4,2,12,50,0,0
5633,-100,4,2,12,50,0,0
5712,-100,4,2,12,50,0,0
7606,-100,4,2,12,60,0,0
8001,-100,4,2,12,60,0,0
8080,-100,4,2,12,60,0,0
8159,-100,4,2,12,60,0,0
8238,-100,4,2,12,60,0,0
10527,-100,4,2,12,60,0,0
10606,-100,4,2,12,60,0,0
10685,-100,4,2,12,60,0,0
10764,-100,4,2,12,60,0,0
11396,-95.2380952380952,4,2,12,70,0,0
11633,-95.2380952380952,4,2,12,70,0,0
11712,-95.2380952380952,4,2,12,70,0,0
12106,-95.2380952380952,4,2,12,70,0,0
12185,-95.2380952380952,4,2,12,70,0,0
12264,-95.2380952380952,4,2,12,5,0,0
12343,-95.2380952380952,4,2,12,70,0,0
12422,-95.2380952380952,4,2,12,70,0,0
12501,-95.2380952380952,4,2,12,70,0,0
12580,-95.2380952380952,4,2,12,70,0,0
12659,-90.9090909090909,4,2,12,80,0,1
12896,-90.9090909090909,4,2,12,80,0,1
12975,-90.9090909090909,4,2,12,80,0,1
13212,-90.9090909090909,4,2,12,80,0,1
13291,-90.9090909090909,4,2,12,80,0,1
13527,-90.9090909090909,4,2,12,80,0,1
13606,-90.9090909090909,4,2,12,80,0,1
15422,-90.9090909090909,4,2,12,80,0,1
15501,-90.9090909090909,4,2,12,80,0,1
15738,-90.9090909090909,4,2,12,80,0,1
15817,-90.9090909090909,4,2,12,80,0,1
16054,-90.9090909090909,4,2,12,80,0,1
16133,-90.9090909090909,4,2,12,80,0,1
17948,-90.9090909090909,4,2,12,80,0,1
18027,-90.9090909090909,4,2,12,80,0,1
18896,-90.9090909090909,4,2,12,80,0,1
18975,-90.9090909090909,4,2,12,80,0,1
19212,-90.9090909090909,4,2,12,80,0,1
19291,-90.9090909090909,4,2,12,80,0,1
20159,-90.9090909090909,4,2,12,80,0,1
20238,-90.9090909090909,4,2,12,80,0,1
21501,-99.9999999999999,4,2,12,80,0,0
22527,-99.9999999999999,4,2,12,80,0,0
22606,-99.9999999999999,4,2,12,80,0,0
22764,-90.9090909090909,4,2,12,80,0,1
23001,-90.9090909090909,4,2,12,80,0,1
23080,-90.9090909090909,4,2,12,80,0,1
23317,-90.9090909090909,4,2,12,80,0,1
23396,-90.9090909090909,4,2,12,80,0,1
23633,-90.9090909090909,4,2,12,80,0,1
23712,-90.9090909090909,4,2,12,80,0,1
28054,-90.9090909090909,4,2,12,80,0,1
28133,-90.9090909090909,4,2,12,80,0,1
28369,-90.9090909090909,4,2,12,80,0,1
28448,-90.9090909090909,4,2,12,80,0,1
28685,-90.9090909090909,4,2,12,80,0,1
28764,-90.9090909090909,4,2,12,80,0,1
29001,-90.9090909090909,4,2,12,80,0,1
29080,-111.111111111111,4,2,12,80,0,0
29317,-111.111111111111,4,2,12,80,0,0
29396,-111.111111111111,4,2,12,80,0,0
29712,-111.111111111111,4,2,12,80,0,0
30343,-90.9090909090908,4,2,12,80,0,0
30580,-90.9090909090908,4,2,12,80,0,0
30659,-90.9090909090908,4,2,12,80,0,0
33185,-90.9090909090908,4,2,12,80,0,0
35632,-90.9090909090908,4,2,12,80,0,0
35711,-111.111111111111,4,2,12,80,0,0
38159,-111.111111111111,4,2,12,80,0,0
38238,-111.111111111111,4,2,12,80,0,0
40448,-111.111111111111,4,2,12,80,0,0
40685,-111.111111111111,4,2,12,80,0,0
40764,-111.111111111111,4,2,12,80,0,0
41159,-111.111111111111,4,2,12,80,0,0
41238,-111.111111111111,4,2,12,80,0,0
41633,-111.111111111111,4,2,12,80,0,0
41711,-200,4,2,12,80,0,0
41712,-200,4,2,12,70,0,0
42659,-200,4,2,12,60,0,0
42896,-200,4,2,12,60,0,0
42975,-99.9999999999999,4,2,12,60,0,0
43212,-99.9999999999999,4,2,12,60,0,0
43291,-99.9999999999999,4,2,12,60,0,0
45422,-99.9999999999999,4,2,12,60,0,0
45501,-99.9999999999999,4,2,12,60,0,0
45738,-99.9999999999999,4,2,12,60,0,0
45817,-99.9999999999999,4,2,12,60,0,0
47948,-99.9999999999999,4,2,12,60,0,0
48027,-99.9999999999999,4,2,12,60,0,0
48264,-99.9999999999999,4,2,12,5,0,0
48343,-99.9999999999999,4,2,12,60,0,0
48580,-99.9999999999999,4,2,12,60,0,0
48659,-99.9999999999999,4,2,12,60,0,0
49212,-99.9999999999999,4,2,12,60,0,0
49291,-99.9999999999999,4,2,12,60,0,0
50475,-99.9999999999999,4,2,12,60,0,0
50554,-99.9999999999999,4,2,12,60,0,0
51738,-99.9999999999999,4,2,12,60,0,0
51817,-99.9999999999999,4,2,12,70,0,0
52606,-99.9999999999999,4,2,12,70,0,0
53317,-99.9999999999999,4,2,12,70,0,0
53396,-99.9999999999999,4,2,12,70,0,0
55527,-99.9999999999999,4,2,12,70,0,0
55606,-99.9999999999999,4,2,12,70,0,0
55843,-99.9999999999999,4,2,12,70,0,0
55922,-99.9999999999999,4,2,12,70,0,0
58054,-99.9999999999999,4,2,12,70,0,0
58133,-99.9999999999999,4,2,12,70,0,0
58369,-99.9999999999999,4,2,12,70,0,0
58448,-99.9999999999999,4,2,12,70,0,0
60580,-99.9999999999999,4,2,12,70,0,0
60659,-99.9999999999999,4,2,12,70,0,0
60975,-99.9999999999999,4,2,12,70,0,0
61843,-99.9999999999999,4,2,12,70,0,0
61922,-99.9999999999999,4,2,12,70,0,0
63185,-111.111111111111,4,2,12,60,0,0
63501,-111.111111111111,4,2,12,60,0,0
65633,-111.111111111111,4,2,12,60,0,0
65712,-111.111111111111,4,2,12,60,0,0
66896,-111.111111111111,4,2,12,60,0,0
66975,-111.111111111111,4,2,12,60,0,0
68080,-99.9999999999999,4,2,12,70,0,0
68317,-99.9999999999999,4,2,12,70,0,0
68396,-99.9999999999999,4,2,12,70,0,0
72975,-99.9999999999999,4,2,12,100,0,0
73212,-99.9999999999999,4,2,12,100,0,0
73291,-90.9090909090909,4,2,12,80,0,1
73527,-90.9090909090909,4,2,12,80,0,1
73606,-90.9090909090909,4,2,12,80,0,1
73843,-90.9090909090909,4,2,12,80,0,1
73922,-90.9090909090909,4,2,12,80,0,1
74159,-90.9090909090909,4,2,12,80,0,1
74238,-90.9090909090909,4,2,12,80,0,1
76054,-90.9090909090909,4,2,12,80,0,1
76133,-90.9090909090909,4,2,12,80,0,1
76369,-90.9090909090909,4,2,12,80,0,1
76448,-90.9090909090909,4,2,12,80,0,1
76685,-90.9090909090909,4,2,12,80,0,1
76764,-90.9090909090909,4,2,12,80,0,1
78580,-90.9090909090909,4,2,12,80,0,1
78659,-90.9090909090909,4,2,12,80,0,1
79527,-90.9090909090909,4,2,12,80,0,1
79606,-90.9090909090909,4,2,12,80,0,1
79843,-90.9090909090909,4,2,12,80,0,1
79922,-90.9090909090909,4,2,12,80,0,1
80791,-90.9090909090909,4,2,12,80,0,1
80869,-90.9090909090909,4,2,12,80,0,1
82133,-111.111111111111,4,2,12,80,0,0
83317,-111.111111111111,4,2,12,80,0,0
83396,-90.9090909090909,4,2,12,80,0,1
83633,-90.9090909090909,4,2,12,80,0,1
83712,-90.9090909090909,4,2,12,80,0,1
83948,-90.9090909090909,4,2,12,80,0,1
84027,-90.9090909090909,4,2,12,80,0,1
84264,-90.9090909090909,4,2,12,5,0,1
84343,-90.9090909090909,4,2,12,80,0,1
88685,-90.9090909090909,4,2,12,80,0,1
88764,-90.9090909090909,4,2,12,80,0,1
89001,-90.9090909090909,4,2,12,80,0,1
89080,-90.9090909090909,4,2,12,80,0,1
89317,-90.9090909090909,4,2,12,80,0,1
89396,-90.9090909090909,4,2,12,80,0,1
89633,-90.9090909090909,4,2,12,80,0,1
89712,-111.111111111111,4,2,12,80,0,0
89948,-111.111111111111,4,2,12,80,0,0
90027,-111.111111111111,4,2,12,80,0,0
90343,-111.111111111111,4,2,12,80,0,0
90975,-99.9999999999999,4,2,12,80,0,0
91212,-99.9999999999999,4,2,12,80,0,0
91291,-99.9999999999999,4,2,12,80,0,0
96264,-99.9999999999999,4,2,12,80,0,0
96343,-99.9999999999999,4,2,12,80,0,0
98791,-99.9999999999999,4,2,12,80,0,0
98869,-99.9999999999999,4,2,12,80,0,0
101080,-111.111111111111,4,2,12,80,0,0
101317,-111.111111111111,4,2,12,80,0,0
101396,-111.111111111111,4,2,12,80,0,0
101791,-111.111111111111,4,2,12,80,0,0
101869,-111.111111111111,4,2,12,80,0,0
102264,-111.111111111111,4,2,12,80,0,0
102343,-111.111111111111,4,2,12,70,0,0
102896,-111.111111111111,4,2,12,70,0,0
102975,-111.111111111111,4,2,12,60,0,0
103606,-111.111111111111,4,2,12,70,0,0

[Colours]
Combo1 : 125,141,255
Combo2 : 253,151,49
Combo3 : 241,75,67

[HitObjects]
44,174,1922,6,2,P|88:162|146:168,1,90,2|2,0:2|0:2,0:2:0:0:
183,243,2238,2,2,P|227:255|285:249,1,90,2|2,0:2|0:2,0:2:0:0:
349,187,2554,1,6,3:2:0:0:
108,102,7606,6,0,L|95:222,1,90,6|2,3:2|0:2,0:0:0:0:
144,288,7922,1,10,0:2:0:0:
144,288,8080,1,10,0:2:0:0:
251,231,8238,2,0,P|224:196|176:171,2,90,2|2|8,3:2|3:2|0:0,0:0:0:0:
288,324,8712,2,0,L|383:306,1,90,2|0,0:2|3:2,0:0:0:0:
449,231,9027,2,0,L|360:214,1,90,2|8,3:2|0:0,0:0:0:0:
320,130,9343,2,0,P|295:136|258:140,2,45,2|0|0,3:2|3:2|3:2,0:0:0:0:
334,29,9659,2,0,P|287:19|215:21,1,90,2|10,3:2|0:2,0:0:0:0:
157,68,9975,1,0,0:0:0:0:
207,164,10133,6,0,L|215:266,1,90,6|0,3:2|3:2,0:0:0:0:
276,340,10448,1,10,0:2:0:0:
276,340,10606,1,10,0:0:0:0:
348,267,10764,2,0,P|392:277|439:278,2,90,2|2|8,3:2|3:2|0:0,0:0:0:0:
287,180,11238,1,2,3:2:0:0:
370,111,11396,6,2,B|415:111|415:111|463:124,1,94.499997116089,6|0,3:2|0:2,0:2:0:0:
271,190,11712,2,2,B|225:189|225:189|177:176,1,94.499997116089,14|0,0:2|0:2,0:2:0:0:
178,176,11948,1,8,0:0:0:0:
178,176,12027,1,10,0:2:0:0:
85,68,12185,1,10,0:2:0:0:
256,48,12343,1,10,0:2:0:0:
105,218,12501,1,10,0:2:0:0:
251,132,12659,6,0,P|271:176|310:204,1,99.0000030212403,6|0,3:2|0:0,0:0:0:0:
105,218,12975,2,0,P|139:185|153:137,1,99.0000030212403,10|0,0:0|0:0,0:0:0:0:
261,294,13291,2,0,P|215:281|166:289,1,99.0000030212403,2|0,3:2|0:0,0:0:0:0:
272,383,13606,2,0,P|345:334|318:224,1,198.000006042481,10|2,0:0|3:2,0:0:0:0:
212,202,14080,1,0,0:0:0:0:
331,143,14238,1,10,0:2:0:0:
261,294,14396,6,0,L|51:267,1,198.000006042481,2|2,0:2|0:2,0:0:0:0:
26,164,14869,1,10,0:2:0:0:
26,164,15027,1,2,0:2:0:0:
123,96,15185,6,0,L|125:198,1,99.0000030212403,2|0,3:2|0:0,0:0:0:0:
261,294,15501,2,0,L|267:195,1,99.0000030212403,10|0,0:2|0:0,0:0:0:0:
114,93,15817,2,0,L|113:197,1,99.0000030212403,2|0,3:2|0:0,0:0:0:0:
82,350,16133,6,0,P|171:293|282:301,1,198.000006042481,10|2,0:2|3:2,0:0:0:0:
414,334,16606,1,0,0:0:0:0:
342,190,16764,1,8,0:0:0:0:
323,359,16922,1,2,0:2:0:0:
323,359,17001,1,2,0:2:0:0:
323,359,17080,1,2,3:2:0:0:
446,163,17238,2,0,P|451:212|461:260,1,99.0000030212403,2|10,0:0|0:2,0:0:0:0:
278,118,17554,5,2,0:2:0:0:
278,118,17712,2,0,P|353:180|471:139,1,198.000006042481,2|10,3:2|0:2,0:0:0:0:
379,77,18185,1,0,0:0:0:0:
271,229,18343,2,0,P|224:209|164:208,1,99.0000030212403,2|2,3:2|0:2,0:0:0:0:
323,322,18659,2,0,P|370:302|430:301,1,99.0000030212403,10|2,0:2|0:2,0:0:0:0:
219,381,18975,6,2,L|209:283,1,99.0000030212403,2|0,3:2|0:0,0:0:0:0:
349,132,19291,2,0,L|344:232,1,99.0000030212403,10|0,0:0|0:0,0:0:0:0:
204,359,19606,2,0,L|202:257,1,99.0000030212403,2|2,3:2|0:2,0:0:0:0:
210,244,19843,1,2,0:2:0:0:
210,244,19922,2,2,P|216:193|221:120,1,99.0000030212403,10|0,0:2|0:0,0:0:0:0:
62,94,20238,6,0,B|154:119|163:35|273:69,1,198.000006042481,2|10,3:2|0:0,0:0:0:0:
372,98,20712,1,2,0:0:0:0:
219,145,20869,1,2,3:2:0:0:
383,219,21027,1,2,0:0:0:0:
224,274,21185,1,10,0:2:0:0:
386,358,21343,1,2,0:0:0:0:
459,248,21501,6,0,P|413:248|369:264,1,90,2|14,3:2|0:2,0:0:0:0:
154,205,21817,2,0,P|195:224|242:228,1,90,14|2,0:2|3:2,0:0:0:0:
477,154,22133,1,8,0:0:0:0:
450,156,22211,1,8,0:3:0:0:
423,159,22290,1,4,0:3:0:0:
396,162,22369,1,8,3:3:0:0:
372,167,22448,2,0,P|395:128|393:38,1,135,12|8,0:0|0:0,0:0:0:0:
393,40,22764,6,0,L|274:38,1,99.0000030212403,6|0,3:2|0:0,0:0:0:0:
146,134,23080,2,0,L|248:125,1,99.0000030212403,10|0,0:0|0:0,0:0:0:0:
393,40,23396,2,0,L|273:34,1,99.0000030212403,2|0,3:2|0:0,0:0:0:0:
352,226,23712,2,0,B|318:143|411:117|390:25,1,198.000006042481,10|2,0:2|3:2,0:0:0:0:
276,60,24185,1,0,0:0:0:0:
276,60,24343,1,10,0:2:0:0:
418,190,24501,6,0,P|462:172|519:174,1,99.0000030212403,2|0,0:2|3:2,0:0:0:0:
449,306,24817,1,2,0:2:0:0:
352,226,24975,1,10,0:2:0:0:
352,226,25133,1,2,0:2:0:0:
285,382,25291,6,0,L|287:275,1,99.0000030212403,2|2,3:2|0:0,0:0:0:0:
416,91,25606,2,0,L|418:198,1,99.0000030212403,10|2,0:0|0:0,0:0:0:0:
277,371,25922,2,0,L|281:262,1,99.0000030212403,2|2,3:2|0:0,0:0:0:0:
128,186,26238,2,0,P|190:267|295:265,1,198.000006042481,10|0,0:0|3:2,0:0:0:0:
430,185,26712,2,0,P|335:193|279:271,1,198.000006042481,2|2,0:2|0:2,0:2:0:0:
380,275,27185,1,2,3:2:0:0:
228,189,27343,1,2,0:2:0:0:
402,286,27501,1,10,0:2:0:0:
434,86,27659,5,2,0:2:0:0:
434,86,27817,2,0,P|435:134|430:184,1,99.0000030212403,2|0,3:2|0:0,0:0:0:0:
312,334,28133,2,0,P|307:286|308:236,1,99.0000030212403,10|0,0:2|0:0,0:0:0:0:
421,82,28448,2,0,P|420:132|412:180,1,99.0000030212403,2|0,3:2|0:0,0:0:0:0:
289,343,28764,2,0,P|282:293|283:244,1,99.0000030212403,10|0,0:2|0:0,0:0:0:0:
307,108,29080,5,8,0:2:0:0:
307,108,29396,1,8,0:0:0:0:
54,154,30343,6,2,B|139:121|171:190|253:154,1,198.000006042481,14|8,0:2|0:0,0:2:0:0:
109,319,30817,2,2,L|102:220,1,99.0000030212403,2|8,0:2|0:2,0:2:0:0:
203,84,31133,1,2,3:2:0:0:
259,228,31291,1,10,0:2:0:0:
123,72,31448,2,2,P|146:27|194:3,1,99.0000030212403,2|8,3:2|0:2,0:2:0:0:
329,46,31764,1,2,3:2:0:0:
203,84,31922,1,10,0:0:0:0:
356,39,32080,1,2,3:2:0:0:
374,216,32238,2,0,P|371:162|379:117,1,99.0000030212403,8|0,0:0|3:2,0:0:0:0:
259,228,32554,2,0,P|270:280|270:326,1,99.0000030212403,10|0,0:2|3:2,0:0:0:0:
85,188,32869,6,0,P|167:245|260:226,1,198.000006042481,10|10,0:2|0:2,0:2:0:0:
341,305,33343,2,2,P|367:265|373:212,1,99.0000030212403,2|8,0:2|0:2,0:2:0:0:
304,79,33659,1,2,3:2:0:0:
258,227,33817,1,10,0:2:0:0:
426,140,33975,2,2,L|311:144,1,99.0000030212403,2|8,3:2|0:2,0:2:0:0:
159,214,34291,2,0,L|258:226,1,99.0000030212403,0|10,3:2|0:2,0:0:0:0:
374,276,34606,1,2,3:2:0:0:
291,350,34764,2,0,P|248:335|188:329,1,99.0000030212403,10|2,0:2|3:2,0:0:0:0:
179,338,35001,1,0,3:2:0:0:
179,338,35080,2,0,P|136:353|76:359,1,99.0000030212403,10|2,0:2|3:2,0:0:0:0:
19,271,35396,6,2,L|8:65,1,198.000006042481,14|8,0:2|0:0,0:2:0:0:
136,18,35869,2,2,L|127:115,1,80.9999975280763,2|8,0:2|0:2,0:2:0:0:
181,216,36185,1,2,3:2:0:0:
181,216,36343,1,10,0:2:0:0:
269,119,36501,2,2,P|308:110|370:106,1,80.9999975280763,2|8,3:2|0:2,0:2:0:0:
404,208,36817,2,0,P|443:216|483:220,2,80.9999975280763,2|10|2,3:2|0:2|3:2,0:0:0:0:
350,105,37291,2,0,L|346:10,1,80.9999975280763,8|0,0:0|3:2,0:0:0:0:
201,158,37606,2,0,L|205:63,1,80.9999975280763,10|0,0:2|3:2,0:0:0:0:
277,214,37922,6,2,P|249:240|188:252,1,80.9999975280763,10|0,0:2|0:0,0:2:0:0:
74,209,38238,1,8,0:2:0:0:
141,361,38396,2,2,L|136:280,1,80.9999975280763,2|8,0:2|0:2,0:2:0:0:
135,131,38712,1,2,3:2:0:0:
208,252,38869,1,8,0:2:0:0:
271,125,39027,2,2,L|369:100,2,80.9999975280763,2|8|0,3:2|0:2|3:2,0:2:0:0:
194,235,39501,2,0,L|113:221,1,80.9999975280763,10|2,0:2|3:2,0:0:0:0:
61,123,39817,1,8,0:0:0:0:
144,42,39975,1,2,3:2:0:0:
144,42,40054,1,2,0:0:0:0:
144,42,40133,2,0,B|185:33|185:33|236:33,1,80.9999975280763,10|2,0:2|3:2,0:0:0:0:
349,104,40448,6,2,P|312:176|328:276,1,161.999995056153,14|0,0:2|3:2,0:2:0:0:
496,304,40922,2,2,P|458:232|367:188,1,161.999995056153,14|0,0:2|3:2,0:2:0:0:
250,293,41396,2,2,P|283:285|323:246,1,80.9999975280763,14|0,0:2|0:2,0:2:0:0:
282,157,41712,2,2,B|205:105|172:189|92:141,1,180,6|2,3:2|0:2,0:2:0:0:
108,149,42975,6,2,L|119:250,1,90,6|0,3:2|0:2,0:2:0:0:
216,301,43291,2,0,L|229:212,1,90,10|0,0:2|0:0,0:0:0:0:
274,130,43606,2,0,P|321:121|379:124,1,90,2|0,0:2|3:2,0:0:0:0:
432,195,43922,1,10,0:2:0:0:
448,299,44080,2,0,P|355:272|330:179,1,180,2|2,0:2|3:2,0:0:0:0:
363,102,44554,1,8,0:0:0:0:
363,102,44712,1,2,3:2:0:0:
273,128,44869,2,0,P|228:127|162:108,1,90,2|2,0:2|3:2,0:0:0:0:
97,146,45185,2,0,L|116:331,1,180,10|2,0:0|3:2,0:0:0:0:
115,325,45817,6,0,P|149:296|192:283,1,90,10|0,0:2|0:0,0:0:0:0:
236,203,46133,2,0,P|275:224|319:230,1,90,2|2,0:2|3:2,0:0:0:0:
404,308,46448,1,10,0:2:0:0:
404,308,46606,1,2,0:2:0:0:
489,234,46764,1,2,3:2:0:0:
415,192,46922,2,0,L|405:84,1,90,2|10,3:2|0:2,0:0:0:0:
346,35,47238,1,2,3:2:0:0:
305,113,47396,1,2,0:2:0:0:
305,113,47554,1,2,3:2:0:0:
242,35,47712,2,0,P|166:62|55:79,1,180,10|2,0:2|3:2,0:0:0:0:
68,78,48343,6,0,L|72:171,1,90,10|0,0:2|0:0,0:0:0:0:
160,183,48659,2,0,L|164:90,1,90,2|0,0:2|3:2,0:0:0:0:
225,33,48975,2,0,P|270:25|318:29,1,90,10|0,0:2|0:0,0:0:0:0:
378,89,49291,1,2,3:2:0:0:
378,89,49448,1,0,3:2:0:0:
303,132,49606,2,0,L|322:230,1,90,10|0,0:2|3:2,0:0:0:0:
403,241,49922,2,0,L|384:339,1,90,2|0,0:2|3:2,0:0:0:0:
310,371,50238,2,0,P|265:372|190:357,1,90,10|0,0:2|0:0,0:0:0:0:
57,270,50554,6,2,B|128:306|160:233|231:258,1,180,2|8,3:2|0:2,0:2:0:0:
314,119,51027,2,0,P|238:179|240:284,1,180,2|0,0:2|3:2,0:0:0:0:
343,350,51501,2,0,P|333:305|295:260,1,90,10|0,0:2|0:0,0:0:0:0:
230,196,51817,1,2,3:2:0:0:
361,182,51975,1,0,3:2:0:0:
206,198,52133,1,8,0:0:0:0:
124,66,52291,6,2,P|200:114|205:200,1,180,14|0,0:2|3:2,0:2:0:0:
137,285,52764,2,0,P|183:271|229:278,1,90,8|8,0:0|0:0,0:0:0:0:
245,287,53001,1,8,0:0:0:0:
245,287,53080,6,2,P|290:301|347:297,1,90,4|0,3:2|0:2,0:2:0:0:
414,261,53396,2,0,L|429:157,1,90,10|0,0:2|0:0,0:0:0:0:
376,93,53712,2,0,B|299:69|299:69|197:70,1,180,2|10,0:2|0:2,0:0:0:0:
125,117,54185,2,0,P|141:161|150:221,1,90,2|0,0:2|3:2,0:0:0:0:
233,232,54501,2,0,P|217:276|208:336,2,90,2|8|2,3:2|0:0|3:2,0:0:0:0:
321,172,54975,1,2,0:2:0:0:
321,172,55133,1,2,3:2:0:0:
458,270,55291,2,0,B|391:320|359:247|287:294,1,180,10|2,0:2|3:2,0:0:0:0:
46,167,55922,6,0,P|95:165|147:185,1,90,10|0,0:2|0:2,0:0:0:0:
213,227,56238,2,0,P|257:225|299:209,1,90,2|0,0:2|3:2,0:0:0:0:
277,122,56554,1,10,0:2:0:0:
389,142,56712,2,0,L|373:335,1,180,2|2,0:2|3:2,0:0:0:0:
284,361,57185,1,10,0:2:0:0:
284,361,57343,1,2,3:2:0:0:
242,276,57501,1,2,0:2:0:0:
242,276,57659,1,2,3:2:0:0:
180,349,57817,2,0,P|115:356|32:320,1,135,10|0,0:2|0:0,0:0:0:0:
50,333,58133,6,2,L|38:233,1,90,6|0,3:2|0:2,0:2:0:0:
88,164,58448,2,0,P|134:151|186:155,1,90,10|2,0:2|0:2,0:0:0:0:
226,231,58764,2,0,P|272:244|324:240,1,90,2|0,0:2|3:2,0:0:0:0:
374,162,59080,1,10,0:2:0:0:
374,162,59238,1,2,0:2:0:0:
280,136,59396,2,0,L|301:45,1,90,2|0,3:2|3:2,0:0:0:0:
387,24,59712,1,10,0:2:0:0:
463,79,59869,1,2,3:2:0:0:
473,171,60027,2,0,P|473:220|465:273,1,90,2|0,0:2|3:2,0:0:0:0:
411,327,60343,2,0,P|362:327|309:319,1,90,10|0,0:2|0:0,0:0:0:0:
272,246,60659,6,2,B|190:217|174:286|95:255,1,180,6|8,3:2|0:2,0:2:0:0:
21,222,61133,2,0,L|9:318,2,90,2|0|0,0:2|3:2|3:2,0:0:0:0:
133,187,61606,2,0,L|121:91,1,90,10|0,0:0|0:0,0:0:0:0:
197,24,61922,1,2,3:2:0:0:
197,24,62080,1,2,3:2:0:0:
257,108,62238,1,10,0:2:0:0:
257,108,62396,1,2,3:2:0:0:
133,187,62554,6,0,P|178:187|229:219,1,90,10|2,0:2|3:2,0:0:0:0:
241,313,62869,2,0,P|301:280|381:281,1,135,8|0,0:3|0:0,0:0:0:0:
366,277,63185,6,0,P|399:190|396:89,1,161.999995056153,6|8,3:2|0:0,0:0:0:0:
346,55,63659,2,0,L|249:44,1,80.9999975280763,2|0,0:2|3:2,0:0:0:0:
176,85,63975,1,2,0:2:0:0:
245,136,64133,1,10,0:2:0:0:
173,183,64291,1,2,0:2:0:0:
242,240,64448,2,0,L|345:222,2,80.9999975280763,2|2|10,3:2|0:2|0:2,0:0:0:0:
196,316,64922,2,0,L|106:298,1,80.9999975280763,2|0,0:2|3:2,0:0:0:0:
56,232,65238,1,2,3:2:0:0:
148,183,65396,6,0,P|154:143|156:97,1,80.9999975280763,10|0,0:2|0:0,0:0:0:0:
240,104,65712,2,0,P|239:146|245:188,1,80.9999975280763,2|0,3:2|0:0,0:0:0:0:
303,249,66027,2,0,B|344:236|344:236|392:226,1,80.9999975280763,10|2,0:2|0:2,0:0:0:0:
442,298,66343,1,0,3:2:0:0:
442,298,66501,1,2,3:2:0:0:
373,359,66659,2,0,P|331:356|273:346,1,80.9999975280763,10|0,0:2|0:0,0:0:0:0:
231,287,66975,2,0,P|193:295|146:313,2,80.9999975280763,2|2|10,3:2|3:2|0:2,0:0:0:0:
258,201,67448,1,2,3:2:0:0:
340,239,67606,2,0,L|352:144,1,80.9999975280763,8|8,0:0|0:3,0:0:0:0:
296,75,67922,1,4,0:3:0:0:
296,75,68080,6,2,P|209:56|104:44,1,180,14|2,0:2|3:2,0:2:0:0:
41,137,68554,2,0,L|46:235,1,90,10|0,0:2|3:2,0:0:0:0:
186,198,68869,2,0,L|181:296,1,90,10|0,0:2|3:2,0:0:0:0:
60,152,69185,2,0,L|65:250,1,90,10|0,0:2|3:2,0:0:0:0:
205,218,69501,2,2,L|200:311,1,90,10|0,0:2|3:2,0:2:0:0:
303,346,69817,1,10,0:2:0:0:
335,237,69975,1,0,3:2:0:0:
293,369,70133,1,10,0:2:0:0:
404,281,70291,2,2,P|414:234|396:180,1,90,2|8,3:2|0:0,0:2:0:0:
225,135,70606,6,2,P|255:221|355:226,1,180,2|2,3:2|3:2,0:2:0:0:
89,216,71080,2,2,P|133:220|173:241,1,90,10|2,0:0|3:0,0:0:0:0:
313,148,71395,1,10,0:2:0:0:
163,89,71554,1,2,3:2:0:0:
112,294,71712,1,0,3:2:0:0:
97,127,71869,6,0,P|91:174|89:221,1,90,10|0,0:2|3:2,0:0:0:0:
198,311,72185,1,10,0:2:0:0:
168,184,72343,1,2,3:2:0:0:
298,267,72501,1,10,0:0:0:0:
266,127,72659,1,10,0:2:0:0:
266,127,72738,1,8,0:3:0:0:
266,127,72817,1,4,0:3:0:0:
89,216,72975,1,12,0:2:0:0:
92,232,73291,6,0,L|104:132,1,99.0000030212403,6|0,3:2|0:0,0:2:0:0:
222,12,73606,2,0,L|234:112,1,99.0000030212403,10|0,0:2|0:0,0:2:0:0:
99,192,73922,2,0,L|111:92,1,99.0000030212403,2|0,3:2|0:0,0:2:0:0:
174,242,74238,2,0,P|96:278|11:203,1,198.000006042481,10|2,0:2|3:2,0:2:0:0:
110,93,74712,1,0,0:2:0:0:
5,137,74869,1,8,0:2:0:0:
177,167,75027,6,0,L|376:126,1,198.000006042481,2|2,0:2|0:2,0:0:0:0:
456,189,75501,1,10,0:2:0:0:
456,189,75659,1,2,0:2:0:0:
389,291,75817,6,0,L|253:268,1,99.0000030212403,2|0,3:2|0:0,0:0:0:0:
139,345,76133,2,0,L|240:335,1,99.0000030212403,10|0,3:2|0:0,0:0:0:0:
377,277,76448,2,0,L|241:254,1,99.0000030212403,2|0,3:2|0:0,0:0:0:0:
201,110,76764,6,0,P|278:163|270:274,1,198.000006042481,10|2,0:2|3:2,0:0:0:0:
174,333,77238,1,0,0:0:0:0:
197,208,77396,1,8,0:0:0:0:
74,252,77554,1,2,0:2:0:0:
74,252,77633,1,2,0:2:0:0:
74,252,77712,1,2,3:2:0:0:
104,118,77869,1,2,0:0:0:0:
69,276,78027,1,10,0:2:0:0:
17,101,78185,5,2,0:2:0:0:
17,101,78343,2,0,L|217:81,1,198.000006042481,2|10,3:2|0:2,0:0:0:0:
350,79,78817,1,0,0:0:0:0:
296,243,78975,2,0,P|285:191|285:137,1,99.0000030212403,2|2,3:2|0:2,0:0:0:0:
392,320,79291,2,0,P|408:273|416:224,1,99.0000030212403,10|2,0:2|0:2,0:0:0:0:
197,241,79606,6,2,L|316:243,1,99.0000030212403,2|0,3:2|0:0,0:0:0:0:
455,142,79922,2,0,L|336:144,1,99.0000030212403,10|0,0:2|0:0,0:0:0:0:
213,254,80238,2,0,L|332:256,1,99.0000030212403,2|2,3:2|0:0,0:0:0:0:
334,267,80475,1,2,0:0:0:0:
334,267,80554,2,2,P|386:273|443:273,1,99.0000030212403,10|0,0:2|0:0,0:0:0:0:
511,129,80869,6,0,B|424:90|396:154|317:118,1,198.000006042481,2|10,3:2|0:2,0:0:0:0:
216,42,81343,1,2,0:2:0:0:
145,203,81501,1,2,3:2:0:0:
305,142,81659,1,0,0:0:0:0:
133,225,81817,1,10,0:2:0:0:
317,118,81975,1,2,0:0:0:0:
113,127,82133,6,0,P|153:125|191:138,1,80.9999975280763,2|2,3:2|3:2,0:0:0:0:
320,219,82448,2,0,P|279:217|241:230,1,80.9999975280763,10|2,0:2|3:2,0:0:0:0:
80,318,82764,1,10,0:2:0:0:
104,317,82842,1,8,3:3:0:0:
128,321,82922,1,4,3:3:0:0:
150,331,83000,1,0,3:2:0:0:
174,349,83080,2,0,P|238:365|321:344,1,121.499996292114,12|0,0:0|3:0,0:0:0:0:
292,357,83396,6,0,L|306:248,1,99.0000030212403,6|0,3:2|0:0,0:0:0:0:
194,136,83712,2,0,L|208:245,1,99.0000030212403,10|0,0:2|0:0,0:0:0:0:
307,347,84027,2,0,L|321:238,1,99.0000030212403,2|0,3:2|0:0,0:0:0:0:
488,288,84343,2,0,P|431:234|300:267,1,198.000006042481,10|2,0:2|3:2,0:0:0:0:
391,319,84817,1,0,0:0:0:0:
391,319,84975,1,8,0:0:0:0:
261,177,85133,6,0,P|279:133|277:76,1,99.0000030212403,2|0,0:2|3:2,0:0:0:0:
142,32,85448,1,2,0:2:0:0:
185,147,85606,1,10,0:2:0:0:
185,147,85764,1,2,0:2:0:0:
377,73,85922,6,0,L|263:83,1,99.0000030212403,2|2,3:2|0:2,0:0:0:0:
86,138,86238,2,0,L|200:148,1,99.0000030212403,10|2,0:2|0:2,0:0:0:0:
358,59,86554,2,0,L|244:69,1,99.0000030212403,2|2,3:2|0:2,0:0:0:0:
184,146,86869,2,0,L|205:346,1,198.000006042481,10|2,0:2|3:2,0:0:0:0:
328,351,87343,2,0,L|349:151,1,198.000006042481,2|2,0:2|0:2,0:2:0:0:
439,38,87817,1,2,3:2:0:0:
499,177,87975,1,2,0:2:0:0:
427,17,88133,1,10,0:2:0:0:
348,154,88291,5,2,0:2:0:0:
348,154,88448,2,0,P|300:136|241:134,1,99.0000030212403,6|0,3:2|0:0,0:2:0:0:
152,124,88764,2,0,P|112:91|81:41,1,99.0000030212403,10|0,0:2|0:0,0:2:0:0:
198,207,89080,2,0,P|188:257|160:309,1,99.0000030212403,2|0,3:2|0:0,0:2:0:0:
252,132,89396,2,0,P|299:112|358:108,1,99.0000030212403,10|0,0:2|0:0,0:2:0:0:
449,175,89712,5,10,0:2:0:0:
449,175,90027,1,10,0:2:0:0:
55,186,90975,6,2,B|129:229|162:158|253:197,1,180,6|8,3:2|0:0,0:2:0:0:
103,33,91448,2,2,L|105:130,1,90,2|8,0:2|0:2,0:2:0:0:
195,263,91764,1,2,3:2:0:0:
272,117,91922,1,10,0:2:0:0:
381,270,92080,2,2,P|363:230|371:167,1,90,2|8,3:2|0:2,0:2:0:0:
434,56,92396,1,2,3:2:0:0:
502,188,92554,1,10,0:2:0:0:
423,36,92712,1,2,3:2:0:0:
364,184,92869,2,0,L|248:168,1,90,10|2,0:2|3:2,0:0:0:0:
344,68,93185,2,0,L|460:52,1,90,10|0,0:2|3:2,0:0:0:0:
493,158,93501,6,2,P|453:237|466:342,1,180,10|8,0:2|0:0,0:2:0:0:
326,361,93975,2,2,P|328:312|312:257,1,90,2|8,0:2|0:2,0:2:0:0:
236,148,94291,1,2,3:2:0:0:
359,192,94448,1,8,0:2:0:0:
245,272,94606,2,2,L|66:241,1,180,2|2,3:2|3:2,0:2:0:0:
20,126,95080,1,10,0:2:0:0:
20,126,95238,1,2,3:2:0:0:
138,57,95396,2,0,L|242:58,1,90,10|2,0:2|3:2,0:0:0:0:
248,70,95633,1,0,3:2:0:0:
248,70,95712,2,0,P|296:76|355:78,1,90,10|2,0:2|3:2,0:0:0:0:
470,160,96027,6,2,B|402:212|369:155|300:205,1,180,14|8,0:2|0:0,0:2:0:0:
412,20,96501,2,2,L|405:124,1,90,2|8,0:2|0:0,0:2:0:0:
358,257,96817,1,2,3:2:0:0:
266,141,96975,1,10,0:2:0:0:
211,283,97133,2,2,L|200:182,2,90,2|8|2,3:2|0:0|3:2,0:2:0:0:
348,346,97606,2,0,L|358:254,1,90,10|2,0:2|3:2,0:0:0:0:
229,248,97922,2,0,L|218:155,1,90,8|0,0:0|3:2,0:0:0:0:
364,335,98238,2,0,L|375:242,1,90,10|0,0:2|3:2,0:0:0:0:
510,158,98554,6,2,P|458:232|363:242,1,180,14|8,0:2|0:0,0:2:0:0:
276,113,99027,2,2,P|312:130|338:180,1,90,2|8,0:2|0:2,0:2:0:0:
307,303,99343,1,2,3:2:0:0:
260,192,99501,1,8,0:2:0:0:
181,278,99659,2,2,L|-4:245,1,180,2|0,3:2|3:2,0:2:0:0:
17,134,100133,1,10,0:2:0:0:
17,134,100291,1,2,3:2:0:0:
130,241,100448,1,8,0:0:0:0:
132,214,100526,1,8,0:0:0:0:
134,187,100605,1,10,0:2:0:0:
136,160,100684,1,8,0:0:0:0:
137,132,100764,2,0,P|182:116|241:116,1,90,10|4,0:2|0:3,0:0:0:0:
423,177,101080,6,2,P|344:165|279:215,1,161.999995056153,6|8,3:2|0:0,0:2:0:0:
327,371,101554,2,2,P|381:312|361:236,1,161.999995056153,6|8,3:2|0:0,0:2:0:0:
224,113,102027,2,2,L|211:194,1,80.9999975280763,6|0,3:2|0:2,0:2:0:0:
321,89,102343,2,2,P|276:37|130:90,1,242.999992584229,14|0,0:2|0:2,0:2:0:0:
52,214,102975,6,0,L|143:225,1,80.9999975280763,2|2,0:2|0:2,0:0:0:0:
190,303,103291,2,0,L|278:293,1,80.9999975280763,2|2,0:2|0:2,0:0:0:0:
329,217,103606,1,10,0:2:0:0:
