osu file format v14

[General]
AudioFilename: audio.mp3
AudioLeadIn: 0
PreviewTime: 72998
Countdown: 0
SampleSet: Soft
StackLeniency: 0.7
Mode: 0
LetterboxInBreaks: 0
WidescreenStoryboard: 0

[Editor]
Bookmarks: 93524
DistanceSpacing: 0.9
BeatDivisor: 8
GridSize: 32
TimelineZoom: 3.3

[Metadata]
Title:Cherry Bomb
TitleUnicode:チェリボム
Artist:Poppin'Party
ArtistUnicode:Poppin'Party
Creator:STaLeRGooD
Version:Sakura Blossom
Source:バンドリ! ガールズバンドパーティ!
Tags:Vaeviv -Hakurei- lit120 Xehn Xen Xenon- [_l_u_k_a_s_] lukas Captain Yasaija 714 SquareTude Bang Dream! Girls Band Party bandori garupa ガルパ popipa ポピパ ポッピンパーティ cover Silent Siren game size toyama kasumi 戸山香澄 terakawa aimi 寺川愛美 hanazono tae 花園たえ otsuka sae 大塚紗英 ushigome rimi 牛込りみ nishimoto 西本りみ yamabuki saya saaya 山吹沙綾 ohashi ayaka 大橋彩香 ichigaya arisa 市ヶ谷有咲 itou ayasa 伊藤彩沙 anime video japanese
BeatmapID:2033294
BeatmapSetID:971051

[Difficulty]
HPDrainRate:6
CircleSize:3.8
OverallDifficulty:9.6
ApproachRate:9.4
SliderMultiplier:1.8
SliderTickRate:1

[Events]
//Background and Video events
0,0,"bg.jpg",0,0
//Break Periods
2,2754,7066
//Storyboard Layer 0 (Background)
//Storyboard Layer 1 (Fail)
//Storyboard Layer 2 (Pass)
//Storyboard Layer 3 (Foreground)
//Storyboard Layer 4 (Overlay)
//Storyboard Sound Samples

[TimingPoints]
1291,315.789473684211,4,2,12,40,1,0
1922,-111.111111111111,4,2,12,40,0,0
2554,-111.111111111111,4,2,12,50,0,0
2791,-111.111111111111,4,2,12,5,0,0
2869,-111.111111111111,4,2,12,50,0,0
2948,-111.111111111111,4,2,12,5,0,0
3027,-111.111111111111,4,2,12,50,0,0
3106,-111.111111111111,4,2,12,5,0,0
3185,-111.111111111111,4,2,12,50,0,0
4685,-111.111111111111,4,2,12,5,0,0
4764,-111.111111111111,4,2,12,50,0,0
4843,-111.111111111111,4,2,12,5,0,0
4922,-111.111111111111,4,2,12,50,0,0
5001,-111.111111111111,4,2,12,5,0,0
5080,-111.111111111111,4,2,12,50,0,0
5475,-111.111111111111,4,2,12,5,0,0
5554,-111.111111111111,4,2,12,50,0,0
5633,-111.111111111111,4,2,12,5,0,0
5712,-111.111111111111,4,2,12,50,0,0
7606,-100,4,2,12,60,0,0
8001,-100,4,2,12,5,0,0
8080,-100,4,2,12,60,0,0
8159,-100,4,2,12,5,0,0
8238,-100,4,2,12,60,0,0
10527,-100,4,2,12,5,0,0
10606,-100,4,2,12,60,0,0
10685,-100,4,2,12,5,0,0
10764,-100,4,2,12,60,0,0
11396,-100,4,2,12,70,0,0
11633,-100,4,2,12,5,0,0
11712,-100,4,2,12,70,0,0
12106,-100,4,2,12,5,0,0
12185,-100,4,2,12,70,0,0
12264,-100,4,2,12,5,0,0
12343,-100,4,2,12,70,0,0
12422,-100,4,2,12,5,0,0
12501,-100,4,2,12,70,0,0
12580,-100,4,2,12,5,0,0
12659,-90.9090909090909,4,2,12,80,0,1
12896,-90.9090909090909,4,2,12,5,0,1
12975,-90.9090909090909,4,2,12,80,0,1
13212,-90.9090909090909,4,2,12,5,0,1
13291,-90.9090909090909,4,2,12,80,0,1
13527,-90.9090909090909,4,2,12,5,0,1
13606,-90.9090909090909,4,2,12,80,0,1
15422,-90.9090909090909,4,2,12,5,0,1
15501,-90.9090909090909,4,2,12,80,0,1
15738,-90.9090909090909,4,2,12,5,0,1
15817,-90.9090909090909,4,2,12,80,0,1
16054,-90.9090909090909,4,2,12,5,0,1
16133,-90.9090909090909,4,2,12,80,0,1
17948,-90.9090909090909,4,2,12,5,0,1
18027,-90.9090909090909,4,2,12,80,0,1
18896,-90.9090909090909,4,2,12,5,0,1
18975,-90.9090909090909,4,2,12,80,0,1
19212,-90.9090909090909,4,2,12,5,0,1
19291,-90.9090909090909,4,2,12,80,0,1
20159,-90.9090909090909,4,2,12,5,0,1
20238,-90.9090909090909,4,2,12,80,0,1
21501,-111.111111111111,4,2,12,80,0,0
22527,-111.111111111111,4,2,12,5,0,0
22606,-111.111111111111,4,2,12,80,0,0
22764,-90.9090909090909,4,2,12,80,0,1
23001,-90.9090909090909,4,2,12,5,0,1
23080,-90.9090909090909,4,2,12,80,0,1
23317,-90.9090909090909,4,2,12,5,0,1
23396,-90.9090909090909,4,2,12,80,0,1
23633,-90.9090909090909,4,2,12,5,0,1
23712,-90.9090909090909,4,2,12,80,0,1
28054,-90.9090909090909,4,2,12,5,0,1
28133,-90.9090909090909,4,2,12,80,0,1
28369,-90.9090909090909,4,2,12,5,0,1
28448,-90.9090909090909,4,2,12,80,0,1
28685,-90.9090909090909,4,2,12,5,0,1
28764,-90.9090909090909,4,2,12,80,0,1
29001,-90.9090909090909,4,2,12,5,0,1
29080,-111.111111111111,4,2,12,80,0,0
29317,-111.111111111111,4,2,12,5,0,0
29396,-111.111111111111,4,2,12,80,0,0
30343,-111.111111111111,4,2,12,80,0,0
30580,-111.111111111111,4,2,12,5,0,0
30659,-111.111111111111,4,2,12,80,0,0
33106,-111.111111111111,4,2,12,5,0,0
33185,-111.111111111111,4,2,12,80,0,0
35632,-111.111111111111,4,2,12,5,0,0
35711,-111.111111111111,4,2,12,80,0,0
38159,-111.111111111111,4,2,12,5,0,0
38238,-111.111111111111,4,2,12,80,0,0
40369,-111.111111111111,4,2,12,80,0,0
40448,-111.111111111111,4,2,12,80,0,0
40685,-111.111111111111,4,2,12,5,0,0
40764,-111.111111111111,4,2,12,80,0,0
41159,-111.111111111111,4,2,12,5,0,0
41238,-111.111111111111,4,2,12,80,0,0
41633,-111.111111111111,4,2,12,5,0,0
41711,-200,4,2,12,5,0,0
41712,-200,4,2,12,70,0,0
42343,-100,4,2,12,70,0,0
42659,-100,4,2,12,60,0,0
42896,-100,4,2,12,5,0,0
42975,-111.111111111111,4,2,12,60,0,0
43212,-111.111111111111,4,2,12,5,0,0
43291,-111.111111111111,4,2,12,60,0,0
45422,-111.111111111111,4,2,12,5,0,0
45501,-111.111111111111,4,2,12,60,0,0
45738,-111.111111111111,4,2,12,5,0,0
45817,-111.111111111111,4,2,12,60,0,0
47948,-111.111111111111,4,2,12,5,0,0
48027,-111.111111111111,4,2,12,60,0,0
48264,-111.111111111111,4,2,12,5,0,0
48343,-111.111111111111,4,2,12,60,0,0
48580,-111.111111111111,4,2,12,5,0,0
48659,-111.111111111111,4,2,12,60,0,0
49212,-111.111111111111,4,2,12,5,0,0
49291,-111.111111111111,4,2,12,60,0,0
50475,-111.111111111111,4,2,12,5,0,0
50554,-111.111111111111,4,2,12,60,0,0
51738,-111.111111111111,4,2,12,5,0,0
51817,-111.111111111111,4,2,12,70,0,0
52527,-111.111111111111,4,2,12,5,0,0
52606,-111.111111111111,4,2,12,70,0,0
53080,-100,4,2,12,70,0,0
53317,-100,4,2,12,5,0,0
53396,-100,4,2,12,70,0,0
55527,-100,4,2,12,5,0,0
55606,-100,4,2,12,70,0,0
55843,-100,4,2,12,5,0,0
55922,-100,4,2,12,70,0,0
58054,-100,4,2,12,5,0,0
58133,-100,4,2,12,70,0,0
58369,-100,4,2,12,5,0,0
58448,-100,4,2,12,70,0,0
60580,-100,4,2,12,5,0,0
60659,-100,4,2,12,70,0,0
60896,-100,4,2,12,5,0,0
60975,-100,4,2,12,70,0,0
61843,-100,4,2,12,5,0,0
61922,-100,4,2,12,70,0,0
63185,-133.333333333333,4,2,12,60,0,0
63422,-133.333333333333,4,2,12,5,0,0
63501,-133.333333333333,4,2,12,60,0,0
65633,-133.333333333333,4,2,12,5,0,0
65712,-133.333333333333,4,2,12,60,0,0
66896,-133.333333333333,4,2,12,5,0,0
66975,-133.333333333333,4,2,12,60,0,0
68080,-133.333333333333,4,2,12,70,0,0
68238,-111.111111111111,4,2,12,70,0,0
68317,-111.111111111111,4,2,12,5,0,0
68396,-111.111111111111,4,2,12,70,0,0
72975,-111.111111111111,4,2,12,100,0,0
73212,-111.111111111111,4,2,12,5,0,0
73291,-83.3333333333333,4,2,12,80,0,1
73527,-83.3333333333333,4,2,12,5,0,1
73606,-83.3333333333333,4,2,12,80,0,1
73843,-83.3333333333333,4,2,12,5,0,1
73922,-83.3333333333333,4,2,12,80,0,1
74159,-83.3333333333333,4,2,12,5,0,1
74238,-83.3333333333333,4,2,12,80,0,1
76054,-83.3333333333333,4,2,12,5,0,1
76133,-83.3333333333333,4,2,12,80,0,1
76369,-83.3333333333333,4,2,12,5,0,1
76448,-83.3333333333333,4,2,12,80,0,1
76685,-83.3333333333333,4,2,12,5,0,1
76764,-83.3333333333333,4,2,12,80,0,1
78580,-83.3333333333333,4,2,12,5,0,1
78659,-83.3333333333333,4,2,12,80,0,1
79527,-83.3333333333333,4,2,12,5,0,1
79606,-83.3333333333333,4,2,12,80,0,1
79843,-83.3333333333333,4,2,12,5,0,1
79922,-83.3333333333333,4,2,12,80,0,1
80791,-83.3333333333333,4,2,12,5,0,1
80869,-83.3333333333333,4,2,12,80,0,1
82133,-100,4,2,12,80,0,0
83317,-100,4,2,12,5,0,0
83396,-83.3333333333333,4,2,12,80,0,1
83633,-83.3333333333333,4,2,12,5,0,1
83712,-83.3333333333333,4,2,12,80,0,1
83948,-83.3333333333333,4,2,12,5,0,1
84027,-83.3333333333333,4,2,12,80,0,1
84264,-83.3333333333333,4,2,12,5,0,1
84343,-83.3333333333333,4,2,12,80,0,1
88685,-83.3333333333333,4,2,12,5,0,1
88764,-83.3333333333333,4,2,12,80,0,1
89001,-83.3333333333333,4,2,12,5,0,1
89080,-83.3333333333333,4,2,12,80,0,1
89317,-83.3333333333333,4,2,12,5,0,1
89396,-83.3333333333333,4,2,12,80,0,1
89633,-83.3333333333333,4,2,12,5,0,1
89712,-111.111111111111,4,2,12,80,0,0
90027,-111.111111111111,4,2,12,80,0,0
90975,-90.9090909090909,4,2,12,80,0,1
91212,-90.9090909090909,4,2,12,5,0,1
91291,-90.9090909090909,4,2,12,80,0,1
93738,-90.9090909090909,4,2,12,5,0,1
93817,-90.9090909090909,4,2,12,80,0,1
96264,-90.9090909090909,4,2,12,5,0,1
96343,-90.9090909090909,4,2,12,80,0,1
98791,-90.9090909090909,4,2,12,5,0,1
98869,-90.9090909090909,4,2,12,80,0,1
100764,-111.111111111111,4,2,12,80,0,1
101317,-111.111111111111,4,2,12,5,0,1
101396,-111.111111111111,4,2,12,80,0,1
101791,-111.111111111111,4,2,12,5,0,1
101869,-111.111111111111,4,2,12,80,0,1
102264,-111.111111111111,4,2,12,5,0,1
102343,-200,4,2,12,70,0,0
102896,-200,4,2,12,5,0,0
102975,-111.111111111111,4,2,12,60,0,0
103606,-111.111111111111,4,2,12,70,0,0

[Colours]
Combo1 : 125,141,255
Combo2 : 253,151,49
Combo3 : 241,75,67

[HitObjects]
217,319,1922,6,2,P|200:275|208:229,1,80.9999975280763,2|2,0:2|0:2,0:2:0:0:
295,319,2238,2,2,P|309:277|302:232,1,80.9999975280763,2|2,0:2|0:2,0:2:0:0:
255,91,2554,1,6,3:2:0:0:
116,127,7606,6,0,B|159:234|82:234|122:324,1,180,6|10,3:2|0:2,0:0:0:0:
53,188,8080,1,10,0:2:0:0:
191,276,8238,2,0,P|235:272|270:245,1,90,2|2,3:2|3:2,0:0:0:0:
196,96,8554,2,0,P|152:100|117:127,1,90,8|2,0:0|0:2,0:0:0:0:
289,150,8869,6,0,P|364:126|419:204,1,180,0|8,3:2|0:0,0:0:0:0:
401,52,9343,1,2,3:2:0:0:
345,197,9501,2,0,P|314:235|274:246,1,90,0|2,3:2|3:2,0:0:0:0:
196,96,9817,2,0,P|227:58|267:47,1,90,10|0,0:2|0:0,0:0:0:0:
183,192,10133,6,0,B|141:194|110:147|110:147|125:197|101:237,1,180,6|10,3:2|0:2,0:0:0:0:
196,96,10606,1,10,0:0:0:0:
38,197,10764,2,0,P|28:243|50:291,1,90,2|2,3:2|3:2,0:0:0:0:
270,206,11080,2,0,P|280:160|258:112,1,90,8|2,0:0|3:2,0:0:0:0:
141,328,11396,6,2,P|191:324|251:318,1,90,6|0,3:2|0:2,0:2:0:0:
398,300,11712,2,2,P|350:296|308:291,1,90,14|0,0:2|0:2,0:2:0:0:
277,285,11948,1,8,0:0:0:0:
277,285,12027,5,10,0:2:0:0:
411,222,12185,1,10,0:2:0:0:
341,384,12343,1,10,0:2:0:0:
270,206,12501,1,10,0:2:0:0:
141,328,12659,6,0,P|131:272|145:220,1,99.0000030212403,6|0,3:2|0:0,0:0:0:0:
266,111,12975,2,0,P|280:162|260:220,1,99.0000030212403,10|0,0:0|0:0,0:0:0:0:
139,119,13291,1,2,3:2:0:0:
319,56,13448,1,0,0:0:0:0:
192,233,13606,2,0,P|137:239|87:243,1,99.0000030212403,10|2,0:0|0:0,0:0:0:0:
139,119,13922,5,2,3:2:0:0:
245,299,14080,1,0,0:0:0:0:
59,245,14238,1,10,0:2:0:0:
213,109,14396,2,0,P|269:102|317:98,1,99.0000030212403,2|0,0:2|3:2,0:0:0:0:
405,178,14712,1,2,0:2:0:0:
363,0,14869,1,10,0:2:0:0:
262,145,15027,1,2,0:2:0:0:
482,155,15185,6,0,P|484:208|452:249,1,99.0000030212403,2|0,3:2|0:0,0:0:0:0:
247,236,15501,2,0,P|244:173|267:139,1,99.0000030212403,10|0,0:2|0:0,0:0:0:0:
445,331,15817,2,0,P|388:342|342:348,1,99.0000030212403,2|0,3:2|0:0,0:0:0:0:
163,130,16133,2,0,P|216:135|266:144,1,99.0000030212403,10|2,0:2|0:0,0:0:0:0:
66,251,16448,5,2,3:2:0:0:
153,83,16606,1,0,0:0:0:0:
48,269,16764,1,8,0:0:0:0:
244,137,16922,1,2,0:2:0:0:
244,137,17001,1,2,0:2:0:0:
244,137,17080,1,2,3:2:0:0:
0,118,17238,1,2,0:0:0:0:
182,315,17396,1,10,0:2:0:0:
88,32,17554,1,2,0:2:0:0:
236,152,17712,6,0,P|287:141|344:136,1,99.0000030212403,2|0,3:2|0:0,0:0:0:0:
465,259,18027,2,2,P|416:255|367:244,1,99.0000030212403,10|0,0:2|0:0,0:0:0:0:
470,42,18343,2,0,P|480:89|487:140,1,99.0000030212403,2|2,3:2|0:2,0:0:0:0:
307,315,18659,2,0,P|317:251|332:190,1,99.0000030212403,10|2,0:2|0:2,0:0:0:0:
512,329,18975,6,2,P|479:371|415:382,1,99.0000030212403,2|0,3:2|0:0,0:0:0:0:
272,161,19291,2,0,P|321:141|382:163,1,99.0000030212403,10|0,0:0|0:0,0:0:0:0:
314,325,19606,1,2,3:2:0:0:
121,253,19764,1,2,0:2:0:0:
121,253,19843,1,2,0:2:0:0:
121,253,19922,2,2,P|159:249|229:248,1,99.0000030212403,10|0,0:2|0:0,0:0:0:0:
189,140,20238,5,2,3:2:0:0:
124,346,20396,1,0,0:0:0:0:
338,288,20554,1,10,0:0:0:0:
112,167,20712,2,0,P|51:165|8:167,1,99.0000030212403,2|2,0:0|3:2,0:0:0:0:
121,253,21027,5,2,0:0:0:0:
59,80,21185,1,10,0:2:0:0:
124,269,21343,1,2,0:0:0:0:
230,58,21501,6,0,P|277:50|334:47,1,80.9999975280763,2|14,3:2|0:2,0:0:0:0:
416,215,21817,2,0,P|369:211|335:206,1,80.9999975280763,14|2,0:2|3:2,0:0:0:0:
438,33,22133,5,8,0:0:0:0:
455,70,22212,1,8,0:3:0:0:
472,107,22290,1,4,0:3:0:0:
488,143,22369,1,8,3:3:0:0:
505,180,22448,1,12,0:0:0:0:
325,340,22606,1,8,0:0:0:0:
325,340,22685,1,8,0:0:0:0:
325,340,22764,6,0,P|299:296|305:241,1,99.0000030212403,6|0,3:2|0:0,0:0:0:0:
488,143,23080,2,0,P|514:187|504:249,1,99.0000030212403,10|0,0:0|0:0,0:0:0:0:
226,249,23396,2,0,P|162:243|105:236,1,99.0000030212403,2|0,3:2|0:0,0:0:0:0:
304,60,23712,2,0,P|354:50|406:46,1,99.0000030212403,10|2,0:2|0:0,0:0:0:0:
237,233,24027,1,2,3:2:0:0:
180,44,24185,1,0,0:0:0:0:
402,211,24343,1,10,0:2:0:0:
279,37,24501,6,0,P|219:40|154:49,1,99.0000030212403,2|0,0:2|3:2,0:0:0:0:
136,237,24817,1,2,0:2:0:0:
283,116,24975,1,10,0:2:0:0:
308,308,25133,1,2,0:2:0:0:
124,160,25291,6,0,P|76:183|56:236,1,99.0000030212403,2|2,3:2|0:0,0:0:0:0:
243,372,25606,2,0,P|287:351|308:305,1,99.0000030212403,10|2,0:0|0:0,0:0:0:0:
10,286,25922,2,0,P|15:337|27:411,1,99.0000030212403,2|2,3:2|0:0,0:0:0:0:
264,171,26238,2,0,P|258:103|251:51,1,99.0000030212403,10|2,0:0|0:2,0:0:0:0:
466,241,26554,5,0,3:2:0:0:
466,241,26712,2,0,P|464:288|458:354,1,99.0000030212403,2|8,0:2|0:0,0:2:0:0:
339,171,27027,1,2,0:2:0:0:
456,367,27185,1,2,3:2:0:0:
246,285,27343,1,2,0:2:0:0:
471,161,27501,1,10,0:2:0:0:
287,371,27659,5,2,0:2:0:0:
287,371,27817,2,0,P|235:373|183:361,1,99.0000030212403,2|0,3:2|0:0,0:0:0:0:
101,159,28133,2,0,P|149:148|202:151,1,99.0000030212403,10|0,0:2|0:0,0:0:0:0:
384,378,28448,2,0,P|332:380|280:368,1,99.0000030212403,2|0,3:2|0:0,0:0:0:0:
198,150,28764,2,0,P|245:141|296:147,1,99.0000030212403,10|0,0:2|0:0,0:0:0:0:
394,177,29080,5,8,0:2:0:0:
73,179,29396,1,8,0:0:0:0:
301,348,29712,6,0,P|310:304|296:245,1,80.9999975280763,2|2,0:0|0:0,0:0:0:0:
213,350,30027,2,0,P|204:306|218:247,1,80.9999975280763,2|2,0:0|0:0,0:0:0:0:
248,82,30343,6,2,P|288:72|366:89,1,121.499996292114,14|0,0:2|0:2,0:2:0:0:
365,88,30659,2,0,P|375:48|363:0,1,80.9999975280763,8|2,0:0|0:2,0:0:0:0:
248,82,30975,5,8,0:2:0:0:
469,226,31133,1,2,3:2:0:0:
367,9,31291,5,10,0:2:0:0:
265,277,31448,1,2,3:2:0:0:
468,149,31606,6,0,P|478:198|460:242,1,80.9999975280763,8|2,0:2|3:2,0:0:0:0:
265,277,31922,2,0,P|256:237|273:184,1,80.9999975280763,10|2,0:0|3:2,0:0:0:0:
399,99,32238,5,8,0:0:0:0:
464,328,32396,1,0,3:2:0:0:
184,291,32554,5,10,0:2:0:0:
410,211,32712,1,0,3:2:0:0:
174,304,32869,6,0,B|59:318|59:318|13:280,1,161.999995056153,10|10,0:2|0:2,0:2:0:0:
103,125,33343,2,2,P|99:166|88:212,1,80.9999975280763,2|8,0:2|0:2,0:2:0:0:
199,120,33659,2,2,P|189:74|185:40,1,80.9999975280763,2|10,3:2|0:2,0:2:0:0:
25,255,33975,6,2,P|55:279|124:269,1,80.9999975280763,2|8,3:2|0:2,0:2:0:0:
204,145,34291,5,0,3:2:0:0:
8,50,34448,1,10,0:2:0:0:
251,0,34606,1,2,3:2:0:0:
96,172,34764,6,0,P|94:207|87:256,1,80.9999975280763,10|2,0:2|3:2,0:0:0:0:
170,207,35001,1,0,3:2:0:0:
170,207,35080,2,0,P|210:197|255:191,1,80.9999975280763,10|2,0:2|3:2,0:0:0:0:
476,289,35396,2,2,P|413:278|356:265,1,121.499996292114,14|0,0:2|0:2,0:2:0:0:
356,265,35712,6,0,P|333:299|333:351,1,80.9999975280763,8|2,0:0|0:2,0:0:0:0:
486,242,36027,5,8,0:2:0:0:
283,105,36185,1,2,3:2:0:0:
321,352,36343,5,10,0:2:0:0:
443,143,36501,1,2,3:2:0:0:
208,221,36659,6,0,P|216:262|247:295,1,80.9999975280763,8|2,0:2|3:2,0:0:0:0:
443,143,36975,2,0,P|435:102|404:69,1,80.9999975280763,10|2,0:2|3:2,0:0:0:0:
212,144,37291,5,8,0:0:0:0:
431,253,37449,1,0,3:2:0:0:
388,84,37606,5,10,0:2:0:0:
247,281,37764,1,0,3:2:0:0:
384,67,37922,6,2,B|365:37|365:37|225:28,1,161.999995056153,10|8,0:2|0:2,0:2:0:0:
238,220,38396,2,2,P|277:189|286:133,1,80.9999975280763,2|8,0:2|0:2,0:2:0:0:
136,72,38712,2,2,P|152:108|185:131,1,80.9999975280763,2|8,3:2|0:2,0:2:0:0:
362,23,39027,2,2,P|316:22|273:27,1,80.9999975280763,2|8,3:2|0:2,0:2:0:0:
423,82,39343,5,0,3:2:0:0:
171,3,39501,1,10,0:2:0:0:
356,138,39659,5,2,3:2:0:0:
104,217,39817,1,8,0:0:0:0:
310,330,39975,5,2,3:2:0:0:
310,330,40054,1,2,0:0:0:0:
310,330,40133,2,0,P|370:329|433:327,1,121.499996292114,10|0,0:2|0:0,0:0:0:0:
450,329,40448,6,2,B|425:258|425:258|435:187,1,121.499996292114,14|0,0:2|0:2,0:2:0:0:
435,196,40764,5,0,3:2:0:0:
215,78,40922,2,2,P|173:56|99:106,1,121.499996292114,14|0,0:2|0:2,0:2:0:0:
102,105,41238,5,0,3:2:0:0:
344,224,41396,2,2,P|333:269|325:328,1,80.9999975280763,14|0,0:2|0:2,0:2:0:0:
228,212,41712,6,2,P|218:128|213:59,1,135,6|0,3:2|0:2,0:2:0:0:
305,124,42343,2,0,P|328:117|361:120,1,45,2|0,0:2|0:0,0:0:0:0:
408,187,42501,2,0,P|431:194|464:191,1,45,2|2,0:2|0:2,0:0:0:0:
432,81,42659,2,0,L|435:37,3,45,2|0|0|0,0:2|0:0|0:0|0:0,0:0:0:0:
305,124,42975,6,2,P|314:167|319:217,1,80.9999975280763,6|0,3:2|0:2,0:2:0:0:
214,292,43291,2,0,P|261:281|305:299,1,80.9999975280763,10|0,0:2|0:0,0:0:0:0:
164,375,43606,2,0,P|117:386|52:292,1,161.999995056153,2|10,0:2|0:2,0:0:0:0:
201,205,44080,6,0,P|155:212|118:222,1,80.9999975280763,2|0,0:2|3:2,0:0:0:0:
182,127,44396,1,2,3:2:0:0:
126,311,44554,1,8,0:0:0:0:
256,257,44712,1,2,3:2:0:0:
106,147,44869,2,0,P|98:98|96:60,1,80.9999975280763,2|2,0:2|3:2,0:0:0:0:
275,8,45185,2,0,P|271:65|260:160,1,121.499996292114,10|0,0:0|0:0,0:0:0:0:
262,151,45501,6,2,P|273:104|297:68,1,80.9999975280763,2|0,3:2|0:2,0:2:0:0:
442,129,45817,2,0,P|385:112|350:124,1,80.9999975280763,10|0,0:2|0:0,0:0:0:0:
372,274,46133,2,0,P|381:224|394:181,1,80.9999975280763,2|2,0:2|3:2,0:0:0:0:
291,278,46448,5,10,0:2:0:0:
467,239,46606,1,2,0:2:0:0:
326,130,46764,1,2,3:2:0:0:
378,301,46922,1,2,3:2:0:0:
200,284,47080,1,10,0:2:0:0:
319,149,47238,1,2,3:2:0:0:
384,327,47396,5,2,0:2:0:0:
237,200,47554,1,2,3:2:0:0:
428,42,47712,2,0,P|438:101|448:173,1,121.499996292114,10|0,0:2|0:0,0:0:0:0:
449,187,48027,6,2,P|437:147|419:97,1,80.9999975280763,2|0,3:2|0:2,0:2:0:0:
327,236,48343,2,0,P|283:228|244:226,1,80.9999975280763,10|0,0:2|0:0,0:0:0:0:
83,301,48659,2,0,P|125:297|166:291,1,80.9999975280763,2|0,0:2|3:2,0:0:0:0:
162,108,48975,2,0,P|124:149|128:220,1,121.499996292114,10|0,0:2|0:0,0:0:0:0:
126,225,49291,6,0,P|100:184|69:137,1,80.9999975280763,2|0,3:2|3:2,0:0:0:0:
222,144,49606,1,10,0:2:0:0:
123,332,49764,1,0,3:2:0:0:
67,139,49922,1,2,0:2:0:0:
237,320,50080,1,0,3:2:0:0:
234,126,50238,2,0,P|282:133|330:214,1,121.499996292114,10|0,0:2|0:0,0:0:0:0:
331,207,50554,6,2,B|298:121|347:123|321:48,1,161.999995056153,2|8,3:2|0:2,0:2:0:0:
477,121,51027,2,0,P|437:148|395:149,1,80.9999975280763,2|0,0:2|0:0,0:0:0:0:
321,48,51343,1,0,3:2:0:0:
244,285,51501,6,0,P|248:230|260:186,1,80.9999975280763,10|0,0:2|0:0,0:0:0:0:
112,67,51817,2,0,P|119:102|124:146,1,80.9999975280763,2|0,3:2|3:2,0:0:0:0:
244,285,52133,1,8,0:0:0:0:
324,41,52291,2,2,P|384:63|407:157,1,161.999995056153,14|0,0:2|3:2,0:2:0:0:
244,285,52764,1,8,0:0:0:0:
324,41,52922,1,8,0:0:0:0:
324,41,53001,1,8,0:0:0:0:
324,41,53080,6,2,P|274:35|219:34,1,90,4|0,3:2|0:2,0:2:0:0:
35,167,53396,2,0,P|81:167|140:160,1,90,10|0,0:2|0:0,0:0:0:0:
294,345,53712,2,0,P|210:357|168:283,1,180,2|10,0:2|0:2,0:0:0:0:
387,146,54185,2,0,P|388:211|368:244,1,90,2|0,0:2|3:2,0:0:0:0:
157,87,54501,1,2,3:2:0:0:
403,67,54659,1,8,0:0:0:0:
167,283,54817,1,2,3:2:0:0:
387,146,54975,2,0,P|434:152|476:160,1,90,2|2,0:2|3:2,0:0:0:0:
216,87,55291,2,0,P|145:101|83:111,1,135,10|0,0:2|0:0,0:0:0:0:
67,115,55606,6,0,P|111:117|159:129,1,90,2|0,3:2|0:0,0:0:0:0:
337,80,55922,2,0,P|311:121|320:184,1,90,10|0,0:2|0:2,0:0:0:0:
495,348,56238,2,0,P|493:303|468:266,1,90,2|0,0:2|3:2,0:0:0:0:
273,296,56554,5,10,0:2:0:0:
471,348,56712,1,2,0:2:0:0:
393,157,56869,1,0,3:2:0:0:
338,348,57027,1,2,3:2:0:0:
172,201,57185,1,10,0:2:0:0:
381,142,57343,1,2,3:2:0:0:
213,284,57501,5,2,0:2:0:0:
262,50,57659,1,2,3:2:0:0:
457,315,57817,2,0,P|418:348|328:342,1,135,10|0,0:2|0:0,0:0:0:0:
337,347,58133,6,2,P|320:296|322:254,1,90,6|0,3:2|0:2,0:2:0:0:
448,46,58448,2,0,P|465:97|463:139,1,90,10|2,0:2|0:2,0:0:0:0:
320,260,58764,1,2,0:2:0:0:
289,75,58922,1,0,3:2:0:0:
451,165,59080,1,10,0:2:0:0:
276,67,59238,5,2,0:2:0:0:
214,260,59396,2,0,P|163:266|124:269,1,90,2|0,3:2|3:2,0:0:0:0:
267,200,59712,1,10,0:2:0:0:
170,345,59869,1,2,3:2:0:0:
70,214,60027,2,0,P|51:164|57:111,1,90,2|0,0:2|3:2,0:0:0:0:
246,24,60343,2,0,P|245:68|225:116,1,90,10|0,0:2|0:0,0:0:0:0:
95,307,60659,6,2,P|147:269|257:317,1,180,6|8,3:2|0:2,0:2:0:0:
95,307,61133,1,2,0:2:0:0:
180,168,61291,2,0,P|174:110|168:63,1,90,0|0,3:2|3:2,0:0:0:0:
68,215,61606,1,10,0:0:0:0:
285,217,61764,2,0,P|288:159|297:112,1,90,0|2,0:0|3:2,0:0:0:0:
123,74,62080,1,2,3:2:0:0:
181,328,62238,1,10,0:2:0:0:
208,129,62396,1,2,3:2:0:0:
264,292,62554,5,10,0:2:0:0:
214,118,62712,1,2,3:2:0:0:
149,216,62869,1,8,0:3:0:0:
224,106,63027,1,4,0:3:0:0:
120,32,63185,6,0,B|147:44|180:30|180:30|187:38|187:38|222:23|270:39,2,135.000005149842,6|8|0,3:2|0:0|3:2,0:0:0:0:
72,101,63975,1,2,0:2:0:0:
94,182,64133,1,10,0:2:0:0:
70,269,64291,1,2,0:2:0:0:
119,342,64448,2,0,P|163:356|264:327,2,135.000005149842,2|10|0,3:2|0:2|3:2,0:0:0:0:
119,342,65238,1,2,3:2:0:0:
176,255,65396,6,0,P|171:210|161:163,1,67.5000025749208,10|0,0:2|0:0,0:0:0:0:
278,81,65712,2,0,P|269:111|267:147,1,67.5000025749208,2|0,3:2|0:0,0:0:0:0:
98,98,66027,1,10,0:2:0:0:
98,98,66185,2,0,P|132:89|164:87,1,67.5000025749208,2|0,0:2|3:2,0:0:0:0:
271,225,66501,1,2,3:2:0:0:
271,225,66659,2,0,P|307:232|337:235,1,67.5000025749208,10|0,0:2|0:0,0:0:0:0:
431,113,66975,6,0,P|421:147|413:192,1,67.5000025749208,2|2,3:2|3:2,0:0:0:0:
376,48,67291,1,10,0:2:0:0:
458,256,67448,1,2,3:2:0:0:
492,74,67606,1,8,0:0:0:0:
267,124,67764,1,8,0:3:0:0:
416,178,67922,1,4,0:3:0:0:
172,90,68080,5,14,0:2:0:0:
172,90,68396,5,2,3:2:0:0:
178,331,68554,1,10,0:2:0:0:
411,145,68712,1,0,3:2:0:0:
108,145,68869,5,10,0:2:0:0:
391,268,69027,1,0,3:2:0:0:
132,267,69185,5,10,0:2:0:0:
411,145,69343,1,0,3:2:0:0:
148,16,69501,5,10,0:2:0:0:
179,331,69659,1,0,3:2:0:0:
390,44,69817,5,10,0:2:0:0:
350,366,69975,1,0,3:2:0:0:
150,31,70133,5,10,0:2:0:0:
182,351,70291,1,2,3:2:0:0:
395,9,70448,5,8,0:0:0:0:
347,384,70606,1,2,3:2:0:0:
81,128,70764,5,8,0:2:0:0:
439,238,70922,1,2,3:2:0:0:
69,260,71080,5,10,0:2:0:0:
467,110,71238,1,2,3:2:0:0:
47,117,71396,5,10,0:2:0:0:
474,248,71554,1,2,3:2:0:0:
210,19,71712,1,0,3:2:0:0:
241,380,71869,2,0,P|286:385|318:365,1,80.9999975280763,10|0,0:2|3:2,0:0:0:0:
396,126,72185,5,10,0:2:0:0:
37,217,72343,1,2,3:2:0:0:
396,126,72501,5,10,0:0:0:0:
46,25,72659,1,10,0:2:0:0:
23,70,72738,1,8,0:3:0:0:
14,120,72817,1,4,0:3:0:0:
18,170,72896,1,8,3:3:0:0:
37,217,72975,2,0,P|55:262|19:232,1,121.499996292114,12|0,0:2|0:0,0:0:0:0:
101,153,73291,6,0,P|166:147|224:175,1,107.999996704102,6|0,3:2|0:0,0:2:0:0:
328,351,73606,2,0,P|263:357|205:329,1,107.999996704102,10|0,0:2|0:0,0:2:0:0:
396,126,73922,2,0,P|395:178|388:253,1,107.999996704102,2|0,3:2|0:0,0:2:0:0:
101,153,74238,2,0,P|95:82|93:26,1,107.999996704102,10|2,0:2|0:2,0:2:0:0:
289,163,74554,1,2,3:2:0:0:
23,282,74712,1,0,0:2:0:0:
223,342,74869,1,8,0:2:0:0:
23,151,75027,6,0,P|26:198|38:269,1,107.999996704102,2|0,0:2|3:2,0:0:0:0:
190,57,75343,1,2,0:2:0:0:
125,288,75501,1,10,0:2:0:0:
85,44,75659,1,2,0:2:0:0:
244,228,75817,6,0,P|301:236|359:211,1,107.999996704102,2|0,3:2|0:0,0:0:0:0:
188,35,76133,2,0,P|131:27|73:52,1,107.999996704102,10|0,3:2|0:0,0:0:0:0:
335,147,76448,2,0,P|327:80|318:27,1,107.999996704102,2|0,3:2|0:0,0:0:0:0:
98,243,76764,2,0,P|104:298|115:363,1,107.999996704102,10|2,0:2|0:2,0:0:0:0:
242,114,77080,5,2,3:2:0:0:
0,71,77238,1,0,0:0:0:0:
257,3,77396,1,8,0:0:0:0:
13,203,77554,1,2,0:2:0:0:
13,203,77633,1,2,0:2:0:0:
13,203,77712,5,2,3:2:0:0:
328,141,77869,1,2,0:0:0:0:
14,73,78027,1,10,0:2:0:0:
171,203,78185,1,2,0:2:0:0:
336,116,78343,6,0,P|336:55|309:4,1,107.999996704102,2|0,3:2|0:0,0:0:0:0:
184,188,78659,2,2,P|178:234|178:302,1,107.999996704102,10|0,0:2|0:0,0:0:0:0:
442,161,78975,2,0,P|441:101|436:53,1,107.999996704102,2|2,3:2|0:2,0:0:0:0:
260,205,79291,2,0,P|288:198|370:196,1,107.999996704102,10|2,0:2|0:2,0:0:0:0:
230,330,79606,5,2,3:2:0:0:
35,88,79764,1,0,0:0:0:0:
99,313,79922,1,10,0:2:0:0:
169,19,80080,1,0,0:0:0:0:
205,255,80238,1,2,3:2:0:0:
8,113,80396,1,2,0:0:0:0:
8,113,80475,1,2,0:0:0:0:
8,113,80554,2,2,P|9:162|29:235,1,107.999996704102,10|0,0:2|0:0,0:0:0:0:
249,173,80869,6,0,P|183:164|144:184,1,107.999996704102,2|0,3:2|0:0,0:0:0:0:
364,341,81185,1,10,0:2:0:0:
367,129,81343,2,0,P|369:92|348:11,1,107.999996704102,2|2,0:2|3:2,0:0:0:0:
397,204,81659,5,0,0:0:0:0:
240,64,81817,1,10,0:2:0:0:
192,261,81975,1,2,0:0:0:0:
409,194,82133,6,0,P|462:185|533:180,1,90,2|2,3:2|3:2,0:0:0:0:
179,118,82448,2,0,P|123:110|51:105,1,90,10|2,0:2|3:2,0:0:0:0:
254,342,82764,5,10,0:2:0:0:
288,298,82843,1,8,3:3:0:0:
309,246,82922,1,4,3:3:0:0:
309,191,83001,1,0,3:2:0:0:
292,138,83080,2,0,P|270:98|318:124,1,135,12|0,0:0|3:0,0:0:0:0:
192,261,83396,6,0,P|127:279|74:264,1,107.999996704102,6|0,3:2|0:0,0:0:0:0:
235,26,83712,2,0,P|300:8|353:23,1,107.999996704102,10|0,0:2|0:0,0:0:0:0:
84,195,84027,2,0,P|72:130|68:78,1,107.999996704102,2|0,3:2|0:0,0:0:0:0:
372,271,84343,2,0,P|367:323|357:378,1,107.999996704102,10|2,0:2|0:0,0:0:0:0:
224,140,84659,1,2,3:2:0:0:
487,316,84817,1,0,0:0:0:0:
229,307,84975,1,8,0:0:0:0:
434,156,85133,6,0,P|443:90|446:48,1,107.999996704102,2|0,0:2|3:2,0:0:0:0:
257,221,85448,1,2,0:2:0:0:
488,286,85606,1,10,0:2:0:0:
445,48,85764,1,2,0:2:0:0:
193,63,85922,6,0,P|140:89|117:146,1,107.999996704102,2|2,3:2|0:2,0:0:0:0:
263,304,86238,2,0,P|316:278|339:221,1,107.999996704102,10|2,0:2|0:2,0:0:0:0:
119,131,86554,2,0,P|124:184|135:240,1,107.999996704102,2|2,3:2|0:2,0:0:0:0:
440,151,86869,2,0,P|450:89|456:42,1,107.999996704102,10|2,0:2|0:2,0:0:0:0:
484,222,87185,1,2,3:2:0:0:
328,144,87343,2,0,P|274:149|221:154,1,107.999996704102,2|10,0:2|0:2,0:2:0:0:
67,92,87659,5,2,0:2:0:0:
328,144,87817,1,2,3:2:0:0:
30,187,87975,1,2,0:2:0:0:
285,68,88133,1,10,0:2:0:0:
207,295,88291,5,2,0:2:0:0:
296,60,88448,2,0,P|355:51|407:49,1,107.999996704102,6|0,3:2|0:0,0:2:0:0:
138,198,88764,2,0,L|27:187,1,107.999996704102,10|0,0:2|0:0,0:2:0:0:
337,334,89080,2,0,P|390:334|448:323,1,107.999996704102,2|0,3:2|0:0,0:2:0:0:
109,196,89396,2,0,L|-2:185,1,107.999996704102,10|0,0:2|0:0,0:2:0:0:
278,384,89712,5,10,0:2:0:0:
245,0,90027,1,10,0:2:0:0:
213,200,90343,6,0,P|206:254|230:301,1,80.9999975280763,2|2,0:2|0:0,0:0:0:0:
300,200,90659,2,0,P|307:254|283:301,1,80.9999975280763,2|2,0:0|0:0,0:0:0:0:
153,135,90975,6,2,P|98:127|64:37,1,148.50000453186,6|0,3:2|0:2,0:2:0:0:
70,23,91291,5,8,0:0:0:0:
138,302,91448,1,2,0:2:0:0:
301,43,91606,5,8,0:2:0:0:
222,331,91764,1,2,3:2:0:0:
9,130,91922,5,10,0:2:0:0:
294,192,92080,1,2,3:2:0:0:
45,235,92238,5,8,0:2:0:0:
300,82,92396,1,2,3:2:0:0:
96,34,92554,5,10,0:2:0:0:
76,355,92712,1,2,3:2:0:0:
195,57,92869,5,10,0:2:0:0:
305,364,93027,1,2,3:2:0:0:
471,114,93185,5,10,0:2:0:0:
186,206,93343,1,0,3:2:0:0:
415,234,93501,6,2,B|435:150|379:169|399:73,1,148.50000453186,10|0,0:2|0:2,0:2:0:0:
407,70,93817,5,8,0:0:0:0:
372,322,93975,1,2,0:2:0:0:
186,37,94133,5,8,0:2:0:0:
241,288,94291,1,2,3:2:0:0:
53,138,94448,5,8,0:2:0:0:
344,203,94606,1,2,3:2:0:0:
36,246,94764,5,8,0:2:0:0:
308,116,94922,1,2,3:2:0:0:
179,384,95080,5,10,0:2:0:0:
133,100,95238,1,2,3:2:0:0:
396,145,95396,6,0,P|448:158|504:153,1,99.0000030212403,10|2,0:2|3:2,0:0:0:0:
345,39,95633,1,0,3:2:0:0:
345,39,95712,2,0,P|304:38|247:55,1,99.0000030212403,10|2,0:2|3:2,0:0:0:0:
235,273,96027,6,2,P|241:338|165:384,1,148.50000453186,14|0,0:2|0:2,0:2:0:0:
139,375,96343,5,8,0:0:0:0:
229,84,96501,1,2,0:2:0:0:
320,367,96659,5,8,0:0:0:0:
143,128,96817,1,2,3:2:0:0:
438,94,96975,5,10,0:2:0:0:
139,46,97133,1,2,3:2:0:0:
394,196,97291,5,8,0:0:0:0:
101,238,97448,1,2,3:2:0:0:
388,314,97606,5,10,0:2:0:0:
273,5,97764,1,2,3:2:0:0:
184,294,97922,5,8,0:0:0:0:
344,38,98080,1,0,3:2:0:0:
71,140,98238,5,10,0:2:0:0:
377,196,98396,1,0,3:2:0:0:
127,46,98554,6,2,P|191:76|272:20,1,148.50000453186,14|0,0:2|0:2,0:2:0:0:
263,21,98869,5,8,0:0:0:0:
142,305,99027,1,2,0:2:0:0:
134,84,99185,5,8,0:2:0:0:
282,351,99343,1,2,3:2:0:0:
326,110,99501,5,8,0:2:0:0:
193,381,99659,1,2,3:2:0:0:
35,158,99817,5,8,0:2:0:0:
362,296,99975,1,0,3:2:0:0:
90,281,100133,5,10,0:2:0:0:
390,89,100291,1,2,3:2:0:0:
259,343,100448,1,8,0:0:0:0:
225,308,100527,1,8,0:0:0:0:
209,262,100606,1,10,0:2:0:0:
215,213,100685,1,8,0:0:0:0:
240,171,100764,5,10,0:2:0:0:
259,136,100843,1,8,0:3:0:0:
259,96,100922,1,4,0:3:0:0:
239,61,101001,1,4,0:3:0:0:
205,39,101080,6,2,P|136:48|66:49,1,121.499996292114,6|0,3:2|0:2,0:2:0:0:
64,50,101396,5,8,0:0:0:0:
378,349,101554,2,2,P|390:290|356:217,1,121.499996292114,6|0,3:2|0:2,0:2:0:0:
356,218,101869,5,8,0:0:0:0:
64,50,102027,2,2,P|58:97|73:137,1,80.9999975280763,6|0,3:2|0:2,0:2:0:0:
102,257,102343,6,2,P|46:258|-1:191,1,135,14|0,0:2|0:2,0:2:0:0:
140,86,102975,6,0,P|181:71|233:78,1,80.9999975280763,2|2,0:2|0:2,0:0:0:0:
156,165,103291,2,0,P|196:166|234:152,1,80.9999975280763,2|2,0:2|0:2,0:0:0:0:
313,88,103606,1,10,0:2:0:0:
