osu file format v14

[General]
AudioFilename: audio.mp3
AudioLeadIn: 0
PreviewTime: 72998
Countdown: 0
SampleSet: Soft
StackLeniency: 0.7
Mode: 0
LetterboxInBreaks: 0
WidescreenStoryboard: 1

[Editor]
Bookmarks: 29735,30366,63840,64945,90366,90998,103629
DistanceSpacing: 1
BeatDivisor: 4
GridSize: 32
TimelineZoom: 2.200001

[Metadata]
Title:Cherry Bomb
TitleUnicode:チェリボム
Artist:Poppin'Party
ArtistUnicode:Poppin'Party
Creator:STaLeRGooD
Version:Normal
Source:バンドリ! ガールズバンドパーティ!
Tags:Vaeviv -Hakurei- lit120 Xehn Xen Xenon- [_l_u_k_a_s_] lukas Captain Yasaija 714 SquareTude Bang Dream! Girls Band Party bandori garupa ガルパ popipa ポピパ ポッピンパーティ cover Silent Siren game size toyama kasumi 戸山香澄 terakawa aimi 寺川愛美 hanazono tae 花園たえ otsuka sae 大塚紗英 ushigome rimi 牛込りみ nishimoto 西本りみ yamabuki saya saaya 山吹沙綾 ohashi ayaka 大橋彩香 ichigaya arisa 市ヶ谷有咲 itou ayasa 伊藤彩沙 anime video japanese
BeatmapID:2038991
BeatmapSetID:971051

[Difficulty]
HPDrainRate:3
CircleSize:3
OverallDifficulty:4
ApproachRate:5
SliderMultiplier:0.9
SliderTickRate:1

[Events]
//Background and Video events
0,0,"bg.jpg",0,0
//Break Periods
//Storyboard Layer 0 (Background)
//Storyboard Layer 1 (Fail)
//Storyboard Layer 2 (Pass)
//Storyboard Layer 3 (Foreground)
//Storyboard Layer 4 (Overlay)
//Storyboard Sound Samples

[TimingPoints]
1291,315.789473684211,4,2,12,40,1,0
1291,-100,4,2,12,40,0,0
2554,-100,4,2,12,50,0,0
2791,-100,4,2,12,50,0,0
2869,-100,4,2,12,50,0,0
2948,-100,4,2,12,50,0,0
3027,-100,4,2,12,50,0,0
3106,-100,4,2,12,50,0,0
3185,-100,4,2,12,50,0,0
4685,-100,4,2,12,50,0,0
4764,-100,4,2,12,50,0,0
4843,-100,4,2,12,50,0,0
4922,-100,4,2,12,50,0,0
5001,-100,4,2,12,50,0,0
5080,-100,4,2,12,50,0,0
5475,-100,4,2,12,50,0,0
5554,-100,4,2,12,50,0,0
5633,-100,4,2,12,50,0,0
5712,-100,4,2,12,50,0,0
7606,-100,4,2,12,60,0,0
8001,-100,4,2,12,60,0,0
8080,-100,4,2,12,60,0,0
8159,-100,4,2,12,60,0,0
8238,-100,4,2,12,60,0,0
10527,-100,4,2,12,60,0,0
10606,-100,4,2,12,60,0,0
10685,-100,4,2,12,60,0,0
10764,-100,4,2,12,60,0,0
11396,-100,4,2,12,70,0,0
11633,-100,4,2,12,70,0,0
11712,-100,4,2,12,70,0,0
12106,-100,4,2,12,70,0,0
12185,-100,4,2,12,70,0,0
12264,-100,4,2,12,5,0,0
12343,-100,4,2,12,70,0,0
12422,-100,4,2,12,70,0,0
12501,-100,4,2,12,70,0,0
12580,-100,4,2,12,70,0,0
12659,-100,4,2,12,80,0,1
12896,-100,4,2,12,80,0,1
12975,-100,4,2,12,80,0,1
13212,-100,4,2,12,80,0,1
13291,-100,4,2,12,80,0,1
13527,-100,4,2,12,80,0,1
13606,-100,4,2,12,80,0,1
15422,-100,4,2,12,80,0,1
15501,-100,4,2,12,80,0,1
15738,-100,4,2,12,80,0,1
15817,-100,4,2,12,80,0,1
16054,-100,4,2,12,80,0,1
16133,-100,4,2,12,80,0,1
17948,-100,4,2,12,80,0,1
18027,-100,4,2,12,80,0,1
18896,-100,4,2,12,80,0,1
18975,-100,4,2,12,80,0,1
19212,-100,4,2,12,80,0,1
19291,-100,4,2,12,80,0,1
20159,-100,4,2,12,80,0,1
20238,-100,4,2,12,80,0,1
22527,-100,4,2,12,80,0,1
22606,-100,4,2,12,80,0,1
23001,-100,4,2,12,80,0,1
23080,-100,4,2,12,80,0,1
23317,-100,4,2,12,80,0,1
23396,-100,4,2,12,80,0,1
23633,-100,4,2,12,80,0,1
23712,-100,4,2,12,80,0,1
28054,-100,4,2,12,80,0,1
28133,-100,4,2,12,80,0,1
28369,-100,4,2,12,80,0,1
28448,-100,4,2,12,80,0,1
28685,-100,4,2,12,80,0,1
28764,-100,4,2,12,80,0,1
29001,-100,4,2,12,80,0,1
29080,-100,4,2,12,80,0,1
29317,-100,4,2,12,80,0,1
29396,-100,4,2,12,80,0,1
29712,-100,4,2,12,80,0,1
30343,-100,4,2,12,80,0,0
30580,-100,4,2,12,80,0,0
30659,-100,4,2,12,80,0,0
33185,-100,4,2,12,80,0,0
35632,-100,4,2,12,80,0,0
35711,-100,4,2,12,80,0,0
38238,-100,4,2,12,80,0,0
40685,-100,4,2,12,80,0,0
40764,-100,4,2,12,80,0,0
41159,-100,4,2,12,80,0,0
41238,-100,4,2,12,80,0,0
41633,-100,4,2,12,80,0,0
41712,-100,4,2,12,70,0,0
42659,-100,4,2,12,60,0,0
42896,-100,4,2,12,60,0,0
42975,-100,4,2,12,60,0,0
43212,-100,4,2,12,60,0,0
43291,-100,4,2,12,60,0,0
45422,-100,4,2,12,60,0,0
45501,-100,4,2,12,60,0,0
45738,-100,4,2,12,60,0,0
45817,-100,4,2,12,60,0,0
47948,-100,4,2,12,60,0,0
48027,-100,4,2,12,60,0,0
48264,-100,4,2,12,5,0,0
48343,-100,4,2,12,60,0,0
48580,-100,4,2,12,60,0,0
48659,-100,4,2,12,60,0,0
49212,-100,4,2,12,60,0,0
49291,-100,4,2,12,60,0,0
50475,-100,4,2,12,60,0,0
50554,-100,4,2,12,60,0,0
51738,-100,4,2,12,60,0,0
51817,-100,4,2,12,70,0,0
52606,-100,4,2,12,70,0,0
53317,-100,4,2,12,70,0,0
53396,-100,4,2,12,70,0,0
55527,-100,4,2,12,70,0,0
55606,-100,4,2,12,70,0,0
55843,-100,4,2,12,70,0,0
55922,-100,4,2,12,70,0,0
58054,-100,4,2,12,70,0,0
58133,-100,4,2,12,70,0,0
58369,-100,4,2,12,70,0,0
58448,-100,4,2,12,70,0,0
60580,-100,4,2,12,70,0,0
60659,-100,4,2,12,70,0,0
60975,-100,4,2,12,70,0,0
61843,-100,4,2,12,70,0,0
61922,-100,4,2,12,70,0,0
63185,-100,4,2,12,60,0,0
65633,-100,4,2,12,60,0,0
65712,-100,4,2,12,60,0,0
66896,-100,4,2,12,60,0,0
66975,-100,4,2,12,60,0,0
68080,-100,4,2,12,70,0,0
68317,-100,4,2,12,70,0,0
68396,-100,4,2,12,70,0,0
72975,-100,4,2,12,100,0,0
73212,-100,4,2,12,100,0,0
73291,-100,4,2,12,80,0,1
73527,-100,4,2,12,80,0,1
73606,-100,4,2,12,80,0,1
73843,-100,4,2,12,80,0,1
73922,-100,4,2,12,80,0,1
74159,-100,4,2,12,80,0,1
74238,-100,4,2,12,80,0,1
76054,-100,4,2,12,80,0,1
76133,-100,4,2,12,80,0,1
76369,-100,4,2,12,80,0,1
76448,-100,4,2,12,80,0,1
76685,-100,4,2,12,80,0,1
76764,-100,4,2,12,80,0,1
78580,-100,4,2,12,80,0,1
78659,-100,4,2,12,80,0,1
79527,-100,4,2,12,80,0,1
79606,-100,4,2,12,80,0,1
79843,-100,4,2,12,80,0,1
79922,-100,4,2,12,80,0,1
80791,-100,4,2,12,80,0,1
80869,-100,4,2,12,80,0,1
83317,-100,4,2,12,80,0,1
83396,-100,4,2,12,80,0,1
83633,-100,4,2,12,80,0,1
83712,-100,4,2,12,80,0,1
83948,-100,4,2,12,80,0,1
84027,-100,4,2,12,80,0,1
84264,-100,4,2,12,5,0,1
84343,-100,4,2,12,80,0,1
88685,-100,4,2,12,80,0,1
88764,-100,4,2,12,80,0,1
89001,-100,4,2,12,80,0,1
89080,-100,4,2,12,80,0,1
89317,-100,4,2,12,80,0,1
89396,-100,4,2,12,80,0,1
89633,-100,4,2,12,80,0,1
89712,-100,4,2,12,80,0,1
89948,-100,4,2,12,80,0,1
90027,-100,4,2,12,80,0,1
90343,-100,4,2,12,80,0,1
90975,-100,4,2,12,80,0,0
91212,-100,4,2,12,80,0,0
91291,-100,4,2,12,80,0,0
96264,-100,4,2,12,80,0,0
96343,-100,4,2,12,80,0,0
98791,-100,4,2,12,80,0,0
98869,-100,4,2,12,80,0,0
101317,-100,4,2,12,80,0,0
101396,-100,4,2,12,80,0,0
101791,-100,4,2,12,80,0,0
101869,-100,4,2,12,80,0,0
102264,-100,4,2,12,80,0,0
102343,-100,4,2,12,70,0,0
102896,-100,4,2,12,70,0,0
102975,-100,4,2,12,60,0,0
103606,-100,4,2,12,70,0,0

[Colours]
Combo1 : 125,141,255
Combo2 : 253,151,49
Combo3 : 241,75,67

[HitObjects]
79,175,7606,6,0,L|180:168,1,90,6|10,3:2|0:2,0:0:0:0:
201,199,8080,1,10,0:2:0:0:
201,199,8238,2,0,P|211:244|194:296,1,90,2|8,3:2|0:0,0:0:0:0:
238,367,8869,6,0,L|347:362,1,90,0|8,3:2|0:0,0:0:0:0:
372,358,9343,1,2,3:2:0:0:
372,358,9501,2,0,P|384:313|362:255,1,90,0|10,3:2|0:2,0:0:0:0:
299,220,10133,6,0,L|292:121,1,90,6|10,3:2|0:2,0:0:0:0:
296,85,10606,1,10,0:0:0:0:
296,85,10764,2,0,P|344:63|394:74,1,90,2|8,3:2|0:0,0:0:0:0:
460,27,11396,2,2,L|471:130,2,90,6|14|10,3:2|0:2|0:2,0:2:0:0:
423,203,12659,6,0,P|386:218|325:197,1,90,6|10,3:2|0:0,0:0:0:0:
265,153,13291,2,0,P|222:142|180:157,1,90,2|10,3:2|0:0,0:0:0:0:
140,237,13922,2,0,L|153:337,1,90,2|10,3:2|0:2,0:0:0:0:
182,359,14396,2,0,P|227:367|280:350,1,90,2|2,0:2|0:2,0:0:0:0:
302,326,14869,1,10,0:2:0:0:
362,258,15185,6,0,L|346:155,1,90,2|10,3:2|0:2,0:0:0:0:
300,92,15817,2,0,L|197:76,1,90,2|10,3:2|0:2,0:0:0:0:
122,63,16448,1,2,3:2:0:0:
44,108,16764,1,8,0:0:0:0:
91,184,17080,2,0,L|88:237,1,45,2|2,3:2|0:0,0:0:0:0:
64,267,17396,2,0,L|67:320,1,45,10|2,0:2|0:2,0:0:0:0:
86,352,17712,6,0,P|130:359|183:343,1,90,2|10,3:2|0:2,0:0:0:0:
248,297,18343,2,0,P|292:290|345:306,1,90,2|10,3:2|0:2,0:0:0:0:
407,354,18975,1,2,3:2:0:0:
424,265,19291,1,10,0:0:0:0:
382,185,19606,2,0,L|377:133,1,45,2|2,3:2|0:2,0:0:0:0:
376,94,19922,1,10,0:2:0:0:
298,48,20238,6,0,L|195:54,1,90,2|10,3:2|0:0,0:0:0:0:
162,54,20712,2,0,B|134:143|134:143|142:190,1,135,2|10,0:0|0:2,0:0:0:0:
167,270,21501,2,0,L|114:263,1,45,2|14,3:2|0:2,0:0:0:0:
92,298,21817,2,0,L|47:303,1,45,14|2,0:2|3:2,0:0:0:0:
6,285,22133,1,8,0:0:0:0:
168,360,22764,6,0,P|210:365|264:344,1,90,6|10,3:2|0:0,0:0:0:0:
319,286,23396,2,0,P|365:281|415:302,1,90,2|10,3:2|0:2,0:0:0:0:
492,320,24027,2,0,L|483:227,1,90,2|10,3:2|0:2,0:0:0:0:
476,185,24501,2,0,L|379:171,1,90,2|2,0:2|0:2,0:0:0:0:
341,167,24975,1,10,0:2:0:0:
261,207,25291,6,0,P|252:158|264:119,1,90,2|10,3:2|0:0,0:0:0:0:
242,32,25922,1,2,3:2:0:0:
167,82,26238,2,0,L|60:71,1,90,10|0,0:0|3:2,0:0:0:0:
32,74,26712,2,0,B|5:169|5:169|24:212,1,135,2|2,0:2|3:2,0:2:0:0:
74,273,27501,1,10,0:2:0:0:
154,232,27817,6,0,L|253:229,1,90,2|10,3:2|0:2,0:0:0:0:
311,288,28448,2,0,L|400:285,1,90,2|10,3:2|0:2,0:0:0:0:
476,235,29080,1,8,0:2:0:0:
471,145,29396,1,8,0:0:0:0:
224,40,30343,6,2,L|114:47,1,90,14|8,0:2|0:0,0:2:0:0:
84,120,30975,2,0,L|23:127,2,45,8|2|10,0:2|3:2|0:2,0:0:0:0:
109,156,31448,2,2,P|128:200|111:258,1,90,2|2,3:2|3:2,0:2:0:0:
105,282,31922,1,10,0:0:0:0:
170,344,32238,2,0,L|231:340,2,45,8|0|10,0:0|3:2|0:2,0:0:0:0:
200,259,32869,6,0,P|246:250|294:265,1,90,10|10,0:2|0:2,0:2:0:0:
354,320,33501,2,0,L|358:366,2,45,8|2|10,0:2|3:2|0:2,0:0:0:0:
391,294,33975,2,2,L|394:186,1,90,2|0,3:2|3:2,0:2:0:0:
394,159,34448,1,10,0:2:0:0:
368,72,34764,6,0,L|309:66,1,45,10|2,0:2|3:2,0:0:0:0:
288,38,35080,2,0,L|243:42,1,45,10|2,0:2|3:2,0:0:0:0:
213,76,35396,6,2,L|206:173,1,90,14|8,0:2|0:0,0:2:0:0:
262,236,36027,2,0,L|326:232,2,45,8|2|10,0:2|3:2|0:2,0:0:0:0:
242,277,36501,2,2,P|198:285|149:267,1,90,2|2,3:2|3:2,0:2:0:0:
124,238,36975,1,10,0:2:0:0:
42,200,37291,2,0,L|41:142,2,45,8|0|10,0:0|3:2|0:2,0:0:0:0:
121,158,37922,6,2,P|166:144|219:150,1,90,10|8,0:2|0:2,0:2:0:0:
275,86,38554,2,0,L|263:22,2,45,8|2|8,0:2|3:2|0:2,0:0:0:0:
312,110,39027,2,2,L|309:203,1,90,2|0,3:2|3:2,0:2:0:0:
306,245,39501,1,10,0:2:0:0:
241,307,39817,6,0,L|185:314,1,45,8|2,0:0|3:2,0:0:0:0:
159,286,40133,2,0,L|103:279,1,45,10|2,0:2|3:2,0:0:0:0:
69,277,40448,6,2,L|59:177,1,90,14|0,0:2|3:2,0:2:0:0:
60,142,40922,2,2,P|108:121|149:135,1,90,14|0,0:2|3:2,0:2:0:0:
178,158,41396,1,14,0:2:0:0:
255,204,41712,2,2,P|330:167|276:96,1,180,6|2,3:2|0:2,0:2:0:0:
181,240,42975,6,2,P|182:277|209:324,1,90,6|10,3:2|0:2,0:2:0:0:
280,375,43606,2,0,L|376:375,1,90,2|10,0:2|0:2,0:0:0:0:
410,355,44080,2,0,P|427:309|406:259,1,90,2|2,0:2|3:2,0:0:0:0:
389,234,44554,1,8,0:0:0:0:
327,168,44869,2,0,L|269:165,1,45,2|2,0:2|3:2,0:0:0:0:
241,186,45185,2,0,L|179:191,1,45,10|0,0:0|0:0,0:0:0:0:
154,171,45501,6,2,L|147:73,1,90,2|10,3:2|0:2,0:2:0:0:
213,19,46133,2,0,L|273:1,2,45,2|2|10,0:2|3:2|0:2,0:0:0:0:
264,92,46764,2,0,P|309:102|357:85,1,90,2|10,3:2|0:2,0:0:0:0:
386,62,47238,1,2,3:2:0:0:
386,62,47396,2,0,L|396:158,1,90,2|10,0:2|0:2,0:0:0:0:
453,219,48027,6,2,L|443:308,1,90,2|10,3:2|0:2,0:2:0:0:
365,354,48659,2,0,L|303:377,2,45,2|0|10,0:2|3:2|0:2,0:0:0:0:
310,282,49291,1,2,3:2:0:0:
220,281,49606,1,10,0:2:0:0:
150,338,49922,2,0,L|160:399,2,45,2|0|10,0:2|3:2|0:2,0:0:0:0:
89,271,50554,6,2,L|75:166,1,90,2|8,3:2|0:2,0:2:0:0:
34,165,51027,2,0,P|16:130|22:74,1,90,2|0,0:2|3:2,0:0:0:0:
54,51,51501,1,10,0:2:0:0:
143,45,51817,2,0,L|133:104,2,45,2|0|8,3:2|3:2|0:0,0:0:0:0:
188,41,52291,2,2,B|297:27|297:27|335:46,1,135,14|8,0:2|0:0,0:2:0:0:
300,126,53080,6,2,L|291:228,1,90,4|10,3:2|0:2,0:2:0:0:
214,261,53712,2,0,L|223:363,1,90,2|10,0:2|0:2,0:0:0:0:
264,363,54185,2,0,P|309:377|359:363,1,90,2|2,0:2|3:2,0:0:0:0:
389,346,54659,1,8,0:0:0:0:
418,260,54975,2,0,L|403:161,1,90,2|10,0:2|0:2,0:0:0:0:
422,82,55606,6,0,L|320:76,1,90,2|10,3:2|0:2,0:0:0:0:
244,55,56238,2,0,L|146:51,1,90,2|10,0:2|0:2,0:0:0:0:
109,56,56712,2,0,P|90:97|108:158,1,90,2|2,0:2|3:2,0:0:0:0:
132,166,57185,2,0,L|182:164,1,45,10|2,0:2|3:2,0:0:0:0:
203,200,57501,2,0,P|208:249|189:290,1,90,2|10,0:2|0:2,0:0:0:0:
102,289,58133,5,6,3:2:0:0:
56,211,58448,1,10,0:2:0:0:
108,138,58764,2,0,P|148:120|200:131,1,90,2|10,0:2|0:2,0:0:0:0:
235,142,59238,1,2,0:2:0:0:
235,142,59396,2,0,L|229:48,1,90,2|10,3:2|0:2,0:0:0:0:
228,7,59869,1,2,3:2:0:0:
228,7,60027,2,0,P|272:-4|326:11,1,90,2|10,0:2|0:2,0:0:0:0:
382,65,60659,6,2,L|376:165,1,90,6|8,3:2|0:2,0:2:0:0:
372,199,61133,2,0,L|271:216,1,90,2|0,0:2|3:2,0:0:0:0:
245,239,61606,1,10,0:0:0:0:
186,307,61922,2,0,L|138:313,2,45,2|2|10,3:2|3:2|0:2,0:0:0:0:
273,328,62554,2,0,L|317:334,1,45,10|2,0:2|3:2,0:0:0:0:
351,363,62869,2,0,L|395:356,1,45,8|4,0:3|0:3,0:0:0:0:
438,369,63185,6,0,B|462:241|462:241|440:180,1,180,6|0,3:2|3:2,0:0:0:0:
402,209,63975,2,0,L|346:196,1,45,2|10,0:2|0:2,0:0:0:0:
317,218,64291,2,0,B|292:90|292:90|315:45|315:45|360:37,1,225,2|0,0:2|3:2,0:0:0:0:
430,91,65396,6,0,L|443:151,1,45,10|0,0:2|0:0,0:0:0:0:
447,179,65712,1,2,3:2:0:0:
369,223,66027,2,0,P|371:270|402:315,2,90,10|0|10,0:2|3:2|0:2,0:0:0:0:
312,152,66975,2,0,L|249:144,2,45,2|2|10,3:2|3:2|0:2,0:0:0:0:
263,228,67606,2,0,L|218:233,2,45,8|8|4,0:0|0:3|0:3,0:0:0:0:
284,267,68080,6,2,B|292:349|292:349|246:381,1,135,14|10,0:2|0:2,0:2:0:0:
168,339,68869,2,0,L|123:336,2,45,10|0|10,0:2|3:2|0:2,0:0:0:0:
198,253,69501,2,2,P|207:209|198:165,1,90,10|10,0:2|0:2,0:2:0:0:
218,77,70133,2,0,L|269:70,1,45,10|2,0:2|3:2,0:0:0:0:
304,53,70448,2,0,L|348:59,1,45,8|2,0:0|3:2,0:0:0:0:
392,46,70764,6,0,L|406:154,1,90,8|10,0:2|0:2,0:0:0:0:
414,179,71238,1,2,3:2:0:0:
414,179,71396,2,0,P|400:224|358:244,1,90,10|0,0:2|3:2,0:0:0:0:
320,233,71869,1,10,0:2:0:0:
253,171,72185,2,0,L|242:122,2,45,10|2|10,0:2|3:2|0:0,0:0:0:0:
224,205,72659,2,0,L|219:299,1,90,10|12,0:2|0:2,0:0:0:0:
142,341,73291,6,0,P|93:348|49:330,1,90,6|10,3:2|0:2,0:2:0:0:
20,251,73922,2,0,L|13:153,1,90,2|10,3:2|0:2,0:2:0:0:
54,80,74554,2,0,P|105:67|146:81,1,90,2|8,3:2|0:2,0:2:0:0:
172,107,75027,2,0,P|214:120|257:109,1,90,2|2,0:2|0:2,0:0:0:0:
291,79,75501,1,10,0:2:0:0:
377,103,75817,6,0,L|366:205,1,90,2|10,3:2|3:2,0:0:0:0:
438,248,76448,2,0,L|449:350,1,90,2|10,3:2|0:2,0:0:0:0:
368,381,77080,1,2,3:2:0:0:
316,307,77396,1,8,0:0:0:0:
251,369,77712,2,0,L|200:372,1,45,2|2,3:2|0:0,0:0:0:0:
164,353,78027,2,0,L|119:350,1,45,10|2,0:2|0:2,0:0:0:0:
78,329,78343,6,0,L|74:223,1,90,2|10,3:2|0:2,0:0:0:0:
20,166,78975,2,0,P|45:153|120:163,1,90,2|10,3:2|0:2,0:0:0:0:
176,97,79606,1,2,3:2:0:0:
238,161,79922,1,10,0:2:0:0:
302,97,80238,2,0,L|364:99,1,45,2|2,3:2|0:0,0:0:0:0:
382,127,80554,1,10,0:2:0:0:
378,216,80869,6,0,P|334:225|281:199,1,90,2|10,3:2|0:2,0:0:0:0:
248,199,81343,2,0,B|150:180|150:180|103:199,1,135,2|10,0:2|0:2,0:0:0:0:
29,168,82133,2,0,L|31:114,1,45,2|2,3:2|3:2,0:0:0:0:
67,96,82448,2,0,L|65:42,1,45,10|2,0:2|3:2,0:0:0:0:
37,14,82764,1,10,0:2:0:0:
217,10,83396,6,0,P|262:2|307:18,1,90,6|10,3:2|0:2,0:0:0:0:
334,100,84027,2,0,P|376:113|420:105,1,90,2|10,3:2|0:2,0:0:0:0:
497,56,84659,2,0,L|509:154,1,90,2|8,3:2|0:0,0:0:0:0:
484,184,85133,2,0,L|472:282,1,90,2|2,0:2|0:2,0:0:0:0:
466,317,85606,1,10,0:2:0:0:
378,339,85922,6,0,P|334:353|278:328,1,90,2|10,3:2|0:2,0:0:0:0:
225,280,86554,1,2,3:2:0:0:
166,212,86869,2,0,L|162:111,1,90,10|2,0:2|3:2,0:0:0:0:
193,88,87343,2,0,B|283:63|283:63|326:80,1,135,2|2,0:2|3:2,0:2:0:0:
394,131,88133,1,10,0:2:0:0:
352,210,88448,6,0,L|251:216,1,90,6|10,3:2|0:2,0:2:0:0:
181,175,89080,2,0,L|91:169,1,90,2|10,3:2|0:2,0:2:0:0:
23,230,89712,1,10,0:2:0:0:
10,318,90027,1,10,0:2:0:0:
193,118,90975,6,2,L|290:115,1,90,6|8,3:2|0:0,0:2:0:0:
358,65,91606,2,0,L|369:20,2,45,8|2|10,0:2|3:2|0:2,0:0:0:0:
379,105,92080,2,2,P|396:147|378:204,1,90,2|2,3:2|3:2,0:2:0:0:
366,229,92554,1,10,0:2:0:0:
290,277,92869,2,0,L|225:284,2,45,10|2|10,0:2|3:2|0:2,0:0:0:0:
269,364,93501,6,2,P|226:376|182:367,1,90,10|8,0:2|0:0,0:2:0:0:
121,301,94133,2,0,L|56:307,2,45,8|2|8,0:2|3:2|0:2,0:0:0:0:
137,259,94606,2,2,L|146:160,1,90,2|2,3:2|3:2,0:2:0:0:
152,124,95080,1,10,0:2:0:0:
222,68,95396,6,0,L|285:63,1,45,10|2,0:2|3:2,0:0:0:0:
301,34,95712,2,0,L|345:37,1,45,10|2,0:2|3:2,0:0:0:0:
379,67,96027,6,2,L|396:175,1,90,14|8,0:2|0:0,0:2:0:0:
449,226,96659,2,0,L|507:214,2,45,8|2|10,0:0|3:2|0:2,0:0:0:0:
427,265,97133,2,2,P|395:292|334:287,1,90,2|2,3:2|3:2,0:2:0:0:
307,274,97606,1,10,0:2:0:0:
307,183,97922,2,0,L|299:131,2,45,8|0|10,0:0|3:2|0:2,0:0:0:0:
218,201,98554,6,2,L|208:299,1,90,14|8,0:2|0:0,0:2:0:0:
129,332,99185,2,0,L|68:343,2,45,8|2|8,0:2|3:2|0:2,0:0:0:0:
162,363,99659,2,2,P|208:378|254:361,1,90,2|0,3:2|3:2,0:2:0:0:
285,343,100133,1,10,0:2:0:0:
362,297,100448,6,0,L|356:234,1,45,8|10,0:0|0:2,0:0:0:0:
323,222,100764,2,0,L|318:173,1,45,10|4,0:2|0:3,0:0:0:0:
288,143,101080,2,2,L|180:135,1,90,6|8,3:2|0:0,0:2:0:0:
159,112,101554,2,2,P|146:67|163:19,1,90,6|8,3:2|0:0,0:2:0:0:
202,19,102027,1,6,3:2:0:0:
286,49,102343,6,2,B|385:35|385:35|420:52,1,135,14|0,0:2|0:2,0:2:0:0:
430,93,102975,2,0,L|426:155,1,45,2|2,0:2|0:2,0:0:0:0:
395,169,103291,2,0,L|399:231,1,45,2|2,0:2|0:2,0:0:0:0:
404,258,103606,5,10,0:2:0:0:
