osu file format v14

[General]
AudioFilename: audio.mp3
AudioLeadIn: 0
PreviewTime: 72998
Countdown: 0
SampleSet: Soft
StackLeniency: 0.2
Mode: 0
LetterboxInBreaks: 0
WidescreenStoryboard: 1

[Editor]
Bookmarks: 93524
DistanceSpacing: 0.9
BeatDivisor: 4
GridSize: 32
TimelineZoom: 3.3

[Metadata]
Title:Cherry Bomb
TitleUnicode:チェリボム
Artist:Poppin'Party
ArtistUnicode:Poppin'Party
Creator:STaLeRGooD
Version:Lukas' Another
Source:バンドリ! ガールズバンドパーティ!
Tags:Vaeviv -Hakurei- lit120 Xehn Xen Xenon- [_l_u_k_a_s_] lukas Captain Yasaija 714 SquareTude Bang Dream! Girls Band Party bandori garupa ガルパ popipa ポピパ ポッピンパーティ cover Silent Siren game size toyama kasumi 戸山香澄 terakawa aimi 寺川愛美 hanazono tae 花園たえ otsuka sae 大塚紗英 ushigome rimi 牛込りみ nishimoto 西本りみ yamabuki saya saaya 山吹沙綾 ohashi ayaka 大橋彩香 ichigaya arisa 市ヶ谷有咲 itou ayasa 伊藤彩沙 anime video japanese
BeatmapID:2034439
BeatmapSetID:971051

[Difficulty]
HPDrainRate:6
CircleSize:3.2
OverallDifficulty:8
ApproachRate:9
SliderMultiplier:1.6
SliderTickRate:1

[Events]
//Background and Video events
0,0,"bg.jpg",0,0
//Break Periods
2,2754,7006
//Storyboard Layer 0 (Background)
//Storyboard Layer 1 (Fail)
//Storyboard Layer 2 (Pass)
//Storyboard Layer 3 (Foreground)
//Storyboard Layer 4 (Overlay)
//Storyboard Sound Samples

[TimingPoints]
1291,315.789473684211,4,2,12,40,1,0
1922,-111.111111111111,4,2,12,40,0,0
2554,-111.111111111111,4,2,12,50,0,0
2869,-111.111111111111,4,2,12,50,0,0
3027,-111.111111111111,4,2,12,50,0,0
3185,-111.111111111111,4,2,12,50,0,0
4764,-111.111111111111,4,2,12,50,0,0
4922,-111.111111111111,4,2,12,50,0,0
5080,-111.111111111111,4,2,12,50,0,0
5554,-111.111111111111,4,2,12,50,0,0
5712,-111.111111111111,4,2,12,50,0,0
7606,-100,4,2,12,60,0,0
8080,-100,4,2,12,60,0,0
8238,-100,4,2,12,60,0,0
10606,-100,4,2,12,60,0,0
10764,-100,4,2,12,60,0,0
11396,-83.3333333333333,4,2,12,70,0,0
11712,-83.3333333333333,4,2,12,70,0,0
12185,-100,4,2,12,70,0,0
12343,-100,4,2,12,70,0,0
12501,-100,4,2,12,70,0,0
12659,-83.3333333333333,4,2,12,80,0,1
12975,-83.3333333333333,4,2,12,80,0,1
13291,-83.3333333333333,4,2,12,80,0,1
13606,-83.3333333333333,4,2,12,80,0,1
15501,-83.3333333333333,4,2,12,80,0,1
15817,-83.3333333333333,4,2,12,80,0,1
16133,-83.3333333333333,4,2,12,80,0,1
18027,-83.3333333333333,4,2,12,80,0,1
18975,-83.3333333333333,4,2,12,80,0,1
19291,-83.3333333333333,4,2,12,80,0,1
20238,-83.3333333333333,4,2,12,80,0,1
21501,-66.6666666666667,4,2,12,80,0,0
22606,-66.6666666666667,4,2,12,80,0,0
22764,-83.3333333333333,4,2,12,80,0,1
23080,-83.3333333333333,4,2,12,80,0,1
23396,-83.3333333333333,4,2,12,80,0,1
23712,-83.3333333333333,4,2,12,80,0,1
28133,-83.3333333333333,4,2,12,80,0,1
28448,-83.3333333333333,4,2,12,80,0,1
28764,-83.3333333333333,4,2,12,80,0,1
29080,-111.111111111111,4,2,12,80,0,0
29396,-111.111111111111,4,2,12,80,0,0
30343,-66.6666666666667,4,2,12,80,0,0
30659,-66.6666666666667,4,2,12,80,0,0
33185,-66.6666666666667,4,2,12,80,0,0
35080,-133.333333333333,4,2,12,80,0,0
35396,-66.6666666666667,4,2,12,80,0,0
35711,-66.6666666666667,4,2,12,80,0,0
38238,-66.6666666666667,4,2,12,80,0,0
40448,-100,4,2,12,80,0,0
40764,-100,4,2,12,80,0,0
40922,-133.333333333333,4,2,12,80,0,0
41238,-133.333333333333,4,2,12,80,0,0
41712,-200,4,2,12,70,0,0
42343,-100,4,2,12,70,0,0
42659,-133.333333333333,4,2,12,60,0,0
42975,-133.333333333333,4,2,12,60,0,0
43291,-133.333333333333,4,2,12,60,0,0
45501,-133.333333333333,4,2,12,60,0,0
45817,-133.333333333333,4,2,12,60,0,0
48027,-133.333333333333,4,2,12,60,0,0
48343,-133.333333333333,4,2,12,60,0,0
48659,-133.333333333333,4,2,12,60,0,0
49291,-133.333333333333,4,2,12,60,0,0
50554,-133.333333333333,4,2,12,60,0,0
51817,-133.333333333333,4,2,12,70,0,0
52291,-200,4,2,12,70,0,0
52606,-200,4,2,12,70,0,0
52764,-100,4,2,12,70,0,0
53396,-100,4,2,12,70,0,0
55606,-100,4,2,12,70,0,0
55922,-100,4,2,12,70,0,0
58133,-100,4,2,12,70,0,0
58448,-100,4,2,12,70,0,0
60659,-100,4,2,12,70,0,0
60975,-100,4,2,12,70,0,0
61922,-100,4,2,12,70,0,0
63185,-133.333333333333,4,2,12,60,0,0
63501,-133.333333333333,4,2,12,60,0,0
65712,-133.333333333333,4,2,12,60,0,0
66975,-133.333333333333,4,2,12,60,0,0
68080,-133.333333333333,4,2,12,70,0,0
68396,-133.333333333333,4,2,12,70,0,0
71869,-66.6666666666667,4,2,12,70,0,0
72659,-66.6666666666667,4,2,12,70,0,0
72975,-66.6666666666667,4,2,12,100,0,0
73291,-83.3333333333333,4,2,12,80,0,1
73606,-83.3333333333333,4,2,12,80,0,1
73922,-83.3333333333333,4,2,12,80,0,1
74238,-83.3333333333333,4,2,12,80,0,1
76133,-83.3333333333333,4,2,12,80,0,1
76448,-83.3333333333333,4,2,12,80,0,1
76764,-83.3333333333333,4,2,12,80,0,1
78659,-83.3333333333333,4,2,12,80,0,1
79606,-83.3333333333333,4,2,12,80,0,1
79922,-83.3333333333333,4,2,12,80,0,1
80869,-83.3333333333333,4,2,12,80,0,1
83080,-133.333333333333,4,2,12,80,0,1
83396,-83.3333333333333,4,2,12,80,0,1
83712,-83.3333333333333,4,2,12,80,0,1
84027,-83.3333333333333,4,2,12,80,0,1
84343,-83.3333333333333,4,2,12,80,0,1
88764,-83.3333333333333,4,2,12,80,0,1
89080,-83.3333333333333,4,2,12,80,0,1
89396,-83.3333333333333,4,2,12,80,0,1
89712,-111.111111111111,4,2,12,80,0,0
90027,-111.111111111111,4,2,12,80,0,0
90975,-66.6666666666667,4,2,12,80,0,0
91291,-66.6666666666667,4,2,12,80,0,0
95712,-133.333333333333,4,2,12,80,0,0
96028,-66.6666666666667,4,2,12,80,0,0
96343,-66.6666666666667,4,2,12,80,0,0
98869,-66.6666666666667,4,2,12,80,0,0
101396,-66.6666666666667,4,2,12,80,0,0
101869,-66.6666666666667,4,2,12,80,0,0
102343,-133.333333333333,4,2,12,70,0,0
102975,-133.333333333333,4,2,12,60,0,0
103606,-133.333333333333,4,2,12,70,0,0

[Colours]
Combo1 : 125,141,255
Combo2 : 253,151,49
Combo3 : 241,75,67

[HitObjects]
170,167,1922,5,2,0:2:0:0:
326,218,2080,1,2,0:2:0:0:
286,194,2238,5,2,0:2:0:0:
442,143,2396,1,2,0:2:0:0:
286,228,2554,5,6,3:2:0:0:
333,336,7606,6,0,P|343:267|310:209,1,120,6|2,3:2|0:2,0:0:0:0:
322,222,7922,2,0,L|352:220,1,20,10|0,0:2|0:0,0:0:0:0:
231,164,8080,2,0,L|211:165,1,20,10|0,0:2|0:0,0:0:0:0:
306,80,8238,1,2,3:2:0:0:
306,80,8396,1,2,3:2:0:0:
245,286,8554,1,8,0:0:0:0:
43,61,8869,5,0,3:2:0:0:
43,61,9027,1,2,3:2:0:0:
86,306,9185,2,0,B|74:268|74:268|95:191,1,120,8|0,0:0|3:2,0:0:0:0:
129,102,9501,1,0,3:2:0:0:
129,102,9659,1,2,3:2:0:0:
0,231,9817,1,10,0:2:0:0:
214,329,10133,6,0,P|283:319|341:352,1,120,6|0,3:2|0:0,0:0:0:0:
327,339,10449,2,0,L|329:309,1,20,10|0,0:2|0:0,0:0:0:0:
400,233,10607,2,0,L|401:213,1,20,10|0,0:0|0:0,0:0:0:0:
477,127,10765,1,2,3:2:0:0:
477,127,10923,1,2,3:2:0:0:
506,337,11081,1,8,0:0:0:0:
245,45,11396,6,2,L|238:158,1,95.9999970703126,6|0,3:2|0:2,0:2:0:0:
145,354,11712,2,2,L|139:258,1,95.9999970703126,14|0,0:2|0:2,0:2:0:0:
75,195,11948,1,8,0:0:0:0:
75,195,12027,1,10,0:2:0:0:
266,320,12185,6,2,L|263:284,1,20,10|0,0:2|0:2,0:2:0:0:
335,170,12343,2,2,L|333:189,1,20,10|0,0:2|0:2,0:2:0:0:
253,328,12501,2,2,L|250:292,1,20,10|0,0:2|0:2,0:2:0:0:
301,81,12659,6,0,P|368:61|405:67,1,95.9999970703126,6|0,3:2|0:0,0:0:0:0:
196,238,12975,2,0,P|148:238|104:220,1,95.9999970703126,10|0,0:0|0:0,0:0:0:0:
0,0,13291,2,0,P|39:107|42:147,1,143.999995605469,2|0,3:2|0:0,0:0:0:0:
41,136,13606,2,0,P|85:118|132:118,1,95.9999970703126,10|2,0:0|0:0,0:0:0:0:
284,203,13922,6,0,L|290:90,1,95.9999970703126,2|0,3:2|0:0,0:0:0:0:
357,343,14238,1,10,0:2:0:0:
400,238,14396,2,0,P|331:229|249:320,1,191.999994140625,2|2,0:2|0:2,0:0:0:0:
508,270,14869,2,0,P|510:219|488:176,1,95.9999970703126,10|2,0:2|0:2,0:0:0:0:
395,27,15185,6,0,L|403:140,1,95.9999970703126,2|0,3:2|0:0,0:0:0:0:
250,310,15501,2,0,L|256:214,1,95.9999970703126,10|0,0:2|0:0,0:0:0:0:
60,61,15817,2,0,P|89:78|193:40,1,143.999995605469,2|0,3:2|0:0,0:0:0:0:
187,48,16133,2,0,B|170:91|170:91|188:152,1,95.9999970703126,10|2,0:2|0:0,0:0:0:0:
135,260,16448,6,0,L|29:251,1,95.9999970703126,2|0,3:2|0:0,0:0:0:0:
288,196,16764,1,8,0:0:0:0:
272,346,16922,1,2,0:2:0:0:
272,346,17001,1,2,0:2:0:0:
272,346,17080,2,0,L|378:337,1,95.9999970703126,2|2,3:2|0:0,0:0:0:0:
421,127,17396,1,10,0:2:0:0:
489,258,17554,1,2,0:2:0:0:
292,37,17712,6,0,P|279:67|341:45,1,143.999995605469,2|0,3:2|0:0,0:0:0:0:
264,87,18027,6,2,P|281:111|333:41,1,143.999995605469,10|0,0:2|0:0,0:0:0:0:
276,133,18343,6,0,P|302:140|345:56,1,143.999995605469,2|0,3:2|0:0,0:0:0:0:
338,146,18659,6,0,P|356:94|338:46,1,95.9999970703126,10|2,0:2|0:2,0:0:0:0:
188,285,18975,6,2,B|237:264|237:264|327:302,1,143.999995605469,2|0,3:2|0:0,0:0:0:0:
320,299,19291,6,0,P|275:297|298:221,1,143.999995605469,10|0,0:0|0:0,0:0:0:0:
338,146,19606,6,0,P|291:130|232:158,1,95.9999970703126,2|2,3:2|0:2,0:0:0:0:
167,211,19843,1,2,0:2:0:0:
167,211,19922,2,2,B|134:139|194:145|156:52,1,143.999995605469,10|0,0:2|0:0,0:0:0:0:
85,0,20238,6,0,P|65:32|61:91,1,95.9999970703126,2|0,3:2|0:0,0:0:0:0:
255,242,20554,1,10,0:0:0:0:
324,177,20712,2,0,P|259:148|163:224,1,191.999994140625,2|2,0:0|0:0,0:0:0:0:
79,384,21185,2,0,P|77:336|54:294,1,95.9999970703126,10|2,0:2|0:0,0:0:0:0:
73,194,21501,5,2,3:2:0:0:
233,384,21659,2,0,L|239:311,1,60.0000022888184,14|0,0:2|0:0,0:0:0:0:
340,119,21817,2,0,L|361:315,1,180.000006866455,14|0,0:2|0:0,0:0:0:0:
359,340,22133,6,0,L|426:335,1,60.0000022888184,8|8,0:0|0:3,0:0:0:0:
512,245,22291,2,0,L|445:240,1,60.0000022888184,4|8,0:3|3:3,0:0:0:0:
340,119,22448,6,0,P|395:103|412:47,1,120.000004577637,12|8,0:0|0:0,0:0:0:0:
220,86,22685,5,8,0:0:0:0:
220,86,22764,2,0,P|219:133|237:177,1,95.9999970703126,6|0,3:2|0:0,0:0:0:0:
150,384,23080,2,0,P|168:339|167:292,1,95.9999970703126,10|0,0:0|0:0,0:0:0:0:
16,217,23396,2,0,P|123:178|154:152,1,143.999995605469,2|0,3:2|0:0,0:0:0:0:
145,160,23712,2,0,P|192:159|236:177,1,95.9999970703126,10|2,0:2|0:0,0:0:0:0:
368,384,24027,6,0,L|374:271,1,95.9999970703126,2|0,3:2|0:0,0:0:0:0:
493,99,24344,1,10,0:2:0:0:
319,138,24502,2,0,B|361:96|361:96|503:100,1,191.999994140625,2|2,0:2|0:2,0:0:0:0:
238,278,24975,2,0,L|232:165,1,95.9999970703126,10|2,0:2|0:2,0:0:0:0:
0,42,25291,6,0,P|19:83|10:145,1,95.9999970703126,2|2,3:2|0:0,0:0:0:0:
87,368,25607,2,0,L|93:272,1,95.9999970703126,10|2,0:0|0:0,0:0:0:0:
0,42,25923,2,0,P|29:59|133:21,1,143.999995605469,2|0,3:2|0:0,0:0:0:0:
165,0,26238,2,0,B|170:106,1,95.9999970703126,10|2,0:0|0:2,0:0:0:0:
163,248,26554,6,0,P|208:242|257:261,1,95.9999970703126,0|2,3:2|0:2,0:0:0:0:
326,328,26870,1,8,0:0:0:0:
443,211,27028,1,2,0:2:0:0:
443,211,27107,1,2,0:2:0:0:
443,211,27186,2,0,L|434:105,1,95.9999970703126,2|2,3:2|0:2,0:0:0:0:
370,59,27502,1,10,0:2:0:0:
347,236,27659,1,2,0:2:0:0:
278,20,27817,6,0,P|209:23|126:62,1,143.999995605469,2|0,3:2|0:0,0:0:0:0:
59,81,28133,6,0,P|76:105|128:35,1,143.999995605469,10|0,0:2|0:0,0:0:0:0:
140,50,28448,6,0,B|131:146|131:146|161:202,1,143.999995605469,2|0,3:2|0:0,0:0:0:0:
153,188,28765,6,0,P|199:177|242:195,1,95.9999970703126,10|0,0:2|0:0,0:0:0:0:
11,333,29080,5,8,0:2:0:0:
490,120,29396,2,2,B|399:106|433:157|350:145,1,143.999995605469,8|2,0:0|0:0,0:2:0:0:
352,145,30343,6,2,P|414:199|354:264,1,180.000006866455,14|0,0:2|0:2,0:2:0:0:
318,267,30659,1,8,0:0:0:0:
264,67,30817,1,2,0:2:0:0:
480,116,30975,1,8,0:2:0:0:
215,243,31133,2,0,P|157:225|99:212,1,120.000004577637,2|10,3:2|0:2,0:0:0:0:
37,316,31448,1,2,3:2:0:0:
58,16,31606,6,0,P|26:97|21:134,1,120,8|2,0:2|3:2,0:0:0:0:
131,326,31922,1,10,0:0:0:0:
246,135,32080,1,2,3:2:0:0:
131,326,32238,2,0,P|109:270|98:211,1,120.000004577637,8|0,0:0|3:2,0:0:0:0:
328,49,32554,2,0,P|290:95|245:134,1,120.000004577637,10|0,0:2|3:2,0:0:0:0:
151,142,32791,5,0,3:0:0:0:
151,142,32869,2,0,B|244:139|189:220|334:194,1,180.000006866455,10|0,0:2|0:0,0:2:0:0:
390,122,33185,1,10,0:2:0:0:
268,308,33343,2,2,P|325:292|384:302,1,120.000004577637,2|8,0:2|0:2,0:2:0:0:
458,382,33659,1,2,3:2:0:0:
478,184,33817,1,10,0:2:0:0:
512,293,33975,1,2,3:2:0:0:
504,101,34133,6,0,B|458:94|458:94|383:124,1,120.000004577637,8|0,0:2|3:2,0:0:0:0:
247,269,34448,2,0,B|201:276|201:276|126:246,1,120.000004577637,10|2,0:2|3:2,0:0:0:0:
0,22,34764,2,0,P|26:78|38:138,1,120.000004577637,10|2,0:2|3:2,0:0:0:0:
131,162,35001,5,0,3:2:0:0:
131,162,35080,2,0,P|149:102|161:77,1,90.0000034332277,10|0,0:2|0:0,0:0:0:0:
198,4,35396,6,2,B|246:32|246:32|382:12,1,180.000006866455,14|0,0:2|0:2,0:2:0:0:
455,4,35712,1,8,0:0:0:0:
416,215,35869,1,2,0:2:0:0:
272,56,36027,1,8,0:2:0:0:
319,256,36185,2,0,P|311:207|341:124,1,120.000004577637,2|10,3:2|0:2,0:0:0:0:
371,380,36501,1,2,3:2:0:0:
206,273,36659,6,0,B|262:245|262:245|329:257,1,120.000004577637,8|2,0:2|3:2,0:0:0:0:
80,365,36975,1,10,0:2:0:0:
27,142,37133,1,2,3:2:0:0:
80,365,37291,2,0,L|90:239,1,120.000004577637,8|0,0:0|3:2,0:0:0:0:
17,22,37606,2,0,L|26:141,1,120.000004577637,10|0,0:2|3:2,0:0:0:0:
112,166,37843,5,0,3:0:0:0:
112,166,37922,2,2,B|174:156|174:156|201:174|201:174|289:167,1,180.000006866455,10|0,0:2|0:2,0:2:0:0:
386,88,38238,1,8,0:2:0:0:
224,53,38396,1,2,0:2:0:0:
388,204,38554,2,0,B|446:186|446:186|504:198,1,120.000004577637,8|2,0:2|3:2,0:0:0:0:
297,246,38869,1,8,0:2:0:0:
462,97,39027,1,2,3:2:0:0:
502,338,39185,6,0,L|373:327,1,120.000004577637,8|0,0:2|3:2,0:0:0:0:
177,256,39501,2,0,L|296:245,1,120.000004577637,10|2,0:2|3:2,0:0:0:0:
60,314,39817,1,8,0:0:0:0:
163,167,39975,1,2,3:2:0:0:
187,368,40133,1,10,0:2:0:0:
87,233,40291,1,2,3:2:0:0:
281,210,40448,6,2,P|322:222|378:289,1,120,14|0,0:2|0:2,0:2:0:0:
385,323,40764,1,0,3:2:0:0:
389,100,40922,6,2,P|418:130|433:217,1,120.000004577637,14|0,0:2|3:2,0:2:0:0:
340,360,41396,2,2,P|360:335|388:321,1,60.0000022888184,14|0,0:2|0:2,0:2:0:0:
256,380,41712,6,2,L|132:367,1,120,6|0,3:2|0:2,0:2:0:0:
42,252,42343,6,0,L|99:240,1,40,2|0,0:2|0:0,0:0:0:0:
189,158,42501,2,0,L|149:166,1,40,2|2,0:2|0:2,0:0:0:0:
173,283,42659,6,0,L|147:154,1,120.000004577637,2|6,0:2|3:2,0:0:0:0:
376,2,43291,6,0,P|350:58|349:66,1,60.0000022888184,10|0,0:2|0:0,0:0:0:0:
258,67,43606,2,0,P|284:123|291:193,1,120.000004577637,2|10,0:2|0:2,0:0:0:0:
364,232,44080,2,0,B|412:213|412:213|484:228,2,120.000004577637,2|2|2,0:2|3:2|3:2,0:0:0:0:
261,339,44869,2,0,P|269:308|261:268,1,60.0000022888184,2|2,0:2|3:2,0:0:0:0:
137,169,45185,2,0,P|138:219|200:220,1,120.000004577637,10|2,0:0|3:2,0:0:0:0:
196,222,45817,6,0,P|148:243|83:287,1,120.000004577637,10|2,0:2|0:2,0:0:0:0:
17,352,46291,1,2,3:2:0:0:
3,189,46448,1,10,0:2:0:0:
3,189,46606,1,2,0:2:0:0:
17,352,46764,6,0,P|13:322|1:290,1,60.0000022888184,2|2,3:2|3:2,0:0:0:0:
91,279,47080,2,0,P|95:249|107:217,1,60.0000022888184,10|2,0:2|3:2,0:0:0:0:
196,222,47396,2,0,P|192:192|180:160,1,60.0000022888184,2|2,0:2|3:2,0:0:0:0:
264,300,47712,2,0,L|395:287,1,120.000004577637,10|2,0:2|3:2,0:0:0:0:
383,288,48343,6,0,P|373:326|435:361,2,120.000004577637,10|2|10,0:2|0:2|0:2,0:0:0:0:
472,50,49291,2,0,P|460:58|351:55,1,120.000004577637,2|10,3:2|0:2,0:0:0:0:
144,160,49922,2,0,P|202:148|257:169,1,120.000004577637,2|10,0:2|0:2,0:0:0:0:
408,247,50554,6,2,B|368:251|368:251|346:273|346:273|294:274,1,120.000004577637,2|8,3:2|0:2,0:2:0:0:
90,333,51027,2,0,B|130:337|130:337|152:359|152:359|204:360,1,120.000004577637,2|0,0:2|3:2,0:0:0:0:
292,368,51501,1,10,0:2:0:0:
149,86,51817,6,0,P|162:118|166:146,1,60.0000022888184,2|0,3:2|3:2,0:0:0:0:
181,242,52133,1,8,0:0:0:0:
287,24,52291,6,2,P|267:73|260:122,1,100,14|0,0:2|0:0,0:2:0:0:
260,119,52764,6,0,L|355:109,1,80,8|8,0:0|0:0,0:0:0:0:
434,156,53001,1,8,0:0:0:0:
434,156,53080,1,4,3:2:0:0:
332,359,53396,6,0,P|339:329|333:270,1,80,10|0,0:2|0:0,0:0:0:0:
218,187,53712,2,0,P|214:226|221:265,1,80,2|0,0:2|3:2,0:0:0:0:
188,40,54027,1,10,0:2:0:0:
134,142,54185,6,0,P|207:153|278:90,2,160,2|2|2,0:2|3:2|3:2,0:0:0:0:
14,49,54975,2,0,P|43:102|47:126,1,80,2|2,0:2|3:2,0:0:0:0:
50,291,55291,2,0,P|47:252|64:203,1,80,10|0,0:2|0:0,0:0:0:0:
128,351,55606,5,2,3:2:0:0:
128,351,55922,2,0,L|216:340,1,80,10|0,0:2|0:2,0:0:0:0:
386,273,56238,2,0,L|298:262,1,80,2|0,0:2|3:2,0:0:0:0:
143,188,56554,1,10,0:2:0:0:
143,188,56712,1,2,0:2:0:0:
223,38,56869,6,0,L|210:126,1,80,0|2,3:2|3:2,0:0:0:0:
306,263,57185,2,0,L|294:183,1,80,10|2,0:2|3:2,0:0:0:0:
383,124,57501,1,2,0:2:0:0:
460,196,57659,1,2,3:2:0:0:
512,51,57817,1,10,0:2:0:0:
436,366,58133,6,2,P|441:326|450:287,1,80,6|0,3:2|0:2,0:2:0:0:
301,160,58448,2,0,P|309:198|315:238,1,80,10|2,0:2|0:2,0:0:0:0:
210,355,58764,2,0,P|171:337|85:324,1,120,2|0,0:2|0:0,0:0:0:0:
95,323,59080,2,0,P|134:316|166:286,1,80,10|2,0:2|0:2,0:0:0:0:
200,108,59396,6,0,B|184:153|184:153|192:196,1,80,2|0,3:2|3:2,0:0:0:0:
289,294,59712,1,10,0:2:0:0:
323,166,59869,1,2,3:2:0:0:
289,294,60027,2,0,L|371:287,1,80,2|0,0:2|3:2,0:0:0:0:
189,184,60343,2,0,L|109:190,1,80,10|0,0:2|0:0,0:0:0:0:
270,29,60659,6,2,B|326:15|326:15|432:38,1,160,6|8,3:2|0:2,0:2:0:0:
344,191,61133,2,0,B|288:205|288:205|182:182,1,160,2|0,0:2|3:2,0:0:0:0:
35,8,61606,2,0,P|48:31|44:163,1,160,10|2,0:0|3:2,0:0:0:0:
26,266,62080,1,2,3:2:0:0:
209,255,62238,2,0,P|163:235|124:238,1,80,10|2,0:2|3:2,0:0:0:0:
280,362,62554,5,10,0:2:0:0:
280,362,62712,1,2,3:2:0:0:
280,362,62869,1,8,0:3:0:0:
280,362,63027,1,4,0:3:0:0:
400,219,63185,6,0,L|412:86,1,120.000004577637,6|8,3:2|0:0,0:0:0:0:
274,28,63659,2,0,L|284:147,1,120.000004577637,2|2,0:2|0:2,0:0:0:0:
226,208,64133,2,0,L|167:196,1,60.0000022888184,10|2,0:2|0:2,0:0:0:0:
8,97,64448,6,0,P|35:86|129:111,1,120.000004577637,2|10,3:2|0:2,0:0:0:0:
167,196,64922,2,0,P|194:207|288:182,1,120.000004577637,2|2,0:2|3:2,0:0:0:0:
384,234,65396,2,0,P|348:253|326:274,1,60.0000022888184,10|0,0:2|0:0,0:0:0:0:
493,347,65712,6,0,L|486:222,1,120.000004577637,2|10,3:2|0:2,0:0:0:0:
390,353,66185,2,0,L|383:228,1,120.000004577637,2|2,0:2|3:2,0:0:0:0:
301,366,66659,2,0,P|269:352|239:346,1,60.0000022888184,10|0,0:2|0:0,0:0:0:0:
149,359,66975,5,2,3:2:0:0:
34,295,67133,1,2,3:2:0:0:
213,244,67291,1,10,0:2:0:0:
98,180,67448,1,2,3:2:0:0:
69,375,67606,5,8,0:0:0:0:
124,265,67764,1,8,0:3:0:0:
228,333,67922,1,4,0:3:0:0:
320,89,68080,6,2,P|319:148|326:216,1,120.000004577637,14|2,0:2|3:2,0:2:0:0:
497,349,68554,5,10,0:2:0:0:
497,349,68712,1,0,3:2:0:0:
423,112,68869,5,10,0:2:0:0:
423,112,69027,1,0,3:2:0:0:
337,384,69185,5,10,0:2:0:0:
337,384,69343,1,0,3:2:0:0:
178,50,69501,5,10,0:2:0:0:
182,68,69659,1,0,3:2:0:0:
84,219,69817,5,10,0:2:0:0:
90,173,69975,1,0,3:2:0:0:
140,313,70133,5,10,0:2:0:0:
0,215,70291,1,2,3:2:0:0:
188,167,70448,1,8,0:0:0:0:
59,384,70606,1,2,3:2:0:0:
10,88,70764,6,0,P|40:88|75:99,1,60.0000022888184,8|2,0:2|3:2,0:0:0:0:
234,270,71080,2,2,P|264:270|299:259,1,60.0000022888184,10|2,0:2|3:2,0:2:0:0:
445,42,71396,2,0,P|419:95|410:158,1,120.000004577637,10|0,0:2|3:2,0:0:0:0:
292,261,71869,6,0,B|187:243|227:308|112:299,1,180.000006866455,10|0,0:2|0:0,0:0:0:0:
75,267,72185,2,0,P|87:328|56:386,1,120.000004577637,10|2,0:2|3:2,0:0:0:0:
171,130,72501,1,10,0:0:0:0:
293,360,72659,6,0,L|295:295,1,60.0000022888184,10|8,0:2|0:3,0:0:0:0:
323,148,72817,2,0,L|324:207,1,60.0000022888184,4|8,0:3|3:3,0:0:0:0:
216,275,72975,6,0,L|420:250,1,180.000006866455,12|0,0:2|0:0,0:0:0:0:
394,253,73291,6,0,P|393:300|411:344,1,95.9999970703126,6|0,3:2|0:0,0:2:0:0:
502,108,73607,2,0,P|502:60|484:16,1,95.9999970703126,10|0,0:2|0:0,0:2:0:0:
281,118,73923,2,0,P|351:130|417:159,1,143.999995605469,2|0,3:2|0:2,0:2:0:0:
417,159,74238,2,0,P|369:158|325:176,1,95.9999970703126,10|2,0:2|0:2,0:2:0:0:
187,348,74554,6,0,L|193:235,1,95.9999970703126,2|0,3:2|0:2,0:2:0:0:
91,142,74870,1,8,0:2:0:0:
83,326,75027,2,0,B|62:287|62:287|91:137,1,191.999994140625,2|2,0:2|0:2,0:0:0:0:
242,0,75501,2,0,P|191:-2|148:20,1,95.9999970703126,10|2,0:2|0:2,0:0:0:0:
389,128,75817,6,0,L|383:33,1,95.9999970703126,2|0,3:2|0:0,0:0:0:0:
245,212,76133,2,0,L|239:308,1,95.9999970703126,10|0,3:2|0:0,0:0:0:0:
464,197,76449,2,0,P|435:180|331:218,1,143.999995605469,2|0,3:2|0:0,0:0:0:0:
336,209,76764,2,0,L|330:305,1,95.9999970703126,10|2,0:2|0:2,0:0:0:0:
116,342,77080,6,0,L|10:333,1,95.9999970703126,2|0,3:2|0:0,0:0:0:0:
166,179,77396,1,8,0:0:0:0:
254,361,77554,1,2,0:2:0:0:
254,361,77633,1,2,0:2:0:0:
254,361,77712,2,0,P|260:308|237:255,1,95.9999970703126,2|2,3:2|0:0,0:0:0:0:
68,149,78028,1,10,0:2:0:0:
116,342,78186,1,2,0:2:0:0:
298,50,78344,6,0,P|261:37|171:86,1,143.999995605469,2|0,3:2|0:0,0:0:0:0:
173,81,78659,2,2,P|210:94|300:45,1,143.999995605469,10|0,0:2|0:0,0:0:0:0:
293,40,78975,6,0,P|256:27|166:76,1,143.999995605469,2|0,3:2|0:0,0:0:0:0:
168,71,79291,2,0,L|181:170,1,95.9999970703126,10|2,0:2|0:2,0:0:0:0:
318,318,79607,6,2,B|367:297|367:297|457:335,1,143.999995605469,2|0,3:2|0:0,0:0:0:0:
450,332,79923,6,0,P|426:278|425:190,1,143.999995605469,10|0,0:2|0:0,0:0:0:0:
424,194,80238,6,0,B|381:213|381:213|320:194,1,95.9999970703126,2|2,3:2|0:0,0:0:0:0:
285,119,80475,1,2,0:0:0:0:
285,119,80554,2,2,B|213:152|219:92|126:130,1,143.999995605469,10|0,0:2|0:0,0:0:0:0:
60,116,80870,6,0,P|80:84|84:25,1,95.9999970703126,2|0,3:2|0:0,0:0:0:0:
96,275,81186,1,10,0:2:0:0:
2,228,81344,2,0,P|71:167|159:194,1,191.999994140625,2|0,0:2|0:0,0:0:0:0:
313,359,81817,2,0,P|311:311|288:269,1,95.9999970703126,10|2,0:2|0:0,0:0:0:0:
232,123,82133,5,2,3:2:0:0:
179,344,82291,1,2,3:2:0:0:
414,277,82448,1,10,0:2:0:0:
192,232,82606,1,2,3:2:0:0:
399,365,82764,5,10,0:2:0:0:
399,365,82843,1,8,3:3:0:0:
399,365,82922,1,4,3:3:0:0:
399,365,83001,1,0,3:2:0:0:
399,365,83080,2,0,L|415:268,1,90.0000034332277,12|0,0:0|3:0,0:0:0:0:
444,175,83396,6,0,P|397:174|353:192,1,95.9999970703126,6|0,3:2|0:0,0:0:0:0:
189,333,83712,2,0,P|234:351|281:350,1,95.9999970703126,10|0,0:2|0:0,0:0:0:0:
80,139,84028,2,0,P|40:199|23:268,1,143.999995605469,2|0,3:2|0:0,0:0:0:0:
23,268,84344,2,0,P|70:267|114:285,1,95.9999970703126,10|2,0:2|0:0,0:0:0:0:
280,350,84659,6,0,B|267:305|267:305|286:237,1,95.9999970703126,2|0,3:2|0:0,0:0:0:0:
393,111,84976,1,8,0:0:0:0:
218,149,85134,2,0,B|260:107|260:107|402:111,1,191.999994140625,2|2,0:2|0:2,0:0:0:0:
127,205,85607,2,0,P|111:148|131:97,1,95.9999970703126,10|2,0:2|0:2,0:0:0:0:
162,350,85923,6,0,P|121:369|65:357,1,95.9999970703126,2|2,3:2|0:2,0:0:0:0:
256,228,86239,2,0,L|250:324,1,95.9999970703126,10|2,0:2|0:2,0:0:0:0:
0,218,86555,2,0,P|60:183|127:205,1,143.999995605469,2|0,3:2|0:0,0:0:0:0:
127,205,86870,2,0,B|122:109,1,95.9999970703126,10|2,0:2|0:2,0:0:0:0:
261,3,87186,6,0,P|306:-3|355:16,1,95.9999970703126,2|2,3:2|0:2,0:0:0:0:
452,85,87502,1,10,0:2:0:0:
339,255,87660,1,2,0:2:0:0:
339,255,87739,1,2,0:2:0:0:
339,255,87818,2,0,L|330:149,1,95.9999970703126,2|2,3:2|0:2,0:0:0:0:
438,317,88134,1,10,0:2:0:0:
227,264,88291,1,2,0:2:0:0:
476,223,88449,6,0,P|407:226|324:265,1,143.999995605469,6|0,3:2|0:2,0:2:0:0:
338,254,88765,6,0,P|313:313|229:318,1,143.999995605469,10|0,0:2|0:2,0:2:0:0:
240,324,89080,6,0,B|249:228|249:228|219:172,1,143.999995605469,2|0,3:2|0:2,0:2:0:0:
226,186,89397,6,0,P|182:204|136:193,1,95.9999970703126,10|0,0:2|0:0,0:2:0:0:
94,52,89712,5,10,0:2:0:0:
149,336,90027,2,2,L|133:162,1,143.999995605469,10|0,0:2|0:2,0:2:0:0:
501,135,90975,6,2,P|406:162|341:102,1,180.000006866455,6|0,3:2|0:2,0:2:0:0:
333,82,91291,1,8,0:0:0:0:
277,317,91449,1,2,0:2:0:0:
186,138,91607,1,8,0:2:0:0:
129,276,91765,2,0,P|71:258|13:245,1,120.000004577637,2|10,3:2|0:2,0:0:0:0:
0,339,92080,1,2,3:2:0:0:
277,317,92238,6,0,P|358:285|395:280,1,120,8|2,0:2|3:2,0:0:0:0:
191,384,92554,1,10,0:2:0:0:
247,114,92712,1,2,3:2:0:0:
191,384,92870,2,0,P|169:328|158:269,1,120.000004577637,10|2,0:2|3:2,0:0:0:0:
280,0,93185,2,0,P|268:58|247:114,1,120.000004577637,10|0,0:2|3:2,0:0:0:0:
296,183,93423,5,0,3:0:0:0:
296,183,93501,2,2,B|374:152|374:152|465:193,1,180.000006866455,10|0,0:2|0:2,0:2:0:0:
479,220,93817,1,8,0:0:0:0:
373,0,93975,2,2,P|389:57|379:116,1,120.000004577637,2|8,0:2|0:2,0:2:0:0:
290,375,94291,1,2,3:2:0:0:
138,186,94449,1,8,0:2:0:0:
292,227,94607,1,2,3:2:0:0:
42,358,94765,6,0,B|49:312|49:312|19:237,1,120.000004577637,8|2,0:2|3:2,0:0:0:0:
206,0,95080,2,0,B|178:68|178:68|185:114,1,120.000004577637,10|2,0:2|3:2,0:0:0:0:
375,281,95396,2,0,P|316:293|262:318,1,120.000004577637,10|2,0:2|3:2,0:0:0:0:
194,361,95633,5,0,3:2:0:0:
194,361,95712,2,0,P|176:301|164:276,1,90.0000034332277,10|0,0:2|0:0,0:0:0:0:
68,210,96028,6,2,B|116:238|116:238|252:218,1,180.000006866455,14|0,0:2|0:2,0:2:0:0:
286,212,96344,1,8,0:0:0:0:
223,48,96501,1,2,0:2:0:0:
297,225,96659,1,8,0:0:0:0:
386,2,96817,2,0,P|368:58|376:118,1,120.000004577637,2|10,3:2|0:2,0:0:0:0:
504,274,97133,1,2,3:2:0:0:
212,315,97291,6,0,B|335:299,1,120.000004577637,8|2,0:0|3:2,0:0:0:0:
110,374,97607,1,10,0:2:0:0:
26,141,97765,1,2,3:2:0:0:
110,374,97923,2,0,P|101:299|120:248,1,120.000004577637,8|0,0:0|3:2,0:0:0:0:
275,40,98238,2,0,P|290:97|279:156,1,120.000004577637,10|0,0:2|3:2,0:0:0:0:
197,177,98475,5,0,3:0:0:0:
197,177,98554,2,2,B|259:167|259:167|286:185|286:185|374:178,1,180.000006866455,14|0,0:2|0:2,0:2:0:0:
436,118,98870,1,8,0:0:0:0:
168,67,99028,1,2,0:2:0:0:
436,118,99186,2,0,B|457:173|457:173|442:234,1,120.000004577637,8|2,0:2|3:2,0:0:0:0:
301,328,99501,1,8,0:2:0:0:
310,49,99659,1,2,3:2:0:0:
300,320,99817,6,0,L|171:309,1,120.000004577637,8|0,0:2|3:2,0:0:0:0:
27,118,100133,2,0,L|146:107,1,120.000004577637,10|2,0:2|3:2,0:0:0:0:
58,362,100449,5,8,0:0:0:0:
55,323,100527,1,8,0:0:0:0:
49,279,100607,1,10,0:2:0:0:
43,237,100685,1,8,0:0:0:0:
37,196,100765,1,10,0:2:0:0:
147,383,100923,1,4,0:3:0:0:
261,95,101080,5,6,3:2:0:0:
261,95,101396,1,8,0:0:0:0:
512,375,101554,5,6,3:2:0:0:
512,375,101869,1,8,0:0:0:0:
241,215,102027,1,6,3:2:0:0:
303,384,102185,1,0,0:2:0:0:
456,46,102343,6,2,P|377:38|454:100,1,240.000009155274,14|2,0:2|0:2,0:2:0:0:
444,109,103133,1,2,0:2:0:0:
279,18,103291,2,0,L|342:9,1,60.0000022888184,2|2,0:2|0:2,0:0:0:0:
306,280,103606,5,10,0:2:0:0:
