osu file format v14

[General]
AudioFilename: audio.mp3
AudioLeadIn: 0
PreviewTime: 132501
Countdown: 0
SampleSet: Soft
StackLeniency: 0.7
Mode: 0
LetterboxInBreaks: 0
WidescreenStoryboard: 0

[Editor]
DistanceSpacing: 0.6
BeatDivisor: 4
GridSize: 32
TimelineZoom: 2.799999

[Metadata]
Title:Cherry Bomb
TitleUnicode:チェリボム
Artist:Poppin'Party
ArtistUnicode:Poppin'Party
Creator:[Karcher]
Version:Love
Source:バンドリ! ガールズバンドパーティ!
Tags:Bang Dream! Girls Band Party bandori garupa ガルパ popipa ポピパ ポッピンパーティ cover Silent Siren toyama kasumi 戸山香澄 terakawa aimi 寺川愛美 hanazono tae 花園たえ otsuka sae 大塚紗英 ushigome rimi 牛込りみ nishimoto 西本りみ yamabuki saya saaya 山吹沙綾 ohashi ayaka 大橋彩香 ichigaya arisa 市ヶ谷有咲 itou ayasa 伊藤彩沙 full ver version anime video game jpop pop j-pop japanese female vocal
BeatmapID:2883760
BeatmapSetID:1397392

[Difficulty]
HPDrainRate:6.5
CircleSize:4.1
OverallDifficulty:9.2
ApproachRate:9.4
SliderMultiplier:1.9
SliderTickRate:1

[Events]
//Background and Video events
0,0,"bg.jpg",0,0
//Break Periods
//Storyboard Layer 0 (Background)
//Storyboard Layer 1 (Fail)
//Storyboard Layer 2 (Pass)
//Storyboard Layer 3 (Foreground)
//Storyboard Layer 4 (Overlay)
//Storyboard Sound Samples

[TimingPoints]
-40,315.789473684211,4,2,1,40,1,0
591,-125,4,2,1,40,0,0
1223,-111.111111111111,4,2,1,40,0,0
6275,-111.111111111111,4,2,1,55,0,0
10065,-71.4285714285714,4,2,1,55,0,0
10302,-71.4285714285714,4,2,1,5,0,0
10381,-100,4,2,1,55,0,0
11328,-83.3333333333333,4,2,1,70,0,1
12512,-83.3333333333333,4,2,1,5,0,1
12591,-83.3333333333333,4,2,1,70,0,1
15038,-83.3333333333333,4,2,1,5,0,1
15117,-83.3333333333333,4,2,1,70,0,1
18828,-83.3333333333333,4,2,1,5,0,1
18907,-83.3333333333333,4,2,1,70,0,1
22617,-83.3333333333333,4,2,1,5,0,1
22696,-83.3333333333333,4,2,1,70,0,1
25144,-83.3333333333333,4,2,1,5,0,1
25223,-83.3333333333333,4,2,1,70,0,1
29012,-76.9230769230769,4,2,1,70,0,0
29249,-76.9230769230769,4,2,1,5,0,0
29328,-76.9230769230769,4,2,1,70,0,0
34302,-76.9230769230769,4,2,1,5,0,0
34381,-76.9230769230769,4,2,1,70,0,0
40381,-250,4,2,1,70,0,0
41012,-62.5,4,2,1,70,0,0
41052,-62.5,4,2,1,35,0,0
41328,-125,4,2,1,60,0,0
41407,-125,4,2,1,35,0,0
41644,-125,4,2,1,50,0,0
51749,-100,4,2,1,60,0,0
61854,-111.111111111111,4,2,1,50,0,0
66749,-83.3333333333333,4,2,1,65,0,0
66986,-83.3333333333333,4,2,1,5,0,0
67065,-83.3333333333333,4,2,1,65,0,0
71960,-83.3333333333333,4,2,1,70,0,1
73144,-83.3333333333333,4,2,1,5,0,1
73223,-83.3333333333333,4,2,1,70,0,1
75670,-83.3333333333333,4,2,1,5,0,1
75749,-83.3333333333333,4,2,1,70,0,1
83249,-83.3333333333333,4,2,1,5,0,1
83328,-83.3333333333333,4,2,1,70,0,1
85775,-83.3333333333333,4,2,1,5,0,1
85854,-83.3333333333333,4,2,1,70,0,1
89644,-76.9230769230769,4,2,1,70,0,0
89881,-76.9230769230769,4,2,1,5,0,0
89960,-76.9230769230769,4,2,1,70,0,0
94933,-76.9230769230769,4,2,1,5,0,0
95012,-76.9230769230769,4,2,1,70,0,0
101012,-250,4,2,1,70,0,0
101644,-250,4,2,1,60,0,0
102275,-125,4,2,1,50,0,0
104723,-125,4,2,1,5,0,0
104802,-125,4,2,1,50,0,0
107249,-125,4,2,1,5,0,0
107328,-100,4,2,1,60,0,0
112381,-125,4,2,1,65,0,0
112696,-83.3333333333333,4,2,1,65,0,0
119960,-100,4,2,1,65,0,0
122486,-125,4,2,1,50,0,0
126512,-125,4,2,1,5,0,0
126591,-125,4,2,1,50,0,0
127381,-83.3333333333333,4,2,1,65,0,0
127617,-83.3333333333333,4,2,1,5,0,0
127696,-83.3333333333333,4,2,1,65,0,0
132591,-83.3333333333333,4,2,1,70,0,1
133775,-83.3333333333333,4,2,1,5,0,1
133854,-83.3333333333333,4,2,1,70,0,1
136302,-83.3333333333333,4,2,1,5,0,1
136381,-83.3333333333333,4,2,1,70,0,1
140091,-83.3333333333333,4,2,1,5,0,1
140170,-83.3333333333333,4,2,1,70,0,1
143881,-83.3333333333333,4,2,1,5,0,1
143960,-83.3333333333333,4,2,1,70,0,1
146407,-83.3333333333333,4,2,1,5,0,1
146486,-83.3333333333333,4,2,1,70,0,1
150275,-100,4,2,1,60,0,0
160381,-166.666666666667,4,2,1,45,0,0
161802,-111.111111111111,4,2,1,45,0,0
162828,-111.111111111111,4,2,1,5,0,0
162907,-166.666666666667,4,2,1,45,0,0
164328,-111.111111111111,4,2,1,45,0,0
165433,-111.111111111111,4,2,1,55,0,0
170486,-90.9090909090909,4,2,1,65,0,0
175538,-83.3333333333333,4,2,1,75,0,1
180591,-90.9090909090909,4,2,1,70,0,0
188091,-90.9090909090909,4,2,1,5,0,0
188170,-90.9090909090909,4,2,1,70,0,0
190223,-181.818181818182,4,2,1,45,0,0
190696,-83.3333333333333,4,2,1,70,0,1
191881,-83.3333333333333,4,2,1,5,0,1
191960,-83.3333333333333,4,2,1,70,0,1
194407,-83.3333333333333,4,2,1,5,0,1
194486,-83.3333333333333,4,2,1,70,0,1
198196,-83.3333333333333,4,2,1,5,0,1
198275,-83.3333333333333,4,2,1,70,0,1
201986,-83.3333333333333,4,2,1,5,0,1
202065,-83.3333333333333,4,2,1,70,0,1
204512,-83.3333333333333,4,2,1,5,0,1
204591,-83.3333333333333,4,2,1,70,0,1
207749,-83.3333333333333,4,2,1,60,0,0
208381,-83.3333333333333,4,2,1,70,0,1
209565,-83.3333333333333,4,2,1,5,0,1
209644,-83.3333333333333,4,2,1,70,0,1
212091,-83.3333333333333,4,2,1,5,0,1
212170,-83.3333333333333,4,2,1,70,0,1
215881,-83.3333333333333,4,2,1,5,0,1
215960,-83.3333333333333,4,2,1,70,0,1
219670,-83.3333333333333,4,2,1,5,0,1
219749,-83.3333333333333,4,2,1,70,0,1
222196,-83.3333333333333,4,2,1,5,0,1
222275,-83.3333333333333,4,2,1,70,0,1
223538,-66.6666666666667,4,2,1,70,0,1
223617,-66.6666666666667,4,2,1,5,0,0
224802,-66.6666666666667,4,2,1,70,0,1
224881,-66.6666666666667,4,2,1,5,0,0
226065,-66.6666666666667,4,2,1,70,0,1
226144,-66.6666666666667,4,2,1,5,0,0
227328,-66.6666666666667,4,2,1,70,0,0
228591,-76.9230769230769,4,2,1,70,0,1
228828,-76.9230769230769,4,2,1,5,0,1
228907,-76.9230769230769,4,2,1,70,0,1
231354,-76.9230769230769,4,2,1,5,0,1
231433,-76.9230769230769,4,2,1,70,0,1
233881,-76.9230769230769,4,2,1,5,0,1
233960,-76.9230769230769,4,2,1,70,0,1
236407,-76.9230769230769,4,2,1,5,0,1
236486,-76.9230769230769,4,2,1,70,0,1
238696,-76.9230769230769,4,2,1,70,0,0
239960,-250,4,2,1,70,0,0
240591,-125,4,2,1,70,0,0

[Colours]
Combo1 : 253,179,223
Combo2 : 244,53,72
Combo3 : 253,148,62

[HitObjects]
131,340,591,6,0,B|95:330|95:330|109:371,1,76,2|2,0:0|0:0,0:0:0:0:
204,265,907,2,0,B|240:255|240:255|226:296,1,76,2|2,0:0|0:0,0:0:0:0:
109,234,1223,6,0,L|121:148,1,85.4999973907472,6|0,1:2|0:0,0:0:0:0:
223,63,1538,1,8,0:0:0:0:
223,63,1696,2,0,L|234:147,1,85.4999973907472,8|0,0:0|1:2,0:0:0:0:
348,222,2012,1,0,1:2:0:0:
366,128,2170,1,8,0:0:0:0:
443,335,2328,6,0,B|485:295|485:295|441:187,1,170.999994781494,0|0,0:0|1:2,0:0:0:0:
373,42,2802,2,0,L|365:135,1,85.4999973907472,8|8,0:0|0:3,0:0:0:0:
366,128,3038,1,8,0:3:0:0:
366,128,3117,1,4,0:3:0:0:
200,248,3275,5,2,1:2:0:0:
442,190,3433,1,10,0:0:0:0:
253,59,3591,1,2,0:0:0:0:
297,227,3749,6,0,L|287:139,1,85.4999973907472,0|0,1:2|1:2,0:0:0:0:
166,28,4065,1,8,0:0:0:0:
166,28,4223,2,0,L|156:112,1,85.4999973907472,8|0,0:0|1:2,0:0:0:0:
21,234,4538,1,0,1:2:0:0:
47,135,4696,1,8,0:0:0:0:
167,310,4854,6,0,B|237:300|237:300|268:318|268:318|331:308,1,170.999994781494,0|0,0:0|1:2,0:0:0:0:
445,215,5328,2,0,L|431:305,1,85.4999973907472,8|8,0:0|0:3,0:0:0:0:
431,299,5565,1,8,0:3:0:0:
431,299,5644,1,4,0:3:0:0:
291,222,5802,2,0,L|278:133,2,85.4999973907472,2|10|2,1:2|0:0|1:2,0:0:0:0:
308,384,6275,5,6,0:0:0:0:
256,192,6354,12,8,9749,0:0:0:0:
195,38,10065,6,0,B|198:18|212:5|229:-5|271:-3|287:29|285:75|262:97|232:112|207:113,1,199.499993911743,6|0,1:2|0:0,0:0:0:0:
140,101,10381,6,0,L|39:86,1,95,10|0,0:0|0:0,0:0:0:0:
46,87,10617,1,0,1:2:0:0:
46,87,10696,5,8,0:0:0:0:
57,326,10854,1,8,0:0:0:0:
296,315,11012,1,8,0:0:0:0:
285,76,11170,1,8,0:0:0:0:
170,208,11328,6,0,L|285:190,1,113.999996520996,6|0,1:2|0:0,0:0:0:0:
379,32,11644,2,0,P|321:36|284:77,1,113.999996520996,10|0,0:0|0:0,0:0:0:0:
403,263,11960,2,0,L|390:138,1,113.999996520996,2|0,1:2|0:0,0:0:0:0:
219,28,12275,2,0,B|169:3|169:3|199:125,1,170.999994781494,10|0,0:0|0:0,0:0:0:0:
196,114,12591,5,0,1:2:0:0:
370,264,12749,1,0,0:0:0:0:
166,280,12907,1,8,0:0:0:0:
308,120,13065,6,0,L|286:243,1,113.999996520996,2|0,0:0|1:2,0:0:0:0:
73,384,13381,1,2,0:0:0:0:
154,175,13538,1,10,0:0:0:0:
256,373,13696,1,2,0:0:0:0:
61,261,13854,6,0,P|51:205|81:153,1,113.999996520996,2|0,1:2|0:0,0:0:0:0:
175,68,14170,2,0,L|58:45,1,113.999996520996,10|0,0:0|0:0,0:0:0:0:
139,304,14486,2,0,L|250:282,1,113.999996520996,2|0,1:2|0:0,0:0:0:0:
430,117,14802,2,0,P|372:81|367:162,1,170.999994781494,10|0,0:0|0:0,0:0:0:0:
427,206,15117,6,0,L|414:328,1,113.999996520996,0|0,1:2|0:0,0:0:0:0:
257,197,15433,1,8,0:0:0:0:
430,91,15591,1,2,0:0:0:0:
430,91,15670,1,2,0:0:0:0:
430,91,15749,1,2,1:2:0:0:
334,290,15907,1,2,0:0:0:0:
239,88,16065,1,10,0:0:0:0:
427,206,16223,5,2,0:0:0:0:
183,27,16381,2,0,P|158:80|170:134,1,113.999996520996,6|0,1:2|0:0,0:0:0:0:
272,305,16696,2,0,L|258:179,1,113.999996520996,10|0,0:0|0:0,0:0:0:0:
75,87,17012,1,2,1:2:0:0:
149,297,17170,1,0,0:0:0:0:
259,97,17328,2,0,L|387:112,1,113.999996520996,10|0,0:0|0:0,0:0:0:0:
444,147,17565,1,0,0:0:0:0:
452,158,17644,6,0,L|441:278,1,113.999996520996,2|0,1:2|0:0,0:0:0:0:
324,366,17960,2,0,L|313:252,1,113.999996520996,10|0,0:0|0:0,0:0:0:0:
474,64,18275,1,2,1:2:0:0:
512,308,18433,1,2,0:0:0:0:
325,163,18591,2,0,B|265:135|265:135|163:172,1,170.999994781494,10|0,0:0|0:0,0:0:0:0:
111,230,18907,6,0,P|88:174|113:115,1,113.999996520996,2|2,1:2|0:0,0:0:0:0:
337,74,19223,1,10,0:0:0:0:
221,278,19381,1,2,0:0:0:0:
202,36,19538,5,2,1:2:0:0:
281,180,19696,1,2,0:0:0:0:
318,193,19775,1,2,0:0:0:0:
357,193,19854,1,8,0:0:0:0:
493,77,20012,1,2,0:0:0:0:
330,106,20170,5,2,1:2:0:0:
512,243,20328,1,14,0:0:0:0:
393,16,20486,1,14,0:0:0:0:
282,258,20644,1,2,1:2:0:0:
420,156,20802,5,10,0:3:0:0:
419,144,20881,1,8,0:3:0:0:
418,132,20960,1,8,0:3:0:0:
417,120,21038,1,8,0:3:0:0:
416,108,21117,1,12,0:0:0:0:
187,44,21275,2,0,L|192:110,1,56.9999982604981,8|8,0:0|0:0,0:0:0:0:
190,192,21433,6,0,L|65:172,1,113.999996520996,6|0,1:2|0:0,0:0:0:0:
271,146,21749,2,0,P|278:202|255:257,1,113.999996520996,10|0,0:0|0:0,0:0:0:0:
0,218,22065,2,0,P|-7:162|21:109,1,113.999996520996,2|0,1:2|0:0,0:0:0:0:
187,44,22381,2,0,B|289:19|243:78|361:42,1,170.999994781494,10|0,0:0|0:0,0:0:0:0:
353,44,22696,5,0,1:2:0:0:
483,210,22854,1,0,0:0:0:0:
268,196,23012,1,8,0:0:0:0:
447,21,23170,6,0,L|432:141,1,113.999996520996,2|0,0:0|1:2,0:0:0:0:
338,384,23486,1,2,0:0:0:0:
347,176,23644,1,10,0:0:0:0:
485,324,23802,1,2,0:0:0:0:
274,134,23960,6,0,P|264:195|294:244,1,113.999996520996,2|0,1:2|0:0,0:0:0:0:
460,103,24275,2,0,L|344:89,1,113.999996520996,10|0,0:0|0:0,0:0:0:0:
157,58,24591,2,0,L|273:44,1,113.999996520996,2|0,1:2|0:0,0:0:0:0:
497,180,24907,2,0,P|452:239|428:168,1,170.999994781494,10|0,0:0|0:0,0:0:0:0:
460,103,25223,5,0,1:2:0:0:
249,245,25381,2,0,L|278:115,1,113.999996520996,2|10,0:0|0:0,0:0:0:0:
331,308,25696,1,2,0:0:0:0:
331,308,25775,1,2,0:0:0:0:
331,308,25854,1,2,1:2:0:0:
128,209,26012,1,2,0:0:0:0:
350,145,26170,1,10,0:0:0:0:
230,365,26328,5,2,0:0:0:0:
143,96,26486,2,0,L|127:216,1,113.999996520996,6|0,1:2|0:0,0:0:0:0:
334,32,26802,2,0,L|350:152,1,113.999996520996,10|0,0:0|0:0,0:0:0:0:
126,85,27117,2,0,L|110:205,1,113.999996520996,2|0,1:2|0:0,0:0:0:0:
347,21,27433,2,0,L|363:141,1,113.999996520996,10|0,0:0|0:0,0:0:0:0:
46,94,27749,5,10,0:0:0:0:
438,27,28065,1,10,0:0:0:0:
89,311,29012,6,0,B|125:291|139:264|139:264|193:277|251:312,1,185.249991519928,14|0,0:0|0:0,0:0:0:0:
316,346,29328,1,8,0:0:0:0:
21,369,29486,2,0,P|3:310|29:252,1,123.499994346619,2|8,0:0|0:0,0:0:0:0:
201,115,29802,1,2,1:2:0:0:
165,347,29960,1,10,0:0:0:0:
25,172,30117,1,2,1:2:0:0:
262,56,30275,6,0,P|285:113|263:175,1,123.499994346619,8|2,0:0|1:2,0:0:0:0:
26,255,30591,1,10,0:0:0:0:
106,19,30749,1,2,1:2:0:0:
211,244,30907,2,0,P|279:259|330:236,1,123.499994346619,10|0,0:0|1:2,0:0:0:0:
477,136,31223,2,0,L|349:152,1,123.499994346619,10|0,0:0|1:2,0:0:0:0:
399,353,31538,6,0,L|415:219,1,123.499994346619,10|0,0:0|0:0,0:0:0:0:
297,61,31854,1,8,0:0:0:0:
211,244,32012,2,0,P|157:266|95:250,1,123.499994346619,2|8,0:0|0:0,0:0:0:0:
213,88,32328,1,2,1:2:0:0:
325,256,32486,1,10,0:0:0:0:
150,178,32644,1,2,1:2:0:0:
356,59,32802,6,0,L|339:187,1,123.499994346619,8|0,0:0|1:2,0:0:0:0:
249,373,33117,1,10,0:0:0:0:
436,233,33275,1,2,1:2:0:0:
232,143,33433,5,10,0:0:0:0:
405,333,33591,1,2,1:2:0:0:
405,333,33670,1,0,1:2:0:0:
405,333,33749,1,10,0:0:0:0:
434,79,33907,1,2,1:2:0:0:
246,250,34065,6,0,B|193:291|193:291|76:258,1,185.249991519928,14|0,0:0|0:0,0:0:0:0:
5,230,34381,1,8,0:0:0:0:
160,72,34538,2,0,L|175:211,1,123.499994346619,2|8,0:0|0:0,0:0:0:0:
350,359,34854,1,2,1:2:0:0:
298,137,35012,1,10,0:0:0:0:
162,324,35170,1,2,1:2:0:0:
369,193,35328,6,0,P|386:134|357:72,1,123.499994346619,8|2,0:0|1:2,0:0:0:0:
159,6,35644,1,10,0:0:0:0:
241,206,35802,1,2,1:2:0:0:
332,4,35960,2,0,P|395:6|440:51,1,123.499994346619,10|0,0:0|1:2,0:0:0:0:
490,215,36275,2,0,L|363:192,1,123.499994346619,10|0,0:0|1:2,0:0:0:0:
113,102,36591,6,0,B|90:159|90:159|104:220,1,123.499994346619,10|0,0:0|0:0,0:0:0:0:
236,374,36907,1,8,0:0:0:0:
298,149,37065,2,0,L|160:164,1,123.499994346619,2|8,0:0|0:0,0:0:0:0:
3,299,37381,1,2,1:2:0:0:
113,102,37538,1,10,0:0:0:0:
181,315,37696,1,2,1:2:0:0:
20,119,37854,5,8,0:0:0:0:
263,74,38012,1,0,1:2:0:0:
75,257,38170,1,10,0:0:0:0:
40,0,38328,1,2,1:2:0:0:
207,191,38486,5,8,0:0:0:0:
166,22,38644,1,2,1:2:0:0:
69,167,38802,1,10,0:0:0:0:
150,112,38960,1,2,0:0:0:0:
244,277,39117,6,0,P|301:312|329:173,1,246.999988693238,14|0,0:0|1:2,0:0:0:0:
327,64,39591,2,0,B|386:18|386:18|353:186,1,246.999988693238,14|0,0:0|1:2,0:0:0:0:
244,277,40065,2,0,L|114:262,1,123.499994346619,14|0,0:0|0:0,0:0:0:0:
18,175,40381,6,0,L|136:162,1,114,6|0,1:2|0:0,0:0:0:0:
322,88,41012,6,0,L|326:46,6,38,2|2|2|2|2|2|2,0:0|0:0|0:0|0:0|0:0|0:0|0:0,0:0:0:0:
244,81,41328,6,0,L|248:39,3,38,2|2|2|2,0:0|0:0|0:0|0:0,0:0:0:0:
166,74,41644,5,6,1:2:0:0:
166,74,41960,2,0,L|159:160,1,76,10|0,0:0|0:0,0:0:0:0:
48,220,42275,2,0,B|142:197|100:250|198:225,1,152,2|10,0:0|0:0,0:0:0:0:
353,141,42749,2,0,P|329:111|241:159,1,152,2|2,0:0|1:2,0:0:0:0:
269,308,43223,2,0,L|279:219,1,76,10|2,0:0|1:2,0:0:0:0:
353,335,43538,2,0,L|363:246,1,76,2|2,0:0|1:2,0:0:0:0:
437,362,43854,1,10,0:0:0:0:
269,308,44012,1,0,0:0:0:0:
418,202,44170,5,2,1:2:0:0:
418,202,44486,2,0,L|407:112,1,76,10|0,0:0|0:0,0:0:0:0:
297,28,44802,2,0,B|358:24|358:24|377:49|377:49|440:44,1,152,2|10,0:0|0:0,0:0:0:0:
436,44,45275,1,2,0:0:0:0:
323,184,45433,2,0,L|312:94,1,76,2|2,1:2|1:2,0:0:0:0:
408,247,45749,2,0,L|419:157,1,76,10|2,0:0|1:2,0:0:0:0:
417,171,46065,1,2,0:0:0:0:
323,270,46223,1,2,1:2:0:0:
512,188,46381,1,10,0:0:0:0:
313,108,46538,1,0,0:0:0:0:
378,335,46696,5,2,1:2:0:0:
378,335,47012,2,0,P|344:357|305:354,1,76,10|0,0:0|0:0,0:0:0:0:
270,221,47328,2,0,P|306:239|322:274,1,76,2|0,0:0|1:2,0:0:0:0:
225,371,47644,2,0,P|222:330|245:298,1,76,10|0,0:0|0:0,0:0:0:0:
401,251,47960,6,0,L|411:169,1,76,2|0,1:2|1:2,0:0:0:0:
185,242,48275,2,0,L|175:160,1,76,10|0,0:0|1:2,0:0:0:0:
387,261,48591,2,0,L|397:179,1,76,2|0,0:0|1:2,0:0:0:0:
199,252,48907,2,0,L|189:170,1,76,10|0,0:0|0:0,0:0:0:0:
464,140,49223,6,0,P|413:108|327:144,1,152,2|8,1:2|0:0,0:0:0:0:
189,176,49696,2,0,B|96:151|129:212|35:174,1,152,2|0,0:0|1:2,0:0:0:0:
71,26,50170,2,0,L|80:117,1,76,10|0,0:0|0:0,0:0:0:0:
157,254,50486,5,2,1:2:0:0:
238,73,50644,1,0,1:2:0:0:
311,253,50802,1,8,0:0:0:0:
179,16,50960,6,0,P|158:59|208:152,1,152,6|0,1:2|1:2,0:0:0:0:
455,198,51433,1,12,0:0:0:0:
313,10,51591,1,0,1:2:0:0:
307,32,51670,1,8,0:0:0:0:
304,54,51749,6,0,B|341:108|341:108|315:242,2,190,6|10|2,1:2|0:0|0:0,0:0:0:0:
229,220,52538,1,0,1:2:0:0:
410,130,52696,1,10,0:0:0:0:
234,2,52854,6,0,P|218:48|226:92,1,95,2|0,0:0|1:2,0:0:0:0:
304,293,53170,1,2,1:2:0:0:
131,224,53328,1,10,0:0:0:0:
298,145,53486,1,2,1:2:0:0:
180,312,53644,5,2,0:0:0:0:
106,104,53802,1,2,1:2:0:0:
20,294,53960,1,10,0:0:0:0:
186,157,54117,1,0,0:0:0:0:
300,367,54275,5,2,1:2:0:0:
300,367,54591,2,0,L|396:352,1,95,10|0,0:0|0:0,0:0:0:0:
512,263,54907,2,0,L|416:248,1,95,2|0,0:0|1:2,0:0:0:0:
418,248,55144,1,2,1:2:0:0:
418,248,55223,1,10,0:0:0:0:
315,93,55381,1,2,0:0:0:0:
278,270,55538,5,2,1:2:0:0:
404,117,55696,1,2,1:2:0:0:
441,332,55854,1,10,0:0:0:0:
303,184,56012,1,2,1:2:0:0:
512,63,56170,5,2,0:0:0:0:
426,256,56328,1,2,1:2:0:0:
238,124,56486,2,0,L|141:117,1,95,10|0,0:0|0:0,0:0:0:0:
16,15,56802,6,0,P|90:23|143:119,2,190,6|10|2,1:2|0:0|0:0,0:0:0:0:
55,96,57591,1,0,1:2:0:0:
143,116,57749,1,10,0:0:0:0:
232,103,57907,1,2,0:0:0:0:
286,31,58065,6,0,P|340:6|449:62,1,190,2|10,1:2|0:0,0:0:0:0:
448,61,58538,1,0,1:2:0:0:
373,186,58696,2,0,L|355:82,1,95,2|0,0:0|1:2,0:0:0:0:
465,244,59012,2,0,L|483:140,1,95,10|0,0:0|0:0,0:0:0:0:
367,292,59328,6,0,B|244:259|302:331|182:295,1,190,6|8,1:2|0:0,0:0:0:0:
64,259,59802,1,2,0:0:0:0:
64,259,59960,2,0,L|78:368,1,95,0|0,1:2|1:2,0:0:0:0:
233,213,60275,2,0,L|245:118,1,95,10|0,0:0|0:0,0:0:0:0:
49,32,60591,5,2,1:2:0:0:
146,219,60749,1,2,1:2:0:0:
206,16,60907,1,10,0:0:0:0:
30,139,61065,1,2,1:2:0:0:
233,213,61223,5,10,0:0:0:0:
184,141,61381,1,0,1:2:0:0:
146,219,61538,1,2,1:2:0:0:
184,141,61696,1,0,1:2:0:0:
282,286,61854,6,0,B|352:278|352:278|378:299|378:299|447:288,1,170.999994781494,6|8,1:2|0:0,0:0:0:0:
444,288,62328,1,0,0:0:0:0:
426,131,62486,2,0,P|401:172|401:218,1,85.4999973907472,0|2,1:2|0:0,0:0:0:0:
502,362,62802,1,10,0:0:0:0:
493,201,62960,1,2,0:0:0:0:
376,329,63117,6,0,B|297:358|297:358|209:335,2,170.999994781494,2|8|0,1:2|0:0|1:2,0:0:0:0:
376,329,63907,1,0,1:2:0:0:
284,185,64065,2,0,L|292:271,1,85.4999973907472,10|0,0:0|0:0,0:0:0:0:
354,136,64381,6,0,P|319:105|271:101,1,85.4999973907472,2|0,1:2|0:0,0:0:0:0:
129,157,64696,1,10,0:0:0:0:
129,157,64854,2,0,L|218:143,1,85.4999973907472,2|0,0:0|1:2,0:0:0:0:
351,27,65170,1,2,1:2:0:0:
363,219,65328,2,0,L|371:305,1,85.4999973907472,10|0,0:0|0:0,0:0:0:0:
426,136,65644,5,2,1:2:0:0:
249,229,65802,1,0,1:2:0:0:
351,27,65960,1,8,0:0:0:0:
458,234,66117,1,0,1:2:0:0:
267,69,66275,5,8,0:0:0:0:
512,0,66433,1,8,0:3:0:0:
426,136,66591,1,10,0:3:0:0:
267,69,66749,6,0,B|229:40|229:40|253:162,1,170.999994781494,14|0,0:0|0:0,0:0:0:0:
267,240,67065,1,0,1:2:0:0:
137,83,67223,5,8,0:0:0:0:
332,118,67381,1,0,1:2:0:0:
114,204,67538,5,10,0:0:0:0:
346,42,67696,1,0,1:2:0:0:
288,333,67854,5,8,0:0:0:0:
137,83,68012,1,0,1:2:0:0:
407,164,68170,6,0,L|397:279,1,113.999996520996,10|0,0:0|1:2,0:0:0:0:
39,133,68486,2,0,L|29:19,1,113.999996520996,10|0,0:0|1:2,0:0:0:0:
324,59,68802,5,10,0:0:0:0:
125,320,68960,1,2,1:2:0:0:
29,19,69117,5,8,0:0:0:0:
308,177,69275,1,2,1:2:0:0:
41,363,69433,6,0,P|37:309|68:256,1,113.999996520996,8|0,0:0|1:2,0:0:0:0:
308,177,69749,1,8,0:0:0:0:
94,79,69907,1,2,1:2:0:0:
291,290,70065,5,10,0:0:0:0:
223,4,70223,1,0,1:2:0:0:
65,258,70381,1,0,1:2:0:0:
378,27,70538,6,0,L|363:150,1,113.999996520996,10|0,0:0|0:0,0:0:0:0:
145,378,70854,1,2,1:2:0:0:
215,88,71012,1,10,0:0:0:0:
365,352,71170,1,2,1:2:0:0:
138,119,71328,5,10,0:0:0:0:
131,91,71407,1,0,1:2:0:0:
135,63,71486,1,0,1:2:0:0:
147,37,71565,1,0,1:2:0:0:
167,17,71644,2,0,L|199:13,6,28.4999991302491,14|2|2|2|2|2|2,0:0|0:0|0:0|0:0|0:0|0:0|0:0,0:0:0:0:
269,27,71960,6,0,L|391:41,1,113.999996520996,6|0,1:2|0:0,0:0:0:0:
387,251,72275,2,0,P|355:202|364:139,1,113.999996520996,10|0,0:0|0:0,0:0:0:0:
486,0,72591,2,0,L|469:116,1,113.999996520996,2|0,1:2|0:0,0:0:0:0:
387,251,72907,2,0,B|285:224|318:283|218:251,1,170.999994781494,10|0,0:0|0:0,0:0:0:0:
146,225,73223,5,0,1:2:0:0:
344,325,73381,1,0,0:0:0:0:
240,116,73538,1,8,0:0:0:0:
129,349,73696,6,0,L|119:230,1,113.999996520996,2|0,0:0|1:2,0:0:0:0:
82,38,74012,1,2,0:0:0:0:
0,227,74170,1,10,0:0:0:0:
175,130,74328,1,2,0:0:0:0:
10,0,74486,6,0,P|0:59|27:102,1,113.999996520996,2|0,1:2|0:0,0:0:0:0:
175,130,74802,2,0,L|293:123,1,113.999996520996,10|0,0:0|0:0,0:0:0:0:
499,7,75117,2,0,P|442:11|405:52,1,113.999996520996,2|0,1:2|0:0,0:0:0:0:
371,223,75433,2,0,B|387:353|387:353|409:307,1,170.999994781494,10|0,0:0|0:0,0:0:0:0:
458,257,75749,6,0,L|442:137,1,113.999996520996,0|0,1:2|0:0,0:0:0:0:
262,23,76065,1,8,0:0:0:0:
279,241,76223,1,2,0:0:0:0:
279,241,76302,1,2,0:0:0:0:
279,241,76381,1,2,1:2:0:0:
369,56,76538,1,2,0:0:0:0:
174,118,76696,1,10,0:0:0:0:
371,223,76854,5,2,0:0:0:0:
161,4,77012,2,0,L|175:127,1,113.999996520996,6|0,1:2|0:0,0:0:0:0:
329,321,77328,2,0,P|366:278|371:223,1,113.999996520996,10|0,0:0|0:0,0:0:0:0:
247,49,77644,1,2,1:2:0:0:
179,277,77802,1,0,0:0:0:0:
333,109,77960,1,10,0:0:0:0:
98,75,78117,1,0,0:0:0:0:
252,325,78275,6,0,P|262:265|237:215,1,113.999996520996,2|0,1:2|0:0,0:0:0:0:
23,113,78591,2,0,L|38:230,1,113.999996520996,10|0,0:0|0:0,0:0:0:0:
210,384,78907,1,2,1:2:0:0:
230,133,79065,1,2,0:0:0:0:
230,133,79144,1,2,0:0:0:0:
230,133,79223,2,0,P|287:120|349:136,1,113.999996520996,10|0,0:0|0:0,0:0:0:0:
507,269,79538,6,0,L|494:146,1,113.999996520996,2|2,1:2|0:0,0:0:0:0:
315,32,79854,1,10,0:0:0:0:
401,248,80012,1,2,0:0:0:0:
496,47,80170,5,2,1:2:0:0:
351,170,80328,1,2,0:0:0:0:
317,178,80407,1,2,0:0:0:0:
283,172,80486,1,10,0:0:0:0:
156,54,80644,1,2,0:0:0:0:
425,116,80802,5,2,1:2:0:0:
191,256,80960,1,10,0:0:0:0:
356,14,81117,1,10,0:0:0:0:
434,302,81275,1,2,1:2:0:0:
317,178,81433,5,10,0:3:0:0:
315,166,81512,1,8,0:3:0:0:
313,154,81591,1,8,0:3:0:0:
311,142,81670,1,8,0:3:0:0:
310,130,81749,1,12,0:0:0:0:
503,25,81907,2,0,L|501:91,1,56.9999982604981,8|8,0:0|0:0,0:0:0:0:
503,160,82065,6,0,L|501:278,1,113.999996520996,6|0,1:2|0:0,0:0:0:0:
421,146,82381,2,0,P|447:97|501:81,1,113.999996520996,10|0,0:0|0:0,0:0:0:0:
507,354,82696,2,0,L|390:335,1,113.999996520996,2|0,1:2|0:0,0:0:0:0:
271,203,83012,2,0,P|215:170|211:252,1,170.999994781494,10|0,0:0|0:0,0:0:0:0:
276,290,83328,5,0,1:2:0:0:
114,164,83486,1,0,0:0:0:0:
332,128,83644,1,8,0:0:0:0:
216,351,83802,6,0,P|191:301|203:247,1,113.999996520996,2|0,0:0|1:2,0:0:0:0:
309,40,84117,1,2,0:0:0:0:
367,257,84275,1,10,0:0:0:0:
217,80,84433,1,2,0:0:0:0:
447,17,84591,6,0,L|436:135,1,113.999996520996,2|0,1:2|0:0,0:0:0:0:
422,321,84907,2,0,P|370:342|314:323,1,113.999996520996,10|0,0:0|0:0,0:0:0:0:
105,203,85223,2,0,L|220:183,1,113.999996520996,2|0,1:2|0:0,0:0:0:0:
68,284,85538,2,0,P|3:293|29:214,1,170.999994781494,10|0,0:0|0:0,0:0:0:0:
105,203,85854,5,0,1:2:0:0:
241,384,86012,2,0,L|228:263,1,113.999996520996,2|10,0:0|0:0,0:0:0:0:
132,80,86328,1,2,0:0:0:0:
132,80,86407,1,2,0:0:0:0:
132,80,86486,1,2,1:2:0:0:
68,284,86644,1,2,0:0:0:0:
224,123,86802,1,10,0:0:0:0:
0,18,86960,5,2,0:0:0:0:
158,290,87117,2,0,L|146:171,1,113.999996520996,6|0,1:2|0:0,0:0:0:0:
338,12,87433,2,0,L|326:125,1,113.999996520996,10|0,0:0|0:0,0:0:0:0:
143,305,87749,2,0,L|131:186,1,113.999996520996,2|0,1:2|0:0,0:0:0:0:
354,0,88065,2,0,L|342:113,1,113.999996520996,10|0,0:0|0:0,0:0:0:0:
46,232,88381,5,10,0:0:0:0:
435,88,88696,1,10,0:0:0:0:
50,30,89644,6,0,B|1:3|1:3|34:135,1,185.249991519928,14|0,0:0|0:0,0:0:0:0:
52,204,89960,1,8,0:0:0:0:
238,118,90117,2,0,L|106:95,1,123.499994346619,2|8,0:0|0:0,0:0:0:0:
315,45,90433,1,2,1:2:0:0:
181,219,90591,1,10,0:0:0:0:
138,10,90749,1,2,1:2:0:0:
293,227,90907,6,0,P|361:240|415:219,1,123.499994346619,8|2,0:0|1:2,0:0:0:0:
510,54,91223,1,10,0:0:0:0:
347,144,91381,1,2,1:2:0:0:
482,278,91538,2,0,P|498:210|471:160,1,123.499994346619,10|0,0:0|1:2,0:0:0:0:
262,17,91854,2,0,L|253:143,1,123.499994346619,10|0,0:0|1:2,0:0:0:0:
293,227,92091,1,0,1:2:0:0:
293,227,92170,5,10,0:0:0:0:
83,237,92328,2,0,L|211:213,1,123.499994346619,2|8,0:0|0:0,0:0:0:0:
348,29,92644,2,0,L|339:155,1,123.499994346619,2|8,0:0|0:0,0:0:0:0:
198,369,92960,1,2,1:2:0:0:
151,122,93117,1,10,0:0:0:0:
343,282,93275,1,2,1:2:0:0:
82,176,93433,6,0,P|68:112|93:60,1,123.499994346619,8|0,0:0|1:2,0:0:0:0:
250,213,93749,1,10,0:0:0:0:
46,284,93907,1,2,1:2:0:0:
151,122,94065,5,10,0:0:0:0:
278,345,94223,1,2,1:2:0:0:
278,345,94302,1,2,0:0:0:0:
278,345,94381,1,10,0:0:0:0:
325,88,94538,1,2,1:2:0:0:
99,257,94696,6,0,B|153:299|153:299|268:260,1,185.249991519928,14|0,0:0|0:0,0:0:0:0:
336,228,95012,1,8,0:0:0:0:
58,184,95170,2,0,P|18:239|21:293,1,123.499994346619,2|8,0:0|0:0,0:0:0:0:
265,358,95486,1,2,1:2:0:0:
142,143,95644,1,10,0:0:0:0:
72,384,95802,1,2,1:2:0:0:
227,138,95960,6,0,P|201:78|139:56,1,123.499994346619,8|2,0:0|1:2,0:0:0:0:
55,255,96275,1,10,0:0:0:0:
23,43,96433,1,2,1:2:0:0:
187,218,96591,2,0,L|166:345,1,123.499994346619,10|0,0:0|1:2,0:0:0:0:
20,159,96907,2,0,L|150:142,1,123.499994346619,10|0,0:0|1:2,0:0:0:0:
227,138,97144,1,2,0:0:0:0:
227,138,97223,5,10,0:0:0:0:
386,27,97381,2,0,P|322:30|268:68,1,123.499994346619,2|8,0:0|0:0,0:0:0:0:
305,271,97696,2,0,L|318:135,1,123.499994346619,2|8,0:0|0:0,0:0:0:0:
480,22,98012,1,2,1:2:0:0:
408,244,98170,1,10,0:0:0:0:
273,61,98328,1,2,1:2:0:0:
489,190,98486,5,8,0:0:0:0:
234,266,98644,1,0,1:2:0:0:
396,71,98802,1,10,0:0:0:0:
443,334,98960,1,2,1:2:0:0:
301,156,99117,5,8,0:0:0:0:
331,307,99275,1,2,1:2:0:0:
331,307,99354,1,0,1:2:0:0:
331,307,99433,1,14,0:0:0:0:
421,173,99591,1,2,0:0:0:0:
245,93,99749,6,0,B|125:71|125:71|97:132|20:113,1,246.999988693238,14|0,0:0|1:2,0:0:0:0:
278,14,100223,2,0,P|323:58|217:178,1,246.999988693238,10|0,0:0|1:2,0:0:0:0:
124,72,100696,2,0,L|251:94,1,123.499994346619,14|0,0:0|0:0,0:0:0:0:
391,2,101012,6,0,L|268:15,1,114,6|4,1:2|0:3,0:0:0:0:
277,13,101565,1,4,0:3:0:0:
277,13,101644,5,8,0:3:0:0:
281,92,101802,1,8,0:3:0:0:
287,171,101960,1,4,0:3:0:0:
293,250,102117,1,4,0:3:0:0:
447,258,102275,6,0,L|367:246,1,76,6|2,1:2|1:2,0:0:0:0:
293,250,102591,1,2,0:0:0:0:
416,175,102749,2,0,P|461:177|435:259,1,152,10|2,0:0|1:2,0:0:0:0:
334,175,103223,2,0,L|347:96,1,76,10|2,0:0|0:0,0:0:0:0:
293,250,103538,5,2,1:2:0:0:
161,162,103696,1,2,0:0:0:0:
322,137,103854,1,2,1:2:0:0:
167,267,104012,1,10,0:0:0:0:
174,75,104170,1,2,1:2:0:0:
293,250,104328,5,12,0:0:0:0:
95,103,104486,2,0,P|95:50|135:2,1,114,12|0,0:0|0:0,0:0:0:0:
207,0,104802,6,0,L|286:12,1,76,6|2,1:2|0:0,0:0:0:0:
338,66,105117,1,10,0:0:0:0:
512,19,105275,2,0,P|440:7|426:72,1,152,10|2,0:0|1:2,0:0:0:0:
481,207,105749,2,0,L|496:122,1,76,10|2,0:0|0:0,0:0:0:0:
382,268,106065,6,0,L|367:183,1,76,2|2,1:2|1:2,0:0:0:0:
512,122,106381,2,0,L|498:196,1,76,2|10,0:0|0:0,0:0:0:0:
477,303,106696,1,2,1:2:0:0:
345,111,106854,5,8,0:0:0:0:
279,329,107012,2,0,P|235:312|224:240,1,114,8|0,0:0|0:0,0:0:0:0:
219,251,107328,5,12,0:0:0:0:
430,149,107486,1,8,0:0:0:0:
211,99,107644,1,2,1:2:0:0:
351,282,107802,1,8,0:3:0:0:
351,282,107881,1,8,0:3:0:0:
351,282,107960,5,10,0:3:0:0:
348,197,108117,1,8,0:3:0:0:
345,111,108275,1,6,0:3:0:0:
343,25,108433,1,4,0:3:0:0:
427,236,108591,5,10,0:0:0:0:
211,99,108749,1,8,0:0:0:0:
467,47,108907,1,2,1:2:0:0:
264,253,109065,6,0,L|277:147,1,95,8|10,0:0|0:3,0:0:0:0:
472,131,109381,1,8,0:3:0:0:
478,216,109538,1,6,0:3:0:0:
486,301,109696,1,4,0:3:0:0:
332,100,109854,6,0,B|287:73|287:73|195:101,1,142.5,14|0,0:0|1:2,0:0:0:0:
128,143,110170,6,0,P|117:119|116:86,3,47.5,8|0|2|0,0:0|1:2|1:2|1:2,0:0:0:0:
199,184,110486,2,0,P|195:207|185:228,3,47.5,8|0|0|0,0:0|1:2|1:2|1:2,0:0:0:0:
123,286,110802,1,10,0:0:0:0:
95,292,110881,1,0,1:2:0:0:
66,292,110960,1,0,1:2:0:0:
39,283,111038,1,0,1:2:0:0:
17,264,111117,5,10,0:0:0:0:
272,234,111275,2,0,L|259:330,1,95,8|2,0:0|1:2,0:0:0:0:
79,209,111591,2,0,L|66:114,1,95,14|0,0:0|1:2,0:0:0:0:
265,96,111907,1,8,0:0:0:0:
311,85,111986,1,8,0:0:0:0:
357,93,112065,1,8,0:0:0:0:
394,122,112144,1,8,0:0:0:0:
409,166,112223,1,8,0:0:0:0:
403,213,112302,1,8,0:0:0:0:
372,249,112381,6,0,L|293:265,1,76,2|2,0:0|1:2,0:0:0:0:
175,206,112617,1,0,1:2:0:0:
175,206,112696,6,0,P|207:203|242:216,1,56.9999982604981,14|0,0:0|0:0,0:0:0:0:
272,136,112854,2,0,P|296:156|312:190,1,56.9999982604981,2|0,0:0|0:0,0:0:0:0:
119,329,113012,6,0,P|116:297|129:262,1,56.9999982604981,2|0,1:2|0:0,0:0:0:0:
49,232,113170,2,0,P|69:207|103:191,1,56.9999982604981,2|0,1:2|0:0,0:0:0:0:
113,2,113328,6,0,P|116:34|103:69,1,56.9999982604981,10|0,0:0|0:0,0:0:0:0:
183,99,113486,2,0,P|162:123|128:139,1,56.9999982604981,2|0,0:0|0:0,0:0:0:0:
0,316,113644,5,2,1:2:0:0:
170,241,113802,1,2,1:2:0:0:
22,122,113960,1,10,0:0:0:0:
155,326,114117,1,2,1:2:0:0:
236,76,114275,2,0,B|292:32|292:32|446:79,1,227.999993041992,2|8,0:0|0:0,0:0:0:0:
441,77,114749,1,0,0:0:0:0:
362,250,114907,6,0,P|351:220|354:188,1,56.9999982604981,2|0,1:2|0:0,0:0:0:0:
272,175,115065,2,0,P|285:146|310:125,1,56.9999982604981,2|0,0:0|0:0,0:0:0:0:
512,51,115223,6,0,P|482:62|450:59,1,56.9999982604981,10|0,0:0|0:0,0:0:0:0:
437,141,115381,2,0,P|408:127|387:102,1,56.9999982604981,2|0,0:0|0:0,0:0:0:0:
283,49,115538,6,0,P|256:60|237:80,1,56.9999982604981,2|0,0:0|0:0,0:0:0:0:
163,47,115696,2,0,P|152:73|153:101,1,56.9999982604981,2|0,1:2|0:0,0:0:0:0:
115,290,115854,6,0,P|131:267|138:239,1,56.9999982604981,10|0,0:0|0:0,0:0:0:0:
219,231,116012,2,0,P|214:202|200:178,1,56.9999982604981,2|0,0:0|0:0,0:0:0:0:
77,87,116170,5,2,1:2:0:0:
284,149,116328,1,2,1:2:0:0:
115,290,116486,1,10,0:0:0:0:
237,80,116644,1,2,1:2:0:0:
305,322,116802,2,0,P|377:328|375:194,1,227.999993041992,2|8,0:0|0:0,0:0:0:0:
389,202,117275,1,0,1:2:0:0:
146,149,117433,5,14,0:0:0:0:
404,60,117591,1,0,1:2:0:0:
404,60,117749,1,2,1:2:0:0:
199,236,117907,5,12,0:0:0:0:
166,18,118065,1,2,1:2:0:0:
166,18,118223,1,0,1:2:0:0:
294,197,118381,5,10,0:0:0:0:
301,224,118460,1,0,1:2:0:0:
301,252,118538,1,2,1:2:0:0:
292,279,118617,1,0,1:2:0:0:
276,302,118696,5,14,0:0:0:0:
113,119,118854,1,0,1:2:0:0:
113,119,119012,1,2,1:2:0:0:
93,356,119170,5,12,0:0:0:0:
212,163,119328,1,2,1:2:0:0:
212,163,119486,1,0,1:2:0:0:
289,383,119644,5,10,0:0:0:0:
68,257,119802,1,8,0:0:0:0:
68,257,119881,1,8,0:0:0:0:
68,257,119960,6,0,B|101:211|148:207|148:207|179:249|234:238,1,190,6|8,1:2|0:0,0:0:0:0:
384,201,120433,2,0,L|279:184,1,95,0|0,0:0|1:2,0:0:0:0:
290,185,120749,1,0,1:2:0:0:
477,108,120907,2,0,L|483:208,1,95,10|0,0:0|0:0,0:0:0:0:
311,326,121223,5,2,1:2:0:0:
373,107,121381,1,2,1:2:0:0:
491,307,121538,1,14,0:0:0:0:
281,202,121696,1,2,1:2:0:0:
477,108,121854,5,10,0:0:0:0:
414,208,122012,1,0,1:2:0:0:
373,107,122170,1,10,0:3:0:0:
414,208,122328,1,8,0:3:0:0:
356,24,122486,6,0,L|200:9,2,152,6|8|0,1:2|0:0|1:2,0:0:0:0:
466,76,123275,1,2,0:0:0:0:
466,76,123433,2,0,L|471:156,1,76,10|2,0:0|0:0,0:0:0:0:
358,268,123749,6,0,B|368:150|368:150|388:182,1,152,2|8,1:2|0:0,0:0:0:0:
442,243,124223,1,0,0:0:0:0:
442,243,124302,1,0,1:2:0:0:
442,243,124381,2,0,L|434:330,1,76,0|0,1:2|0:0,0:0:0:0:
277,264,124696,2,0,L|283:188,1,76,10|0,0:0|0:0,0:0:0:0:
466,76,125012,6,0,B|367:48|412:102|316:75,1,152,2|10,1:2|0:0,0:0:0:0:
224,26,125486,1,2,0:0:0:0:
224,26,125565,1,0,1:2:0:0:
224,26,125644,2,0,L|145:33,1,76,0|2,1:2|0:0,0:0:0:0:
14,110,125960,2,0,P|3:63|17:25,1,76,10|0,0:0|0:0,0:0:0:0:
154,135,126275,6,0,L|137:253,1,114,2|0,1:2|0:0,0:0:0:0:
94,314,126591,2,0,P|140:327|167:321,1,76,8|0,0:0|0:0,0:0:0:0:
242,257,126907,1,0,1:2:0:0:
340,259,127065,1,0,1:2:0:0:
417,320,127223,1,10,0:0:0:0:
266,159,127381,6,0,B|227:133|227:133|242:259,1,170.999994781494,14|0,0:0|0:0,0:0:0:0:
251,334,127696,1,0,1:2:0:0:
352,176,127854,5,8,0:0:0:0:
121,127,128012,1,0,1:2:0:0:
340,310,128170,5,10,0:0:0:0:
298,45,128328,1,0,1:2:0:0:
127,322,128486,5,8,0:0:0:0:
183,41,128644,1,0,1:2:0:0:
391,222,128802,6,0,P|340:250|284:245,1,113.999996520996,10|0,0:0|1:2,0:0:0:0:
0,36,129117,2,0,L|119:53,1,113.999996520996,10|0,0:0|1:2,0:0:0:0:
348,62,129433,5,10,0:0:0:0:
127,322,129591,1,2,1:2:0:0:
0,36,129749,1,0,1:2:0:0:
186,172,129907,6,0,B|331:133|259:219|406:172,1,227.999993041992,14|0,0:0|1:2,0:0:0:0:
203,327,130381,1,8,0:0:0:0:
342,90,130538,1,2,1:2:0:0:
412,341,130696,5,10,0:3:0:0:
254,107,130854,1,8,0:3:0:0:
254,71,130933,1,8,0:3:0:0:
266,39,131012,1,8,0:0:0:0:
501,184,131170,6,0,L|484:312,1,113.999996520996,2|0,1:2|0:0,0:0:0:0:
342,90,131486,1,10,0:0:0:0:
256,331,131644,1,2,1:2:0:0:
455,104,131802,1,10,0:0:0:0:
148,93,131960,5,10,0:0:0:0:
346,343,132117,1,8,0:0:0:0:
342,297,132196,1,8,0:0:0:0:
339,251,132275,1,8,0:0:0:0:
336,205,132354,1,8,0:0:0:0:
333,159,132433,1,8,0:0:0:0:
330,113,132512,1,8,0:0:0:0:
327,67,132591,6,0,P|272:49|208:58,1,113.999996520996,6|0,1:2|0:0,0:0:0:0:
421,163,132907,2,0,L|412:45,1,113.999996520996,10|0,0:0|0:0,0:0:0:0:
134,13,133223,2,0,L|125:126,1,113.999996520996,2|0,1:2|0:0,0:0:0:0:
34,320,133538,2,0,P|-16:283|57:244,1,170.999994781494,10|0,0:0|0:0,0:0:0:0:
117,297,133854,5,0,1:2:0:0:
218,116,134012,1,0,0:0:0:0:
275,312,134170,1,8,0:0:0:0:
125,126,134328,6,0,P|137:71|185:33,1,113.999996520996,2|0,0:0|1:2,0:0:0:0:
394,183,134644,1,2,0:0:0:0:
165,250,134802,1,10,0:0:0:0:
263,34,134960,1,2,0:0:0:0:
366,267,135117,6,0,P|424:268|468:232,1,113.999996520996,2|0,1:2|0:0,0:0:0:0:
485,23,135433,2,0,L|467:145,1,113.999996520996,10|0,0:0|0:0,0:0:0:0:
382,379,135749,2,0,L|365:266,1,113.999996520996,2|0,1:2|0:0,0:0:0:0:
297,85,136065,2,0,B|253:46|253:46|138:85,1,170.999994781494,10|0,0:0|0:0,0:0:0:0:
76,120,136381,6,0,L|89:235,1,113.999996520996,0|0,1:2|0:0,0:0:0:0:
11,66,136696,1,8,0:0:0:0:
192,164,136854,1,2,0:0:0:0:
192,164,136933,1,2,0:0:0:0:
192,164,137012,1,2,1:2:0:0:
0,249,137170,1,2,0:0:0:0:
83,35,137328,1,10,0:0:0:0:
192,253,137486,5,2,0:0:0:0:
11,66,137644,2,0,L|28:183,1,113.999996520996,6|0,1:2|0:0,0:0:0:0:
246,315,137960,2,0,P|273:260|256:203,1,113.999996520996,10|0,0:0|0:0,0:0:0:0:
185,47,138275,2,0,L|307:62,1,113.999996520996,2|0,1:2|0:0,0:0:0:0:
384,58,138512,1,2,0:0:0:0:
384,58,138591,2,0,L|497:44,1,113.999996520996,10|0,0:0|0:0,0:0:0:0:
342,149,138907,6,0,L|331:269,1,113.999996520996,2|0,1:2|0:0,0:0:0:0:
469,378,139223,2,0,L|458:264,1,113.999996520996,10|0,0:0|0:0,0:0:0:0:
273,73,139538,1,2,1:2:0:0:
231,339,139696,1,2,0:0:0:0:
231,339,139775,1,2,0:0:0:0:
231,339,139854,2,0,P|173:340|140:241,1,170.999994781494,10|0,0:0|0:0,0:0:0:0:
191,179,140170,6,0,L|304:193,1,113.999996520996,2|2,1:2|0:0,0:0:0:0:
512,123,140486,1,10,0:0:0:0:
329,273,140644,1,2,0:0:0:0:
340,56,140802,5,2,1:2:0:0:
486,208,140960,1,2,0:0:0:0:
491,252,141038,1,2,0:0:0:0:
471,293,141117,1,10,0:0:0:0:
251,364,141275,1,2,0:0:0:0:
396,119,141433,5,6,1:2:0:0:
512,384,141591,1,10,0:0:0:0:
241,240,141749,1,14,0:0:0:0:
512,97,141907,1,2,1:2:0:0:
390,289,142065,5,10,0:3:0:0:
388,271,142144,1,8,0:3:0:0:
387,253,142223,1,8,0:3:0:0:
386,235,142302,1,8,0:3:0:0:
385,217,142381,1,12,0:0:0:0:
153,122,142538,2,0,L|144:188,1,56.9999982604981,8|8,0:0|0:0,0:0:0:0:
139,255,142696,6,0,L|146:375,1,113.999996520996,6|0,1:2|0:0,0:0:0:0:
236,134,143012,2,0,P|226:72|178:34,1,113.999996520996,10|0,0:0|0:0,0:0:0:0:
26,235,143328,2,0,L|148:256,1,113.999996520996,2|0,1:2|0:0,0:0:0:0:
287,164,143644,2,0,B|237:134|237:134|266:254,1,170.999994781494,10|0,0:0|0:0,0:0:0:0:
283,320,143960,5,0,1:2:0:0:
441,125,144117,1,0,0:0:0:0:
478,374,144275,1,8,0:0:0:0:
374,183,144433,6,0,P|356:128|372:74,1,113.999996520996,2|0,0:0|1:2,0:0:0:0:
467,235,144749,1,2,0:0:0:0:
278,153,144907,1,10,0:0:0:0:
456,33,145065,1,2,0:0:0:0:
342,213,145223,6,0,P|286:241|234:228,1,113.999996520996,2|0,1:2|0:0,0:0:0:0:
81,142,145538,2,0,L|197:160,1,113.999996520996,10|0,0:0|0:0,0:0:0:0:
432,263,145854,2,0,L|415:144,1,113.999996520996,2|0,1:2|0:0,0:0:0:0:
214,70,146170,2,0,B|174:40|174:40|195:170,1,170.999994781494,10|0,0:0|0:0,0:0:0:0:
211,241,146486,5,0,1:2:0:0:
473,74,146644,2,0,P|417:60|358:75,1,113.999996520996,2|10,0:0|0:0,0:0:0:0:
126,213,146960,1,2,0:0:0:0:
126,213,147038,1,2,0:0:0:0:
126,213,147117,1,2,1:2:0:0:
366,279,147275,1,2,0:0:0:0:
203,103,147433,1,10,0:0:0:0:
152,355,147591,5,2,0:0:0:0:
320,68,147749,2,0,L|306:186,1,113.999996520996,6|0,1:2|0:0,0:0:0:0:
33,42,148065,2,0,L|47:156,1,113.999996520996,10|0,0:0|0:0,0:0:0:0:
337,58,148381,2,0,L|323:176,1,113.999996520996,2|0,1:2|0:0,0:0:0:0:
20,56,148696,2,0,L|34:170,1,113.999996520996,10|0,0:0|0:0,0:0:0:0:
421,54,149012,5,10,0:0:0:0:
62,285,149328,1,10,0:0:0:0:
62,285,150275,5,6,1:2:0:0:
0,382,150433,1,2,0:0:0:0:
157,276,150591,1,10,0:0:0:0:
0,191,150749,1,2,0:0:0:0:
114,356,150907,2,0,P|160:366|206:351,1,95,10|0,0:0|1:2,0:0:0:0:
312,226,151223,5,10,0:0:0:0:
363,384,151381,1,2,1:2:0:0:
224,227,151538,1,10,0:0:0:0:
407,166,151696,1,2,1:2:0:0:
303,320,151854,2,0,L|312:218,1,95,10|0,0:0|0:0,0:0:0:0:
407,73,152170,5,10,0:0:0:0:
456,250,152328,1,2,1:2:0:0:
332,119,152486,1,10,0:0:0:0:
511,53,152644,1,2,1:2:0:0:
407,166,152802,5,10,0:0:0:0:
311,30,152960,1,2,1:2:0:0:
270,197,153117,1,10,0:0:0:0:
407,73,153275,1,2,0:0:0:0:
227,19,153433,2,0,L|244:122,1,95,10|0,0:0|1:2,0:0:0:0:
276,282,153749,5,10,0:0:0:0:
163,180,153907,1,2,1:2:0:0:
139,321,154065,1,10,0:0:0:0:
270,197,154223,1,2,1:2:0:0:
100,132,154381,2,0,P|84:187|95:226,1,95,10|0,0:0|0:0,0:0:0:0:
203,361,154696,5,10,0:0:0:0:
277,205,154854,1,2,1:2:0:0:
277,205,154933,1,0,1:2:0:0:
277,205,155012,2,0,L|371:205,1,95,10|2,0:0|1:2,0:0:0:0:
440,273,155328,5,6,1:2:0:0:
344,308,155486,1,2,0:0:0:0:
460,177,155644,1,10,0:0:0:0:
485,359,155802,1,2,0:0:0:0:
372,205,155960,2,0,L|381:107,1,95,10|0,0:0|1:2,0:0:0:0:
500,12,156275,5,10,0:0:0:0:
460,177,156433,1,2,1:2:0:0:
352,22,156591,1,10,0:0:0:0:
512,95,156749,1,2,1:2:0:0:
372,205,156907,2,0,L|381:107,1,95,10|0,0:0|1:2,0:0:0:0:
191,41,157223,5,10,0:0:0:0:
272,198,157381,1,2,1:2:0:0:
272,198,157460,1,0,1:2:0:0:
272,198,157538,1,10,0:0:0:0:
321,26,157696,1,2,1:2:0:0:
175,162,157854,6,0,L|185:265,1,95,14|2,0:0|0:0,0:0:0:0:
52,384,158170,1,10,0:0:0:0:
104,240,158328,1,2,0:0:0:0:
213,339,158486,2,0,P|164:345|121:317,1,95,10|0,0:0|1:2,0:0:0:0:
4,193,158802,5,10,0:0:0:0:
175,162,158960,1,2,1:2:0:0:
36,298,159117,1,10,0:0:0:0:
61,105,159275,1,2,1:2:0:0:
184,256,159433,2,0,L|283:262,1,95,14|0,0:0|1:2,0:0:0:0:
438,322,159749,5,2,1:2:0:0:
438,322,159828,1,8,0:0:0:0:
438,322,159907,2,0,L|441:273,1,47.5,10|8,0:0|0:0,0:0:0:0:
446,198,160065,2,0,L|443:149,3,47.5,10|0|2|0,0:0|1:2|1:2|1:2,0:0:0:0:
428,73,160381,6,0,L|314:63,2,113.999996520996,6|2|2,1:2|1:2|1:2,0:0:0:0:
443,150,161170,1,2,0:0:0:0:
391,211,161328,1,2,1:2:0:0:
391,211,161486,2,0,L|324:212,1,56.9999982604981,2|0,0:0|1:2,0:0:0:0:
134,259,161802,6,0,P|124:216|142:169,2,85.4999973907472,2|2|2,0:0|1:2|0:0,0:0:0:0:
219,260,162275,2,0,P|229:217|211:170,1,85.4999973907472,2|2,1:2|0:0,0:0:0:0:
111,97,162591,2,0,P|154:58|172:113,1,128.249996086121,2|0,1:2|0:0,0:0:0:0:
136,177,162907,6,0,P|87:178|38:133,2,113.999996520996,2|2|2,1:2|1:2|1:2,0:0:0:0:
216,178,163696,1,2,0:0:0:0:
295,180,163854,1,2,1:2:0:0:
295,180,164012,2,0,L|359:181,1,56.9999982604981,2|0,0:0|1:2,0:0:0:0:
512,294,164328,6,0,P|522:251|504:204,2,85.4999973907472,2|2|2,0:0|1:2|0:0,0:0:0:0:
427,295,164802,2,0,P|417:252|435:205,1,85.4999973907472,2|2,1:2|0:0,0:0:0:0:
512,131,165117,1,2,1:2:0:0:
435,302,165275,1,8,0:0:0:0:
435,302,165354,1,8,0:0:0:0:
435,302,165433,6,0,L|338:293,1,85.4999973907472,6|0,1:2|0:0,0:0:0:0:
203,213,165749,2,0,L|300:204,1,85.4999973907472,10|0,0:0|0:0,0:0:0:0:
138,327,166065,1,2,1:2:0:0:
146,151,166223,1,2,0:0:0:0:
256,279,166381,1,10,0:0:0:0:
80,201,166538,2,0,P|62:159|69:118,1,85.4999973907472,2|0,0:0|1:2,0:0:0:0:
271,32,166854,5,2,0:0:0:0:
150,155,167012,1,10,0:0:0:0:
150,155,167170,1,2,0:0:0:0:
316,131,167328,5,2,1:2:0:0:
150,35,167486,1,2,0:0:0:0:
222,227,167644,2,0,L|230:139,1,85.4999973907472,10|0,0:0|0:0,0:0:0:0:
396,40,167960,6,0,L|405:132,1,85.4999973907472,2|0,1:2|0:0,0:0:0:0:
484,257,168275,2,0,L|492:171,1,85.4999973907472,10|0,0:0|0:0,0:0:0:0:
321,84,168591,1,2,1:2:0:0:
408,219,168749,1,2,0:0:0:0:
487,63,168907,1,10,0:0:0:0:
334,182,169065,2,0,P|324:226|340:268,1,85.4999973907472,2|4,0:0|1:2,0:0:0:0:
497,343,169381,5,2,0:0:0:0:
399,133,169538,1,10,0:0:0:0:
399,133,169696,1,2,0:0:0:0:
320,343,169854,6,0,P|280:358|234:350,1,85.4999973907472,2|2,1:2|0:0,0:0:0:0:
162,335,170091,1,8,0:0:0:0:
162,335,170170,2,0,L|64:347,1,85.4999973907472,10|8,0:0|0:0,0:0:0:0:
210,164,170486,6,0,L|220:273,1,104.500003189087,6|0,1:2|0:0,0:0:0:0:
92,85,170802,2,0,L|82:189,1,104.500003189087,10|0,0:0|0:0,0:0:0:0:
310,227,171117,1,2,1:2:0:0:
184,66,171275,1,2,0:0:0:0:
138,280,171433,1,10,0:0:0:0:
273,84,171591,2,0,L|383:99,1,104.500003189087,2|0,0:0|1:2,0:0:0:0:
486,199,171907,5,2,0:0:0:0:
359,1,172065,1,10,0:0:0:0:
310,227,172223,1,2,0:0:0:0:
458,32,172381,5,2,1:2:0:0:
196,5,172538,1,2,0:0:0:0:
458,32,172696,2,0,L|446:145,1,104.500003189087,10|0,0:0|0:0,0:0:0:0:
306,325,173012,6,0,P|293:272|314:220,1,104.500003189087,2|0,1:2|0:0,0:0:0:0:
482,286,173328,2,0,L|367:273,1,104.500003189087,10|0,0:0|0:0,0:0:0:0:
171,170,173644,1,2,1:2:0:0:
365,126,173802,1,2,0:0:0:0:
223,291,173960,1,10,0:0:0:0:
184,77,174117,2,0,P|133:64|75:71,1,104.500003189087,2|0,0:0|1:2,0:0:0:0:
309,226,174433,5,2,0:0:0:0:
226,0,174591,1,10,0:0:0:0:
131,241,174749,1,2,0:0:0:0:
360,26,174907,5,2,1:2:0:0:
81,68,175065,1,2,0:0:0:0:
360,26,175223,2,0,L|349:141,1,104.500003189087,10|0,0:0|0:0,0:0:0:0:
125,349,175538,5,10,0:0:0:0:
242,95,175696,1,10,0:0:0:0:
287,178,175854,6,0,P|231:191|176:167,1,113.999996520996,6|0,1:2|0:0,0:0:0:0:
135,113,176091,1,8,0:0:0:0:
135,113,176170,5,10,0:0:0:0:
400,48,176328,1,10,0:0:0:0:
333,0,176486,6,0,P|316:55|338:109,1,113.999996520996,6|0,1:2|0:0,0:0:0:0:
410,146,176723,1,8,0:0:0:0:
410,146,176802,5,10,0:0:0:0:
147,278,176960,1,10,0:0:0:0:
209,338,177117,6,0,P|234:279|220:233,1,113.999996520996,6|0,1:2|0:0,0:0:0:0:
180,170,177354,1,8,0:0:0:0:
180,170,177433,5,10,0:0:0:0:
412,291,177591,1,10,0:0:0:0:
470,225,177749,6,0,P|418:205|356:222,1,113.999996520996,6|0,1:2|0:0,0:0:0:0:
305,270,177986,1,0,0:0:0:0:
305,270,178065,5,6,1:2:0:0:
54,337,178223,1,2,0:0:0:0:
220,94,178381,5,8,0:0:0:0:
276,384,178538,1,0,0:0:0:0:
98,126,178696,5,14,0:0:0:0:
403,64,178854,1,2,0:0:0:0:
106,250,179012,5,8,0:0:0:0:
413,234,179170,1,0,0:0:0:0:
192,9,179328,6,0,L|208:137,1,113.999996520996,14|0,0:0|1:2,0:0:0:0:
399,347,179644,2,0,L|413:233,1,113.999996520996,14|0,0:0|1:2,0:0:0:0:
96,0,179960,5,14,0:0:0:0:
256,320,180117,1,0,1:2:0:0:
256,320,180196,1,0,1:2:0:0:
256,320,180275,1,14,0:0:0:0:
416,0,180433,1,0,1:2:0:0:
256,160,180591,5,14,0:0:0:0:
486,207,180749,1,2,1:2:0:0:
291,38,180907,1,10,0:0:0:0:
262,291,181065,1,10,0:0:0:0:
454,103,181223,1,10,0:0:0:0:
321,364,181381,1,10,0:0:0:0:
177,127,181538,1,10,0:0:0:0:
280,207,181696,6,0,B|342:165|342:165|476:212,1,209.000006378174,6|0,1:2|1:2,0:0:0:0:
334,360,182170,2,0,L|355:249,1,104.500003189087,8|2,0:0|0:0,0:0:0:0:
353,257,182407,1,2,0:0:0:0:
353,257,182486,1,2,1:2:0:0:
462,39,182644,1,8,0:0:0:0:
429,27,182723,1,8,0:0:0:0:
394,26,182802,1,8,0:0:0:0:
362,38,182881,1,8,0:0:0:0:
334,59,182960,1,8,0:0:0:0:
316,89,183038,1,8,0:0:0:0:
309,122,183117,5,14,0:0:0:0:
503,238,183275,1,10,0:0:0:0:
286,283,183433,1,10,0:0:0:0:
443,89,183591,1,10,0:0:0:0:
456,332,183749,1,10,0:0:0:0:
270,62,183907,1,10,0:0:0:0:
208,359,184065,1,10,0:0:0:0:
332,171,184223,6,0,B|243:179|243:179|212:154|212:154|132:160,1,209.000006378174,6|2,1:2|1:2,0:0:0:0:
132,160,184617,1,2,0:0:0:0:
132,160,184696,5,10,0:0:0:0:
75,149,184775,1,2,0:0:0:0:
40,102,184854,1,2,1:2:0:0:
44,44,184933,1,2,0:0:0:0:
86,4,185012,5,10,0:3:0:0:
88,19,185091,1,8,0:3:0:0:
90,34,185170,1,8,0:3:0:0:
92,49,185249,1,8,0:3:0:0:
94,64,185328,2,0,L|104:175,1,104.500003189087,14|2,0:0|0:0,0:0:0:0:
338,303,185644,5,14,0:0:0:0:
216,82,185802,1,10,0:0:0:0:
150,330,185960,1,10,0:0:0:0:
350,147,186117,1,10,0:0:0:0:
94,64,186275,1,10,0:0:0:0:
368,157,186433,1,10,0:0:0:0:
77,301,186591,1,10,0:0:0:0:
283,42,186749,1,6,1:2:0:0:
266,210,186907,6,0,L|158:196,1,104.500003189087,2|0,0:0|1:2,0:0:0:0:
73,179,187223,1,8,0:0:0:0:
207,98,187381,1,2,0:0:0:0:
207,98,187460,1,2,0:0:0:0:
207,98,187538,1,2,1:2:0:0:
91,319,187696,2,0,L|99:259,1,52.2500015945435,8|8,0:0|0:0,0:0:0:0:
162,196,187854,2,0,B|259:165|215:224|314:190,1,156.750004783631,8|0,0:0|0:0,0:0:0:0:
415,153,188170,6,0,L|397:41,2,104.500003189087,6|0|2,1:2|0:0|0:0,0:0:0:0:
51,93,188644,2,0,L|34:196,2,104.500003189087,6|0|2,1:2|0:0|0:0,0:0:0:0:
245,384,189117,2,0,L|227:272,2,104.500003189087,6|0|2,1:2|0:0|0:0,0:0:0:0:
72,322,189591,5,10,0:0:0:0:
112,29,189749,1,10,0:0:0:0:
405,70,189907,1,10,0:0:0:0:
364,362,190065,1,14,0:0:0:0:
323,289,190223,6,0,P|348:279|375:278,2,52.2500015945435,2|2|2,0:0|0:0|0:0,0:0:0:0:
449,331,190696,6,0,P|463:273|439:212,1,113.999996520996,6|0,1:2|0:0,0:0:0:0:
346,81,191012,2,0,L|364:205,1,113.999996520996,10|0,0:0|0:0,0:0:0:0:
100,384,191328,2,0,P|85:325|102:274,1,113.999996520996,2|0,1:2|0:0,0:0:0:0:
339,289,191644,2,0,P|327:363|263:317,1,170.999994781494,10|0,0:0|0:0,0:0:0:0:
261,245,191960,5,0,1:2:0:0:
453,343,192117,1,0,0:0:0:0:
375,131,192275,1,8,0:0:0:0:
263,329,192433,6,0,P|206:344|156:325,1,113.999996520996,2|0,0:0|1:2,0:0:0:0:
41,156,192749,1,2,0:0:0:0:
203,232,192907,1,10,0:0:0:0:
29,325,193065,1,2,0:0:0:0:
154,156,193223,6,0,P|212:141|261:167,1,113.999996520996,2|0,1:2|0:0,0:0:0:0:
402,270,193538,2,0,L|287:248,1,113.999996520996,10|0,0:0|0:0,0:0:0:0:
98,94,193854,2,0,P|71:149|84:202,1,113.999996520996,2|0,1:2|0:0,0:0:0:0:
211,331,194170,2,0,B|175:356|175:356|202:232,1,170.999994781494,10|0,0:0|0:0,0:0:0:0:
223,138,194486,6,0,L|212:19,1,113.999996520996,0|0,1:2|0:0,0:0:0:0:
295,205,194802,1,8,0:0:0:0:
106,101,194960,1,2,0:0:0:0:
106,101,195038,1,2,0:0:0:0:
106,101,195117,1,2,1:2:0:0:
314,27,195275,1,2,0:0:0:0:
202,231,195433,1,10,0:0:0:0:
103,16,195591,5,2,0:0:0:0:
280,271,195749,2,0,P|288:208|253:158,1,113.999996520996,6|0,1:2|0:0,0:0:0:0:
20,64,196065,2,0,L|37:190,1,113.999996520996,10|0,0:0|0:0,0:0:0:0:
186,333,196381,1,2,1:2:0:0:
198,96,196538,1,0,0:0:0:0:
51,270,196696,1,10,0:0:0:0:
263,166,196854,1,0,0:0:0:0:
102,36,197012,6,0,L|119:162,1,113.999996520996,2|0,1:2|0:0,0:0:0:0:
274,248,197328,2,0,P|329:215|341:166,1,113.999996520996,10|0,0:0|0:0,0:0:0:0:
512,0,197644,1,2,1:2:0:0:
512,218,197802,1,2,0:0:0:0:
512,218,197881,1,2,0:0:0:0:
512,218,197960,2,0,P|490:271|403:229,1,170.999994781494,10|0,0:0|0:0,0:0:0:0:
341,169,198275,6,0,L|219:154,1,113.999996520996,2|2,1:2|0:0,0:0:0:0:
32,300,198591,1,14,0:0:0:0:
103,125,198749,1,2,0:0:0:0:
213,287,198907,5,2,1:2:0:0:
24,153,199065,1,2,0:0:0:0:
19,118,199144,1,2,0:0:0:0:
31,85,199223,1,14,0:0:0:0:
264,0,199381,1,2,0:0:0:0:
136,209,199538,5,2,1:2:0:0:
15,0,199696,1,10,0:0:0:0:
243,119,199854,1,10,0:0:0:0:
7,231,200012,1,2,1:2:0:0:
7,231,200091,1,0,1:2:0:0:
7,231,200170,5,2,1:2:0:0:
338,92,200328,1,8,0:0:0:0:
312,52,200407,1,8,0:0:0:0:
272,27,200486,1,12,0:0:0:0:
225,24,200565,1,8,0:0:0:0:
182,41,200644,1,8,0:0:0:0:
151,77,200723,1,8,0:0:0:0:
139,122,200802,6,0,P|198:144|246:127,1,113.999996520996,6|0,1:2|0:0,0:0:0:0:
427,50,201117,2,0,P|436:108|415:168,1,113.999996520996,10|0,0:0|0:0,0:0:0:0:
58,164,201433,2,0,P|49:106|82:51,1,113.999996520996,2|0,1:2|0:0,0:0:0:0:
136,207,201749,2,0,B|147:340|147:340|121:311,1,170.999994781494,10|0,0:0|0:0,0:0:0:0:
60,250,202065,5,0,1:2:0:0:
245,290,202223,1,0,0:0:0:0:
72,380,202381,1,8,0:0:0:0:
218,206,202538,6,0,P|276:206|319:246,1,113.999996520996,2|0,0:0|1:2,0:0:0:0:
500,354,202854,1,2,0:0:0:0:
391,161,203012,1,10,0:0:0:0:
329,374,203170,1,2,0:0:0:0:
467,206,203328,6,0,P|477:147|449:98,1,113.999996520996,2|0,1:2|0:0,0:0:0:0:
257,90,203644,2,0,L|381:73,1,113.999996520996,10|0,0:0|0:0,0:0:0:0:
499,306,203960,2,0,L|375:289,1,113.999996520996,2|0,1:2|0:0,0:0:0:0:
116,191,204275,2,0,P|142:122|184:183,1,170.999994781494,10|0,0:0|0:0,0:0:0:0:
166,251,204591,5,0,1:2:0:0:
11,26,204749,2,0,L|24:143,1,113.999996520996,2|10,0:0|0:0,0:0:0:0:
250,233,205065,1,2,0:0:0:0:
250,233,205144,1,2,0:0:0:0:
250,233,205223,1,2,1:2:0:0:
38,325,205381,1,2,0:0:0:0:
180,105,205538,1,10,0:0:0:0:
272,339,205696,5,2,0:0:0:0:
107,62,205854,2,0,P|97:119|129:176,1,113.999996520996,6|0,1:2|0:0,0:0:0:0:
355,326,206170,2,0,P|365:269|333:212,1,113.999996520996,10|0,0:0|0:0,0:0:0:0:
92,53,206486,2,0,P|82:110|114:167,1,113.999996520996,2|0,1:2|1:2,0:0:0:0:
369,337,206802,2,0,P|379:280|347:223,1,113.999996520996,10|0,0:0|1:2,0:0:0:0:
14,147,207117,5,10,0:0:0:0:
443,221,207433,1,10,0:0:0:0:
107,303,207749,6,0,P|120:330|144:348,3,56.9999982604981,2|2|2|2,0:0|0:0|0:0|0:0,0:0:0:0:
260,303,208065,2,0,P|246:330|222:348,3,56.9999982604981,2|2|2|2,0:0|0:0|0:0|0:0,0:0:0:0:
184,278,208381,6,0,L|178:159,1,113.999996520996,6|0,1:2|0:0,0:0:0:0:
376,169,208696,2,0,P|347:214|282:234,1,113.999996520996,10|0,0:0|0:0,0:0:0:0:
84,54,209012,2,0,L|200:71,1,113.999996520996,2|0,1:2|0:0,0:0:0:0:
439,211,209328,2,0,P|443:141|375:181,1,170.999994781494,10|0,0:0|0:0,0:0:0:0:
367,248,209644,5,0,1:2:0:0:
507,93,209802,1,0,0:0:0:0:
512,307,209960,1,8,0:0:0:0:
375,168,210117,6,0,P|313:168|272:204,1,113.999996520996,2|0,0:0|1:2,0:0:0:0:
111,357,210433,1,2,0:0:0:0:
162,158,210591,1,10,0:0:0:0:
280,343,210749,1,2,0:0:0:0:
82,191,210907,6,0,P|77:134|115:85,1,113.999996520996,2|0,1:2|0:0,0:0:0:0:
165,250,211223,2,0,L|139:367,1,113.999996520996,10|0,0:0|0:0,0:0:0:0:
192,73,211538,2,0,P|156:20|106:5,1,113.999996520996,2|0,1:2|0:0,0:0:0:0:
0,253,211854,2,0,B|105:218|64:285|166:250,1,170.999994781494,10|0,0:0|0:0,0:0:0:0:
240,215,212170,6,0,L|364:228,1,113.999996520996,0|0,1:2|0:0,0:0:0:0:
156,169,212486,1,8,0:0:0:0:
301,330,212644,1,2,0:0:0:0:
301,330,212723,1,2,0:0:0:0:
301,330,212802,1,2,1:2:0:0:
322,108,212960,1,2,0:0:0:0:
165,250,213117,1,10,0:0:0:0:
390,313,213275,5,2,0:0:0:0:
77,266,213433,2,0,P|83:211|122:171,1,113.999996520996,6|0,1:2|0:0,0:0:0:0:
287,216,213749,2,0,L|300:329,1,113.999996520996,10|0,0:0|0:0,0:0:0:0:
363,168,214065,2,0,P|309:130|258:132,1,113.999996520996,2|0,1:2|0:0,0:0:0:0:
204,194,214302,1,2,0:0:0:0:
204,194,214381,2,0,L|80:203,1,113.999996520996,10|0,0:0|0:0,0:0:0:0:
196,0,214696,6,0,L|181:129,1,113.999996520996,2|0,1:2|0:0,0:0:0:0:
300,329,215012,2,0,L|286:215,1,113.999996520996,10|0,0:0|0:0,0:0:0:0:
447,26,215328,1,2,1:2:0:0:
462,244,215486,1,2,0:0:0:0:
462,244,215565,1,2,0:0:0:0:
462,244,215644,2,0,P|448:303|369:259,1,170.999994781494,10|0,0:0|0:0,0:0:0:0:
286,215,215960,6,0,L|161:197,1,113.999996520996,2|2,1:2|0:0,0:0:0:0:
371,170,216275,1,14,0:0:0:0:
190,326,216433,1,2,0:0:0:0:
178,100,216591,5,2,1:2:0:0:
307,297,216749,1,2,0:0:0:0:
346,302,216828,1,2,0:0:0:0:
384,292,216907,1,14,0:0:0:0:
502,101,217065,1,2,0:0:0:0:
233,202,217223,5,2,1:2:0:0:
453,354,217381,1,10,0:0:0:0:
474,312,217460,1,8,0:0:0:0:
472,265,217538,1,10,0:0:0:0:
447,225,217617,1,8,0:0:0:0:
406,202,217696,1,10,0:0:0:0:
359,203,217775,1,8,0:0:0:0:
318,226,217854,5,10,0:0:0:0:
285,272,217933,1,8,0:0:0:0:
234,296,218012,1,8,0:0:0:0:
178,292,218091,1,8,0:0:0:0:
130,262,218170,1,8,0:0:0:0:
104,212,218249,1,8,0:0:0:0:
104,156,218328,1,8,0:0:0:0:
132,107,218407,1,8,0:0:0:0:
180,77,218486,6,0,L|301:98,1,113.999996520996,6|0,1:2|0:0,0:0:0:0:
40,119,218802,2,0,P|22:67|38:7,1,113.999996520996,10|0,0:0|0:0,0:0:0:0:
211,191,219117,2,0,L|195:320,1,113.999996520996,2|0,1:2|0:0,0:0:0:0:
413,131,219433,2,0,P|373:83|354:165,1,170.999994781494,10|0,0:0|0:0,0:0:0:0:
398,209,219749,5,0,1:2:0:0:
248,76,219907,1,0,0:0:0:0:
460,46,220065,1,8,0:0:0:0:
332,258,220223,6,0,P|316:198|349:145,1,113.999996520996,2|0,0:0|1:2,0:0:0:0:
411,295,220538,1,2,0:0:0:0:
238,222,220696,1,10,0:0:0:0:
414,122,220854,1,2,0:0:0:0:
316,370,221012,6,0,L|332:255,1,113.999996520996,6|0,1:2|0:0,0:0:0:0:
475,70,221328,2,0,P|493:128|475:177,1,113.999996520996,10|0,0:0|0:0,0:0:0:0:
225,283,221644,2,0,L|215:168,1,113.999996520996,2|0,1:2|0:0,0:0:0:0:
92,36,221960,2,0,P|26:65|90:105,1,170.999994781494,10|0,0:0|0:0,0:0:0:0:
151,83,222275,5,0,1:2:0:0:
328,182,222433,2,0,L|202:167,1,113.999996520996,2|10,0:0|0:0,0:0:0:0:
402,130,222749,1,2,0:0:0:0:
402,130,222828,1,2,0:0:0:0:
402,130,222907,1,2,1:2:0:0:
252,292,223065,1,2,0:0:0:0:
238,84,223223,1,10,0:0:0:0:
394,212,223381,1,2,0:0:0:0:
166,49,223538,6,0,P|156:82|167:121,1,71.2500027179719,14|0,1:2|0:0,0:0:0:0:
466,168,224802,6,0,P|442:142|408:130,1,71.2500027179719,14|0,0:0|0:0,0:0:0:0:
213,369,226065,6,0,P|246:361|271:332,1,71.2500027179719,14|0,0:0|0:0,0:0:0:0:
166,49,227328,5,8,0:0:0:0:
466,168,227644,1,8,0:0:0:0:
221,384,228591,6,0,P|167:330|214:243,1,185.249991519928,14|0,0:0|0:0,0:0:0:0:
305,275,228907,5,8,0:0:0:0:
88,166,229065,1,2,0:0:0:0:
360,196,229223,5,8,0:0:0:0:
137,349,229381,1,2,1:2:0:0:
397,292,229538,5,10,0:0:0:0:
189,149,229696,1,2,1:2:0:0:
448,189,229854,5,8,0:0:0:0:
220,306,230012,1,2,1:2:0:0:
486,332,230170,5,10,0:0:0:0:
301,132,230328,1,2,1:2:0:0:
222,384,230486,5,10,0:0:0:0:
471,211,230644,1,0,1:2:0:0:
222,121,230802,6,0,L|208:262,1,123.499994346619,10|0,0:0|1:2,0:0:0:0:
448,306,231117,6,0,B|400:262|400:262|285:294,1,185.249991519928,10|0,0:0|0:0,0:0:0:0:
205,357,231433,5,8,0:0:0:0:
316,95,231591,1,2,0:0:0:0:
374,350,231749,5,8,0:0:0:0:
190,156,231907,1,2,1:2:0:0:
440,61,232065,5,10,0:0:0:0:
289,259,232223,1,2,1:2:0:0:
182,4,232381,5,8,0:0:0:0:
407,158,232538,1,0,1:2:0:0:
122,255,232696,5,10,0:0:0:0:
292,30,232854,1,2,1:2:0:0:
379,324,233012,6,0,P|318:308|288:251,1,123.499994346619,10|2,0:0|1:2,0:0:0:0:
376,237,233249,1,0,1:2:0:0:
376,237,233328,2,0,L|499:250,1,123.499994346619,10|2,0:0|1:2,0:0:0:0:
300,86,233644,6,0,B|255:51|255:51|275:185,1,185.249991519928,14|0,0:0|0:0,0:0:0:0:
288,258,233960,5,8,0:0:0:0:
462,130,234117,1,2,0:0:0:0:
206,225,234275,5,8,0:0:0:0:
443,329,234433,1,2,1:2:0:0:
174,311,234591,5,10,0:0:0:0:
407,206,234749,1,2,1:2:0:0:
134,175,234907,5,8,0:0:0:0:
359,306,235065,1,2,1:2:0:0:
68,313,235223,5,10,0:0:0:0:
268,162,235381,1,2,1:2:0:0:
374,384,235538,5,10,0:0:0:0:
133,257,235696,1,0,1:2:0:0:
378,98,235854,6,0,L|363:230,1,123.499994346619,10|0,0:0|1:2,0:0:0:0:
82,359,236170,6,0,P|48:306|139:261,1,185.249991519928,10|0,0:0|0:0,0:0:0:0:
199,318,236486,5,8,0:0:0:0:
335,76,236644,1,2,0:0:0:0:
385,333,236802,5,8,0:0:0:0:
203,158,236960,1,2,1:2:0:0:
512,55,237117,5,10,0:0:0:0:
290,262,237275,1,2,1:2:0:0:
174,10,237433,5,8,0:0:0:0:
449,147,237591,1,0,1:2:0:0:
144,246,237749,5,10,0:0:0:0:
351,5,237907,1,2,1:2:0:0:
437,331,238065,5,8,0:0:0:0:
394,340,238144,1,8,0:0:0:0:
351,330,238223,1,10,0:0:0:0:
320,299,238302,1,8,0:0:0:0:
313,256,238381,5,10,0:0:0:0:
335,244,238460,1,8,0:3:0:0:
359,245,238538,1,6,0:3:0:0:
380,257,238617,1,4,0:3:0:0:
389,277,238696,6,0,B|274:330|274:330|161:287,1,246.999988693238,14|0,0:0|1:2,0:0:0:0:
228,115,239170,2,0,B|274:58|274:58|261:235,1,246.999988693238,14|0,0:0|1:2,0:0:0:0:
58,209,239644,2,0,L|182:189,1,123.499994346619,14|0,0:0|0:0,0:0:0:0:
340,132,239960,6,0,L|219:113,1,114,12|0,0:0|0:0,0:0:0:0:
396,62,240591,6,0,B|432:52|432:52|418:93,1,76,2|2,0:0|0:0,0:0:0:0:
311,225,240907,2,0,B|275:215|275:215|289:256,1,76,2|2,0:0|0:0,0:0:0:0:
406,357,241223,5,14,0:0:0:0:
