osu file format v14

[General]
AudioFilename: audio.mp3
AudioLeadIn: 0
PreviewTime: 132501
Countdown: 0
SampleSet: Soft
StackLeniency: 0.4
Mode: 0
LetterboxInBreaks: 0
WidescreenStoryboard: 1

[Editor]
DistanceSpacing: 0.6
BeatDivisor: 4
GridSize: 32
TimelineZoom: 1.7

[Metadata]
Title:Cherry Bomb
TitleUnicode:チェリボム
Artist:Poppin'Party
ArtistUnicode:Poppin'Party
Creator:[Karcher]
Version:Insane
Source:バンドリ! ガールズバンドパーティ!
Tags:Bang Dream! Girls Band Party bandori garupa ガルパ popipa ポピパ ポッピンパーティ cover Silent Siren toyama kasumi 戸山香澄 terakawa aimi 寺川愛美 hanazono tae 花園たえ otsuka sae 大塚紗英 ushigome rimi 牛込りみ nishimoto 西本りみ yamabuki saya saaya 山吹沙綾 ohashi ayaka 大橋彩香 ichigaya arisa 市ヶ谷有咲 itou ayasa 伊藤彩沙 full ver version anime video game jpop pop j-pop japanese female vocal
BeatmapID:2883759
BeatmapSetID:1397392

[Difficulty]
HPDrainRate:5.5
CircleSize:3.8
OverallDifficulty:8.1
ApproachRate:9
SliderMultiplier:1.65
SliderTickRate:1

[Events]
//Background and Video events
0,0,"bg.jpg",0,0
//Break Periods
2,1423,5675
//Storyboard Layer 0 (Background)
//Storyboard Layer 1 (Fail)
//Storyboard Layer 2 (Pass)
//Storyboard Layer 3 (Foreground)
//Storyboard Layer 4 (Overlay)
//Storyboard Sound Samples

[TimingPoints]
-40,315.789473684211,4,2,1,40,1,0
591,-125,4,2,1,40,0,0
6275,-125,4,2,1,55,0,0
11328,-83.3333333333333,4,2,1,70,0,1
18828,-83.3333333333333,4,2,1,5,0,1
18907,-83.3333333333333,4,2,1,70,0,1
29012,-90.9090909090909,4,2,1,70,0,0
39038,-90.9090909090909,4,2,1,5,0,0
39117,-90.9090909090909,4,2,1,70,0,0
40381,-333.333333333333,4,2,1,70,0,0
41328,-90.9090909090909,4,2,1,60,0,0
41644,-125,4,2,1,50,0,0
51749,-100,4,2,1,60,0,0
61854,-111.111111111111,4,2,1,50,0,0
66749,-83.3333333333333,4,2,1,65,0,0
71960,-83.3333333333333,4,2,1,70,0,1
79460,-83.3333333333333,4,2,1,5,0,1
79538,-83.3333333333333,4,2,1,70,0,1
89644,-90.9090909090909,4,2,1,70,0,0
101012,-333.333333333333,4,2,1,70,0,0
101644,-333.333333333333,4,2,1,60,0,0
102275,-111.111111111111,4,2,1,50,0,0
107328,-111.111111111111,4,2,1,60,0,0
112381,-125,4,2,1,65,0,0
112696,-83.3333333333333,4,2,1,65,0,0
122486,-111.111111111111,4,2,1,50,0,0
127381,-83.3333333333333,4,2,1,65,0,0
132591,-83.3333333333333,4,2,1,70,0,1
140091,-83.3333333333333,4,2,1,5,0,1
140170,-83.3333333333333,4,2,1,70,0,1
150275,-100,4,2,1,60,0,0
151144,-100,4,2,1,5,0,0
151223,-100,4,2,1,60,0,0
152091,-100,4,2,1,5,0,0
152170,-100,4,2,1,60,0,0
153670,-100,4,2,1,5,0,0
153749,-100,4,2,1,60,0,0
154617,-100,4,2,1,5,0,0
154696,-100,4,2,1,60,0,0
156196,-100,4,2,1,5,0,0
156275,-100,4,2,1,60,0,0
157144,-100,4,2,1,5,0,0
157223,-100,4,2,1,60,0,0
158723,-100,4,2,1,5,0,0
158802,-100,4,2,1,60,0,0
159670,-100,4,2,1,5,0,0
159749,-100,4,2,1,60,0,0
160381,-125,4,2,1,45,0,0
161802,-100,4,2,1,45,0,0
162828,-100,4,2,1,5,0,0
162907,-125,4,2,1,45,0,0
164328,-100,4,2,1,45,0,0
165433,-100,4,2,1,55,0,0
167881,-100,4,2,1,5,0,0
167960,-100,4,2,1,55,0,0
170486,-90.9090909090909,4,2,1,65,0,0
175538,-83.3333333333333,4,2,1,75,0,1
180591,-90.9090909090909,4,2,1,70,0,0
190223,-166.666666666667,4,2,1,45,0,0
190696,-83.3333333333333,4,2,1,70,0,1
198196,-83.3333333333333,4,2,1,5,0,1
198275,-83.3333333333333,4,2,1,70,0,1
207749,-83.3333333333333,4,2,1,60,0,0
208381,-83.3333333333333,4,2,1,70,0,1
215881,-83.3333333333333,4,2,1,5,0,1
215960,-83.3333333333333,4,2,1,70,0,1
223538,-66.6666666666667,4,2,1,70,0,1
223617,-66.6666666666667,4,2,1,5,0,0
224802,-66.6666666666667,4,2,1,70,0,1
224881,-66.6666666666667,4,2,1,5,0,0
226065,-66.6666666666667,4,2,1,70,0,1
226144,-66.6666666666667,4,2,1,5,0,0
227328,-66.6666666666667,4,2,1,70,0,0
228591,-83.3333333333333,4,2,1,70,0,1
238696,-83.3333333333333,4,2,1,70,0,0
239960,-250,4,2,1,70,0,0
240591,-125,4,2,1,60,0,0

[Colours]
Combo1 : 253,179,223
Combo2 : 244,53,72
Combo3 : 253,148,62

[HitObjects]
52,96,591,6,0,P|42:129|45:161,1,66,2|2,0:0|0:0,0:0:0:0:
138,96,907,2,0,P|148:129|145:161,1,66,2|2,0:0|0:0,0:0:0:0:
92,245,1223,1,6,1:2:0:0:
256,192,6275,12,8,9749,0:0:0:0:
404,115,10065,6,0,L|335:126,1,66,6|0,1:2|0:0,0:0:0:0:
242,200,10381,2,0,L|307:210,1,66,10|0,0:0|0:0,0:0:0:0:
307,210,10617,1,0,1:2:0:0:
307,210,10696,5,8,0:0:0:0:
281,32,10854,1,8,0:0:0:0:
103,58,11012,1,8,0:0:0:0:
129,236,11170,1,8,0:0:0:0:
223,142,11328,6,0,L|125:131,1,98.9999969787599,6|0,1:2|0:0,0:0:0:0:
252,62,11644,2,0,P|293:94|308:146,1,98.9999969787599,10|0,0:0|0:0,0:0:0:0:
252,312,11960,2,0,L|271:208,1,98.9999969787599,2|0,1:2|0:0,0:0:0:0:
116,32,12275,2,0,L|125:141,1,98.9999969787599,10|0,0:0|0:0,0:0:0:0:
135,312,12591,6,0,L|33:293,2,98.9999969787599,0|0|8,1:2|0:0|0:0,0:0:0:0:
269,214,13065,2,0,P|354:213|354:314,1,197.99999395752,2|2,0:0|0:0,0:0:0:0:
477,250,13538,1,10,0:0:0:0:
458,122,13696,1,2,0:0:0:0:
330,100,13854,6,0,L|347:204,1,98.9999969787599,2|0,1:2|0:0,0:0:0:0:
402,50,14170,2,0,P|363:17|315:14,1,98.9999969787599,10|0,0:0|0:0,0:0:0:0:
154,88,14486,2,0,L|259:67,1,98.9999969787599,2|0,1:2|0:0,0:0:0:0:
101,19,14802,2,0,P|70:61|74:118,1,98.9999969787599,10|0,0:0|0:0,0:0:0:0:
211,188,15117,6,0,B|83:154|145:229|15:193,1,197.99999395752,0|8,1:2|0:0,0:0:0:0:
132,355,15591,1,2,0:0:0:0:
132,355,15670,1,2,0:0:0:0:
132,355,15749,2,0,P|158:305|160:256,1,98.9999969787599,2|2,1:2|0:0,0:0:0:0:
139,153,16065,1,10,0:0:0:0:
268,259,16223,5,2,0:0:0:0:
146,64,16381,2,0,P|93:74|59:116,1,98.9999969787599,6|0,1:2|0:0,0:0:0:0:
221,115,16696,2,0,L|329:103,1,98.9999969787599,10|0,0:0|0:0,0:0:0:0:
504,72,17012,1,2,1:2:0:0:
440,0,17170,1,0,0:0:0:0:
410,92,17328,2,0,L|430:206,1,98.9999969787599,10|0,0:0|0:0,0:0:0:0:
337,348,17644,6,0,L|354:250,1,98.9999969787599,2|0,1:2|0:0,0:0:0:0:
512,222,17960,2,0,P|486:265|440:283,1,98.9999969787599,10|0,0:0|0:0,0:0:0:0:
343,163,18275,1,2,1:2:0:0:
271,290,18433,1,2,0:0:0:0:
271,290,18512,1,2,0:0:0:0:
271,290,18591,2,0,P|231:326|136:303,1,148.49999546814,10|0,0:0|0:0,0:0:0:0:
117,232,18907,5,2,1:2:0:0:
61,341,19065,1,2,0:0:0:0:
198,246,19223,1,10,0:0:0:0:
21,160,19381,2,0,L|32:266,1,98.9999969787599,2|2,0:0|1:2,0:0:0:0:
98,109,19696,1,2,0:0:0:0:
98,109,19775,1,2,0:0:0:0:
98,109,19854,2,0,P|143:78|197:80,1,98.9999969787599,8|2,0:0|0:0,0:0:0:0:
337,76,20170,5,2,1:2:0:0:
169,168,20328,1,14,0:0:0:0:
316,272,20486,2,0,P|349:228|342:173,1,98.9999969787599,14|2,0:0|1:2,0:0:0:0:
255,146,20802,1,10,0:3:0:0:
255,146,20881,1,8,0:3:0:0:
255,146,20960,2,0,L|261:209,2,49.4999984893799,8|8|12,0:3|0:3|0:0,0:0:0:0:
448,74,21275,2,0,L|442:137,1,49.4999984893799,8|8,0:0|0:0,0:0:0:0:
434,206,21433,6,0,L|447:312,1,98.9999969787599,6|0,1:2|0:0,0:0:0:0:
359,162,21749,2,0,P|396:128|447:124,1,98.9999969787599,10|0,0:0|0:0,0:0:0:0:
310,283,22065,2,0,L|204:270,1,98.9999969787599,2|0,1:2|0:0,0:0:0:0:
105,152,22381,2,0,L|211:139,1,98.9999969787599,10|0,0:0|0:0,0:0:0:0:
372,95,22696,6,0,L|358:-5,2,98.9999969787599,0|0|8,1:2|0:0|0:0,0:0:0:0:
310,283,23170,2,0,P|393:269|376:169,1,197.99999395752,2|2,0:0|0:0,0:0:0:0:
508,211,23643,1,10,0:0:0:0:
512,340,23801,1,2,0:0:0:0:
389,384,23959,6,0,L|387:278,1,98.9999969787599,2|0,1:2|0:0,0:0:0:0:
490,120,24275,2,0,P|513:160|502:221,1,98.9999969787599,10|0,0:0|0:0,0:0:0:0:
273,212,24591,2,0,P|267:163|290:121,1,98.9999969787599,2|0,1:2|0:0,0:0:0:0:
309,294,24907,2,0,L|199:310,1,98.9999969787599,10|0,0:0|0:0,0:0:0:0:
136,215,25223,5,0,1:2:0:0:
359,225,25381,2,0,P|391:266|392:323,1,98.9999969787599,2|10,0:0|0:0,0:0:0:0:
296,149,25696,1,2,0:0:0:0:
296,149,25775,1,2,0:0:0:0:
296,149,25854,2,0,P|346:128|390:134,1,98.9999969787599,2|2,1:2|0:0,0:0:0:0:
472,168,26170,1,10,0:0:0:0:
463,29,26328,5,2,0:0:0:0:
284,50,26486,2,0,L|295:148,1,98.9999969787599,6|0,1:2|0:0,0:0:0:0:
335,344,26802,2,0,L|346:245,1,98.9999969787599,10|0,0:0|0:0,0:0:0:0:
270,42,27117,2,0,L|281:140,1,98.9999969787599,2|0,1:2|0:0,0:0:0:0:
348,342,27433,2,0,L|359:243,1,98.9999969787599,10|0,0:0|0:0,0:0:0:0:
180,93,27749,5,10,0:0:0:0:
261,341,28065,1,10,0:0:0:0:
61,188,29012,6,0,B|167:154|131:217|239:180,1,181.500005538941,14|8,0:0|0:0,0:0:0:0:
358,122,29486,2,0,B|310:97|310:97|343:229,1,181.500005538941,2|2,0:0|1:2,0:0:0:0:
451,284,29960,1,10,0:0:0:0:
330,315,30117,6,0,B|283:313|260:273|260:273|209:265|169:297,1,181.500005538941,2|2,1:2|1:2,0:0:0:0:
89,357,30591,1,10,0:0:0:0:
11,308,30749,1,2,1:2:0:0:
72,179,30907,2,0,L|89:276,1,90.7500027694703,10|0,0:0|1:2,0:0:0:0:
139,122,31223,2,0,P|88:88|51:89,1,90.7500027694703,10|0,0:0|1:2,0:0:0:0:
159,214,31538,6,0,B|231:207|231:207|254:179|254:179|327:173,1,181.500005538941,10|8,0:0|0:0,0:0:0:0:
474,66,32012,2,0,B|439:54|396:64|378:99|378:99|411:117|415:160,1,181.500005538941,2|2,0:0|1:2,0:0:0:0:
327,251,32486,1,10,0:0:0:0:
255,214,32644,2,0,P|195:195|118:287,1,181.500005538941,2|0,1:2|1:2,0:0:0:0:
216,374,33117,2,0,L|201:265,1,90.7500027694703,10|2,0:0|1:2,0:0:0:0:
49,166,33433,6,0,L|37:256,1,90.7500027694703,10|2,0:0|1:2,0:0:0:0:
37,256,33670,1,0,1:2:0:0:
37,256,33749,1,10,0:0:0:0:
152,155,33907,1,2,1:2:0:0:
15,39,34065,6,0,P|51:75|172:30,1,181.500005538941,14|8,0:0|0:0,0:0:0:0:
381,120,34538,2,0,P|345:84|224:129,1,181.500005538941,2|2,0:0|1:2,0:0:0:0:
196,243,35012,1,10,0:0:0:0:
317,334,35170,6,0,B|312:204|312:204|282:253,1,181.500005538941,2|2,1:2|1:2,0:0:0:0:
181,341,35644,1,10,0:0:0:0:
121,213,35802,1,2,1:2:0:0:
29,331,35960,2,0,L|14:225,1,90.7500027694703,10|0,0:0|1:2,0:0:0:0:
0,49,36275,2,0,P|37:86|40:144,1,90.7500027694703,10|0,0:0|1:2,0:0:0:0:
149,230,36591,6,0,B|201:266|201:266|316:223,1,181.500005538941,10|8,0:0|0:0,0:0:0:0:
512,123,37065,2,0,P|466:111|434:220,1,181.500005538941,2|2,0:0|1:2,0:0:0:0:
428,214,37538,1,10,0:0:0:0:
304,302,37696,6,0,B|229:295|229:295|194:347|136:340,1,181.500005538941,2|0,1:2|1:2,0:0:0:0:
60,184,38170,1,10,0:0:0:0:
149,253,38328,1,2,1:2:0:0:
60,375,38486,2,0,P|54:322|81:274,1,90.7500027694703,8|2,0:0|1:2,0:0:0:0:
205,182,38802,2,0,P|202:133|178:181,1,136.125004154205,10|0,0:0|0:0,0:0:0:0:
193,157,39117,6,0,B|300:125|255:205|376:165,1,181.500005538941,14|0,0:0|1:2,0:0:0:0:
167,68,39591,2,0,P|124:94|134:226,1,181.500005538941,14|0,0:0|1:2,0:0:0:0:
213,344,40065,2,0,L|205:239,1,90.7500027694703,14|0,0:0|0:0,0:0:0:0:
19,233,40381,6,0,L|9:338,1,98.9999969787599,6|2,1:2|0:0,0:0:0:0:
107,189,41249,1,2,0:0:0:0:
107,189,41328,2,0,L|101:246,3,45.3750013847352,2|2|2|2,0:0|0:0|0:0|0:0,0:0:0:0:
183,244,41644,5,6,1:2:0:0:
331,263,41960,2,0,L|264:255,1,66,10|0,0:0|0:0,0:0:0:0:
183,244,42275,2,0,L|197:108,1,132,2|10,0:0|0:0,0:0:0:0:
208,38,42749,1,2,0:0:0:0:
420,86,43065,2,0,L|406:7,2,66,2|10|2,1:2|0:0|1:2,0:0:0:0:
455,168,43538,2,0,P|422:175|390:167,1,66,2|2,0:0|1:2,0:0:0:0:
232,113,43854,1,10,0:0:0:0:
246,201,44012,1,0,0:0:0:0:
340,102,44170,5,2,1:2:0:0:
340,102,44486,2,0,L|326:24,1,66,10|0,0:0|0:0,0:0:0:0:
228,22,44802,2,0,B|175:53|175:53|90:30,1,132,2|10,0:0|0:0,0:0:0:0:
5,5,45275,1,2,0:0:0:0:
5,5,45433,6,0,L|15:80,1,66,2|2,1:2|1:2,0:0:0:0:
34,163,45749,2,0,L|25:228,1,66,10|2,0:0|1:2,0:0:0:0:
54,375,46065,1,2,0:0:0:0:
81,296,46223,1,2,1:2:0:0:
199,373,46381,2,0,L|121:361,1,66,10|0,0:0|0:0,0:0:0:0:
1,306,46696,5,2,1:2:0:0:
1,306,47012,2,0,P|4:268|21:242,1,66,10|0,0:0|0:0,0:0:0:0:
142,280,47328,2,0,P|107:296|76:294,1,66,2|0,0:0|1:2,0:0:0:0:
48,170,47644,2,0,P|79:191|93:219,1,66,10|0,0:0|0:0,0:0:0:0:
206,341,47960,6,0,P|227:306|228:278,1,66,2|0,1:2|1:2,0:0:0:0:
191,142,48275,2,0,L|186:217,1,66,10|0,0:0|1:2,0:0:0:0:
287,140,48591,2,0,L|282:74,1,66,2|0,0:0|1:2,0:0:0:0:
107,61,48907,2,0,L|102:126,1,66,10|0,0:0|0:0,0:0:0:0:
186,207,49223,6,0,B|265:191|231:235|317:216,1,132,2|8,1:2|0:0,0:0:0:0:
487,157,49696,2,0,B|453:132|453:132|361:155,1,132,2|0,0:0|1:2,0:0:0:0:
364,283,50170,2,0,P|389:258|395:222,1,66,10|0,0:0|0:0,0:0:0:0:
287,140,50486,5,2,1:2:0:0:
177,265,50644,1,0,1:2:0:0:
153,107,50802,1,8,0:0:0:0:
265,241,50960,2,0,P|267:286|210:350,1,132,6|0,1:2|1:2,0:0:0:0:
103,286,51433,1,12,0:0:0:0:
11,376,51591,1,0,1:2:0:0:
11,376,51670,1,8,0:0:0:0:
11,376,51749,6,0,L|-7:204,2,165,6|10|2,1:2|0:0|0:0,0:0:0:0:
165,340,52538,2,0,L|174:250,1,82.5,0|10,1:2|0:0,0:0:0:0:
340,200,52854,2,0,P|348:240|243:279,1,165,2|2,0:0|1:2,0:0:0:0:
159,176,53328,2,0,P|202:176|239:202,1,82.5,10|2,0:0|1:2,0:0:0:0:
98,231,53644,2,0,P|75:190|81:150,1,82.5,2|2,0:0|1:2,0:0:0:0:
100,14,53960,1,10,0:0:0:0:
132,92,54117,1,0,0:0:0:0:
248,21,54275,6,0,P|304:23|348:119,2,165,2|10|2,1:2|0:0|0:0,0:0:0:0:
315,188,55065,1,0,1:2:0:0:
315,188,55223,2,0,P|358:197|397:183,1,82.5,10|2,0:0|0:0,0:0:0:0:
512,100,55538,6,0,L|422:110,1,82.5,2|2,1:2|1:2,0:0:0:0:
321,49,55854,1,10,0:0:0:0:
321,49,56012,1,2,1:2:0:0:
220,126,56170,2,0,P|197:78|207:47,1,82.5,2|2,0:0|1:2,0:0:0:0:
321,167,56486,2,0,L|315:255,1,82.5,10|0,0:0|0:0,0:0:0:0:
184,356,56802,6,0,P|134:305|48:344,2,165,6|10|2,1:2|0:0|0:0,0:0:0:0:
383,329,57749,1,10,0:0:0:0:
383,329,57907,1,2,0:0:0:0:
300,254,58065,6,0,B|264:223|264:223|278:342,1,165,2|10,1:2|0:0,0:0:0:0:
184,356,58538,1,0,1:2:0:0:
184,356,58696,2,0,L|174:273,1,82.5,2|0,0:0|1:2,0:0:0:0:
13,251,59012,2,0,L|23:168,1,82.5,10|0,0:0|0:0,0:0:0:0:
174,68,59328,6,0,P|137:27|26:58,1,165,6|8,1:2|0:0,0:0:0:0:
172,151,59802,2,0,P|226:139|254:27,1,165,2|0,0:0|1:2,0:0:0:0:
99,107,60275,2,0,P|85:151|96:194,1,82.5,10|0,0:0|0:0,0:0:0:0:
206,311,60591,5,2,1:2:0:0:
172,151,60749,1,2,1:2:0:0:
12,185,60907,1,10,0:0:0:0:
46,345,61065,1,2,1:2:0:0:
114,255,61223,5,10,0:0:0:0:
206,311,61381,1,0,1:2:0:0:
114,255,61538,2,0,L|94:173,1,82.5,2|0,1:2|1:2,0:0:0:0:
0,61,61854,6,0,B|67:38|67:38|145:64,1,148.49999546814,6|8,1:2|0:0,0:0:0:0:
219,113,62328,1,0,0:0:0:0:
219,113,62486,2,0,L|300:106,1,74.2499977340699,0|2,1:2|0:0,0:0:0:0:
432,50,62802,2,0,L|358:43,1,74.2499977340699,10|2,0:0|0:0,0:0:0:0:
345,213,63117,6,0,B|373:242|373:242|377:130,2,148.49999546814,2|8|0,1:2|0:0|1:2,0:0:0:0:
345,213,63907,1,0,1:2:0:0:
472,138,64065,2,0,L|468:222,1,74.2499977340699,10|0,0:0|0:0,0:0:0:0:
334,335,64381,6,0,P|299:289|211:305,1,148.49999546814,2|10,1:2|0:0,0:0:0:0:
46,379,64854,2,0,P|103:371|133:287,1,148.49999546814,2|2,0:0|1:2,0:0:0:0:
187,145,65328,2,0,L|177:230,1,74.2499977340699,10|0,0:0|0:0,0:0:0:0:
334,335,65644,6,0,L|325:261,1,74.2499977340699,2|0,1:2|1:2,0:0:0:0:
414,144,65960,1,8,0:0:0:0:
442,285,66117,1,0,1:2:0:0:
310,143,66275,5,8,0:0:0:0:
487,101,66433,2,0,P|498:142|489:179,1,74.2499977340699,8|10,0:3|0:3,0:0:0:0:
356,57,66749,6,0,B|223:30|286:101|159:65,1,197.99999395752,14|0,0:0|1:2,0:0:0:0:
35,25,67223,2,0,L|50:133,1,98.9999969787599,8|0,0:0|1:2,0:0:0:0:
244,260,67538,2,0,L|257:161,1,98.9999969787599,10|0,0:0|1:2,0:0:0:0:
39,277,67854,2,0,L|52:375,1,98.9999969787599,8|0,0:0|1:2,0:0:0:0:
278,152,68170,6,0,L|264:250,1,98.9999969787599,10|0,0:0|1:2,0:0:0:0:
18,13,68486,2,0,L|33:121,1,98.9999969787599,10|0,0:0|1:2,0:0:0:0:
258,5,68802,1,10,0:0:0:0:
136,235,68960,1,2,1:2:0:0:
18,13,69117,1,8,0:0:0:0:
214,118,69275,1,2,1:2:0:0:
52,284,69433,6,0,P|41:234|55:185,1,98.9999969787599,8|0,0:0|1:2,0:0:0:0:
178,0,69749,2,0,L|188:98,1,98.9999969787599,8|2,0:0|1:2,0:0:0:0:
341,223,70065,2,0,P|356:176|345:129,2,98.9999969787599,10|0|0,0:0|1:2|1:2,0:0:0:0:
229,300,70538,6,0,B|154:293|154:293|126:322|126:322|40:315,1,197.99999395752,10|2,0:0|1:2,0:0:0:0:
192,187,71012,1,10,0:0:0:0:
191,384,71170,1,2,1:2:0:0:
104,204,71328,1,10,0:0:0:0:
102,179,71407,1,0,1:2:0:0:
108,155,71486,1,0,1:2:0:0:
121,134,71565,1,0,1:2:0:0:
140,118,71644,2,0,L|184:123,6,24.74999924469,14|2|2|2|2|2|2,0:0|0:0|0:0|0:0|0:0|0:0|0:0,0:0:0:0:
241,135,71960,6,0,L|338:150,1,98.9999969787599,6|0,1:2|0:0,0:0:0:0:
472,42,72275,2,0,P|421:45|380:73,1,98.9999969787599,10|0,0:0|0:0,0:0:0:0:
420,258,72591,2,0,L|434:153,1,98.9999969787599,2|0,1:2|0:0,0:0:0:0:
227,36,72907,2,0,L|240:134,1,98.9999969787599,10|0,0:0|0:0,0:0:0:0:
226,346,73223,6,0,P|170:333|143:293,2,98.9999969787599,0|0|8,1:2|0:0|0:0,0:0:0:0:
118,209,73696,2,0,P|86:180|78:276,1,197.99999395752,2|2,0:0|0:0,0:0:0:0:
211,224,74170,1,10,0:0:0:0:
181,135,74328,1,2,0:0:0:0:
281,277,74486,6,0,P|299:234|283:181,1,98.9999969787599,2|0,1:2|0:0,0:0:0:0:
195,37,74802,2,0,L|179:146,1,98.9999969787599,10|0,0:0|0:0,0:0:0:0:
411,191,75117,2,0,L|396:93,1,98.9999969787599,2|0,1:2|0:0,0:0:0:0:
281,277,75433,2,0,L|265:386,1,98.9999969787599,10|0,0:0|0:0,0:0:0:0:
464,296,75749,6,0,P|500:256|404:196,1,197.99999395752,0|8,1:2|0:0,0:0:0:0:
289,285,76223,1,2,0:0:0:0:
289,285,76302,1,2,0:0:0:0:
289,285,76381,2,0,P|240:300|190:297,1,98.9999969787599,2|2,1:2|0:0,0:0:0:0:
76,237,76696,1,10,0:0:0:0:
236,182,76854,5,2,0:0:0:0:
56,321,77012,2,0,P|11:298|-8:250,1,98.9999969787599,6|0,1:2|0:0,0:0:0:0:
28,70,77328,2,0,L|15:181,1,98.9999969787599,10|0,0:0|0:0,0:0:0:0:
145,301,77644,1,2,1:2:0:0:
199,211,77802,1,0,0:0:0:0:
253,305,77960,2,0,L|358:320,1,98.9999969787599,10|0,0:0|0:0,0:0:0:0:
505,376,78275,6,0,P|458:359|434:312,1,98.9999969787599,2|0,1:2|0:0,0:0:0:0:
506,196,78591,2,0,L|514:295,1,98.9999969787599,10|0,0:0|0:0,0:0:0:0:
417,144,78907,1,2,1:2:0:0:
336,287,79065,1,2,0:0:0:0:
336,287,79144,1,2,0:0:0:0:
336,287,79223,2,0,P|271:285|232:211,1,148.49999546814,10|0,0:0|0:0,0:0:0:0:
264,148,79538,5,2,1:2:0:0:
148,256,79696,1,2,0:0:0:0:
157,104,79854,1,10,0:0:0:0:
311,216,80012,2,0,L|427:194,1,98.9999969787599,2|2,0:0|1:2,0:0:0:0:
286,55,80328,1,2,0:0:0:0:
286,55,80407,1,2,0:0:0:0:
286,55,80486,2,0,P|261:107|265:152,1,98.9999969787599,10|2,0:0|0:0,0:0:0:0:
192,344,80802,5,2,1:2:0:0:
124,176,80960,1,10,0:0:0:0:
34,341,81117,2,0,P|85:327|119:278,1,98.9999969787599,10|2,0:0|1:2,0:0:0:0:
40,203,81433,1,10,0:3:0:0:
40,203,81512,1,8,0:3:0:0:
40,203,81591,2,0,L|35:258,2,49.4999984893799,8|8|12,0:3|0:3|0:0,0:0:0:0:
213,129,81907,2,0,L|217:188,1,49.4999984893799,8|8,0:0|0:0,0:0:0:0:
225,264,82065,6,0,L|236:365,1,98.9999969787599,6|0,1:2|0:0,0:0:0:0:
299,218,82381,2,0,P|264:184|216:178,1,98.9999969787599,10|0,0:0|0:0,0:0:0:0:
49,242,82696,2,0,L|156:228,1,98.9999969787599,2|0,1:2|0:0,0:0:0:0:
264,95,83012,2,0,L|157:81,1,98.9999969787599,10|0,0:0|0:0,0:0:0:0:
360,99,83328,6,0,P|350:50|317:14,2,98.9999969787599,0|0|8,1:2|0:0|0:0,0:0:0:0:
394,263,83802,2,0,P|452:268|419:167,1,197.99999395752,2|2,0:0|0:0,0:0:0:0:
297,249,84275,1,10,0:0:0:0:
327,335,84433,1,2,0:0:0:0:
340,175,84591,6,0,P|293:164|245:182,1,98.9999969787599,2|0,1:2|0:0,0:0:0:0:
108,278,84907,2,0,L|209:255,1,98.9999969787599,10|0,0:0|0:0,0:0:0:0:
38,121,85223,2,0,L|25:233,1,98.9999969787599,2|0,1:2|0:0,0:0:0:0:
117,64,85538,2,0,P|80:31|28:26,1,98.9999969787599,10|0,0:0|0:0,0:0:0:0:
127,159,85854,5,0,1:2:0:0:
231,25,86012,2,0,L|332:45,1,98.9999969787599,2|10,0:0|0:0,0:0:0:0:
375,260,86328,1,2,0:0:0:0:
375,260,86407,1,2,0:0:0:0:
375,260,86486,2,0,P|399:213|399:167,1,98.9999969787599,2|2,1:2|0:0,0:0:0:0:
397,87,86802,1,10,0:0:0:0:
293,231,86960,5,2,0:0:0:0:
494,100,87117,2,0,L|384:85,1,98.9999969787599,6|0,1:2|0:0,0:0:0:0:
178,228,87433,2,0,L|277:213,1,98.9999969787599,10|0,0:0|0:0,0:0:0:0:
512,90,87749,2,0,L|402:75,1,98.9999969787599,2|0,1:2|0:0,0:0:0:0:
166,245,88065,2,0,L|265:230,1,98.9999969787599,10|0,0:0|0:0,0:0:0:0:
504,176,88381,5,10,0:0:0:0:
173,129,88696,1,10,0:0:0:0:
462,367,89644,6,0,P|451:276|364:278,1,181.500005538941,14|8,0:0|0:0,0:0:0:0:
273,318,90117,2,0,B|163:299|217:364|96:334,1,181.500005538941,2|2,0:0|1:2,0:0:0:0:
98,334,90591,1,10,0:0:0:0:
136,152,90749,6,0,B|179:122|179:122|148:256,1,181.500005538941,2|2,1:2|1:2,0:0:0:0:
50,80,91223,1,10,0:0:0:0:
32,182,91381,1,2,1:2:0:0:
146,43,91538,2,0,L|239:58,1,90.7500027694703,10|0,0:0|1:2,0:0:0:0:
450,117,91854,2,0,L|436:20,1,90.7500027694703,10|0,0:0|1:2,0:0:0:0:
437,27,92091,1,0,1:2:0:0:
437,27,92170,5,10,0:0:0:0:
324,117,92328,2,0,L|311:206,1,90.7500027694703,2|8,0:0|0:0,0:0:0:0:
441,324,92644,2,0,P|477:291|412:197,1,181.500005538941,2|2,0:0|1:2,0:0:0:0:
268,288,93117,1,10,0:0:0:0:
222,208,93275,6,0,B|167:168|167:168|55:208,1,181.500005538941,2|0,1:2|1:2,0:0:0:0:
190,375,93749,2,0,L|180:281,1,90.7500027694703,10|2,0:0|1:2,0:0:0:0:
320,116,94065,2,0,L|310:206,1,90.7500027694703,10|2,0:0|1:2,0:0:0:0:
310,206,94302,1,2,1:2:0:0:
310,206,94381,1,10,0:0:0:0:
414,56,94538,1,2,1:2:0:0:
491,214,94696,6,0,B|380:181|430:252|310:211,1,181.500005538941,14|8,0:0|0:0,0:0:0:0:
99,151,95170,2,0,P|147:114|221:193,1,181.500005538941,2|2,0:0|1:2,0:0:0:0:
222,183,95644,1,10,0:0:0:0:
46,228,95802,6,0,P|12:175|64:69,1,181.500005538941,2|2,1:2|1:2,0:0:0:0:
191,24,96275,1,10,0:0:0:0:
298,126,96433,1,2,1:2:0:0:
157,194,96591,2,0,L|175:96,1,90.7500027694703,10|0,0:0|1:2,0:0:0:0:
358,59,96907,2,0,P|380:102|381:147,1,90.7500027694703,10|0,0:0|1:2,0:0:0:0:
326,210,97144,1,2,0:0:0:0:
326,210,97223,5,10,0:0:0:0:
472,134,97381,2,0,L|369:146,1,90.7500027694703,2|8,0:0|0:0,0:0:0:0:
173,104,97696,2,0,B|125:77|125:77|160:208,1,181.500005538941,2|2,0:0|1:2,0:0:0:0:
226,352,98170,1,10,0:0:0:0:
20,246,98328,6,0,P|40:201|160:202,1,181.500005538941,2|0,1:2|1:2,0:0:0:0:
323,245,98802,1,10,0:0:0:0:
241,98,98960,1,2,1:2:0:0:
250,290,99117,2,0,P|287:324|328:330,1,90.7500027694703,8|2,0:0|1:2,0:0:0:0:
352,324,99354,1,0,1:2:0:0:
374,309,99433,2,0,L|467:321,1,90.7500027694703,14|2,0:0|0:0,0:0:0:0:
341,151,99749,6,0,B|300:118|300:118|324:255,1,181.500005538941,14|0,0:0|1:2,0:0:0:0:
368,65,100223,2,0,P|321:35|216:96,1,181.500005538941,10|0,0:0|1:2,0:0:0:0:
129,194,100696,2,0,L|221:174,1,90.7500027694703,14|0,0:0|0:0,0:0:0:0:
96,87,101012,6,0,L|20:71,1,74.2499977340699,6|4,1:2|0:3,0:0:0:0:
23,71,101565,1,4,0:3:0:0:
23,71,101644,5,8,0:3:0:0:
25,150,101802,1,8,0:3:0:0:
23,229,101960,1,4,0:3:0:0:
24,307,102117,1,4,0:3:0:0:
94,192,102275,6,0,L|175:207,2,74.2499977340699,6|2|2,1:2|1:2|0:0,0:0:0:0:
208,131,102749,2,0,P|240:160|230:260,1,148.49999546814,10|2,0:0|1:2,0:0:0:0:
140,360,103223,2,0,L|152:273,1,74.2499977340699,10|2,0:0|0:0,0:0:0:0:
311,289,103538,6,0,L|321:362,2,74.2499977340699,2|2|2,1:2|0:0|1:2,0:0:0:0:
382,143,104012,1,10,0:0:0:0:
433,283,104170,1,2,1:2:0:0:
287,170,104328,5,12,0:0:0:0:
472,125,104486,2,0,L|461:209,1,74.2499977340699,12|0,0:0|0:0,0:0:0:0:
287,170,104802,6,0,L|277:96,2,74.2499977340699,6|2|10,1:2|0:0|0:0,0:0:0:0:
342,45,105275,2,0,P|303:20|205:52,1,148.49999546814,10|2,0:0|1:2,0:0:0:0:
128,139,105749,2,0,L|204:125,1,74.2499977340699,10|2,0:0|0:0,0:0:0:0:
360,183,106065,6,0,L|286:169,2,74.2499977340699,2|2|2,1:2|1:2|0:0,0:0:0:0:
512,235,106538,1,10,0:0:0:0:
430,88,106696,1,2,1:2:0:0:
348,269,106854,5,8,0:0:0:0:
504,126,107012,2,0,P|513:86|502:50,1,74.2499977340699,8|0,0:0|0:0,0:0:0:0:
242,77,107328,5,12,0:0:0:0:
223,235,107486,2,0,L|234:155,1,74.2499977340699,8|2,0:0|1:2,0:0:0:0:
167,37,107802,1,8,0:3:0:0:
167,37,107881,1,8,0:3:0:0:
167,37,107960,2,0,P|156:73|171:123,1,74.2499977340699,10|8,0:3|0:3,0:0:0:0:
313,119,108275,2,0,P|324:83|309:33,1,74.2499977340699,6|4,0:3|0:3,0:0:0:0:
233,161,108591,5,10,0:0:0:0:
384,199,108749,2,0,L|304:209,1,74.2499977340699,8|2,0:0|1:2,0:0:0:0:
152,194,109065,1,8,0:0:0:0:
233,161,109223,2,0,P|238:203|229:234,1,74.2499977340699,10|8,0:3|0:3,0:0:0:0:
71,227,109538,2,0,P|66:185|75:154,1,74.2499977340699,6|4,0:3|0:3,0:0:0:0:
176,295,109854,6,0,B|229:314|229:314|281:296,1,111.374996601105,14|0,0:0|1:2,0:0:0:0:
358,311,110170,2,0,P|361:293|357:269,3,37.1249988670349,8|0|2|0,0:0|1:2|1:2|1:2,0:0:0:0:
303,218,110486,2,0,P|300:200|304:176,3,37.1249988670349,8|0|0|0,0:0|1:2|1:2|1:2,0:0:0:0:
365,132,110802,1,10,0:0:0:0:
387,144,110881,1,0,1:2:0:0:
412,147,110960,1,0,1:2:0:0:
437,144,111038,1,0,1:2:0:0:
461,134,111117,5,10,0:0:0:0:
278,30,111275,2,0,L|289:116,1,74.2499977340699,8|2,0:0|1:2,0:0:0:0:
384,307,111591,2,0,L|393:233,1,74.2499977340699,14|0,0:0|1:2,0:0:0:0:
199,160,111907,1,8,0:0:0:0:
185,194,111986,1,8,0:0:0:0:
188,230,112065,1,8,0:0:0:0:
203,264,112144,1,8,0:0:0:0:
230,289,112223,1,8,0:0:0:0:
265,302,112302,1,8,0:0:0:0:
302,301,112381,6,0,L|304:224,1,66,2|2,0:0|1:2,0:0:0:0:
281,121,112617,1,0,1:2:0:0:
281,121,112696,6,0,P|236:139|211:183,1,98.9999969787599,14|2,0:0|0:0,0:0:0:0:
408,260,113012,2,0,P|414:212|389:168,1,98.9999969787599,2|2,1:2|1:2,0:0:0:0:
225,301,113328,2,0,P|263:330|313:330,1,98.9999969787599,10|2,0:0|0:0,0:0:0:0:
281,121,113644,5,2,1:2:0:0:
211,181,113802,1,2,1:2:0:0:
408,260,113960,1,10,0:0:0:0:
390,169,114117,1,2,1:2:0:0:
225,301,114275,2,0,P|263:330|313:330,1,98.9999969787599,2|0,0:0|1:2,0:0:0:0:
488,161,114591,2,0,L|378:169,1,98.9999969787599,8|0,0:0|0:0,0:0:0:0:
225,301,114907,5,2,1:2:0:0:
225,301,115065,1,2,0:0:0:0:
58,169,115223,2,0,P|96:139|146:139,1,98.9999969787599,10|2,0:0|0:0,0:0:0:0:
115,348,115539,2,0,P|70:330|44:286,1,98.9999969787599,2|2,0:0|1:2,0:0:0:0:
242,210,115855,2,0,P|248:257|223:301,1,98.9999969787599,10|2,0:0|0:0,0:0:0:0:
58,169,116170,5,2,1:2:0:0:
144,138,116328,1,2,1:2:0:0:
115,348,116486,1,10,0:0:0:0:
45,287,116644,1,2,1:2:0:0:
242,210,116802,2,0,P|248:257|223:301,1,98.9999969787599,2|0,0:0|1:2,0:0:0:0:
328,384,117117,2,0,P|366:354|415:354,1,98.9999969787599,8|0,0:0|1:2,0:0:0:0:
435,222,117433,6,0,P|390:202|365:160,2,98.9999969787599,14|0|2,0:0|1:2|1:2,0:0:0:0:
338,77,117907,1,12,0:0:0:0:
305,262,118065,1,2,1:2:0:0:
305,262,118223,1,0,1:2:0:0:
426,101,118381,1,10,0:0:0:0:
430,76,118460,1,0,1:2:0:0:
427,52,118538,1,2,1:2:0:0:
416,30,118617,1,0,1:2:0:0:
399,12,118696,6,0,L|297:23,2,98.9999969787599,14|0|2,0:0|1:2|1:2,0:0:0:0:
325,177,119170,1,12,0:0:0:0:
215,35,119328,1,2,1:2:0:0:
215,35,119486,1,0,1:2:0:0:
397,103,119644,1,10,0:0:0:0:
228,198,119802,1,8,0:0:0:0:
228,198,119881,1,8,0:0:0:0:
228,198,119960,6,0,B|181:245|181:245|48:211,1,197.99999395752,6|8,1:2|0:0,0:0:0:0:
231,108,120433,2,0,P|279:127|293:259,1,197.99999395752,0|0,1:2|1:2,0:0:0:0:
203,384,120907,2,0,L|220:276,1,98.9999969787599,10|0,0:0|0:0,0:0:0:0:
143,159,121223,5,2,1:2:0:0:
126,326,121381,1,2,1:2:0:0:
293,343,121538,1,14,0:0:0:0:
310,176,121696,1,2,1:2:0:0:
220,261,121854,5,10,0:0:0:0:
143,159,122012,1,0,1:2:0:0:
220,261,122170,2,0,L|210:365,1,98.9999969787599,10|8,0:3|0:3,0:0:0:0:
324,258,122486,6,0,B|363:253|380:223|380:223|423:228|455:258,1,148.49999546814,6|8,1:2|0:0,0:0:0:0:
512,160,122960,1,0,0:0:0:0:
512,160,123117,2,0,L|501:76,1,74.2499977340699,0|2,1:2|0:0,0:0:0:0:
421,23,123433,2,0,L|411:96,1,74.2499977340699,10|2,0:0|0:0,0:0:0:0:
347,171,123749,6,0,P|300:202|208:143,1,148.49999546814,2|8,1:2|0:0,0:0:0:0:
176,99,124223,1,0,0:0:0:0:
176,99,124302,1,0,1:2:0:0:
176,99,124381,2,0,L|95:110,1,74.2499977340699,0|0,1:2|0:0,0:0:0:0:
224,30,124696,2,0,P|248:57|258:97,1,74.2499977340699,10|0,0:0|0:0,0:0:0:0:
220,170,125012,6,0,L|205:321,1,148.49999546814,2|10,1:2|0:0,0:0:0:0:
302,360,125486,1,2,0:0:0:0:
302,360,125565,1,0,1:2:0:0:
302,360,125644,2,0,L|292:282,1,74.2499977340699,0|2,1:2|0:0,0:0:0:0:
129,274,125960,2,0,L|119:347,1,74.2499977340699,10|0,0:0|0:0,0:0:0:0:
214,194,126275,6,0,P|206:161|214:121,1,74.2499977340699,2|0,1:2|0:0,0:0:0:0:
363,146,126591,2,0,L|279:160,1,74.2499977340699,8|0,0:0|0:0,0:0:0:0:
139,76,126907,1,0,1:2:0:0:
209,39,127065,1,0,1:2:0:0:
280,72,127223,1,10,0:0:0:0:
406,218,127381,6,0,P|441:178|387:58,1,197.99999395752,14|0,0:0|1:2,0:0:0:0:
152,61,127854,2,0,L|144:165,1,98.9999969787599,8|0,0:0|1:2,0:0:0:0:
413,281,128170,2,0,L|405:182,1,98.9999969787599,10|0,0:0|1:2,0:0:0:0:
149,268,128486,2,0,L|141:372,1,98.9999969787599,8|0,0:0|1:2,0:0:0:0:
426,164,128802,6,0,L|433:262,1,98.9999969787599,10|0,0:0|1:2,0:0:0:0:
135,42,129117,2,0,L|127:146,1,98.9999969787599,10|0,0:0|1:2,0:0:0:0:
401,21,129433,1,10,0:0:0:0:
291,182,129591,1,2,1:2:0:0:
135,42,129749,1,0,1:2:0:0:
289,84,129907,6,0,P|348:107|366:234,1,197.99999395752,14|0,0:0|1:2,0:0:0:0:
166,338,130381,2,0,L|177:223,1,98.9999969787599,8|2,0:0|1:2,0:0:0:0:
93,64,130696,1,10,0:3:0:0:
23,240,130854,1,8,0:3:0:0:
23,240,130933,1,8,0:3:0:0:
23,240,131012,1,8,0:0:0:0:
179,114,131170,6,0,B|294:75|245:154|372:108,1,197.99999395752,2|10,1:2|0:0,0:0:0:0:
504,13,131644,1,2,1:2:0:0:
426,200,131802,1,10,0:0:0:0:
311,40,131960,5,10,0:0:0:0:
502,143,132117,1,8,0:0:0:0:
512,180,132196,1,8,0:0:0:0:
512,221,132275,1,8,0:0:0:0:
498,257,132354,1,8,0:0:0:0:
466,282,132433,1,8,0:0:0:0:
426,291,132512,1,8,0:0:0:0:
386,282,132591,6,0,P|338:266|281:275,1,98.9999969787599,6|0,1:2|0:0,0:0:0:0:
191,374,132907,2,0,L|204:264,1,98.9999969787599,10|0,0:0|0:0,0:0:0:0:
233,92,133223,2,0,L|244:190,1,98.9999969787599,2|0,1:2|0:0,0:0:0:0:
391,365,133538,2,0,P|433:352|462:305,1,98.9999969787599,10|0,0:0|0:0,0:0:0:0:
385,131,133854,6,0,L|373:229,2,98.9999969787599,0|0|8,1:2|0:0|0:0,0:0:0:0:
292,264,134328,2,0,P|242:257|310:193,1,197.99999395752,2|2,0:0|0:0,0:0:0:0:
369,310,134802,1,10,0:0:0:0:
231,353,134960,1,2,0:0:0:0:
373,229,135117,6,0,P|425:249|446:287,1,98.9999969787599,2|0,1:2|0:0,0:0:0:0:
292,264,135433,2,0,P|287:218|311:170,1,98.9999969787599,10|0,0:0|0:0,0:0:0:0:
494,53,135749,2,0,L|483:154,1,98.9999969787599,2|0,1:2|0:0,0:0:0:0:
325,51,136065,2,0,P|278:34|221:33,1,98.9999969787599,10|0,0:0|0:0,0:0:0:0:
53,134,136381,6,0,P|9:80|107:62,1,197.99999395752,0|8,1:2|0:0,0:0:0:0:
167,205,136854,1,2,0:0:0:0:
167,205,136933,1,2,0:0:0:0:
167,205,137012,2,0,L|153:307,1,98.9999969787599,2|2,1:2|0:0,0:0:0:0:
61,364,137328,1,10,0:0:0:0:
241,280,137486,5,2,0:0:0:0:
77,160,137644,2,0,L|63:262,1,98.9999969787599,6|0,1:2|0:0,0:0:0:0:
140,90,137960,2,0,P|87:66|35:76,1,98.9999969787599,10|0,0:0|0:0,0:0:0:0:
167,180,138275,2,0,L|271:169,1,98.9999969787599,2|0,1:2|0:0,0:0:0:0:
352,176,138512,1,2,0:0:0:0:
352,176,138591,2,0,L|450:186,1,98.9999969787599,10|0,0:0|0:0,0:0:0:0:
316,335,138907,6,0,P|289:291|302:236,1,98.9999969787599,2|0,1:2|0:0,0:0:0:0:
368,78,139223,2,0,L|351:176,1,98.9999969787599,10|0,0:0|0:0,0:0:0:0:
217,38,139538,1,2,1:2:0:0:
171,244,139696,1,2,0:0:0:0:
171,244,139775,1,2,0:0:0:0:
171,244,139854,2,0,B|141:195|141:195|167:99,1,148.49999546814,10|0,0:0|0:0,0:0:0:0:
245,120,140170,5,2,1:2:0:0:
100,28,140328,1,2,0:0:0:0:
96,192,140486,1,10,0:0:0:0:
217,38,140644,2,0,P|273:41|311:65,1,98.9999969787599,2|2,0:0|1:2,0:0:0:0:
462,152,140960,1,2,0:0:0:0:
462,152,141038,1,2,0:0:0:0:
462,152,141117,2,0,L|448:54,1,98.9999969787599,10|2,0:0|0:0,0:0:0:0:
367,189,141433,5,6,1:2:0:0:
507,228,141591,1,10,0:0:0:0:
382,103,141749,2,0,P|332:109|293:141,1,98.9999969787599,14|2,0:0|1:2,0:0:0:0:
139,141,142065,1,10,0:3:0:0:
139,141,142144,1,8,0:3:0:0:
139,141,142223,2,0,L|146:89,2,49.4999984893799,8|8|12,0:3|0:3|0:0,0:0:0:0:
293,229,142538,2,0,L|299:278,1,49.4999984893799,8|8,0:0|0:0,0:0:0:0:
310,359,142696,6,0,L|204:370,1,98.9999969787599,6|0,1:2|0:0,0:0:0:0:
60,303,143012,2,0,P|111:283|159:293,1,98.9999969787599,10|0,0:0|0:0,0:0:0:0:
377,306,143328,2,0,L|483:317,1,98.9999969787599,2|0,1:2|0:0,0:0:0:0:
310,359,143644,2,0,P|294:307|309:260,1,98.9999969787599,10|0,0:0|0:0,0:0:0:0:
477,139,143960,6,0,P|493:87|478:40,2,98.9999969787599,0|0|8,1:2|0:0|0:0,0:0:0:0:
335,35,144433,2,0,P|278:8|297:103,1,197.99999395752,2|2,0:0|0:0,0:0:0:0:
153,194,144907,1,10,0:0:0:0:
47,88,145065,1,2,0:0:0:0:
152,14,145223,6,0,L|141:124,1,98.9999969787599,2|0,1:2|0:0,0:0:0:0:
85,253,145538,2,0,P|62:200|78:145,1,98.9999969787599,10|0,0:0|0:0,0:0:0:0:
311,119,145854,2,0,L|322:224,1,98.9999969787599,2|0,1:2|0:0,0:0:0:0:
394,70,146170,2,0,P|356:32|305:24,1,98.9999969787599,10|0,0:0|0:0,0:0:0:0:
241,64,146486,5,0,1:2:0:0:
470,27,146644,2,0,P|485:78|466:127,1,98.9999969787599,2|10,0:0|0:0,0:0:0:0:
321,217,146960,1,2,0:0:0:0:
321,217,147038,1,2,0:0:0:0:
321,217,147117,2,0,L|311:119,1,98.9999969787599,2|2,1:2|0:0,0:0:0:0:
313,23,147433,1,10,0:0:0:0:
196,142,147591,5,2,0:0:0:0:
409,107,147749,2,0,L|302:119,1,98.9999969787599,6|0,1:2|0:0,0:0:0:0:
122,219,148065,2,0,L|229:231,1,98.9999969787599,10|0,0:0|0:0,0:0:0:0:
418,89,148381,2,0,L|311:101,1,98.9999969787599,2|0,1:2|0:0,0:0:0:0:
108,232,148696,2,0,L|215:244,1,98.9999969787599,10|0,0:0|0:0,0:0:0:0:
448,173,149012,5,10,0:0:0:0:
121,124,149328,1,10,0:0:0:0:
409,343,150275,5,6,1:2:0:0:
330,252,150433,2,0,L|322:345,2,82.5,2|10|2,0:0|0:0|0:0,0:0:0:0:
391,189,150907,2,0,P|345:165|270:186,1,123.75,10|0,0:0|0:0,0:0:0:0:
277,180,151223,5,10,0:0:0:0:
168,275,151381,2,0,L|251:263,2,82.5,2|10|2,1:2|0:0|1:2,0:0:0:0:
106,342,151854,2,0,P|81:300|98:222,1,123.75,10|0,0:0|0:0,0:0:0:0:
92,228,152170,5,10,0:0:0:0:
164,193,152328,1,2,1:2:0:0:
190,117,152486,1,10,0:0:0:0:
162,41,152644,1,2,1:2:0:0:
92,228,152802,5,10,0:0:0:0:
13,51,152960,2,0,L|5:133,2,82.5,2|10|2,1:2|0:0|0:0,0:0:0:0:
8,217,153433,2,0,P|52:206|88:128,1,123.75,10|0,0:0|0:0,0:0:0:0:
88,141,153749,5,10,0:0:0:0:
239,88,153907,2,0,L|153:79,2,82.5,2|10|2,1:2|0:0|1:2,0:0:0:0:
288,17,154381,2,0,P|318:54|313:128,1,123.75,10|0,0:0|0:0,0:0:0:0:
313,126,154696,5,10,0:0:0:0:
264,191,154854,1,2,1:2:0:0:
244,205,154933,1,0,1:2:0:0:
220,212,155012,1,10,0:0:0:0:
139,213,155170,1,2,1:2:0:0:
346,210,155328,5,6,1:2:0:0:
239,88,155486,2,0,L|142:100,2,82.5,2|10|2,0:0|0:0|0:0,0:0:0:0:
288,17,155960,2,0,P|318:54|313:128,1,123.75,10|0,0:0|0:0,0:0:0:0:
313,126,156275,5,10,0:0:0:0:
399,229,156433,2,0,L|316:218,2,82.5,2|10|2,1:2|0:0|1:2,0:0:0:0:
460,292,156907,2,0,P|484:253|462:172,1,123.75,10|0,0:0|0:0,0:0:0:0:
469,179,157223,5,10,0:0:0:0:
426,110,157381,1,2,1:2:0:0:
405,96,157460,1,0,1:2:0:0:
380,91,157538,1,10,0:0:0:0:
301,107,157696,1,2,1:2:0:0:
374,310,157854,5,14,0:0:0:0:
260,240,158012,2,0,L|346:226,2,82.5,2|10|2,0:0|0:0|0:0,0:0:0:0:
219,315,158486,2,0,P|181:278|182:207,1,123.75,10|0,0:0|0:0,0:0:0:0:
180,210,158802,5,10,0:0:0:0:
235,78,158960,2,0,L|244:165,2,82.5,2|10|2,1:2|0:0|1:2,0:0:0:0:
282,5,159433,2,0,P|233:-5|164:26,1,123.75,14|0,0:0|0:0,0:0:0:0:
150,41,159749,5,2,1:2:0:0:
151,65,159828,1,8,0:0:0:0:
151,89,159907,1,10,0:0:0:0:
150,113,159986,1,8,0:0:0:0:
150,137,160065,2,0,L|148:192,3,41.25,10|0|2|0,0:0|1:2|1:2|1:2,0:0:0:0:
242,153,160381,6,0,L|237:304,2,132,6|2|2,1:2|1:2|1:2,0:0:0:0:
330,134,161170,1,2,0:0:0:0:
330,134,161328,2,0,L|328:204,1,66,2|2,1:2|0:0,0:0:0:0:
499,372,161802,6,0,L|413:361,2,82.5,2|2|2,0:0|1:2|0:0,0:0:0:0:
512,286,162275,2,0,L|426:277,1,82.5,2|2,1:2|0:0,0:0:0:0:
349,306,162591,2,0,P|310:283|234:307,1,123.75,2|0,1:2|0:0,0:0:0:0:
239,303,162907,6,0,B|174:320|174:320|104:297,2,132,2|2|2,1:2|1:2|1:2,0:0:0:0:
212,224,163696,1,2,0:0:0:0:
212,224,163854,2,0,B|178:233|178:233|147:223,1,66,2|2,1:2|0:0,0:0:0:0:
26,40,164328,6,0,L|37:122,2,82.5,2|2|2,0:0|1:2|0:0,0:0:0:0:
107,27,164802,2,0,L|118:109,1,82.5,2|2,1:2|0:0,0:0:0:0:
87,189,165117,1,2,1:2:0:0:
201,73,165275,1,8,0:0:0:0:
201,73,165354,1,8,0:0:0:0:
201,73,165433,6,0,B|295:45|254:115|360:77,2,165,6|10|2,1:2|0:0|1:2,0:0:0:0:
272,178,166223,1,2,0:0:0:0:
272,178,166381,1,10,0:0:0:0:
359,77,166538,2,0,L|368:165,1,82.5,2|0,0:0|1:2,0:0:0:0:
489,299,166854,6,0,L|497:216,2,82.5,2|10|2,0:0|0:0|0:0,0:0:0:0:
402,379,167328,1,2,1:2:0:0:
402,379,167486,1,2,0:0:0:0:
319,291,167644,2,0,B|275:267|275:267|200:296,1,123.75,10|0,0:0|0:0,0:0:0:0:
128,313,167960,6,0,P|72:299|55:203,2,165,2|10|2,1:2|0:0|1:2,0:0:0:0:
193,205,168749,1,2,0:0:0:0:
193,205,168907,1,10,0:0:0:0:
284,298,169065,2,0,P|312:260|312:223,1,82.5,2|4,0:0|1:2,0:0:0:0:
213,92,169381,6,0,L|124:105,2,82.5,2|10|2,0:0|0:0|0:0,0:0:0:0:
289,27,169854,2,0,P|311:68|308:107,1,82.5,2|2,1:2|0:0,0:0:0:0:
309,102,170091,1,8,0:0:0:0:
309,102,170170,1,10,0:0:0:0:
458,27,170328,1,8,0:0:0:0:
442,217,170486,6,0,L|347:205,1,90.7500027694703,6|0,1:2|0:0,0:0:0:0:
260,311,170802,2,0,L|355:299,1,90.7500027694703,10|0,0:0|0:0,0:0:0:0:
193,246,171117,1,2,1:2:0:0:
173,333,171275,1,2,0:0:0:0:
273,222,171433,1,10,0:0:0:0:
98,182,171591,2,0,L|109:272,1,90.7500027694703,2|0,0:0|1:2,0:0:0:0:
165,118,171907,5,2,0:0:0:0:
165,118,172065,1,10,0:0:0:0:
19,205,172223,1,2,0:0:0:0:
96,52,172381,5,2,1:2:0:0:
183,202,172538,1,2,0:0:0:0:
96,52,172696,2,0,P|143:27|186:29,1,90.7500027694703,10|0,0:0|0:0,0:0:0:0:
335,94,173012,6,0,L|240:80,1,90.7500027694703,2|0,1:2|0:0,0:0:0:0:
374,177,173328,2,0,L|284:190,1,90.7500027694703,10|0,0:0|0:0,0:0:0:0:
418,97,173644,1,2,1:2:0:0:
460,177,173802,1,2,0:0:0:0:
335,94,173960,1,10,0:0:0:0:
512,12,174117,2,0,L|499:102,1,90.7500027694703,2|0,0:0|1:2,0:0:0:0:
394,295,174433,5,2,0:0:0:0:
394,295,174591,1,10,0:0:0:0:
335,94,174749,1,2,0:0:0:0:
489,235,174907,5,2,1:2:0:0:
306,301,175065,1,2,0:0:0:0:
489,235,175223,2,0,P|500:184|488:137,1,90.7500027694703,10|0,0:0|0:0,0:0:0:0:
274,0,175538,5,10,0:0:0:0:
307,222,175696,1,10,0:0:0:0:
353,148,175854,6,0,P|306:134|250:156,1,98.9999969787599,6|0,1:2|0:0,0:0:0:0:
259,148,176091,1,8,0:0:0:0:
259,148,176170,5,10,0:0:0:0:
134,322,176328,1,10,0:0:0:0:
62,371,176486,6,0,P|47:324|61:277,1,98.9999969787599,6|0,1:2|0:0,0:0:0:0:
61,278,176723,1,8,0:0:0:0:
61,278,176802,5,10,0:0:0:0:
285,375,176960,1,10,0:0:0:0:
331,300,177117,6,0,P|284:286|237:300,1,98.9999969787599,6|0,1:2|0:0,0:0:0:0:
237,300,177354,1,8,0:0:0:0:
237,300,177433,5,10,0:0:0:0:
499,250,177591,1,10,0:0:0:0:
436,200,177749,6,0,P|417:245|430:297,1,98.9999969787599,6|0,1:2|0:0,0:0:0:0:
427,292,177986,1,0,0:0:0:0:
427,292,178065,5,6,1:2:0:0:
403,118,178223,1,2,0:0:0:0:
237,300,178381,5,8,0:0:0:0:
267,103,178538,1,0,0:0:0:0:
416,209,178696,5,14,0:0:0:0:
394,22,178854,1,2,0:0:0:0:
251,204,179012,5,8,0:0:0:0:
283,6,179170,1,0,0:0:0:0:
491,165,179328,6,0,P|503:212|489:262,1,98.9999969787599,14|0,0:0|1:2,0:0:0:0:
200,52,179644,2,0,P|234:18|285:5,1,98.9999969787599,14|0,0:0|1:2,0:0:0:0:
247,360,179960,2,0,P|200:346|163:309,1,98.9999969787599,14|0,0:0|1:2,0:0:0:0:
165,311,180196,1,0,1:2:0:0:
165,311,180275,1,14,0:0:0:0:
491,165,180433,1,0,1:2:0:0:
377,210,180591,6,0,B|271:177|313:248|196:202,1,181.500005538941,14|10,0:0|0:0,0:0:0:0:
71,117,181065,1,10,0:0:0:0:
267,37,181223,2,0,L|257:131,1,90.7500027694703,10|10,0:0|0:0,0:0:0:0:
194,308,181538,1,10,0:0:0:0:
62,247,181696,6,0,B|128:252|128:252|157:222|157:222|231:229,1,181.500005538941,6|0,1:2|1:2,0:0:0:0:
369,283,182170,2,0,L|278:299,1,90.7500027694703,8|2,0:0|0:0,0:0:0:0:
279,298,182407,1,2,0:0:0:0:
279,298,182486,1,2,1:2:0:0:
402,369,182644,1,8,0:0:0:0:
427,352,182723,1,8,0:0:0:0:
445,328,182802,1,8,0:0:0:0:
455,300,182881,1,8,0:0:0:0:
455,269,182960,1,8,0:0:0:0:
445,241,183038,1,8,0:0:0:0:
427,218,183117,6,0,B|375:182|375:182|252:212,1,181.500005538941,14|10,0:0|0:0,0:0:0:0:
127,349,183591,1,10,0:0:0:0:
86,172,183749,2,0,L|99:71,1,90.7500027694703,10|10,0:0|0:0,0:0:0:0:
156,17,184065,1,10,0:0:0:0:
1,190,184223,6,0,P|28:241|143:239,1,181.500005538941,6|2,1:2|1:2,0:0:0:0:
140,241,184617,1,2,0:0:0:0:
140,241,184696,5,10,0:0:0:0:
174,218,184775,1,2,0:0:0:0:
214,214,184854,1,2,1:2:0:0:
253,224,184933,1,2,0:0:0:0:
278,256,185012,5,10,0:3:0:0:
278,246,185091,1,8,0:3:0:0:
278,236,185170,1,8,0:3:0:0:
278,226,185249,1,8,0:3:0:0:
278,216,185328,2,0,L|278:122,1,90.7500027694703,14|2,0:0|0:0,0:0:0:0:
498,53,185644,5,14,0:0:0:0:
408,181,185802,1,10,0:0:0:0:
326,58,185960,2,0,P|283:40|239:53,1,90.7500027694703,10|10,0:0|0:0,0:0:0:0:
509,182,186275,5,10,0:0:0:0:
410,49,186433,1,10,0:0:0:0:
326,198,186591,2,0,P|285:215|241:204,1,90.7500027694703,10|6,0:0|1:2,0:0:0:0:
83,123,186907,6,0,B|120:84|120:84|102:214,1,181.500005538941,2|8,0:0|0:0,0:0:0:0:
12,310,187381,1,2,0:0:0:0:
12,310,187460,1,2,0:0:0:0:
12,310,187538,1,2,1:2:0:0:
195,243,187696,2,0,L|197:303,1,45.3750013847352,8|8,0:0|0:0,0:0:0:0:
201,365,187854,2,0,L|300:375,1,90.7500027694703,8|0,0:0|0:0,0:0:0:0:
289,137,188170,6,0,L|190:152,2,90.7500027694703,6|0|2,1:2|0:0|0:0,0:0:0:0:
385,324,188644,2,0,L|484:339,2,90.7500027694703,6|0|2,1:2|0:0|0:0,0:0:0:0:
512,101,189117,2,0,L|413:116,2,90.7500027694703,6|0|2,1:2|0:0|0:0,0:0:0:0:
269,256,189591,5,10,0:0:0:0:
245,24,189749,1,10,0:0:0:0:
476,0,189907,1,10,0:0:0:0:
500,232,190065,1,14,0:0:0:0:
464,154,190223,6,0,P|488:147|514:150,2,49.4999984893799,2|2|2,0:0|0:0|0:0,0:0:0:0:
413,222,190696,6,0,L|309:213,1,98.9999969787599,6|0,1:2|0:0,0:0:0:0:
169,101,191012,2,0,P|205:146|210:189,1,98.9999969787599,10|0,0:0|0:0,0:0:0:0:
133,373,191328,2,0,L|126:257,1,98.9999969787599,2|0,1:2|0:0,0:0:0:0:
314,213,191644,2,0,L|308:311,1,98.9999969787599,10|0,0:0|0:0,0:0:0:0:
484,363,191960,6,0,P|506:317|498:267,2,98.9999969787599,0|0|8,1:2|0:0|0:0,0:0:0:0:
422,156,192433,2,0,P|448:106|493:187,1,197.99999395752,2|2,0:0|0:0,0:0:0:0:
377,250,192907,1,10,0:0:0:0:
285,163,193065,1,2,0:0:0:0:
269,277,193223,6,0,L|163:292,1,98.9999969787599,2|0,1:2|0:0,0:0:0:0:
377,250,193538,2,0,P|385:306|367:359,1,98.9999969787599,10|0,0:0|0:0,0:0:0:0:
285,163,193854,2,0,L|304:56,1,98.9999969787599,2|0,1:2|0:0,0:0:0:0:
467,153,194170,2,0,L|484:250,1,98.9999969787599,10|0,0:0|0:0,0:0:0:0:
269,277,194486,6,0,P|196:242|173:127,1,197.99999395752,0|8,1:2|0:0,0:0:0:0:
13,39,194960,1,2,0:0:0:0:
13,39,195038,1,2,0:0:0:0:
13,39,195117,2,0,L|19:140,1,98.9999969787599,2|2,1:2|0:0,0:0:0:0:
23,228,195433,1,10,0:0:0:0:
136,62,195591,5,2,0:0:0:0:
197,264,195749,2,0,L|296:281,1,98.9999969787599,6|0,1:2|0:0,0:0:0:0:
454,187,196065,2,0,L|355:204,1,98.9999969787599,10|0,0:0|0:0,0:0:0:0:
252,358,196381,1,2,1:2:0:0:
197,264,196538,1,0,0:0:0:0:
143,360,196696,2,0,L|42:373,1,98.9999969787599,10|0,0:0|0:0,0:0:0:0:
178,174,197012,6,0,P|229:180|265:210,1,98.9999969787599,2|0,1:2|0:0,0:0:0:0:
364,302,197328,2,0,L|355:193,1,98.9999969787599,10|0,0:0|0:0,0:0:0:0:
221,64,197644,1,2,1:2:0:0:
152,276,197802,1,2,0:0:0:0:
152,276,197881,1,2,0:0:0:0:
152,276,197960,2,0,P|201:323|282:301,1,148.49999546814,10|0,0:0|0:0,0:0:0:0:
323,241,198275,5,2,1:2:0:0:
465,326,198433,1,2,0:0:0:0:
385,140,198591,1,14,0:0:0:0:
274,308,198749,2,0,P|323:325|369:312,1,98.9999969787599,2|2,0:0|1:2,0:0:0:0:
512,160,199065,1,2,0:0:0:0:
512,160,199144,1,2,0:0:0:0:
512,160,199223,2,0,L|494:57,1,98.9999969787599,14|2,0:0|0:0,0:0:0:0:
423,234,199538,5,2,1:2:0:0:
326,88,199696,1,10,0:0:0:0:
235,234,199854,2,0,L|132:221,1,98.9999969787599,10|2,0:0|1:2,0:0:0:0:
136,221,200091,1,0,1:2:0:0:
136,221,200170,1,2,1:2:0:0:
21,36,200328,1,8,0:0:0:0:
59,48,200407,1,8,0:0:0:0:
88,77,200486,1,12,0:0:0:0:
100,116,200565,1,8,0:0:0:0:
92,157,200644,1,8,0:0:0:0:
67,189,200723,1,8,0:0:0:0:
30,205,200802,6,0,P|25:156|43:106,1,98.9999969787599,6|0,1:2|0:0,0:0:0:0:
186,14,201117,2,0,L|197:112,1,98.9999969787599,10|0,0:0|0:0,0:0:0:0:
292,309,201433,2,0,P|324:266|320:220,1,98.9999969787599,2|0,1:2|0:0,0:0:0:0:
428,124,201749,2,0,L|441:228,1,98.9999969787599,10|0,0:0|0:0,0:0:0:0:
314,109,202065,6,0,L|326:10,2,98.9999969787599,0|0|8,1:2|0:0|0:0,0:0:0:0:
228,243,202538,2,0,P|200:305|110:240,1,197.99999395752,2|2,0:0|0:0,0:0:0:0:
24,117,203012,1,10,0:0:0:0:
0,274,203170,1,2,0:0:0:0:
122,158,203328,6,0,L|222:166,1,98.9999969787599,2|0,1:2|0:0,0:0:0:0:
361,258,203644,2,0,P|325:220|321:174,1,98.9999969787599,10|0,0:0|0:0,0:0:0:0:
429,81,203960,2,0,L|419:184,1,98.9999969787599,2|0,1:2|0:0,0:0:0:0:
469,372,204275,2,0,L|459:273,1,98.9999969787599,10|0,0:0|0:0,0:0:0:0:
320,175,204591,5,0,1:2:0:0:
298,351,204749,2,0,L|200:369,1,98.9999969787599,2|10,0:0|0:0,0:0:0:0:
33,249,205065,1,2,0:0:0:0:
33,249,205144,1,2,0:0:0:0:
33,249,205223,2,0,L|131:267,1,98.9999969787599,2|2,1:2|0:0,0:0:0:0:
230,284,205538,1,10,0:0:0:0:
57,360,205696,5,2,0:0:0:0:
219,185,205854,2,0,L|230:290,1,98.9999969787599,6|0,1:2|0:0,0:0:0:0:
436,347,206170,2,0,L|446:248,1,98.9999969787599,10|0,0:0|0:0,0:0:0:0:
204,172,206486,2,0,L|215:277,1,98.9999969787599,2|0,1:2|1:2,0:0:0:0:
453,362,206802,2,0,L|463:263,1,98.9999969787599,10|0,0:0|1:2,0:0:0:0:
245,83,207117,5,10,0:0:0:0:
346,378,207433,1,10,0:0:0:0:
460,102,207749,6,0,P|482:92|507:95,3,49.4999984893799,2|2|2|2,0:0|0:0|0:0|0:0,0:0:0:0:
399,46,208065,2,0,P|414:23|415:-3,3,49.4999984893799,2|2|2|2,0:0|0:0|0:0|0:0,0:0:0:0:
381,122,208381,6,0,L|396:229,1,98.9999969787599,6|0,1:2|0:0,0:0:0:0:
248,327,208696,2,0,P|257:276|297:242,1,98.9999969787599,10|0,0:0|0:0,0:0:0:0:
455,315,209012,2,0,L|351:331,1,98.9999969787599,2|0,1:2|0:0,0:0:0:0:
192,229,209328,2,0,L|296:245,1,98.9999969787599,10|0,0:0|0:0,0:0:0:0:
124,296,209644,6,0,P|101:253|104:203,2,98.9999969787599,0|0|8,1:2|0:0|0:0,0:0:0:0:
149,110,210117,2,0,P|92:101|108:204,1,197.99999395752,2|2,0:0|0:0,0:0:0:0:
228,159,210591,1,10,0:0:0:0:
206,29,210749,1,2,0:0:0:0:
310,127,210907,6,0,P|311:179|283:223,1,98.9999969787599,2|0,1:2|0:0,0:0:0:0:
303,37,211223,2,0,L|402:52,1,98.9999969787599,10|0,0:0|0:0,0:0:0:0:
228,159,211538,2,0,L|129:174,1,98.9999969787599,2|0,1:2|0:0,0:0:0:0:
104,338,211854,2,0,P|141:306|143:255,1,98.9999969787599,10|0,0:0|0:0,0:0:0:0:
54,86,212170,6,0,P|8:127|68:230,1,197.99999395752,0|8,1:2|0:0,0:0:0:0:
206,165,212644,1,2,0:0:0:0:
206,165,212723,1,2,0:0:0:0:
206,165,212802,2,0,L|306:176,1,98.9999969787599,2|2,1:2|0:0,0:0:0:0:
416,229,213117,1,10,0:0:0:0:
316,88,213275,5,2,0:0:0:0:
485,180,213433,2,0,P|501:228|483:280,1,98.9999969787599,6|0,1:2|0:0,0:0:0:0:
411,145,213749,2,0,L|426:35,1,98.9999969787599,10|0,0:0|0:0,0:0:0:0:
340,189,214065,2,0,P|302:220|250:226,1,98.9999969787599,2|0,1:2|0:0,0:0:0:0:
173,195,214302,1,2,0:0:0:0:
173,195,214381,2,0,L|69:197,1,98.9999969787599,10|0,0:0|0:0,0:0:0:0:
230,47,214696,6,0,L|240:162,1,98.9999969787599,2|0,1:2|0:0,0:0:0:0:
164,293,215012,2,0,L|172:194,1,98.9999969787599,10|0,0:0|0:0,0:0:0:0:
324,50,215328,1,2,1:2:0:0:
331,257,215486,1,2,0:0:0:0:
331,257,215565,1,2,0:0:0:0:
331,257,215644,2,0,B|370:285|370:285|472:255,1,148.49999546814,10|0,0:0|0:0,0:0:0:0:
509,187,215960,5,2,1:2:0:0:
365,99,216117,1,2,0:0:0:0:
512,24,216275,1,14,0:0:0:0:
396,177,216433,2,0,P|342:178|300:144,1,98.9999969787599,2|2,0:0|1:2,0:0:0:0:
170,48,216749,1,2,0:0:0:0:
170,48,216828,1,2,0:0:0:0:
170,48,216907,2,0,L|179:157,1,98.9999969787599,14|2,0:0|0:0,0:0:0:0:
220,264,217223,5,2,1:2:0:0:
316,63,217381,1,10,0:0:0:0:
316,63,217460,1,8,0:0:0:0:
316,63,217538,2,0,L|261:58,3,49.4999984893799,10|8|10|8,0:0|0:0|0:0|0:0,0:0:0:0:
170,48,217854,5,10,0:0:0:0:
121,35,217933,1,8,0:0:0:0:
74,46,218012,1,8,0:0:0:0:
37,78,218091,1,8,0:0:0:0:
20,123,218170,1,8,0:0:0:0:
25,172,218249,1,8,0:0:0:0:
53,212,218328,1,8,0:0:0:0:
97,235,218407,1,8,0:0:0:0:
146,234,218486,6,0,L|134:133,1,98.9999969787599,6|0,1:2|0:0,0:0:0:0:
257,237,218802,2,0,L|245:335,1,98.9999969787599,10|0,0:0|0:0,0:0:0:0:
247,137,219117,2,0,P|302:148|335:183,1,98.9999969787599,2|0,1:2|0:0,0:0:0:0:
435,298,219433,2,0,L|426:197,1,98.9999969787599,10|0,0:0|0:0,0:0:0:0:
268,44,219749,6,0,P|244:92|248:141,2,98.9999969787599,0|0|8,1:2|0:0|0:0,0:0:0:0:
426,199,220223,2,0,P|462:153|360:125,1,197.99999395752,2|2,0:0|0:0,0:0:0:0:
325,250,220696,1,10,0:0:0:0:
246,136,220854,1,2,0:0:0:0:
210,268,221012,6,0,L|111:276,1,98.9999969787599,6|0,1:2|0:0,0:0:0:0:
47,112,221328,2,0,P|87:142|91:204,1,98.9999969787599,10|0,0:0|0:0,0:0:0:0:
14,354,221644,2,0,L|25:244,1,98.9999969787599,2|0,1:2|0:0,0:0:0:0:
189,82,221960,2,0,L|198:180,1,98.9999969787599,10|0,0:0|0:0,0:0:0:0:
272,384,222275,5,0,1:2:0:0:
111,276,222433,2,0,L|210:268,1,98.9999969787599,2|10,0:0|0:0,0:0:0:0:
379,263,222749,1,2,0:0:0:0:
379,263,222828,1,2,0:0:0:0:
379,263,222907,2,0,P|401:215|394:168,1,98.9999969787599,2|2,1:2|0:0,0:0:0:0:
302,25,223223,1,10,0:0:0:0:
310,199,223381,1,2,0:0:0:0:
497,78,223538,6,0,P|501:47|489:12,1,61.875002360344,14|0,1:2|0:0,0:0:0:0:
380,257,224802,6,0,P|404:275|441:283,1,61.875002360344,14|0,0:0|0:0,0:0:0:0:
284,66,226065,6,0,P|255:78|230:105,1,61.875002360344,14|0,0:0|0:0,0:0:0:0:
497,78,227328,5,8,0:0:0:0:
380,257,227644,1,8,0:0:0:0:
284,66,228591,6,0,P|207:50|176:158,1,197.99999395752,14|8,0:0|0:0,0:0:0:0:
373,127,229065,2,0,L|385:24,1,98.9999969787599,2|8,0:0|0:0,0:0:0:0:
302,195,229381,1,2,1:2:0:0:
459,115,229538,1,10,0:0:0:0:
284,66,229696,1,2,1:2:0:0:
388,230,229854,6,0,L|367:327,1,98.9999969787599,8|2,0:0|1:2,0:0:0:0:
244,380,230170,1,10,0:0:0:0:
185,243,230328,1,2,1:2:0:0:
105,375,230486,1,10,0:0:0:0:
279,274,230644,1,0,1:2:0:0:
93,187,230802,2,0,L|106:299,1,98.9999969787599,10|0,0:0|1:2,0:0:0:0:
183,136,231117,5,10,0:0:0:0:
322,349,231275,2,0,P|357:314|365:264,1,98.9999969787599,2|8,1:2|0:0,0:0:0:0:
269,97,231591,2,0,P|328:89|312:195,1,197.99999395752,2|2,0:0|1:2,0:0:0:0:
183,136,232065,2,0,P|176:87|201:37,1,98.9999969787599,10|2,0:0|1:2,0:0:0:0:
222,225,232381,5,8,0:0:0:0:
95,70,232538,1,0,1:2:0:0:
28,270,232696,1,10,0:0:0:0:
183,136,232854,1,2,1:2:0:0:
17,33,233012,6,0,P|8:83|30:127,1,98.9999969787599,10|2,0:0|1:2,0:0:0:0:
102,155,233249,1,0,1:2:0:0:
102,155,233328,2,0,L|106:256,1,98.9999969787599,10|2,0:0|1:2,0:0:0:0:
36,376,233644,6,0,P|56:321|175:338,1,197.99999395752,14|8,0:0|0:0,0:0:0:0:
332,369,234117,2,0,L|440:353,1,98.9999969787599,2|8,0:0|0:0,0:0:0:0:
308,209,234433,1,2,1:2:0:0:
241,384,234591,1,10,0:0:0:0:
385,267,234749,1,2,1:2:0:0:
228,173,234907,6,0,P|221:232|237:270,1,98.9999969787599,8|2,0:0|1:2,0:0:0:0:
401,165,235223,2,0,L|391:64,1,98.9999969787599,10|2,0:0|1:2,0:0:0:0:
470,240,235538,1,10,0:0:0:0:
308,209,235696,1,0,1:2:0:0:
481,47,235854,2,0,L|490:145,1,98.9999969787599,10|0,0:0|1:2,0:0:0:0:
362,293,236170,6,0,B|243:329|292:259|169:291,1,197.99999395752,10|8,0:0|0:0,0:0:0:0:
3,180,236644,2,0,L|105:198,1,98.9999969787599,2|8,0:0|0:0,0:0:0:0:
228,375,236960,1,2,1:2:0:0:
211,137,237117,1,10,0:0:0:0:
56,319,237275,1,2,1:2:0:0:
275,204,237433,5,8,0:0:0:0:
81,87,237591,1,0,1:2:0:0:
173,323,237749,2,0,L|191:216,1,98.9999969787599,10|2,0:0|1:2,0:0:0:0:
329,104,238065,5,8,0:0:0:0:
370,88,238144,1,8,0:0:0:0:
414,89,238223,1,10,0:0:0:0:
456,102,238302,1,8,0:0:0:0:
484,136,238381,5,10,0:0:0:0:
467,154,238460,1,8,0:3:0:0:
443,160,238538,1,6,0:3:0:0:
418,160,238617,1,4,0:3:0:0:
393,153,238696,6,0,P|387:92|498:24,1,197.99999395752,14|0,0:0|1:2,0:0:0:0:
449,240,239170,2,0,B|320:271|380:207|253:232,1,197.99999395752,14|0,0:0|1:2,0:0:0:0:
106,337,239644,2,0,L|122:231,1,98.9999969787599,14|0,0:0|0:0,0:0:0:0:
242,133,239960,6,0,L|256:230,1,99,12|0,0:0|0:0,0:0:0:0:
391,351,240591,6,0,P|381:318|384:286,1,66,2|2,0:0|0:0,0:0:0:0:
477,351,240907,2,0,P|487:318|484:286,1,66,2|2,0:0|0:0,0:0:0:0:
431,202,241223,1,14,0:0:0:0:
