osu file format v14

[General]
AudioFilename: audio.mp3
AudioLeadIn: 0
PreviewTime: 132501
Countdown: 0
SampleSet: Soft
StackLeniency: 0.7
Mode: 0
LetterboxInBreaks: 0
WidescreenStoryboard: 1

[Editor]
Bookmarks: 70637
DistanceSpacing: 0.6
BeatDivisor: 4
GridSize: 32
TimelineZoom: 1.7

[Metadata]
Title:Cherry Bomb
TitleUnicode:チェリボム
Artist:Poppin'Party
ArtistUnicode:Poppin'Party
Creator:[Karcher]
Version:Hard
Source:バンドリ! ガールズバンドパーティ!
Tags:Bang Dream! Girls Band Party bandori garupa ガルパ popipa ポピパ ポッピンパーティ cover Silent Siren toyama kasumi 戸山香澄 terakawa aimi 寺川愛美 hanazono tae 花園たえ otsuka sae 大塚紗英 ushigome rimi 牛込りみ nishimoto 西本りみ yamabuki saya saaya 山吹沙綾 ohashi ayaka 大橋彩香 ichigaya arisa 市ヶ谷有咲 itou ayasa 伊藤彩沙 full ver version anime video game jpop pop j-pop japanese female vocal
BeatmapID:2883758
BeatmapSetID:1397392

[Difficulty]
HPDrainRate:4.5
CircleSize:3.5
OverallDifficulty:7
ApproachRate:8
SliderMultiplier:1.4
SliderTickRate:1

[Events]
//Background and Video events
0,0,"bg.jpg",0,0
//Break Periods
2,1423,5525
//Storyboard Layer 0 (Background)
//Storyboard Layer 1 (Fail)
//Storyboard Layer 2 (Pass)
//Storyboard Layer 3 (Foreground)
//Storyboard Layer 4 (Overlay)
//Storyboard Sound Samples

[TimingPoints]
-40,315.789473684211,4,2,1,40,1,0
591,-125,4,2,1,40,0,0
6275,-125,4,2,1,55,0,0
11328,-83.3333333333333,4,2,1,70,0,1
29012,-90.9090909090909,4,2,1,70,0,0
41328,-90.9090909090909,4,2,1,60,0,0
41644,-90.9090909090909,4,2,1,50,0,0
41960,-111.111111111111,4,2,1,50,0,0
51749,-100,4,2,1,60,0,0
61854,-125,4,2,1,50,0,0
66749,-83.3333333333333,4,2,1,65,0,0
71960,-83.3333333333333,4,2,1,70,0,1
89644,-90.9090909090909,4,2,1,70,0,0
101644,-90.9090909090909,4,2,1,60,0,0
102275,-111.111111111111,4,2,1,50,0,0
107328,-111.111111111111,4,2,1,60,0,0
112381,-83.3333333333333,4,2,1,65,0,0
119960,-100,4,2,1,65,0,0
122486,-125,4,2,1,50,0,0
127381,-83.3333333333333,4,2,1,65,0,0
132591,-83.3333333333333,4,2,1,70,0,1
150275,-100,4,2,1,60,0,0
160381,-125,4,2,1,45,0,0
161802,-100,4,2,1,45,0,0
162907,-125,4,2,1,45,0,0
164328,-100,4,2,1,45,0,0
165433,-100,4,2,1,55,0,0
170486,-90.9090909090909,4,2,1,65,0,0
175538,-83.3333333333333,4,2,1,75,0,1
180591,-90.9090909090909,4,2,1,70,0,0
190223,-142.857142857143,4,2,1,45,0,0
190696,-83.3333333333333,4,2,1,70,0,1
207749,-83.3333333333333,4,2,1,60,0,0
208381,-83.3333333333333,4,2,1,70,0,1
223617,-66.6666666666667,4,2,1,70,0,0
224802,-66.6666666666667,4,2,1,70,0,1
224881,-66.6666666666667,4,2,1,70,0,0
226065,-66.6666666666667,4,2,1,70,0,1
226144,-66.6666666666667,4,2,1,70,0,0
227328,-66.6666666666667,4,2,1,70,0,0
228591,-83.3333333333333,4,2,1,70,0,1
238696,-83.3333333333333,4,2,1,70,0,0
239960,-100,4,2,1,70,0,0
240591,-125,4,2,1,60,0,0

[Colours]
Combo1 : 253,179,223
Combo2 : 244,53,72
Combo3 : 253,148,62

[HitObjects]
62,39,591,6,0,L|67:97,1,56,2|2,0:0|0:0,0:0:0:0:
154,71,907,2,0,L|149:129,1,56,2|2,0:0|0:0,0:0:0:0:
80,184,1223,1,6,1:2:0:0:
256,192,6275,12,6,10065,1:2:0:0:
469,38,11328,6,0,L|481:129,1,83.9999974365235,6|0,1:2|0:0,0:0:0:0:
487,205,11644,2,0,L|482:305,1,83.9999974365235,10|0,0:0|0:0,0:0:0:0:
409,171,11960,2,0,B|361:144|361:144|247:182,1,167.999994873047,2|10,1:2|0:0,0:0:0:0:
185,228,12433,1,0,0:0:0:0:
106,198,12591,6,0,L|122:115,2,83.9999974365235,0|0|8,1:2|0:0|0:0,0:0:0:0:
109,282,13065,2,0,B|120:368|120:368|209:356,1,167.999994873047,2|2,0:0|0:0,0:0:0:0:
266,304,13538,1,10,0:0:0:0:
266,304,13696,1,2,0:0:0:0:
339,345,13854,6,0,P|349:297|337:260,1,83.9999974365235,2|0,1:2|0:0,0:0:0:0:
271,213,14170,2,0,L|279:122,1,83.9999974365235,10|0,0:0|0:0,0:0:0:0:
194,248,14486,2,0,B|113:276|113:276|25:235,1,167.999994873047,2|10,1:2|0:0,0:0:0:0:
11,161,14960,1,0,0:0:0:0:
48,86,15117,6,0,B|148:57|101:120|211:84,1,167.999994873047,0|8,1:2|0:0,0:0:0:0:
292,50,15591,1,2,0:0:0:0:
292,50,15670,1,2,0:0:0:0:
292,50,15749,2,0,L|382:59,2,83.9999974365235,2|2|10,1:2|0:0|0:0,0:0:0:0:
216,4,16223,1,2,0:0:0:0:
280,131,16381,6,0,L|268:219,1,83.9999974365235,6|0,1:2|0:0,0:0:0:0:
238,292,16696,2,0,P|285:298|324:278,1,83.9999974365235,10|0,0:0|0:0,0:0:0:0:
355,207,17012,2,0,B|429:178|429:178|512:216,1,167.999994873047,2|10,1:2|0:0,0:0:0:0:
500,299,17486,1,0,0:0:0:0:
500,299,17644,6,0,L|413:319,1,83.9999974365235,2|0,1:2|0:0,0:0:0:0:
335,335,17960,1,10,0:0:0:0:
171,371,18275,2,0,L|183:284,1,83.9999974365235,2|2,1:2|0:0,0:0:0:0:
196,204,18591,2,0,L|187:117,1,83.9999974365235,10|0,0:0|0:0,0:0:0:0:
123,64,18907,6,0,P|169:35|266:85,1,167.999994873047,2|10,1:2|0:0,0:0:0:0:
338,118,19381,1,2,0:0:0:0:
415,85,19538,2,0,B|455:53|455:53|448:173,1,167.999994873047,2|8,1:2|0:0,0:0:0:0:
414,247,20012,1,2,0:0:0:0:
331,218,20170,5,2,1:2:0:0:
331,218,20328,2,0,L|249:232,2,83.9999974365235,14|14|2,0:0|0:0|1:2,0:0:0:0:
357,316,20802,1,10,0:3:0:0:
357,316,20881,1,8,0:3:0:0:
357,316,20960,2,0,L|359:362,2,41.9999987182618,8|8|12,0:3|0:3|0:0,0:0:0:0:
459,226,21275,1,8,0:0:0:0:
459,226,21354,1,8,0:0:0:0:
459,226,21433,6,0,L|450:140,1,83.9999974365235,6|0,1:2|0:0,0:0:0:0:
400,70,21749,2,0,P|440:57|481:64,1,83.9999974365235,10|0,0:0|0:0,0:0:0:0:
364,146,22065,2,0,B|320:180|320:180|212:147,1,167.999994873047,2|10,1:2|0:0,0:0:0:0:
154,86,22538,1,0,0:0:0:0:
70,91,22696,6,0,L|60:5,2,83.9999974365235,0|0|8,1:2|0:0|0:0,0:0:0:0:
55,174,23170,2,0,B|27:251|27:251|58:336,1,167.999994873047,2|2,0:0|0:0,0:0:0:0:
140,361,23644,1,10,0:0:0:0:
140,361,23802,1,2,0:0:0:0:
220,331,23960,6,0,L|212:231,1,83.9999974365235,2|0,1:2|0:0,0:0:0:0:
185,167,24275,2,0,L|193:67,1,83.9999974365235,10|0,0:0|0:0,0:0:0:0:
274,175,24591,2,0,P|315:240|397:229,1,167.999994873047,2|10,1:2|0:0,0:0:0:0:
469,186,25065,1,0,0:0:0:0:
445,108,25223,5,0,1:2:0:0:
445,108,25381,2,0,L|359:117,1,83.9999974365235,2|10,0:0|0:0,0:0:0:0:
286,78,25696,1,2,0:0:0:0:
286,78,25775,1,2,0:0:0:0:
286,78,25854,2,0,L|202:69,2,83.9999974365235,2|2|10,1:2|0:0|0:0,0:0:0:0:
359,35,26328,5,2,0:0:0:0:
290,162,26486,2,0,L|299:247,1,83.9999974365235,6|0,1:2|0:0,0:0:0:0:
348,313,26802,2,0,P|308:330|269:324,1,83.9999974365235,10|0,0:0|0:0,0:0:0:0:
215,259,27117,2,0,L|130:273,1,83.9999974365235,2|0,1:2|0:0,0:0:0:0:
77,336,27433,2,0,P|54:301|52:256,1,83.9999974365235,10|0,0:0|0:0,0:0:0:0:
103,193,27749,5,10,0:0:0:0:
164,349,28065,1,10,0:0:0:0:
164,349,29012,6,0,B|211:316|211:316|311:343,1,154.000004699707,14|8,0:0|0:0,0:0:0:0:
378,382,29486,2,0,P|387:336|377:303,1,77.0000023498536,2|8,0:0|0:0,0:0:0:0:
312,254,29802,1,2,1:2:0:0:
312,254,29960,1,10,0:0:0:0:
352,180,30117,2,0,B|261:151|291:208|198:173,1,154.000004699707,2|2,1:2|1:2,0:0:0:0:
122,205,30591,2,0,P|118:159|133:127,1,77.0000023498536,10|2,0:0|1:2,0:0:0:0:
204,89,30907,2,0,L|191:6,2,77.0000023498536,10|0|10,0:0|1:2|0:0,0:0:0:0:
190,257,31538,6,0,P|202:313|106:358,1,154.000004699707,10|8,0:0|0:0,0:0:0:0:
50,340,32012,2,0,L|65:183,1,154.000004699707,2|2,0:0|1:2,0:0:0:0:
74,101,32486,1,10,0:0:0:0:
143,150,32644,2,0,B|186:182|186:182|286:150,1,154.000004699707,2|0,1:2|1:2,0:0:0:0:
346,97,33117,2,0,P|364:138|362:175,1,77.0000023498536,10|2,0:0|1:2,0:0:0:0:
316,240,33433,1,10,0:0:0:0:
371,315,33591,1,2,1:2:0:0:
371,315,33670,1,0,1:2:0:0:
371,315,33749,2,0,L|449:302,1,77.0000023498536,10|2,0:0|1:2,0:0:0:0:
506,202,34065,6,0,B|524:134|524:134|475:57,1,154.000004699707,14|8,0:0|0:0,0:0:0:0:
393,53,34538,2,0,L|304:63,1,77.0000023498536,2|8,0:0|0:0,0:0:0:0:
231,71,34854,1,2,1:2:0:0:
231,71,35012,1,10,0:0:0:0:
244,154,35170,2,0,P|264:195|364:189,1,154.000004699707,2|2,1:2|1:2,0:0:0:0:
428,141,35644,2,0,P|446:186|439:225,1,77.0000023498536,10|2,0:0|1:2,0:0:0:0:
389,279,35960,2,0,L|405:361,2,77.0000023498536,10|0|10,0:0|1:2|0:0,0:0:0:0:
351,113,36591,6,0,B|248:90|303:149|188:120,1,154.000004699707,10|8,0:0|0:0,0:0:0:0:
146,58,37065,2,0,P|94:38|31:113,1,154.000004699707,2|2,0:0|1:2,0:0:0:0:
59,179,37538,1,10,0:0:0:0:
23,255,37696,2,0,B|31:333|31:333|113:325,1,154.000004699707,2|0,1:2|1:2,0:0:0:0:
175,376,38170,2,0,P|190:334|183:297,1,77.0000023498536,10|2,0:0|1:2,0:0:0:0:
125,241,38486,1,8,0:0:0:0:
125,241,38644,1,2,1:2:0:0:
205,213,38802,2,0,L|285:225,1,77.0000023498536,10|2,0:0|0:0,0:0:0:0:
376,313,39117,6,0,P|427:346|514:303,1,154.000004699707,14|0,0:0|1:2,0:0:0:0:
504,228,39591,2,0,P|453:195|366:238,1,154.000004699707,14|0,0:0|1:2,0:0:0:0:
291,270,40065,2,0,L|215:259,1,77.0000023498536,14|0,0:0|0:0,0:0:0:0:
152,200,40381,1,6,1:2:0:0:
256,192,40538,12,6,41644,1:2:0:0:
326,141,41960,6,0,L|253:145,1,62.9999980773926,10|0,0:0|0:0,0:0:0:0:
192,102,42275,2,0,P|131:86|82:126,1,125.999996154785,2|10,0:0|0:0,0:0:0:0:
56,199,42749,2,0,L|67:329,1,125.999996154785,2|2,0:0|1:2,0:0:0:0:
139,363,43223,1,10,0:0:0:0:
139,363,43381,1,2,1:2:0:0:
211,325,43538,1,2,0:0:0:0:
211,325,43696,2,0,L|278:331,2,62.9999980773926,2|10|0,1:2|0:0|0:0,0:0:0:0:
142,279,44170,5,2,1:2:0:0:
301,240,44486,2,0,L|371:251,1,62.9999980773926,10|0,0:0|0:0,0:0:0:0:
438,283,44802,2,0,P|409:234|434:173,1,125.999996154785,2|10,0:0|0:0,0:0:0:0:
508,140,45275,1,2,0:0:0:0:
508,140,45433,6,0,L|500:68,1,62.9999980773926,2|2,1:2|1:2,0:0:0:0:
435,27,45749,2,0,L|366:36,1,62.9999980773926,10|2,0:0|1:2,0:0:0:0:
312,92,46065,1,2,0:0:0:0:
241,50,46223,1,2,1:2:0:0:
177,101,46381,2,0,L|186:168,2,62.9999980773926,10|0|2,0:0|0:0|1:2,0:0:0:0:
21,50,47012,6,0,L|91:40,1,62.9999980773926,10|0,0:0|0:0,0:0:0:0:
162,18,47328,2,0,L|224:26,1,62.9999980773926,2|0,0:0|1:2,0:0:0:0:
296,66,47644,1,10,0:0:0:0:
451,13,47960,6,0,P|409:24|396:108,1,125.999996154785,2|10,1:2|0:0,0:0:0:0:
441,167,48433,1,0,1:2:0:0:
441,167,48591,2,0,L|435:248,1,62.9999980773926,2|0,0:0|1:2,0:0:0:0:
435,312,48907,1,10,0:0:0:0:
345,167,49223,6,0,B|267:147|295:193|215:171,1,125.999996154785,2|8,1:2|0:0,0:0:0:0:
172,107,49696,2,0,P|113:98|79:158,1,125.999996154785,2|0,0:0|1:2,0:0:0:0:
87,229,50170,2,0,L|76:301,1,62.9999980773926,10|0,0:0|0:0,0:0:0:0:
48,368,50486,6,0,P|7:344|-1:322,2,62.9999980773926,2|0|8,1:2|1:2|0:0,0:0:0:0:
130,359,50960,2,0,L|261:345,1,125.999996154785,6|0,1:2|1:2,0:0:0:0:
307,282,51433,1,12,0:0:0:0:
273,207,51591,1,0,1:2:0:0:
273,207,51670,1,8,0:0:0:0:
273,207,51749,6,0,P|237:181|151:221,2,140,6|10|2,1:2|0:0|0:0,0:0:0:0:
340,361,52696,1,10,0:0:0:0:
340,361,52854,2,0,P|419:359|445:305,1,140,2|2,0:0|1:2,0:0:0:0:
415,232,53328,1,10,0:0:0:0:
415,232,53486,1,2,1:2:0:0:
451,156,53644,2,0,L|444:77,1,70,2|2,0:0|1:2,0:0:0:0:
487,13,53960,2,0,P|447:1|416:7,1,70,10|0,0:0|0:0,0:0:0:0:
365,69,54275,6,0,L|221:88,2,140,2|10|2,1:2|0:0|0:0,0:0:0:0:
230,170,55223,1,10,0:0:0:0:
230,170,55381,2,0,P|182:161|146:77,1,140,2|2,0:0|1:2,0:0:0:0:
75,36,55854,1,10,0:0:0:0:
75,36,56012,1,2,1:2:0:0:
19,99,56170,2,0,L|27:182,1,70,2|2,0:0|1:2,0:0:0:0:
33,252,56486,1,10,0:0:0:0:
178,168,56802,6,0,P|213:179|239:205,1,70,6|0,1:2|0:0,0:0:0:0:
305,251,57117,2,0,P|277:275|241:285,1,70,10|0,0:0|0:0,0:0:0:0:
170,318,57433,2,0,P|161:282|172:246,1,70,2|0,0:0|1:2,0:0:0:0:
241,206,57749,1,10,0:0:0:0:
241,206,57907,1,2,0:0:0:0:
305,251,58065,6,0,P|349:287|429:267,1,140,2|10,1:2|0:0,0:0:0:0:
499,230,58538,1,0,1:2:0:0:
499,230,58696,2,0,P|510:267|504:300,1,70,2|0,0:0|1:2,0:0:0:0:
444,357,59012,2,0,P|407:368|374:362,1,70,10|0,0:0|0:0,0:0:0:0:
310,310,59328,6,0,P|262:288|174:314,1,140,6|8,1:2|0:0,0:0:0:0:
114,361,59802,2,0,B|46:369|46:369|36:295,1,140,2|0,0:0|1:2,0:0:0:0:
27,214,60275,2,0,L|34:139,1,70,10|0,0:0|0:0,0:0:0:0:
80,73,60591,6,0,P|47:59|4:63,2,70,2|2|10,1:2|1:2|0:0,0:0:0:0:
119,149,61065,1,2,1:2:0:0:
119,149,61223,2,0,L|199:143,1,70,10|0,0:0|1:2,0:0:0:0:
267,114,61538,1,2,1:2:0:0:
267,114,61696,1,0,1:2:0:0:
338,150,61854,6,0,L|325:272,2,112,6|8|0,1:2|0:0|1:2,0:0:0:0:
249,20,62802,1,10,0:0:0:0:
249,20,62960,1,2,0:0:0:0:
186,69,63117,2,0,L|68:59,2,112,2|8|0,1:2|0:0|1:2,0:0:0:0:
336,11,64065,1,10,0:0:0:0:
456,118,64381,6,0,L|474:240,2,112,2|10|0,1:2|0:0|1:2,0:0:0:0:
375,108,65170,1,2,1:2:0:0:
375,108,65328,1,10,0:0:0:0:
303,252,65644,2,0,P|283:202|300:148,2,112,2|8|8,1:2|0:0|0:0,0:0:0:0:
429,352,66591,1,10,0:3:0:0:
429,352,66749,6,0,B|326:318|356:385|267:351,1,167.999994873047,14|0,0:0|1:2,0:0:0:0:
181,354,67223,2,0,L|171:266,1,83.9999974365235,8|0,0:0|1:2,0:0:0:0:
245,230,67538,2,0,L|255:142,1,83.9999974365235,10|0,0:0|1:2,0:0:0:0:
178,108,67854,2,0,L|168:20,1,83.9999974365235,8|0,0:0|1:2,0:0:0:0:
105,152,68170,5,10,0:0:0:0:
332,43,68486,1,10,0:0:0:0:
441,270,68802,1,10,0:0:0:0:
441,270,68960,2,0,L|351:289,1,83.9999974365235,0|8,1:2|0:0,0:0:0:0:
243,349,69275,6,0,P|187:315|214:219,1,167.999994873047,2|0,1:2|1:2,0:0:0:0:
282,188,69749,2,0,L|375:195,1,83.9999974365235,8|2,0:0|1:2,0:0:0:0:
432,249,70065,2,0,P|450:212|447:171,2,83.9999974365235,10|0|0,0:0|1:2|1:2,0:0:0:0:
385,114,70538,6,0,L|373:30,1,83.9999974365235,10|0,0:0|0:0,0:0:0:0:
279,109,70854,1,2,1:2:0:0:
279,109,71012,2,0,L|188:99,1,83.9999974365235,10|2,0:0|1:2,0:0:0:0:
130,45,71328,1,10,0:0:0:0:
130,45,71407,1,0,1:2:0:0:
130,45,71486,2,0,L|76:52,2,41.9999987182618,0|0|14,1:2|1:2|0:0,0:0:0:0:
228,181,71960,6,0,L|237:266,1,83.9999974365235,6|0,1:2|0:0,0:0:0:0:
303,316,72275,2,0,P|321:267|307:228,1,83.9999974365235,10|0,0:0|0:0,0:0:0:0:
226,345,72591,2,0,B|176:377|176:377|64:342,1,167.999994873047,2|10,1:2|0:0,0:0:0:0:
32,269,73065,1,0,0:0:0:0:
45,184,73223,6,0,L|36:94,2,83.9999974365235,0|0|8,1:2|0:0|0:0,0:0:0:0:
119,222,73696,2,0,P|196:236|228:161,1,167.999994873047,2|2,0:0|0:0,0:0:0:0:
190,90,74170,1,10,0:0:0:0:
190,90,74328,1,2,0:0:0:0:
209,8,74486,6,0,L|299:24,1,83.9999974365235,2|0,1:2|0:0,0:0:0:0:
354,79,74802,2,0,P|376:35|369:-4,1,83.9999974365235,10|0,0:0|0:0,0:0:0:0:
273,101,75117,2,0,L|298:272,1,167.999994873047,2|10,1:2|0:0,0:0:0:0:
342,338,75591,1,0,0:0:0:0:
425,345,75749,6,0,P|470:320|442:212,1,167.999994873047,0|8,1:2|0:0,0:0:0:0:
381,176,76223,1,2,0:0:0:0:
381,176,76302,1,2,0:0:0:0:
381,176,76381,2,0,L|370:88,2,83.9999974365235,2|2|10,1:2|0:0|0:0,0:0:0:0:
313,225,76854,1,2,0:0:0:0:
288,82,77012,6,0,P|305:37|341:17,1,83.9999974365235,6|0,1:2|0:0,0:0:0:0:
419,20,77328,2,0,L|507:34,1,83.9999974365235,10|0,0:0|0:0,0:0:0:0:
505,117,77644,2,0,B|512:206|512:206|431:214,1,167.999994873047,2|10,1:2|0:0,0:0:0:0:
357,178,78117,1,0,0:0:0:0:
354,262,78275,6,0,L|265:284,1,83.9999974365235,2|0,1:2|0:0,0:0:0:0:
190,304,78591,1,10,0:0:0:0:
24,272,78907,2,0,L|36:189,1,83.9999974365235,2|2,1:2|0:0,0:0:0:0:
14,107,79223,2,0,P|59:104|95:125,1,83.9999974365235,10|0,0:0|0:0,0:0:0:0:
116,202,79538,6,0,P|163:218|236:124,1,167.999994873047,2|10,1:2|0:0,0:0:0:0:
226,59,80012,1,2,0:0:0:0:
302,23,80170,2,0,B|344:60|344:60|460:21,1,167.999994873047,2|10,1:2|0:0,0:0:0:0:
503,90,80644,1,2,0:0:0:0:
456,159,80802,5,2,1:2:0:0:
456,159,80960,2,0,L|465:249,2,83.9999974365235,10|10|2,0:0|0:0|1:2,0:0:0:0:
407,85,81433,1,10,0:3:0:0:
407,85,81512,1,8,0:3:0:0:
407,85,81591,2,0,L|411:41,2,41.9999987182618,8|8|12,0:3|0:3|0:0,0:0:0:0:
316,189,81907,1,8,0:0:0:0:
316,189,81986,1,8,0:0:0:0:
316,189,82065,6,0,L|222:201,1,83.9999974365235,6|0,1:2|0:0,0:0:0:0:
151,176,82381,2,0,P|149:217|167:254,1,83.9999974365235,10|0,0:0|0:0,0:0:0:0:
226,103,82696,2,0,B|173:72|173:72|61:104,1,167.999994873047,2|10,1:2|0:0,0:0:0:0:
24,171,83170,1,0,0:0:0:0:
39,253,83328,6,0,L|49:355,2,83.9999974365235,0|0|8,1:2|0:0|0:0,0:0:0:0:
102,196,83802,2,0,P|125:240|237:244,1,167.999994873047,2|2,0:0|0:0,0:0:0:0:
298,195,84275,1,10,0:0:0:0:
298,195,84433,1,2,0:0:0:0:
382,214,84591,6,0,L|378:309,1,83.9999974365235,2|0,1:2|0:0,0:0:0:0:
374,382,84907,2,0,P|421:373|449:342,1,83.9999974365235,10|0,0:0|0:0,0:0:0:0:
303,333,85223,2,0,B|195:317|256:376|141:352,1,167.999994873047,2|10,1:2|0:0,0:0:0:0:
60,370,85696,1,0,0:0:0:0:
8,303,85854,5,0,1:2:0:0:
8,303,86012,2,0,L|2:217,1,83.9999974365235,2|10,0:0|0:0,0:0:0:0:
79,185,86328,1,2,0:0:0:0:
79,185,86407,1,2,0:0:0:0:
79,185,86486,2,0,L|172:200,2,83.9999974365235,2|2|10,1:2|0:0|0:0,0:0:0:0:
0,133,86960,5,2,0:0:0:0:
75,266,87117,2,0,L|168:281,1,83.9999974365235,6|0,1:2|0:0,0:0:0:0:
234,242,87433,2,0,L|316:228,1,83.9999974365235,10|0,0:0|0:0,0:0:0:0:
384,279,87749,2,0,P|400:235|394:198,1,83.9999974365235,2|0,1:2|0:0,0:0:0:0:
327,148,88065,2,0,P|327:101|345:68,1,83.9999974365235,10|0,0:0|0:0,0:0:0:0:
400,7,88381,5,10,0:0:0:0:
251,84,88696,1,10,0:0:0:0:
251,84,89644,6,0,B|205:117|205:117|98:81,1,154.000004699707,14|8,0:0|0:0,0:0:0:0:
54,24,90117,2,0,P|31:60|32:108,1,77.0000023498536,2|8,0:0|0:0,0:0:0:0:
78,162,90433,1,2,1:2:0:0:
78,162,90591,1,10,0:0:0:0:
26,229,90749,2,0,B|17:312|17:312|94:320,1,154.000004699707,2|2,1:2|1:2,0:0:0:0:
161,361,91223,2,0,L|240:349,1,77.0000023498536,10|2,0:0|1:2,0:0:0:0:
301,293,91538,2,0,L|377:304,2,77.0000023498536,10|0|10,0:0|1:2|0:0,0:0:0:0:
221,262,92012,1,0,1:2:0:0:
221,262,92091,1,0,1:2:0:0:
221,262,92170,5,10,0:0:0:0:
284,205,92328,2,0,L|271:123,1,77.0000023498536,2|8,0:0|0:0,0:0:0:0:
205,75,92644,2,0,P|254:46|346:84,1,154.000004699707,2|2,0:0|1:2,0:0:0:0:
400,135,93117,1,10,0:0:0:0:
464,79,93275,2,0,B|502:59|502:59|487:177,1,154.000004699707,2|0,1:2|1:2,0:0:0:0:
424,225,93749,2,0,L|435:318,1,77.0000023498536,10|2,0:0|1:2,0:0:0:0:
376,365,94065,1,10,0:0:0:0:
376,365,94223,1,2,1:2:0:0:
345,285,94381,2,0,L|262:273,1,77.0000023498536,10|2,0:0|1:2,0:0:0:0:
181,361,94696,6,0,P|110:374|53:318,1,154.000004699707,14|8,0:0|0:0,0:0:0:0:
43,237,95170,2,0,B|49:131|49:131|85:166,1,154.000004699707,2|2,0:0|1:2,0:0:0:0:
161,197,95644,1,10,0:0:0:0:
230,148,95802,2,0,P|297:124|376:167,1,154.000004699707,2|2,1:2|1:2,0:0:0:0:
395,237,96275,2,0,P|434:241|473:229,1,77.0000023498536,10|2,0:0|1:2,0:0:0:0:
510,155,96591,2,0,L|498:77,2,77.0000023498536,10|0|10,0:0|1:2|0:0,0:0:0:0:
436,2,97223,6,0,P|391:41|401:145,1,154.000004699707,10|8,0:0|0:0,0:0:0:0:
319,175,97696,2,0,P|280:130|176:140,1,154.000004699707,2|2,0:0|1:2,0:0:0:0:
130,189,98170,1,10,0:0:0:0:
46,176,98328,2,0,L|67:9,1,154.000004699707,2|0,1:2|1:2,0:0:0:0:
147,1,98802,2,0,L|226:12,1,77.0000023498536,10|2,0:0|1:2,0:0:0:0:
291,61,99117,1,8,0:0:0:0:
371,34,99275,1,2,1:2:0:0:
371,34,99354,1,0,1:2:0:0:
371,34,99433,2,0,P|376:68|360:109,1,77.0000023498536,14|2,0:0|0:0,0:0:0:0:
249,189,99749,6,0,P|207:233|234:326,1,154.000004699707,14|0,0:0|1:2,0:0:0:0:
311,330,100223,2,0,P|352:285|325:192,1,154.000004699707,10|0,0:0|1:2,0:0:0:0:
303,121,100696,2,0,L|316:35,1,77.0000023498536,14|0,0:0|0:0,0:0:0:0:
396,16,101012,1,6,1:2:0:0:
256,192,101170,12,4,101960,0:3:0:0:
441,238,102275,6,0,P|378:227|318:260,1,125.999996154785,6|2,1:2|0:0,0:0:0:0:
289,331,102749,2,0,L|152:344,1,125.999996154785,10|2,0:0|1:2,0:0:0:0:
78,349,103223,1,10,0:0:0:0:
78,349,103381,1,2,0:0:0:0:
6,303,103538,6,0,P|59:265|123:275,1,125.999996154785,2|2,1:2|1:2,0:0:0:0:
163,342,104012,2,0,L|236:335,1,62.9999980773926,10|2,0:0|1:2,0:0:0:0:
311,326,104328,1,12,0:0:0:0:
311,326,104486,1,12,0:0:0:0:
475,371,104802,6,0,P|433:348|420:275,1,125.999996154785,6|10,1:2|0:0,0:0:0:0:
492,232,105275,2,0,L|477:104,1,125.999996154785,10|2,0:0|1:2,0:0:0:0:
462,22,105749,1,10,0:0:0:0:
462,22,105907,1,2,0:0:0:0:
398,78,106065,6,0,B|361:101|361:101|281:82,1,125.999996154785,2|2,1:2|0:0,0:0:0:0:
203,46,106538,2,0,L|131:52,1,62.9999980773926,10|2,0:0|1:2,0:0:0:0:
54,59,106854,1,8,0:0:0:0:
54,59,107012,1,8,0:0:0:0:
207,133,107328,5,12,0:0:0:0:
207,133,107486,2,0,L|271:139,1,62.9999980773926,8|2,0:0|1:2,0:0:0:0:
352,117,107802,1,8,0:3:0:0:
352,117,107881,1,8,0:3:0:0:
352,117,107960,2,0,P|355:158|343:184,1,62.9999980773926,10|8,0:3|0:3,0:0:0:0:
274,221,108275,2,0,P|264:250|269:281,1,62.9999980773926,6|4,0:3|0:3,0:0:0:0:
338,331,108591,5,10,0:0:0:0:
338,331,108749,2,0,L|402:325,1,62.9999980773926,8|2,0:0|1:2,0:0:0:0:
478,361,109065,1,8,0:0:0:0:
478,361,109223,2,0,P|485:318|475:288,1,62.9999980773926,10|8,0:3|0:3,0:0:0:0:
421,238,109538,2,0,L|426:167,1,62.9999980773926,6|4,0:3|0:3,0:0:0:0:
474,105,109854,5,14,0:0:0:0:
333,201,110170,2,0,L|298:207,3,31.4999990386963,8|0|2|0,0:0|1:2|1:2|1:2,0:0:0:0:
259,211,110486,2,0,L|227:205,3,31.4999990386963,8|0|0|0,0:0|1:2|1:2|1:2,0:0:0:0:
184,202,110802,2,0,L|149:208,3,31.4999990386963,10|0|0|0,0:0|1:2|1:2|1:2,0:0:0:0:
112,219,111117,5,10,0:0:0:0:
112,219,111275,1,8,0:0:0:0:
48,61,111591,2,0,P|98:63|112:136,1,125.999996154785,14|8,0:0|0:0,0:0:0:0:
44,173,112065,2,0,L|8:163,2,31.4999990386963,8|8|8,0:0|0:0|0:0,0:0:0:0:
112,219,112381,5,2,0:0:0:0:
191,188,112538,1,2,1:2:0:0:
191,188,112617,1,0,1:2:0:0:
191,188,112696,2,0,P|198:224|177:274,1,83.9999974365235,14|2,0:0|0:0,0:0:0:0:
101,303,113012,2,0,P|66:291|33:247,1,83.9999974365235,2|2,1:2|1:2,0:0:0:0:
44,167,113328,2,0,P|71:142|125:136,1,83.9999974365235,10|2,0:0|0:0,0:0:0:0:
191,188,113644,6,0,L|277:198,1,83.9999974365235,2|2,1:2|1:2,0:0:0:0:
336,134,113960,1,10,0:0:0:0:
400,192,114117,1,2,1:2:0:0:
341,257,114275,2,0,L|333:351,2,83.9999974365235,2|0|8,0:0|1:2|0:0,0:0:0:0:
415,103,114907,5,2,1:2:0:0:
415,103,115065,1,2,0:0:0:0:
344,54,115223,2,0,P|329:93|336:134,1,83.9999974365235,10|2,0:0|0:0,0:0:0:0:
406,186,115538,2,0,P|447:180|480:154,1,83.9999974365235,2|2,0:0|1:2,0:0:0:0:
490,66,115854,2,0,P|464:33|426:19,1,83.9999974365235,10|2,0:0|0:0,0:0:0:0:
344,54,116170,6,0,L|254:45,2,83.9999974365235,2|2|10,1:2|1:2|0:0,0:0:0:0:
415,103,116644,1,2,1:2:0:0:
357,170,116802,2,0,L|363:254,2,83.9999974365235,2|0|8,0:0|1:2|0:0,0:0:0:0:
208,75,117433,6,0,B|154:46|154:46|42:82,1,167.999994873047,14|2,0:0|1:2,0:0:0:0:
4,153,117907,2,0,P|-10:198|83:232,1,167.999994873047,12|0,0:0|1:2,0:0:0:0:
158,191,118381,1,10,0:0:0:0:
158,191,118460,1,0,1:2:0:0:
158,191,118538,1,2,1:2:0:0:
210,262,118696,6,0,P|241:296|317:233,1,167.999994873047,14|2,0:0|1:2,0:0:0:0:
329,147,119170,2,0,B|383:118|383:118|484:150,1,167.999994873047,12|0,0:0|1:2,0:0:0:0:
511,235,119644,1,10,0:0:0:0:
490,320,119802,1,8,0:0:0:0:
490,320,119881,1,8,0:0:0:0:
490,320,119960,6,0,L|330:309,1,140,6|8,1:2|0:0,0:0:0:0:
291,370,120433,2,0,P|268:328|304:242,1,140,0|0,0:0|1:2,0:0:0:0:
380,230,120907,2,0,L|369:153,1,70,10|0,0:0|0:0,0:0:0:0:
356,77,121223,6,0,L|367:0,2,70,2|2|14,1:2|1:2|0:0,0:0:0:0:
289,128,121696,1,2,1:2:0:0:
289,128,121854,2,0,L|207:139,1,70,10|0,0:0|1:2,0:0:0:0:
144,176,122170,1,10,0:3:0:0:
144,176,122328,1,8,0:3:0:0:
66,142,122486,6,0,P|55:86|86:37,2,112,6|8|0,1:2|0:0|1:2,0:0:0:0:
93,302,123433,1,10,0:0:0:0:
93,302,123591,1,2,0:0:0:0:
153,356,123749,2,0,P|173:321|150:245,2,112,2|8|0,1:2|0:0|1:2,0:0:0:0:
80,210,124696,1,10,0:0:0:0:
179,81,125012,6,0,L|304:93,2,112,2|10|0,1:2|0:0|1:2,0:0:0:0:
110,36,125802,1,2,0:0:0:0:
110,36,125960,1,10,0:0:0:0:
175,184,126275,2,0,L|151:299,2,112,2|8|0,1:2|0:0|1:2,0:0:0:0:
71,310,127223,1,10,0:0:0:0:
71,310,127381,6,0,P|86:346|201:359,1,167.999994873047,14|0,0:0|1:2,0:0:0:0:
268,310,127854,2,0,L|365:321,1,83.9999974365235,8|0,0:0|1:2,0:0:0:0:
409,381,128170,2,0,P|433:344|434:304,1,83.9999974365235,10|0,0:0|1:2,0:0:0:0:
382,237,128486,2,0,P|384:195|407:161,1,83.9999974365235,8|0,0:0|1:2,0:0:0:0:
512,264,128802,5,10,0:0:0:0:
470,15,129118,1,10,0:0:0:0:
221,56,129434,1,10,0:0:0:0:
221,56,129592,1,2,1:2:0:0:
262,304,129907,6,0,P|338:300|386:225,1,167.999994873047,14|0,0:0|1:2,0:0:0:0:
430,156,130381,2,0,P|389:142|339:154,1,83.9999974365235,8|2,0:0|1:2,0:0:0:0:
299,217,130696,1,10,0:3:0:0:
263,140,130854,1,8,0:3:0:0:
263,140,130933,1,8,0:3:0:0:
263,140,131012,1,8,0:0:0:0:
385,228,131170,6,0,B|392:310|392:310|305:324,1,167.999994873047,2|10,1:2|0:0,0:0:0:0:
226,300,131644,2,0,L|139:280,1,83.9999974365235,2|10,1:2|0:0,0:0:0:0:
79,227,131960,1,10,0:0:0:0:
5,266,132117,1,8,0:0:0:0:
5,266,132196,1,8,0:0:0:0:
5,266,132275,2,0,L|12:315,3,41.9999987182618,8|8|8|8,0:0|0:0|0:0|0:0,0:0:0:0:
20,349,132591,6,0,P|56:363|113:354,1,83.9999974365235,6|0,1:2|0:0,0:0:0:0:
162,302,132907,2,0,P|188:343|179:385,1,83.9999974365235,10|0,0:0|0:0,0:0:0:0:
86,278,133223,2,0,B|104:152|104:152|127:188,1,167.999994873047,2|10,1:2|0:0,0:0:0:0:
205,213,133696,1,0,0:0:0:0:
282,177,133854,6,0,L|274:89,2,83.9999974365235,0|0|8,1:2|0:0|0:0,0:0:0:0:
362,202,134328,2,0,P|422:227|484:142,1,167.999994873047,2|2,0:0|0:0,0:0:0:0:
484,75,134802,1,10,0:0:0:0:
484,75,134960,1,2,0:0:0:0:
408,38,135117,6,0,L|321:54,1,83.9999974365235,2|0,1:2|0:0,0:0:0:0:
249,90,135433,2,0,P|240:46|258:6,1,83.9999974365235,10|0,0:0|0:0,0:0:0:0:
326,134,135749,2,0,P|357:216|310:285,1,167.999994873047,2|10,1:2|0:0,0:0:0:0:
236,260,136223,1,0,0:0:0:0:
202,337,136381,6,0,P|121:327|79:257,1,167.999994873047,0|8,1:2|0:0,0:0:0:0:
91,174,136854,1,2,0:0:0:0:
91,174,136933,1,2,0:0:0:0:
91,174,137012,2,0,L|73:83,2,83.9999974365235,2|2|10,1:2|0:0|0:0,0:0:0:0:
156,227,137486,1,2,0:0:0:0:
10,209,137644,6,0,P|-5:254|2:290,1,83.9999974365235,6|0,1:2|0:0,0:0:0:0:
59,350,137960,2,0,L|142:363,1,83.9999974365235,10|0,0:0|0:0,0:0:0:0:
204,306,138275,1,2,1:2:0:0:
278,364,138433,1,0,0:0:0:0:
278,364,138512,1,2,0:0:0:0:
278,364,138591,2,0,L|363:352,1,83.9999974365235,10|0,0:0|0:0,0:0:0:0:
445,354,138907,6,0,L|456:270,1,83.9999974365235,2|0,1:2|0:0,0:0:0:0:
462,187,139223,1,10,0:0:0:0:
378,41,139538,2,0,L|389:124,1,83.9999974365235,2|2,1:2|0:0,0:0:0:0:
378,208,139854,2,0,P|336:193|314:161,1,83.9999974365235,10|0,0:0|0:0,0:0:0:0:
280,84,140170,6,0,B|178:62|222:124|115:93,1,167.999994873047,2|10,1:2|0:0,0:0:0:0:
35,74,140644,1,2,0:0:0:0:
15,155,140802,2,0,P|5:208|104:243,1,167.999994873047,2|10,1:2|0:0,0:0:0:0:
165,204,141275,1,2,0:0:0:0:
222,270,141433,6,0,P|220:317|240:351,1,83.9999974365235,6|10,1:2|0:0,0:0:0:0:
323,331,141749,2,0,P|326:289|307:252,1,83.9999974365235,14|2,0:0|1:2,0:0:0:0:
289,170,142065,1,10,0:3:0:0:
289,170,142144,1,8,0:3:0:0:
289,170,142223,2,0,L|282:122,2,41.9999987182618,8|8|12,0:3|0:3|0:0,0:0:0:0:
164,203,142538,1,8,0:0:0:0:
164,203,142617,1,8,0:0:0:0:
164,203,142696,6,0,L|150:117,1,83.9999974365235,6|0,1:2|0:0,0:0:0:0:
148,34,143012,2,0,P|196:45|222:74,1,83.9999974365235,10|0,0:0|0:0,0:0:0:0:
74,83,143328,2,0,B|34:58|34:58|58:187,1,167.999994873047,2|10,1:2|0:0,0:0:0:0:
100,250,143802,1,0,0:0:0:0:
73,331,143960,6,0,L|-16:322,2,83.9999974365235,0|0|8,1:2|0:0|0:0,0:0:0:0:
155,317,144433,2,0,B|199:287|199:287|311:323,1,167.999994873047,2|2,0:0|0:0,0:0:0:0:
389,346,144907,1,10,0:0:0:0:
389,346,145065,1,2,0:0:0:0:
463,307,145223,6,0,L|458:214,1,83.9999974365235,2|0,1:2|0:0,0:0:0:0:
434,142,145538,2,0,P|477:141|514:161,1,83.9999974365235,10|0,0:0|0:0,0:0:0:0:
377,210,145854,2,0,P|325:236|250:160,1,167.999994873047,2|10,1:2|0:0,0:0:0:0:
230,89,146328,1,0,0:0:0:0:
171,149,146486,5,0,1:2:0:0:
171,149,146644,2,0,L|76:162,1,83.9999974365235,2|10,0:0|0:0,0:0:0:0:
7,136,146960,1,2,0:0:0:0:
7,136,147038,1,2,0:0:0:0:
7,136,147117,2,0,P|4:177|23:215,2,83.9999974365235,2|2|10,1:2|0:0|0:0,0:0:0:0:
73,84,147591,5,2,0:0:0:0:
105,236,147749,2,0,P|101:283|88:329,1,83.9999974365235,6|0,1:2|0:0,0:0:0:0:
161,365,148065,2,0,P|203:344|250:333,1,83.9999974365235,10|0,0:0|0:0,0:0:0:0:
244,252,148381,2,0,P|205:225|171:190,1,83.9999974365235,2|0,1:2|0:0,0:0:0:0:
105,236,148696,2,0,P|101:277|91:318,1,83.9999974365235,10|0,0:0|0:0,0:0:0:0:
18,361,149012,5,10,0:0:0:0:
179,313,149328,1,10,0:0:0:0:
179,313,150275,5,6,1:2:0:0:
179,313,150433,2,0,L|188:238,2,70,2|10|2,0:0|0:0|0:0,0:0:0:0:
238,372,150907,1,10,0:0:0:0:
351,248,151223,5,10,0:0:0:0:
351,248,151381,2,0,L|342:173,2,70,2|10|2,1:2|0:0|1:2,0:0:0:0:
274,285,151854,1,10,0:0:0:0:
184,142,152170,6,0,P|175:106|185:72,1,70,10|2,0:0|1:2,0:0:0:0:
267,82,152486,2,0,P|276:118|266:152,1,70,10|2,0:0|1:2,0:0:0:0:
223,221,152802,5,10,0:0:0:0:
223,221,152960,2,0,L|142:236,2,70,2|10|2,1:2|0:0|0:0,0:0:0:0:
303,245,153433,1,10,0:0:0:0:
267,82,153749,5,10,0:0:0:0:
267,82,153907,2,0,L|186:67,2,70,2|10|2,1:2|0:0|1:2,0:0:0:0:
348,60,154381,1,10,0:0:0:0:
384,221,154696,5,10,0:0:0:0:
331,286,154854,1,2,1:2:0:0:
252,257,155012,1,10,0:0:0:0:
255,172,155170,1,2,1:2:0:0:
336,148,155328,5,6,1:2:0:0:
336,148,155486,2,0,L|409:134,2,70,2|10|2,0:0|0:0|0:0,0:0:0:0:
270,94,155960,1,10,0:0:0:0:
191,272,156275,5,10,0:0:0:0:
191,272,156433,2,0,L|118:258,2,70,2|10|2,1:2|0:0|1:2,0:0:0:0:
255,327,156907,1,10,0:0:0:0:
413,272,157223,6,0,P|426:237|421:202,1,70,10|2,0:0|1:2,0:0:0:0:
338,195,157538,2,0,P|325:230|330:265,1,70,10|2,0:0|1:2,0:0:0:0:
360,340,157854,5,14,0:0:0:0:
360,340,158012,2,0,L|434:355,2,70,2|10|2,0:0|0:0|0:0,0:0:0:0:
282,374,158486,1,10,0:0:0:0:
176,232,158802,5,10,0:0:0:0:
176,232,158960,2,0,L|103:217,2,70,2|10|2,1:2|0:0|1:2,0:0:0:0:
249,191,159433,1,14,0:0:0:0:
175,40,159749,6,0,L|168:84,3,35,2|8|10|8,1:2|0:0|0:0|0:0,0:0:0:0:
169,117,160065,2,0,L|174:151,3,35,10|0|2|0,0:0|1:2|1:2|1:2,0:0:0:0:
171,194,160381,6,0,L|160:318,2,112,6|2|2,1:2|1:2|1:2,0:0:0:0:
250,176,161170,2,0,L|311:168,2,56,2|2|2,0:0|1:2|0:0,0:0:0:0:
166,29,161802,6,0,P|130:25|88:40,2,70,2|2|2,0:0|1:2|0:0,0:0:0:0:
177,112,162275,2,0,P|143:121|108:117,1,70,2|2,1:2|0:0,0:0:0:0:
29,88,162591,1,2,1:2:0:0:
50,249,162907,6,0,P|52:306|10:346,2,112,2|2|2,1:2|1:2|1:2,0:0:0:0:
22,172,163696,2,0,L|80:164,2,56,2|2|2,0:0|1:2|0:0,0:0:0:0:
178,234,164328,6,0,P|167:196|177:158,2,70,2|2|2,0:0|1:2|0:0,0:0:0:0:
262,237,164802,2,0,P|273:199|263:161,1,70,2|2,1:2|0:0,0:0:0:0:
223,97,165117,1,2,1:2:0:0:
260,22,165275,1,8,0:0:0:0:
260,22,165354,1,8,0:0:0:0:
260,22,165433,6,0,B|303:5|303:5|398:34,2,140,6|10|2,1:2|0:0|1:2,0:0:0:0:
175,20,166223,1,2,0:0:0:0:
175,20,166381,1,10,0:0:0:0:
91,20,166538,2,0,L|106:100,1,70,2|0,0:0|1:2,0:0:0:0:
117,172,166854,6,0,P|76:169|44:145,2,70,2|10|2,0:0|0:0|0:0,0:0:0:0:
193,205,167328,1,2,1:2:0:0:
193,205,167486,1,2,0:0:0:0:
263,159,167644,2,0,L|342:165,1,70,10|0,0:0|0:0,0:0:0:0:
385,98,167960,6,0,B|415:71|415:71|423:175,2,140,2|10|2,1:2|0:0|1:2,0:0:0:0:
332,164,168749,1,2,0:0:0:0:
332,164,168907,1,10,0:0:0:0:
367,239,169065,2,0,P|397:256|436:258,1,70,2|4,0:0|1:2,0:0:0:0:
511,231,169381,6,0,L|519:144,2,70,2|10|2,0:0|0:0|0:0,0:0:0:0:
501,314,169854,1,2,1:2:0:0:
423,346,170012,1,2,0:0:0:0:
423,346,170091,1,8,0:0:0:0:
423,346,170170,2,0,L|354:344,1,70,10|8,0:0|0:0,0:0:0:0:
296,279,170486,6,0,L|212:293,1,77.0000023498536,6|0,1:2|0:0,0:0:0:0:
161,353,170802,2,0,P|138:312|142:275,1,77.0000023498536,10|0,0:0|0:0,0:0:0:0:
187,213,171117,1,2,1:2:0:0:
187,213,171275,1,2,0:0:0:0:
138,143,171433,1,10,0:0:0:0:
186,73,171591,2,0,L|268:79,1,77.0000023498536,2|0,0:0|1:2,0:0:0:0:
346,96,171907,6,0,P|345:58|321:24,2,77.0000023498536,2|10|2,0:0|0:0|0:0,0:0:0:0:
294,164,172381,1,2,1:2:0:0:
281,247,172538,1,2,0:0:0:0:
314,324,172696,2,0,L|397:340,1,77.0000023498536,10|0,0:0|0:0,0:0:0:0:
464,378,173012,6,0,P|475:338|461:299,1,77.0000023498536,2|0,1:2|0:0,0:0:0:0:
395,255,173328,2,0,L|406:175,1,77.0000023498536,10|0,0:0|0:0,0:0:0:0:
477,132,173644,1,2,1:2:0:0:
477,132,173802,1,2,0:0:0:0:
451,51,173960,1,10,0:0:0:0:
366,49,174117,2,0,L|285:56,1,77.0000023498536,2|0,0:0|1:2,0:0:0:0:
220,106,174433,6,0,P|203:62|208:27,2,77.0000023498536,2|10|2,0:0|0:0|0:0,0:0:0:0:
293,149,174907,1,2,1:2:0:0:
300,233,175065,1,2,0:0:0:0:
246,299,175223,2,0,L|164:314,1,77.0000023498536,10|0,0:0|0:0,0:0:0:0:
89,289,175538,6,0,P|84:330|99:369,1,83.9999974365235,10|10,0:0|0:0,0:0:0:0:
154,228,175854,1,6,1:2:0:0:
66,199,176012,1,0,0:0:0:0:
66,199,176091,1,8,0:0:0:0:
66,199,176170,6,0,P|32:174|-9:172,1,83.9999974365235,10|10,0:0|0:0,0:0:0:0:
89,288,176486,1,6,1:2:0:0:
162,236,176644,1,0,0:0:0:0:
162,236,176723,1,8,0:0:0:0:
162,236,176802,6,0,P|200:219|226:186,1,83.9999974365235,10|10,0:0|0:0,0:0:0:0:
207,28,177117,1,6,1:2:0:0:
121,59,177275,1,0,0:0:0:0:
121,59,177354,1,8,0:0:0:0:
121,59,177433,6,0,P|116:100|131:139,1,83.9999974365235,10|10,0:0|0:0,0:0:0:0:
269,206,177749,1,6,1:2:0:0:
283,114,177907,1,0,0:0:0:0:
283,114,177986,1,0,0:0:0:0:
283,114,178065,6,0,P|249:89|208:83,1,83.9999974365235,6|2,1:2|0:0,0:0:0:0:
357,175,178381,2,0,P|398:168|431:144,1,83.9999974365235,8|0,0:0|0:0,0:0:0:0:
269,206,178696,6,0,P|228:194|188:202,1,83.9999974365235,14|2,0:0|0:0,0:0:0:0:
340,276,179012,2,0,P|380:283|420:272,1,83.9999974365235,8|0,0:0|0:0,0:0:0:0:
249,300,179328,6,0,L|259:383,1,83.9999974365235,14|0,0:0|1:2,0:0:0:0:
168,240,179644,2,0,L|182:148,1,83.9999974365235,14|0,0:0|1:2,0:0:0:0:
83,295,179960,1,14,0:0:0:0:
21,222,180117,1,0,1:2:0:0:
21,222,180196,1,0,1:2:0:0:
21,222,180275,2,0,L|35:130,1,83.9999974365235,14|0,0:0|1:2,0:0:0:0:
101,49,180591,6,0,B|146:23|146:23|246:53,1,154.000004699707,14|10,0:0|0:0,0:0:0:0:
309,106,181065,1,10,0:0:0:0:
392,89,181223,2,0,L|380:4,2,77.0000023498536,10|10|10,0:0|0:0|0:0,0:0:0:0:
365,169,181696,6,0,L|385:326,1,154.000004699707,6|0,1:2|1:2,0:0:0:0:
458,364,182170,1,8,0:0:0:0:
506,294,182328,1,2,0:0:0:0:
506,294,182407,1,2,0:0:0:0:
506,294,182486,2,0,L|491:209,1,77.0000023498536,2|8,1:2|0:0,0:0:0:0:
480,133,182802,2,0,L|481:85,3,38.5000011749268,8|8|8|8,0:0|0:0|0:0|0:0,0:0:0:0:
460,44,183117,6,0,B|412:13|412:13|314:43,1,154.000004699707,14|10,0:0|0:0,0:0:0:0:
245,84,183591,1,10,0:0:0:0:
160,84,183749,2,0,L|145:3,2,77.0000023498536,10|10|10,0:0|0:0|0:0,0:0:0:0:
118,158,184223,6,0,P|64:172|22:84,1,154.000004699707,6|2,1:2|1:2,0:0:0:0:
52,22,184696,1,10,0:0:0:0:
52,22,184775,1,2,0:0:0:0:
52,22,184854,1,2,1:2:0:0:
126,62,185012,2,0,L|169:72,3,38.5000011749268,10|8|8|8,0:3|0:3|0:3|0:3,0:0:0:0:
206,75,185328,2,0,L|243:66,3,38.5000011749268,14|2|2|2,0:0|0:0|0:0|0:0,0:0:0:0:
294,47,185644,6,0,B|366:31|366:31|444:59,1,154.000004699707,14|10,0:0|0:0,0:0:0:0:
481,133,186117,1,10,0:0:0:0:
447,210,186275,2,0,L|366:197,2,77.0000023498536,10|10|10,0:0|0:0|0:0,0:0:0:0:
480,294,186749,1,6,1:2:0:0:
480,294,186907,6,0,P|481:342|382:354,1,154.000004699707,2|8,0:0|0:0,0:0:0:0:
320,326,187381,1,2,0:0:0:0:
320,326,187460,1,2,0:0:0:0:
320,326,187538,2,0,L|233:338,1,77.0000023498536,2|8,1:2|0:0,0:0:0:0:
161,359,187854,2,0,L|84:348,1,77.0000023498536,8|0,0:0|0:0,0:0:0:0:
15,297,188170,5,6,1:2:0:0:
215,181,188644,1,6,1:2:0:0:
7,79,189118,1,6,1:2:0:0:
126,276,189591,6,0,L|118:189,2,77.0000023498536,10|10|10,0:0|0:0|0:0,0:0:0:0:
153,356,190065,1,14,0:0:0:0:
153,356,190223,6,0,L|99:363,2,48.9999985046387,2|2|2,0:0|0:0|0:0,0:0:0:0:
203,288,190696,6,0,L|291:299,1,83.9999974365235,6|0,1:2|0:0,0:0:0:0:
368,279,191012,2,0,P|366:328|336:363,1,83.9999974365235,10|0,0:0|0:0,0:0:0:0:
306,215,191328,2,0,B|354:188|354:188|468:222,1,167.999994873047,2|10,1:2|0:0,0:0:0:0:
512,152,191802,1,0,0:0:0:0:
472,77,191960,6,0,L|481:-8,2,83.9999974365235,0|0|8,1:2|0:0|0:0,0:0:0:0:
391,101,192433,2,0,P|342:126|233:72,1,167.999994873047,2|2,0:0|0:0,0:0:0:0:
180,30,192907,1,10,0:0:0:0:
180,30,193065,1,2,0:0:0:0:
105,69,193223,6,0,L|111:156,1,83.9999974365235,2|0,1:2|0:0,0:0:0:0:
63,222,193538,2,0,P|33:188|31:143,1,83.9999974365235,10|0,0:0|0:0,0:0:0:0:
149,230,193854,2,0,B|195:264|195:264|312:232,1,167.999994873047,2|10,1:2|0:0,0:0:0:0:
371,186,194328,1,0,0:0:0:0:
450,213,194486,6,0,P|495:266|441:353,1,167.999994873047,0|8,1:2|0:0,0:0:0:0:
372,352,194960,1,2,0:0:0:0:
372,352,195038,1,2,0:0:0:0:
372,352,195117,2,0,L|281:371,2,83.9999974365235,2|2|10,1:2|0:0|0:0,0:0:0:0:
457,346,195591,1,2,0:0:0:0:
344,266,195749,6,0,L|259:283,1,83.9999974365235,6|0,1:2|0:0,0:0:0:0:
215,354,196065,2,0,P|183:318|178:274,1,83.9999974365235,10|0,0:0|0:0,0:0:0:0:
219,210,196381,2,0,B|201:87|201:87|175:125,1,167.999994873047,2|10,1:2|0:0,0:0:0:0:
126,190,196854,1,0,0:0:0:0:
61,136,197012,6,0,P|40:176|47:224,1,83.9999974365235,2|0,1:2|0:0,0:0:0:0:
103,273,197328,1,10,0:0:0:0:
222,155,197644,2,0,L|322:169,1,83.9999974365235,2|2,1:2|0:0,0:0:0:0:
385,193,197960,2,0,L|474:184,1,83.9999974365235,10|0,0:0|0:0,0:0:0:0:
507,109,198275,6,0,B|497:23|497:23|410:35,1,167.999994873047,2|14,1:2|0:0,0:0:0:0:
341,74,198749,1,2,0:0:0:0:
261,48,198907,2,0,B|208:16|208:16|100:50,1,167.999994873047,2|14,1:2|0:0,0:0:0:0:
40,101,199381,1,2,0:0:0:0:
52,187,199538,5,2,1:2:0:0:
52,187,199696,2,0,L|38:277,2,83.9999974365235,10|10|2,0:0|0:0|1:2,0:0:0:0:
119,135,200170,1,2,1:2:0:0:
225,228,200328,1,8,0:0:0:0:
225,228,200407,1,8,0:0:0:0:
225,228,200486,2,0,L|267:232,3,41.9999987182618,12|8|8|8,0:0|0:0|0:0|0:0,0:0:0:0:
308,236,200802,6,0,L|316:142,1,83.9999974365235,6|0,1:2|0:0,0:0:0:0:
376,94,201117,2,0,P|398:133|397:178,1,83.9999974365235,10|0,0:0|0:0,0:0:0:0:
295,70,201433,2,0,P|226:53|166:132,1,167.999994873047,2|10,1:2|0:0,0:0:0:0:
174,203,201907,1,0,0:0:0:0:
104,249,202065,6,0,L|18:231,2,83.9999974365235,0|0|8,1:2|0:0|0:0,0:0:0:0:
140,324,202538,2,0,P|169:365|269:325,1,167.999994873047,2|2,0:0|0:0,0:0:0:0:
289,255,203012,1,10,0:0:0:0:
289,255,203170,1,2,0:0:0:0:
350,311,203328,6,0,P|389:325|434:320,1,83.9999974365235,2|0,1:2|0:0,0:0:0:0:
510,292,203644,2,0,P|513:338|497:372,1,83.9999974365235,10|0,0:0|0:0,0:0:0:0:
439,237,203960,2,0,B|411:158|411:158|434:75,1,167.999994873047,2|10,1:2|0:0,0:0:0:0:
365,27,204433,1,0,0:0:0:0:
285,49,204591,5,0,1:2:0:0:
285,49,204749,2,0,L|193:59,1,83.9999974365235,2|10,0:0|0:0,0:0:0:0:
150,125,205065,1,2,0:0:0:0:
150,125,205144,1,2,0:0:0:0:
150,125,205223,2,0,P|122:93|120:46,2,83.9999974365235,2|2|10,1:2|0:0|0:0,0:0:0:0:
232,140,205696,5,2,0:0:0:0:
306,28,205854,2,0,L|389:41,1,83.9999974365235,6|0,1:2|0:0,0:0:0:0:
472,25,206170,2,0,P|472:74|449:107,1,83.9999974365235,10|0,0:0|0:0,0:0:0:0:
372,126,206486,2,0,L|384:214,1,83.9999974365235,2|0,1:2|1:2,0:0:0:0:
465,228,206802,2,0,L|453:316,1,83.9999974365235,10|0,0:0|1:2,0:0:0:0:
389,365,207117,5,10,0:0:0:0:
281,235,207433,1,10,0:0:0:0:
195,379,207749,6,0,L|154:372,3,41.9999987182618,2|2|2|2,0:0|0:0|0:0|0:0,0:0:0:0:
113,356,208065,2,0,L|72:363,3,41.9999987182618,2|2|2|2,0:0|0:0|0:0|0:0,0:0:0:0:
30,373,208381,6,0,P|23:328|37:277,1,83.9999974365235,6|0,1:2|0:0,0:0:0:0:
89,231,208696,2,0,P|45:210|8:214,1,83.9999974365235,10|0,0:0|0:0,0:0:0:0:
109,315,209012,2,0,B|157:345|157:345|264:308,1,167.999994873047,2|10,1:2|0:0,0:0:0:0:
328,256,209486,1,0,0:0:0:0:
409,275,209644,6,0,L|402:364,2,83.9999974365235,0|0|8,1:2|0:0|0:0,0:0:0:0:
483,236,210117,2,0,P|511:190|434:115,1,167.999994873047,2|2,0:0|0:0,0:0:0:0:
364,135,210591,1,10,0:0:0:0:
364,135,210749,1,2,0:0:0:0:
302,78,210907,6,0,L|206:70,1,83.9999974365235,2|0,1:2|0:0,0:0:0:0:
135,90,211223,2,0,P|138:45|163:9,1,83.9999974365235,10|0,0:0|0:0,0:0:0:0:
202,152,211538,2,0,B|213:270|213:270|171:237,1,167.999994873047,2|10,1:2|0:0,0:0:0:0:
102,194,212012,1,0,0:0:0:0:
23,223,212170,6,0,P|-4:278|63:365,1,167.999994873047,0|8,1:2|0:0,0:0:0:0:
131,341,212644,1,2,0:0:0:0:
131,341,212723,1,2,0:0:0:0:
131,341,212802,2,0,L|126:248,2,83.9999974365235,2|2|10,1:2|0:0|0:0,0:0:0:0:
211,363,213275,5,2,0:0:0:0:
203,226,213433,2,0,P|178:192|136:179,1,83.9999974365235,6|0,1:2|0:0,0:0:0:0:
60,210,213749,2,0,P|55:162|71:126,1,83.9999974365235,10|0,0:0|0:0,0:0:0:0:
119,62,214065,1,2,1:2:0:0:
198,112,214223,1,0,0:0:0:0:
198,112,214302,1,2,0:0:0:0:
198,112,214381,2,0,L|282:123,1,83.9999974365235,10|0,0:0|0:0,0:0:0:0:
342,180,214696,6,0,P|364:144|360:96,1,83.9999974365235,2|0,1:2|0:0,0:0:0:0:
308,38,215012,1,10,0:0:0:0:
474,15,215328,2,0,L|489:104,1,83.9999974365235,2|2,1:2|0:0,0:0:0:0:
477,182,215644,2,0,L|462:271,1,83.9999974365235,10|0,0:0|0:0,0:0:0:0:
476,348,215960,6,0,P|427:377|346:311,1,167.999994873047,2|14,1:2|0:0,0:0:0:0:
289,257,216433,1,2,0:0:0:0:
260,336,216591,2,0,B|156:313|200:372|92:340,1,167.999994873047,2|14,1:2|0:0,0:0:0:0:
15,317,217065,1,2,0:0:0:0:
8,233,217223,5,2,1:2:0:0:
84,198,217381,1,10,0:0:0:0:
84,198,217460,1,8,0:0:0:0:
84,198,217538,2,0,L|129:205,2,41.9999987182618,10|8|10,0:0|0:0|0:0,0:0:0:0:
20,141,217854,1,10,0:0:0:0:
20,141,217933,1,8,0:0:0:0:
20,141,218012,1,8,0:0:0:0:
20,141,218091,1,8,0:0:0:0:
20,141,218170,2,0,L|14:93,3,41.9999987182618,8|8|8|8,0:0|0:0|0:0|0:0,0:0:0:0:
10,56,218486,6,0,L|99:52,1,83.9999974365235,6|0,1:2|0:0,0:0:0:0:
172,84,218802,2,0,P|177:37|156:-1,1,83.9999974365235,10|0,0:0|0:0,0:0:0:0:
102,134,219117,2,0,B|115:261|115:261|141:226,1,167.999994873047,2|10,1:2|0:0,0:0:0:0:
206,177,219591,1,0,0:0:0:0:
285,203,219749,6,0,L|291:295,2,83.9999974365235,0|0|8,1:2|0:0|0:0,0:0:0:0:
349,148,220223,2,0,P|396:115|457:198,1,167.999994873047,2|2,0:0|0:0,0:0:0:0:
424,257,220696,1,10,0:0:0:0:
424,257,220854,1,2,0:0:0:0:
455,334,221012,6,0,P|411:340|369:317,1,83.9999974365235,6|0,1:2|0:0,0:0:0:0:
337,248,221328,2,0,L|245:261,1,83.9999974365235,10|0,0:0|0:0,0:0:0:0:
162,358,221644,2,0,P|99:362|94:262,1,167.999994873047,2|10,1:2|0:0,0:0:0:0:
135,210,222117,1,0,0:0:0:0:
88,139,222275,5,0,1:2:0:0:
88,139,222433,2,0,L|99:51,1,83.9999974365235,2|10,0:0|0:0,0:0:0:0:
186,90,222749,1,2,0:0:0:0:
186,90,222828,1,2,0:0:0:0:
186,90,222907,2,0,P|218:122|267:130,2,83.9999974365235,2|2|10,1:2|0:0|0:0,0:0:0:0:
161,0,223381,1,2,0:0:0:0:
301,61,223538,5,14,1:2:0:0:
487,317,224802,5,14,0:0:0:0:
172,351,226065,5,14,0:0:0:0:
368,162,227328,5,8,0:0:0:0:
317,322,227644,1,8,0:0:0:0:
317,322,228591,6,0,B|271:286|271:286|155:315,1,167.999994873047,14|8,0:0|0:0,0:0:0:0:
105,372,229065,2,0,P|80:327|85:283,1,83.9999974365235,2|8,0:0|0:0,0:0:0:0:
136,231,229381,1,2,1:2:0:0:
136,231,229538,1,10,0:0:0:0:
119,148,229696,1,2,1:2:0:0:
35,136,229854,6,0,L|45:228,1,83.9999974365235,8|2,0:0|1:2,0:0:0:0:
80,295,230170,2,0,P|117:318|165:311,1,83.9999974365235,10|2,0:0|1:2,0:0:0:0:
218,257,230486,1,10,0:0:0:0:
242,337,230644,1,0,1:2:0:0:
218,257,230802,2,0,L|216:172,1,83.9999974365235,10|0,0:0|1:2,0:0:0:0:
261,47,231117,6,0,B|308:73|308:73|419:39,1,167.999994873047,10|8,0:0|0:0,0:0:0:0:
494,0,231591,2,0,P|504:46|490:87,1,83.9999974365235,2|8,0:0|0:0,0:0:0:0:
434,140,231907,1,2,1:2:0:0:
470,215,232065,1,10,0:0:0:0:
409,272,232223,1,2,1:2:0:0:
335,231,232381,6,0,L|248:241,1,83.9999974365235,8|0,0:0|1:2,0:0:0:0:
176,202,232696,2,0,P|165:250|180:293,1,83.9999974365235,10|2,0:0|1:2,0:0:0:0:
240,335,233012,1,10,0:0:0:0:
163,370,233170,1,2,1:2:0:0:
163,370,233249,1,0,1:2:0:0:
163,370,233328,1,10,0:0:0:0:
85,312,233486,1,2,1:2:0:0:
176,202,233644,6,0,P|194:129|105:99,1,167.999994873047,14|8,0:0|0:0,0:0:0:0:
65,21,234117,2,0,P|33:56|25:96,1,83.9999974365235,2|8,0:0|0:0,0:0:0:0:
25,175,234433,1,2,1:2:0:0:
25,175,234591,1,10,0:0:0:0:
66,247,234749,1,2,1:2:0:0:
110,175,234907,6,0,L|201:186,1,83.9999974365235,8|2,0:0|1:2,0:0:0:0:
251,246,235223,2,0,P|275:207|272:163,1,83.9999974365235,10|2,0:0|1:2,0:0:0:0:
221,104,235538,1,10,0:0:0:0:
228,20,235696,1,0,1:2:0:0:
221,104,235854,2,0,L|137:93,1,83.9999974365235,10|0,0:0|1:2,0:0:0:0:
31,35,236170,6,0,B|-16:16|-16:16|8:138,1,167.999994873047,10|8,0:0|0:0,0:0:0:0:
46,205,236644,2,0,L|31:299,1,83.9999974365235,2|8,0:0|0:0,0:0:0:0:
96,343,236960,1,2,1:2:0:0:
178,355,237117,1,10,0:0:0:0:
258,332,237275,1,2,1:2:0:0:
311,266,237433,6,0,L|399:274,1,83.9999974365235,8|0,0:0|1:2,0:0:0:0:
463,322,237749,2,0,P|480:281|473:239,1,83.9999974365235,10|2,0:0|1:2,0:0:0:0:
407,191,238065,2,0,L|355:187,3,41.9999987182618,8|8|10|8,0:0|0:0|0:0|0:0,0:0:0:0:
322,186,238381,2,0,L|280:189,3,41.9999987182618,10|8|6|4,0:0|0:3|0:3|0:3,0:0:0:0:
240,202,238696,6,0,P|160:187|89:236,1,167.999994873047,14|0,0:0|1:2,0:0:0:0:
106,315,239170,2,0,P|186:330|257:281,1,167.999994873047,14|0,0:0|1:2,0:0:0:0:
323,235,239644,2,0,L|415:240,1,83.9999974365235,14|0,0:0|0:0,0:0:0:0:
461,174,239960,6,0,B|485:120|454:73|454:73|407:102|355:92,1,210,12|0,0:0|0:0,0:0:0:0:
282,54,240591,6,0,L|219:62,1,56,2|2,0:0|0:0,0:0:0:0:
238,141,240907,2,0,L|182:133,1,56,2|2,0:0|0:0,0:0:0:0:
139,64,241223,1,14,0:0:0:0:
