osu file format v14

[General]
AudioFilename: audio.mp3
AudioLeadIn: 0
PreviewTime: 51034
Countdown: 0
SampleSet: Soft
StackLeniency: 0.6
Mode: 0
LetterboxInBreaks: 0
WidescreenStoryboard: 1

[Editor]
Bookmarks: 7506,13625,26454,39085,45401,51717,64348,83098,90993,95927
DistanceSpacing: 0.9
BeatDivisor: 4
GridSize: 8
TimelineZoom: 2.5

[Metadata]
Title:Blue Bird
TitleUnicode:ブルーバード
Artist:Poppin'Party
ArtistUnicode:Poppin'Party
Creator:-Mikan
Version:Normal
Source:バンドリ!ガールズバンドパーティ!
Tags:Blitzifyyy Froskya Revialink いきものがかり Ikimono-gakari NARUTO -ナルト- 疾風伝 Shippuden Anime Japanese Video Game size Sasuke popipa ポピパ ポッピン パーティー 戸山香澄 Toyama Kasumi 愛美 Aimi 山吹 沙綾 Yamabuki Saaya 大橋彩香 Ohashi Ayaka 牛込 りみ Ushigome Rimi 西本 りみ Nishimoto 花園 たえ Hanazono Tae 大塚紗英 Otsuka Sae 市ヶ谷有咲 Ichigaya Arisa 伊藤 彩沙 Itou Ayasa BanG Dream! Girls Band Party! Garupa Bandori! ガルパ!
BeatmapID:2223075
BeatmapSetID:1061601

[Difficulty]
HPDrainRate:4
CircleSize:3.2
OverallDifficulty:4.3
ApproachRate:5
SliderMultiplier:1.2
SliderTickRate:1

[Events]
//Background and Video events
0,0,"08piqQhAZnM.jpg",0,0
Video,-363,"Poppin'Party - Blue Bird.avi"
//Break Periods
//Storyboard Layer 0 (Background)
//Storyboard Layer 1 (Fail)
//Storyboard Layer 2 (Pass)
//Storyboard Layer 3 (Foreground)
//Storyboard Layer 4 (Overlay)
//Storyboard Sound Samples

[TimingPoints]
-388,394.736842105263,4,2,1,50,1,0
598,-100,4,2,1,50,0,0
1190,-100,4,2,1,50,0,0
3756,-100,4,2,1,50,0,0
4348,-100,4,2,1,50,0,0
7506,-100,4,2,1,60,0,0
7516,400,4,2,1,50,1,0
8316,405.405405405405,4,2,1,60,1,0
8316,-100,4,2,1,60,0,0
8888,394.736842105263,4,2,1,60,1,0
9085,394.736842105263,4,2,1,60,1,0
9085,-100,4,2,1,60,0,0
10072,-100,4,2,1,70,0,0
10861,-100,4,2,1,80,0,0
11651,-100,4,2,1,90,0,0
12046,-100,4,2,1,60,0,0
13624,-100,4,2,1,80,0,1
21529,394.736842105263,4,2,1,80,1,1
21725,394.736842105263,4,2,1,80,1,1
25467,-100,4,2,1,70,0,1
26461,-100,4,2,1,50,0,0
39085,-100,4,2,1,60,0,0
40664,-100,4,2,1,60,0,0
43822,-100,4,2,1,80,0,0
44217,-100,4,2,1,60,0,0
45401,-100,4,2,1,70,0,0
48756,-100,4,2,1,80,0,0
49940,-100,4,2,1,90,0,0
51125,-100,4,2,1,70,0,0
51724,-100,4,2,1,91,0,1
56256,-100,4,2,1,91,0,1
56651,-100,4,2,1,91,0,1
79940,-100,4,2,1,91,0,1
80730,-100,4,2,1,91,0,1
83106,-100,4,2,1,80,0,0
90993,-100,4,2,1,70,0,0
95927,-100,4,2,1,5,0,0

[Colours]
Combo1 : 255,223,125
Combo2 : 255,184,149
Combo3 : 255,130,130
Combo4 : 192,131,131

[HitObjects]
54,336,598,6,0,B|38:310|38:310|42:277,2,60,0|0|0,0:0|0:0|0:0,0:0:0:0:
97,367,1190,2,0,P|137:333|206:341,1,120,2|0,0:0|0:0,0:0:0:0:
287,272,1980,2,0,P|237:254|209:190,1,120,2|0,0:0|0:0,0:0:0:0:
228,145,2572,2,0,P|245:96|105:92,1,240,0|0,0:0|0:0,0:0:0:0:
65,167,3756,6,0,L|-9:159,2,60,0|0|0,0:0|0:0|0:0,0:0:0:0:
89,215,4348,2,0,B|164:201|137:255|224:235,1,120,2|0,0:0|0:0,0:0:0:0:
286,307,5138,2,0,P|328:298|410:288,1,120,2|0,0:0|0:0,0:0:0:0:
458,295,5730,1,2,0:0:0:0:
498,194,6125,2,0,P|490:136|378:125,1,180,2|0,0:0|0:0,0:0:0:0:
351,160,6914,6,0,P|304:151|264:147,1,60,0|0,0:0|0:0,0:0:0:0:
257,107,7309,1,0,0:0:0:0:
257,107,7516,2,0,B|198:114|198:114|185:130|185:130|134:141,1,120,6|0,3:2|3:0,0:0:0:0:
80,224,8316,2,0,B|133:230|133:230|145:244|145:244|192:255,1,120,2|0,3:2|3:0,0:0:0:0:
217,302,8888,1,2,3:2:0:0:
217,302,9085,1,0,3:2:0:0:
317,262,9480,6,0,P|326:327|325:347,1,60,8|8,0:0|0:0,0:0:0:0:
318,374,9875,1,8,3:2:0:0:
424,357,10269,2,0,P|433:292|432:272,1,60,8|10,3:2|0:0,0:0:0:0:
425,245,10664,1,8,3:2:0:0:
489,158,11059,2,0,L|412:149,1,60,8|10,3:2|0:0,0:0:0:0:
390,113,11454,1,8,3:2:0:0:
327,25,11848,5,8,3:2:0:0:
327,25,12046,2,0,L|250:34,1,60,6|0,3:2|0:0,0:0:0:0:
229,69,12440,1,10,0:0:0:0:
229,69,12638,2,0,B|165:66|183:26|101:33,1,120,10|10,0:0|0:1,0:0:0:0:
34,101,13427,5,0,3:0:0:0:
61,147,13625,2,2,P|52:219|48:278,1,120,6|0,3:1|3:0,0:1:0:0:
67,316,14217,1,2,1:3:0:0:
174,324,14611,2,0,P|182:354|188:394,2,60,0|0|2,3:0|3:0|1:3,0:0:0:0:
197,275,15204,2,2,B|242:257|278:282|278:282|309:338|366:323,1,180,2|2,3:1|1:3,0:1:0:0:
439,258,16190,2,0,B|419:226|419:226|428:191,1,60,0|0,3:0|3:0,0:0:0:0:
466,169,16585,1,2,1:3:0:0:
466,169,16783,6,2,B|414:163|414:163|385:179|385:179|335:174,1,120,2|0,3:1|3:0,0:1:0:0:
305,145,17375,1,2,1:3:0:0:
297,37,17769,2,0,L|362:27,2,60,0|0|2,3:0|3:0|1:3,0:0:0:0:
248,13,18361,2,2,P|199:14|167:132,1,180,6|2,3:1|1:3,0:1:0:0:
199,158,19151,1,2,3:1:0:0:
97,195,19546,1,8,3:0:0:0:
76,244,19743,1,8,3:0:0:0:
105,280,19940,6,2,P|173:273|211:319,1,120,6|0,3:1|3:0,0:1:0:0:
207,360,20533,1,2,1:3:0:0:
310,331,20927,2,0,P|325:288|324:255,1,60,0|0,3:0|3:0,0:0:0:0:
302,225,21322,1,2,1:3:0:0:
302,225,21529,2,2,B|379:217|355:258|435:247,1,120,2|0,3:1|3:0,0:1:0:0:
466,226,22119,1,2,1:3:0:0:
466,226,22317,1,2,3:1:0:0:
418,128,22711,6,0,L|431:63,1,60,0|2,3:0|1:3,0:0:0:0:
396,26,23106,2,2,B|338:24|338:24|307:63|307:63|229:59,1,180,6|2,3:1|1:3,0:1:0:0:
128,78,24093,2,0,B|112:53|112:53|124:21,2,60,0|0|2,3:0|3:0|1:3,0:0:0:0:
85,111,24685,2,2,P|99:175|107:233,1,120,6|4,3:1|0:3,0:1:0:0:
46,318,25475,6,2,B|107:315|107:315|148:345|148:345|233:341,1,180,6|8,1:0|0:0,0:1:0:0:
254,304,26264,1,8,0:3:0:0:
254,304,26462,1,4,3:1:0:0:
352,347,26856,5,0,0:0:0:0:
456,317,27251,1,0,0:0:0:0:
473,210,27646,2,0,L|401:198,2,60,0|0|2,0:0|3:0|3:2,0:0:0:0:
510,108,28435,5,0,0:0:0:0:
425,40,28830,1,0,0:0:0:0:
325,80,29225,2,0,L|337:145,2,60,2|0|2,0:0|3:0|3:2,0:0:0:0:
222,45,30014,5,2,0:0:0:0:
138,113,30409,1,0,0:0:0:0:
35,79,30804,2,0,L|44:18,2,60,2|0|2,0:0|3:0|3:2,0:0:0:0:
76,178,31593,5,2,0:0:0:0:
76,178,31791,2,0,L|67:246,1,60,2|0,3:2|0:0,0:0:0:0:
99,281,32185,2,0,L|89:345,2,60,2|2|2,3:0|0:0|0:3,0:0:0:0:
148,258,32777,1,2,3:2:0:0:
231,327,33172,5,2,0:0:0:0:
336,302,33567,1,0,0:0:0:0:
438,268,33962,2,0,P|448:217|441:187,1,60,2|0,0:0|3:0,0:0:0:0:
414,166,34356,1,2,3:2:0:0:
307,186,34751,5,2,0:0:0:0:
200,165,35146,1,2,0:0:0:0:
93,144,35541,2,0,P|83:90|89:62,1,60,2|2,0:0|0:0,0:0:0:0:
112,39,35935,1,0,3:2:0:0:
216,65,36330,5,2,0:0:0:0:
322,46,36725,1,2,0:0:0:0:
424,14,37119,2,0,P|414:79|413:93,1,60,2|0,0:0|3:0,0:0:0:0:
436,122,37514,1,2,3:2:0:0:
483,218,37909,6,0,P|493:283|494:297,1,60,2|2,0:0|3:2,0:0:0:0:
453,315,38304,2,0,L|384:308,1,60,2|2,0:0|3:2,0:0:0:0:
342,327,38698,1,4,3:0:0:0:
238,301,39093,5,4,3:1:0:0:
152,366,39488,2,0,L|80:357,1,60,0|8,3:0|3:3,0:0:0:0:
26,273,40080,1,0,3:0:0:0:
26,273,40277,2,0,L|98:264,1,60,8|0,3:3|3:0,0:0:0:0:
129,233,40672,2,0,B|115:187|115:187|133:164|131:125,2,90,4|8|4,3:0|3:0|3:0,0:0:0:0:
224,282,41659,6,0,L|297:269,1,60,8|8,3:0|3:0,0:0:0:0:
331,296,42054,1,0,3:0:0:0:
331,296,42251,1,4,3:1:0:0:
417,231,42646,2,0,L|425:157,1,60,0|8,3:0|3:0,0:0:0:0:
359,84,43238,1,0,3:0:0:0:
359,84,43435,2,0,L|285:76,1,60,0|0,3:0|3:0,0:0:0:0:
283,26,43830,1,4,1:2:0:0:
181,63,44225,5,0,3:0:0:0:
181,63,44422,2,0,P|129:69|106:180,1,180,8|0,0:0|1:0,0:0:0:0:
66,278,45409,6,0,B|110:271|110:271|136:284|136:284|190:276,1,120,4|8,3:1|0:0,0:0:0:0:
219,316,46001,2,0,B|263:323|263:323|289:310|289:310|343:318,1,120,2|2,0:0|0:0,0:0:0:0:
430,368,46791,2,0,P|459:316|426:263,1,120,2|2,0:0|0:0,0:0:0:0:
452,160,47580,1,2,0:0:0:0:
452,160,47777,2,0,P|423:108|456:55,1,120,0|8,3:0|3:0,0:0:0:0:
344,33,48567,5,4,3:0:0:0:
344,33,48764,2,0,P|287:23|265:20,1,60,4|0,1:2|1:0,0:0:0:0:
240,57,49159,2,0,L|255:128,2,60,0|8|8,3:0|3:0|0:0,0:0:0:0:
187,42,49751,1,0,1:0:0:0:
187,42,49948,2,0,B|117:17|122:71|46:47,1,120,4|0,3:2|3:0,0:0:0:0:
17,42,50541,2,0,P|10:102|10:126,1,60,0|0,1:0|1:0,0:0:0:0:
23,153,50935,1,4,1:0:0:0:
59,254,51330,1,0,1:0:0:0:
98,354,51725,6,0,B|128:359|149:341|149:341|205:330|220:376,1,120,4|2,1:0|1:3,0:0:0:0:
304,304,52514,2,0,L|294:244,2,60,2|0|2,3:2|3:0|1:3,0:0:0:0:
344,339,53106,2,0,P|426:337|449:292,1,120,2|0,3:2|3:0,0:0:0:0:
435,258,53698,1,2,1:3:0:0:
495,168,54093,1,0,3:0:0:0:
495,168,54291,2,0,L|484:90,1,60,2|2,3:2|1:3,0:0:0:0:
486,54,54685,1,2,0:0:0:0:
486,54,54883,6,0,B|428:50|402:34|402:34|370:45|367:56,1,120,2|2,3:2|1:3,0:0:0:0:
276,98,55672,2,0,P|300:163|302:180,1,60,2|0,3:2|3:0,0:0:0:0:
282,205,56067,1,2,1:3:0:0:
282,205,56264,1,2,3:2:0:0:
194,268,56659,2,0,P|169:242|70:235,1,120,2|0,3:2|0:0,0:0:0:0:
50,266,57251,1,0,3:0:0:0:
50,266,57448,2,0,P|67:317|73:342,2,60,2|2|2,3:2|1:3|0:0,0:0:0:0:
11,227,58041,6,0,P|-16:178|28:116,1,120,6|2,3:2|1:3,0:0:0:0:
71,35,58830,2,0,P|118:55|148:58,1,60,2|0,3:2|3:0,0:0:0:0:
178,42,59225,1,2,1:3:0:0:
178,42,59422,2,0,B|245:24|234:73|308:52,1,120,2|0,3:2|3:0,0:0:0:0:
335,20,60014,1,2,1:3:0:0:
408,99,60409,5,0,3:2:0:0:
408,99,60606,2,0,L|481:90,2,60,2|2|2,3:2|1:3|0:0,0:0:0:0:
375,142,61198,1,0,3:2:0:0:
375,142,61396,2,0,L|302:133,2,60,2|2|2,3:2|1:3|3:2,0:0:0:0:
415,178,61988,1,0,3:0:0:0:
415,178,62185,2,0,P|402:224|391:313,1,120,2|4,3:2|3:1,0:0:0:0:
309,365,62975,5,2,3:2:0:0:
309,365,63172,2,0,P|266:314|211:327,1,120,2|2,1:3|0:0,0:0:0:0:
169,299,63764,2,0,P|133:333|101:339,1,60,2|2,3:2|1:3,0:0:0:0:
69,332,64159,1,8,0:0:0:0:
69,332,64356,6,0,B|65:286|65:286|46:263|46:263|44:220,1,120,4|2,3:1|1:3,0:0:0:0:
69,113,65146,2,0,P|53:83|52:41,2,60,2|0|2,3:2|3:0|1:3,0:0:0:0:
119,133,65738,2,0,B|154:131|180:115|180:115|224:120|228:155,1,120,2|0,3:2|3:0,0:0:0:0:
218,196,66330,1,2,1:3:0:0:
279,285,66725,2,0,B|305:272|305:272|347:275,1,60,0|2,3:0|3:2,0:0:0:0:
372,313,67119,2,0,B|398:326|398:326|440:323,1,60,2|2,1:3|0:0,0:0:0:0:
471,289,67514,6,0,L|459:159,1,120,2|2,3:2|1:3,0:0:0:0:
493,66,68304,2,0,B|505:41|505:41|500:4,2,60,2|0|2,3:2|3:0|1:3,0:0:0:0:
439,76,68896,2,0,B|394:60|394:60|353:72|353:72|318:59,1,120,2|2,3:2|3:2,0:0:0:0:
290,20,69488,1,2,1:3:0:0:
190,62,69883,2,0,L|200:134,1,60,0|2,3:0|3:2,0:0:0:0:
232,162,70277,2,0,L|222:235,1,60,2|8,1:3|0:0,0:0:0:0:
187,261,70672,6,0,P|113:256|95:220,1,120,6|2,3:2|1:3,0:0:0:0:
73,115,71462,2,0,P|52:88|47:54,1,60,2|0,3:2|3:0,0:0:0:0:
76,18,71856,1,2,1:3:0:0:
76,18,72054,2,0,B|149:11|126:53|200:47,1,120,2|0,3:2|3:0,0:0:0:0:
235,18,72646,1,2,1:3:0:0:
329,69,73041,5,0,3:0:0:0:
329,69,73238,2,0,P|319:120|320:151,2,60,2|2|2,3:2|1:3|0:0,0:0:0:0:
382,58,73830,1,0,3:0:0:0:
382,58,74027,2,0,P|372:7|373:-24,2,60,2|2|2,3:2|1:3|3:2,0:0:0:0:
429,84,74619,1,0,3:0:0:0:
429,84,74817,2,0,P|486:95|501:165,1,120,2|4,3:2|3:1,0:0:0:0:
439,233,75606,5,2,3:2:0:0:
439,233,75804,1,2,1:3:0:0:
350,295,76198,1,0,3:0:0:0:
350,295,76396,2,0,P|360:347|362:369,2,60,10|2|2,0:0|1:3|3:2,0:0:0:0:
304,265,76988,1,4,3:1:0:0:
304,265,77185,2,0,P|308:235|314:206,2,60,2|2|2,3:2|1:3|0:0,0:0:0:0:
256,291,77777,1,0,3:0:0:0:
256,291,77975,2,0,P|203:284|171:284,1,60,2|2,3:2|1:3,0:0:0:0:
143,293,78369,5,6,3:2:0:0:
45,245,78764,1,2,3:2:0:0:
67,195,78962,2,0,P|49:139|48:120,1,60,2|0,1:3|3:0,0:0:0:0:
74,90,79356,1,0,3:0:0:0:
128,92,79554,2,0,P|139:46|158:23,1,60,10|10,0:0|0:0,0:0:0:0:
196,18,79948,1,4,3:1:0:0:
278,87,80343,2,0,P|332:95|358:93,1,60,2|2,3:2|1:3,0:0:0:0:
380,79,80738,1,4,3:2:0:0:
473,141,81133,5,10,0:0:0:0:
511,178,81330,1,10,0:0:0:0:
475,218,81527,2,0,B|428:220|428:220|407:240|407:240|350:242,1,120,4|10,3:1|0:0,0:0:0:0:
326,281,82119,2,0,L|343:348,1,60,10|8,0:0|0:0,0:0:0:0:
291,361,82514,1,10,0:0:0:0:
196,309,82909,5,10,0:0:0:0:
156,344,83106,2,2,P|111:353|26:365,1,120,4|0,3:1|3:0,0:1:0:0:
2,322,83698,1,2,1:3:0:0:
2,322,83896,2,2,P|14:253|79:247,1,120,2|0,3:1|3:0,0:1:0:0:
128,160,84685,2,2,P|62:129|66:76,1,120,6|0,3:1|3:0,0:1:0:0:
91,45,85277,1,2,1:3:0:0:
91,45,85475,2,2,P|163:48|217:51,1,120,2|0,3:1|3:0,0:1:0:0:
308,96,86264,6,2,B|352:101|389:70|389:70|452:80|439:139,1,180,6|2,3:1|1:3,0:1:0:0:
468,178,87054,1,2,3:1:0:0:
468,178,87251,2,0,P|451:219|445:248,1,60,0|0,3:0|3:0,0:0:0:0:
453,287,87646,1,2,1:3:0:0:
453,287,87843,1,4,3:2:0:0:
369,355,88238,2,0,P|319:343|284:339,1,60,0|2,3:0|1:3,0:0:0:0:
277,299,88633,2,2,P|250:348|173:360,1,120,4|8,3:2|3:0,0:1:0:0:
149,330,89225,1,4,3:0:0:0:
149,330,89422,1,4,3:1:0:0:
85,242,89817,6,0,P|17:257|0:257,2,60,8|0|0,0:0|3:0|0:0,0:0:0:0:
111,194,90409,1,8,0:0:0:0:
111,194,90606,2,0,L|117:127,1,60,8|4,3:0|3:0,0:0:0:0:
122,80,91001,1,6,3:1:0:0:
256,192,91198,12,0,95935,0:0:0:0:
